osu file format v14

[General]
AudioFilename: audio.mp3
AudioLeadIn: 0
PreviewTime: 107246
Countdown: 0
SampleSet: None
StackLeniency: 0.7
Mode: 0
LetterboxInBreaks: 0
WidescreenStoryboard: 0

[Editor]
DistanceSpacing: 2
BeatDivisor: 4
GridSize: 8
TimelineZoom: 0.9000001

[Metadata]
Title:The Longest Night
TitleUnicode:The Longest Night
Artist:Euchaeta
ArtistUnicode:Euchaeta
Creator:BAldoTridentE
Version:Infinite
Source:VOEZ
Tags:
BeatmapID:1034738
BeatmapSetID:485203

[Difficulty]
HPDrainRate:6
CircleSize:3
OverallDifficulty:7
ApproachRate:9
SliderMultiplier:2.2
SliderTickRate:1

[Events]
//Background and Video events
0,0,"thelongest.jpg",0,0
//Break Periods
//Storyboard Layer 0 (Background)
//Storyboard Layer 1 (Fail)
//Storyboard Layer 2 (Pass)
//Storyboard Layer 3 (Foreground)
//Storyboard Sound Samples

[TimingPoints]
1773,631.578947368421,4,2,0,70,1,0
4299,-66.6666666666667,4,2,0,70,0,0
67457,-100,4,2,0,70,0,0
87667,-66.6666666666667,4,2,0,70,0,1
107246,-66.6666666666667,4,2,0,70,0,0
107878,-50,4,2,0,70,0,1
128088,-66.6666666666667,4,2,0,70,0,0
168509,-100,4,2,0,70,0,0

[HitObjects]
144,208,4299,5,0,0:0:0:0:
248,80,4615,1,0,0:0:0:0:
320,224,4930,2,0,L|480:120,1,165
296,320,5562,5,0,0:0:0:0:
176,328,5720,1,0,0:0:0:0:
72,264,5878,1,0,0:0:0:0:
64,144,6036,1,0,0:0:0:0:
96,24,6194,1,0,0:0:0:0:
184,112,6351,1,0,0:0:0:0:
64,144,6509,1,0,0:0:0:0:
360,320,6825,5,0,0:0:0:0:
464,192,7141,1,0,0:0:0:0:
304,232,7457,2,0,L|328:40,1,165.000006294251
80,72,8088,5,0,0:0:0:0:
64,192,8246,1,0,0:0:0:0:
128,296,8404,1,0,0:0:0:0:
240,344,8562,1,0,0:0:0:0:
360,344,8720,1,0,0:0:0:0:
304,232,8878,1,0,0:0:0:0:
240,344,9036,1,0,0:0:0:0:
88,48,9351,5,0,0:0:0:0:
112,208,9667,1,0,0:0:0:0:
248,112,9983,2,0,L|208:312,1,165.000006294251
360,72,10615,5,0,0:0:0:0:
424,176,10773,1,0,0:0:0:0:
392,296,10930,1,0,0:0:0:0:
280,344,11088,1,0,0:0:0:0:
160,320,11246,1,0,0:0:0:0:
240,224,11404,1,0,0:0:0:0:
280,344,11562,1,0,0:0:0:0:
88,72,11878,5,0,0:0:0:0:
248,32,12194,1,0,0:0:0:0:
216,192,12509,2,0,L|64:280,1,165.000006294251
312,352,13141,5,0,0:0:0:0:
424,296,13299,1,0,0:0:0:0:
480,184,13457,1,0,0:0:0:0:
472,64,13615,1,0,0:0:0:0:
352,32,13773,1,0,0:0:0:0:
384,152,13930,1,0,0:0:0:0:
472,64,14088,1,0,0:0:0:0:
272,328,14404,5,0,0:0:0:0:
432,280,14720,1,0,0:0:0:0:
288,208,15036,2,0,L|432:96,1,165.000006294251
176,64,15667,6,0,L|64:128,1,82.5000031471254
64,224,15983,2,0,L|128:144,1,82.5000031471254
80,280,16299,2,0,L|64:360,1,82.5000031471254
88,240,16615,1,0,0:0:0:0:
360,48,16930,5,0,0:0:0:0:
288,200,17246,1,0,0:0:0:0:
416,312,17562,2,0,L|440:136,1,165.000006294251
264,328,18194,6,0,L|176:272,1,82.5000031471254
152,168,18509,2,0,L|200:256,1,82.5000031471254
168,120,18825,2,0,L|184:16,1,82.5000031471254
160,160,19141,1,0,0:0:0:0:
448,320,19457,5,0,0:0:0:0:
288,288,19773,1,0,0:0:0:0:
280,120,20088,2,0,L|424:200,1,165.000006294251
216,64,20720,6,0,L|184:168,1,82.5000031471254
200,264,21036,2,0,L|168:160,1,82.5000031471254
208,304,21351,2,0,L|176:384,1,82.5000031471254
224,264,21667,1,0,0:0:0:0:
464,32,21983,5,0,0:0:0:0:
304,56,22299,1,0,0:0:0:0:
360,208,22615,2,0,L|184:152,1,165.000006294251
376,336,23246,6,0,L|296:280,1,82.5000031471254
192,240,23562,2,0,L|288:312,1,82.5000031471254
184,192,23878,2,0,L|104:128,1,82.5000031471254
256,48,24194,1,0,0:0:0:0:
448,208,24509,2,0,L|304:96,1,165.000006294251
216,32,24983,1,0,0:0:0:0:
176,152,25141,2,0,P|104:104|96:32,1,165.000006294251
136,272,25773,5,0,0:0:0:0:
224,360,25930,1,0,0:0:0:0:
256,240,26088,1,0,0:0:0:0:
352,160,26246,2,0,L|424:96,2,82.5000031471254
256,240,26720,1,0,0:0:0:0:
40,112,27036,6,0,L|216:216,1,165.000006294251
288,264,27509,1,0,0:0:0:0:
408,296,27667,2,0,P|384:184|320:144,1,165.000006294251
120,64,28299,5,0,0:0:0:0:
136,184,28457,1,0,0:0:0:0:
240,120,28615,1,0,0:0:0:0:
256,240,28773,2,0,L|304:328,1,82.5000031471254
416,336,29088,2,0,L|376:256,1,82.5000031471254
264,40,29562,6,0,L|344:200,1,165.000006294251
392,296,30036,1,0,0:0:0:0:
270,314,30194,2,0,P|278:226|342:186,1,165.000006294251
88,200,30825,5,0,0:0:0:0:
128,80,30983,1,0,0:0:0:0:
208,176,31141,1,0,0:0:0:0:
328,136,31299,2,0,L|416:104,2,82.5000031471254
208,176,31773,1,0,0:0:0:0:
400,336,32088,6,0,L|232:200,1,165.000006294251
168,160,32562,1,0,0:0:0:0:
48,152,32720,2,0,P|72:72|144:40,1,165.000006294251
296,232,33351,5,0,0:0:0:0:
312,112,33509,1,0,0:0:0:0:
408,192,33667,1,0,0:0:0:0:
336,296,33825,2,0,L|272:384,1,82.5000031471254
224,256,34141,2,0,L|296:152,1,82.5000031471254
264,168,34378,1,0,0:0:0:0:
256,152,34457,1,0,0:0:0:0:
216,32,34615,6,0,P|136:96|144:192,1,165.000006294251
136,264,35088,1,0,0:0:0:0:
256,224,35246,2,0,L|448:176,1,165.000006294251
224,336,35878,5,0,0:0:0:0:
344,304,36036,1,0,0:0:0:0:
256,224,36194,1,0,0:0:0:0:
136,232,36351,2,0,L|80:128,1,82.5000031471254
88,32,36667,2,0,L|136:120,1,82.5000031471254
184,216,36983,1,0,0:0:0:0:
304,176,37141,6,0,L|472:120,1,165.000006294251
408,240,37615,1,0,0:0:0:0:
323,323,37773,2,0,P|283:251|307:171,1,165.000006294251
56,192,38404,5,0,0:0:0:0:
104,80,38562,1,0,0:0:0:0:
176,176,38720,1,0,0:0:0:0:
56,192,38878,1,0,0:0:0:0:
104,80,39036,1,0,0:0:0:0:
176,184,39194,1,0,0:0:0:0:
256,280,39351,1,0,0:0:0:0:
384,72,39667,6,0,L|280:248,1,165.000006294251
240,320,40141,1,0,0:0:0:0:
120,336,40299,2,0,P|160:224|216:200,1,165.000006294251
432,280,40930,5,0,0:0:0:0:
408,160,41088,1,0,0:0:0:0:
320,248,41246,1,0,0:0:0:0:
200,280,41404,2,0,L|72:232,1,82.5000031471254
56,144,41720,2,0,L|152:184,1,82.5000031471254
248,224,42036,1,0,0:0:0:0:
360,272,42194,6,0,L|440:80,1,165.000006294251
472,8,42667,1,0,0:0:0:0:
360,64,42825,2,0,P|352:160|416:200,1,165.000006294251
160,256,43457,5,0,0:0:0:0:
256,336,43615,1,0,0:0:0:0:
288,208,43773,1,0,0:0:0:0:
312,88,43930,2,0,L|328:8,2,82.5000031471254
288,216,44404,2,0,L|264:320,1,82.5000031471254
112,336,44720,5,0,0:0:0:0:
112,88,45036,1,0,0:0:0:0:
112,336,45351,2,0,L|112:152,1,165.000006294251
296,336,45983,5,0,0:0:0:0:
240,224,46141,1,0,0:0:0:0:
184,112,46299,1,0,0:0:0:0:
296,336,46457,1,0,0:0:0:0:
240,224,46615,2,0,L|184:120,1,82.5000031471254
136,32,46930,2,0,L|184:120,1,82.5000031471254
296,160,47246,6,0,L|464:192,1,165.000006294251
352,272,47720,1,0,0:0:0:0:
224,280,47878,1,0,0:0:0:0:
72,64,48194,1,0,0:0:0:0:
224,128,48509,5,0,0:0:0:0:
240,168,48667,1,0,0:0:0:0:
280,176,48825,1,0,0:0:0:0:
296,216,48983,1,0,0:0:0:0:
328,240,49141,2,0,B|360:328|360:328|456:288|400:168,1,247.500009441376
488,168,49773,6,0,P|416:120|344:152,1,165.000006294251
264,240,50246,1,0,0:0:0:0:
176,327,50404,1,0,0:0:0:0:
88,239,50562,1,0,0:0:0:0:
175,151,50720,1,0,0:0:0:0:
144,56,51036,6,0,L|256:40,1,82.5000031471254
344,88,51351,2,0,L|232:104,1,82.5000031471254
96,128,51667,1,0,0:0:0:0:
312,256,51983,1,0,0:0:0:0:
72,320,52299,6,0,P|160:344|232:312,1,165.000006294251
152,200,52773,1,0,0:0:0:0:
240,120,52930,2,0,L|320:48,1,82.5000031471254
344,184,53246,2,0,L|248:272,1,82.5000031471254
152,144,53562,6,0,L|144:48,2,82.5000031471254
216,200,54036,1,0,0:0:0:0:
280,256,54194,2,0,L|286:338,2,82.5000031471254
264,96,54667,5,0,0:0:0:0:
432,88,54825,2,0,P|416:184|352:248,1,165.000006294251
208,264,55299,1,0,0:0:0:0:
128,120,55457,2,0,P|224:96|304:136,1,165.000006294251
416,216,55930,1,0,0:0:0:0:
344,360,56088,2,0,P|280:280|288:176,1,165.000006294251
304,96,56562,5,0,0:0:0:0:
184,136,56720,2,0,L|96:184,1,82.5000031471254
80,296,57036,2,0,L|176:240,1,82.5000031471254
272,264,57351,6,0,B|272:192|408:248|360:88,1,165.000006294251
320,32,57825,1,0,0:0:0:0:
240,128,57983,1,0,0:0:0:0:
88,328,58299,1,0,0:0:0:0:
184,200,58615,6,0,L|256:104,1,82.5000031471254
336,200,58930,2,0,L|432:144,1,82.5000031471254
408,280,59246,2,0,P|288:304|224:216,1,165.000006294251
416,88,59878,5,0,0:0:0:0:
168,128,60194,1,0,0:0:0:0:
104,232,60351,1,0,0:0:0:0:
40,128,60509,1,0,0:0:0:0:
256,248,60825,1,0,0:0:0:0:
448,88,61141,6,0,L|320:192,1,165.000006294251
200,160,61615,1,0,0:0:0:0:
80,168,61773,2,0,P|112:80|232:40,1,165.000006294251
200,160,62246,1,0,0:0:0:0:
264,264,62404,2,0,P|352:320|424:320,1,165.000006294251
376,200,62878,5,0,0:0:0:0:
280,128,63036,2,0,L|152:56,1,82.5000031471254
192,208,63351,2,0,L|72:200,1,82.5000031471254
71,340,63667,6,0,L|264:312,1,165.000006294251
360,336,64141,2,0,P|400:240|392:192,1,82.5000031471254
256,64,64615,1,0,0:0:0:0:
48,192,64930,6,0,B|104:224|144:160|208:192,1,165.000006294251
280,288,65404,1,0,0:0:0:0:
376,152,65562,1,0,0:0:0:0:
480,24,65720,1,0,0:0:0:0:
376,152,65878,2,0,P|312:64|312:8,1,165.000006294251
160,80,66351,5,0,0:0:0:0:
88,120,66509,1,0,0:0:0:0:
96,288,66825,2,0,L|192:248,1,82.5000031471254
232,312,67141,2,0,L|312:224,1,82.5000031471254
368,104,67457,6,0,P|440:112|488:144,2,73.3333333333333
224,144,68088,1,0,0:0:0:0:
96,216,68299,1,0,0:0:0:0:
104,72,68509,1,0,0:0:0:0:
200,224,68720,6,0,L|296:320,1,73.3333333333333
384,336,69141,1,0,0:0:0:0:
504,248,69351,1,0,0:0:0:0:
456,112,69562,1,0,0:0:0:0:
312,112,69772,1,0,0:0:0:0:
264,248,69983,5,0,0:0:0:0:
128,312,70194,2,0,L|40:288,1,73.3333333333333
104,152,70615,2,0,P|96:80|112:32,2,73.3333333333333
192,272,71246,5,0,0:0:0:0:
312,352,71457,1,0,0:0:0:0:
328,208,71667,1,0,0:0:0:0:
184,200,71878,5,0,0:0:0:0:
304,280,72089,1,0,0:0:0:0:
320,136,72299,1,0,0:0:0:0:
176,120,72509,6,0,L|64:96,1,73.3333333333333
248,136,72930,1,0,0:0:0:0:
392,168,73141,2,0,L|504:192,1,73.3333333333333
320,152,73562,1,0,0:0:0:0:
392,280,73772,6,0,P|336:304|304:296,2,73.3333333333333
320,152,74404,1,0,0:0:0:0:
200,64,74615,1,0,0:0:0:0:
128,192,74825,1,0,0:0:0:0:
248,280,75036,6,0,L|320:328,1,73.3333333333333
448,272,75457,1,0,0:0:0:0:
440,128,75667,2,0,L|355:72,1,73.3333333333333
240,128,76088,1,0,0:0:0:0:
96,104,76299,6,0,P|96:184|136:224,1,73.3333333333333
184,288,76720,1,0,0:0:0:0:
176,144,76930,2,0,P|176:64|152:40,1,73.3333333333333
256,200,77351,1,0,0:0:0:0:
368,296,77562,6,0,L|440:352,2,73.3333333333333
256,208,78194,1,0,0:0:0:0:
144,112,78404,1,0,0:0:0:0:
256,208,78615,1,0,0:0:0:0:
368,112,78825,6,0,L|456:32,1,73.3333333333333
272,72,79246,1,0,0:0:0:0:
128,80,79457,2,0,L|200:24,1,73.3333333333333
72,128,79878,1,0,0:0:0:0:
88,272,80088,6,0,L|176:232,1,73.3333333333333
256,288,80509,2,0,L|368:296,1,73.3333333333333
384,152,80930,2,0,L|480:128,1,73.3333333333333
312,168,81351,5,0,0:0:0:0:
224,96,81562,1,0,0:0:0:0:
192,200,81772,1,0,0:0:0:0:
336,240,81983,5,0,0:0:0:0:
296,96,82194,1,0,0:0:0:0:
192,200,82404,1,0,0:0:0:0:
80,112,82615,6,0,P|32:48|24:8,1,73.3333333333333
184,64,83036,2,0,P|240:120|248:168,1,73.3333333333333
240,224,83457,1,0,0:0:0:0:
152,288,83667,1,0,0:0:0:0:
112,184,83878,5,0,0:0:0:0:
224,96,84088,2,0,P|288:80|320:80,1,73.3333333333333
432,128,84509,2,0,P|352:152|312:144,1,73.3333333333333
184,120,84930,1,0,0:0:0:0:
232,296,85141,5,0,0:0:0:0:
336,200,85351,1,0,0:0:0:0:
376,344,85562,1,0,0:0:0:0:
192,344,85772,5,0,0:0:0:0:
96,192,85983,1,0,0:0:0:0:
192,32,86194,1,0,0:0:0:0:
376,32,86404,1,0,0:0:0:0:
376,32,86720,5,0,0:0:0:0:
112,104,87036,6,0,L|184:144,1,55
208,104,87351,2,0,L|280:112,1,55
272,272,87667,6,0,L|88:256,1,165.000006294251
200,176,88141,1,0,0:0:0:0:
296,104,88299,1,0,0:0:0:0:
107,257,88615,5,0,0:0:0:0:
192,168,88773,1,0,0:0:0:0:
200,176,88930,2,0,P|216:80|168:24,1,165.000006294251
96,120,89404,1,0,0:0:0:0:
24,224,89562,1,0,0:0:0:0:
240,352,89878,1,0,0:0:0:0:
408,352,90194,6,0,B|424:288|304:248|392:152,1,165.000006294251
408,128,90667,1,0,0:0:0:0:
456,56,90825,2,0,P|368:48|320:112,1,165.000006294251
264,256,91457,6,0,P|168:176|168:104,1,165.000006294251
184,64,91930,1,0,0:0:0:0:
80,136,92088,2,0,L|56:240,1,82.5000031471254
160,296,92404,2,0,L|192:392,1,82.5000031471254
280,288,92720,6,0,P|232:200|136:192,1,165.000006294251
312,88,93194,1,0,0:0:0:0:
320,104,93351,2,0,L|416:248,1,165.000006294251
192,368,93983,5,0,0:0:0:0:
80,312,94141,1,0,0:0:0:0:
40,192,94299,1,0,0:0:0:0:
56,72,94457,1,0,0:0:0:0:
152,8,94615,1,0,0:0:0:0:
160,128,94773,1,0,0:0:0:0:
56,72,94930,1,0,0:0:0:0:
152,8,95088,1,0,0:0:0:0:
160,128,95246,6,0,L|176:264,1,82.5000031471254
264,288,95562,2,0,L|200:184,1,82.5000031471254
320,288,95878,2,0,L|392:336,1,82.5000031471254
384,208,96194,5,0,0:0:0:0:
328,96,96351,1,0,0:0:0:0:
256,192,96509,1,0,0:0:0:0:
408,120,96667,5,0,0:0:0:0:
248,96,96825,1,0,0:0:0:0:
312,248,96983,1,0,0:0:0:0:
152,296,97141,6,0,L|48:328,2,82.5000031471254
232,272,97615,1,0,0:0:0:0:
312,248,97773,6,0,L|488:192,1,165.000006294251
368,128,98246,1,0,0:0:0:0:
288,32,98404,2,0,P|240:104|264:184,1,165.000006294251
96,360,99036,6,0,P|208:320|256:224,1,165.000006294251
264,168,99509,1,0,0:0:0:0:
152,216,99667,2,0,P|144:120|200:64,1,165.000006294251
408,176,100299,6,0,L|240:160,1,165.000006294251
120,144,100773,1,0,0:0:0:0:
243,160,100930,2,0,P|323:104|339:40,1,165.000006294251
96,72,101562,6,0,P|64:168|96:248,1,165.000006294251
208,288,102036,1,0,0:0:0:0:
240,168,102194,2,0,P|304:208|312:232,2,82.5000031471254
320,256,102667,1,0,0:0:0:0:
440,240,102825,6,0,L|360:48,1,165.000006294251
256,56,103299,1,0,0:0:0:0:
160,136,103457,2,0,L|200:224,1,82.5000031471254
200,336,103773,2,0,L|152:240,1,82.5000031471254
288,280,104088,6,0,L|392:312,2,82.5000031471254
168,232,104562,1,0,0:0:0:0:
96,128,104720,1,0,0:0:0:0:
152,16,104878,1,0,0:0:0:0:
224,120,105036,1,0,0:0:0:0:
96,128,105194,1,0,0:0:0:0:
216,232,105351,6,0,P|312:200|328:104,1,165.000006294251
408,48,105825,1,0,0:0:0:0:
480,144,105983,6,0,L|512:232,1,82.5000031471254
424,224,106299,2,0,L|416:312,1,82.5000031471254
336,280,106615,2,0,L|304:360,1,82.5000031471254
184,352,106930,1,0,0:0:0:0:
96,264,107088,5,0,0:0:0:0:
128,104,107246,5,0,0:0:0:0:
280,32,107404,6,0,L|376:8,1,82.5000031471254
488,176,107720,5,0,0:0:0:0:
264,336,107878,2,0,L|16:288,1,220
224,216,108351,1,0,0:0:0:0:
384,184,108509,2,0,L|448:288,1,110
432,112,108825,2,0,L|360:-8,1,110
232,104,109141,5,0,0:0:0:0:
64,96,109299,1,0,0:0:0:0:
144,240,109457,1,0,0:0:0:0:
232,104,109615,1,0,0:0:0:0:
400,104,109773,2,0,P|376:192|328:232,1,110
216,272,110088,1,0,0:0:0:0:
224,104,110246,1,0,0:0:0:0:
64,144,110404,6,0,P|112:240|216:272,1,220
352,176,110878,1,0,0:0:0:0:
400,16,111036,2,0,L|360:152,1,110
368,288,111351,2,0,L|408:144,1,110
240,240,111667,6,0,P|144:296|24:280,1,220
104,136,112141,1,0,0:0:0:0:
248,56,112299,2,0,L|352:0,2,110
104,136,112773,1,0,0:0:0:0:
256,200,112930,6,0,L|464:280,1,220
392,128,113404,1,0,0:0:0:0:
232,72,113562,2,0,P|120:136|128:216,1,220
248,328,114036,5,0,0:0:0:0:
408,288,114194,1,0,0:0:0:0:
360,128,114351,1,0,0:0:0:0:
240,240,114509,1,0,0:0:0:0:
400,280,114667,1,0,0:0:0:0:
440,120,114825,1,0,0:0:0:0:
280,168,114983,1,0,0:0:0:0:
120,216,115141,1,0,0:0:0:0:
16,88,115299,1,0,0:0:0:0:
184,80,115457,6,0,P|288:72|336:96,1,110
360,160,115773,2,0,P|272:176|240:168,1,110
144,48,116088,2,0,P|248:40|296:64,1,110
400,200,116404,2,0,P|312:216|280:208,1,110
104,104,116720,5,0,0:0:0:0:
104,328,116878,1,0,0:0:0:0:
293,212,117036,1,0,0:0:0:0:
16,200,117194,5,0,0:0:0:0:
256,328,117351,1,0,0:0:0:0:
248,56,117509,1,0,0:0:0:0:
16,200,117667,2,0,L|144:272,1,110
392,256,117983,6,0,L|168:120,1,220
64,56,118457,1,0,0:0:0:0:
232,48,118615,2,0,L|368:64,1,110
480,152,118930,2,0,L|344:136,1,110
208,160,119246,6,0,P|264:280|368:296,1,220
208,160,119720,1,0,0:0:0:0:
120,24,119878,1,0,0:0:0:0:
24,160,120036,1,0,0:0:0:0:
227,334,120194,6,0,L|128:288,1,110
288,240,120509,2,0,L|440:208,1,110
424,56,120825,2,0,L|328:120,1,110
288,144,121062,1,0,0:0:0:0:
240,176,121141,1,0,0:0:0:0:
192,320,121299,5,0,0:0:0:0:
48,288,121457,1,0,0:0:0:0:
56,232,121536,1,0,0:0:0:0:
80,168,121615,1,0,0:0:0:0:
128,104,121694,1,0,0:0:0:0:
208,64,121773,1,0,0:0:0:0:
280,208,121930,5,0,0:0:0:0:
320,48,122088,1,0,0:0:0:0:
280,208,122246,1,0,0:0:0:0:
368,352,122404,2,0,P|432:248|432:192,1,110
384,104,122720,2,0,P|312:208|312:248,1,110
192,296,123036,6,0,P|144:184|192:88,1,220
316,187,123509,1,0,0:0:0:0:
192,296,123667,2,0,L|96:368,1,110
80,200,123983,5,0,0:0:0:0:
144,48,124141,1,0,0:0:0:0:
248,176,124299,1,0,0:0:0:0:
40,104,124457,5,0,0:0:0:0:
256,56,124615,1,0,0:0:0:0:
192,264,124773,1,0,0:0:0:0:
40,104,124930,5,0,0:0:0:0:
80,264,125088,1,0,0:0:0:0:
224,344,125246,1,0,0:0:0:0:
392,328,125404,1,0,0:0:0:0:
448,48,125562,5,0,0:0:0:0:
64,320,125878,5,0,0:0:0:0:
256,192,126194,12,0,127773,0:0:0:0:
96,184,128088,6,0,L|184:96,1,82.5000031471254
240,40,128404,1,0,0:0:0:0:
296,280,128720,1,0,0:0:0:0:
264,160,129036,1,0,0:0:0:0:
240,40,129351,1,0,0:0:0:0:
96,240,129667,6,0,L|168:320,1,82.5000031471254
264,256,129983,2,0,P|336:320|448:320,1,165.000006294251
400,208,130457,1,0,0:0:0:0:
304,136,130615,6,0,L|144:48,1,165.000006294251
72,144,131088,1,0,0:0:0:0:
80,160,131246,2,0,P|104:256|80:344,1,165.000006294251
328,240,131878,2,0,P|208:208|136:224,1,165.000006294251
232,320,132351,5,0,0:0:0:0:
312,224,132509,2,0,L|376:152,1,82.5000031471254
256,104,132825,2,0,L|280:16,1,82.5000031471254
240,144,133141,5,0,0:0:0:0:
200,264,133299,1,0,0:0:0:0:
160,384,133457,1,0,0:0:0:0:
48,160,133773,1,0,0:0:0:0:
240,8,134088,2,0,P|304:72|304:152,1,165.000006294251
256,256,134562,5,0,0:0:0:0:
368,312,134720,1,0,0:0:0:0:
416,200,134878,1,0,0:0:0:0:
304,144,135036,2,0,P|224:128|152:184,1,165.000006294251
96,280,135509,1,0,0:0:0:0:
72,160,135667,6,0,L|48:-8,1,165.000006294251
152,64,136141,1,0,0:0:0:0:
168,184,136299,1,0,0:0:0:0:
392,288,136615,5,0,0:0:0:0:
424,40,136930,2,0,P|456:160|432:208,1,165.000006294251
336,128,137404,1,0,0:0:0:0:
216,144,137562,2,0,B|160:120|96:184|48:144,1,165.000006294251
96,32,138036,1,0,0:0:0:0:
152,144,138194,6,0,L|208:240,1,82.5000031471254
256,320,138509,1,0,0:0:0:0:
464,192,138825,2,0,L|320:280,1,165.000006294251
72,272,139457,6,0,P|96:192|128:160,1,82.5000031471254
176,104,139773,1,0,0:0:0:0:
264,184,139930,2,0,P|200:248|192:304,1,82.5000031471254
448,184,140404,5,0,0:0:0:0:
328,168,140562,1,0,0:0:0:0:
288,48,140720,2,0,P|208:104|208:176,1,165.000006294251
296,248,141194,1,0,0:0:0:0:
176,272,141351,2,0,L|8:312,1,165.000006294251
56,192,141825,6,0,L|128:88,1,82.5000031471254
224,160,142141,2,0,L|320:112,1,82.5000031471254
424,136,142457,5,0,0:0:0:0:
376,248,142615,1,0,0:0:0:0:
272,320,142773,1,0,0:0:0:0:
152,336,142930,1,0,0:0:0:0:
32,304,143088,1,0,0:0:0:0:
88,192,143246,6,0,L|128:112,1,82.5000031471254
184,8,143562,1,0,0:0:0:0:
336,208,143878,6,0,P|240:176|216:72,1,165.000006294251
328,88,144351,1,0,0:0:0:0:
448,120,144509,2,0,P|488:200|448:296,1,165.000006294251
360,320,144983,5,0,0:0:0:0:
240,320,145141,2,0,L|72:320,1,165.000006294251
144,216,145615,1,0,0:0:0:0:
40,152,145773,6,0,P|120:88|200:104,1,165.000006294251
288,152,146246,1,0,0:0:0:0:
392,224,146404,2,0,L|496:288,1,82.5000031471254
456,144,146720,2,0,L|352:80,1,82.5000031471254
280,168,147036,6,0,P|256:80|296:16,1,165.000006294251
385,100,147509,1,0,0:0:0:0:
432,216,147667,2,0,P|376:304|288:312,1,165.000006294251
200,288,148141,1,0,0:0:0:0:
120,144,148299,5,0,0:0:0:0:
360,72,148615,1,0,0:0:0:0:
304,312,148930,1,0,0:0:0:0:
120,144,149246,1,0,0:0:0:0:
360,192,149562,6,0,P|288:160|264:96,1,82.5000031471254
176,96,149878,1,0,0:0:0:0:
64,48,150036,1,0,0:0:0:0:
80,168,150194,2,0,L|96:288,1,82.5000031471254
208,224,150509,2,0,L|240:320,1,82.5000031471254
352,336,150825,5,0,0:0:0:0:
440,104,151141,1,0,0:0:0:0:
200,144,151457,1,0,0:0:0:0:
352,336,151773,1,0,0:0:0:0:
144,200,152088,6,0,L|64:152,1,82.5000031471254
96,32,152404,2,0,L|160:96,1,82.5000031471254
240,184,152720,1,0,0:0:0:0:
328,272,152878,1,0,0:0:0:0:
416,352,153036,1,0,0:0:0:0:
168,344,153351,6,0,P|72:280|56:224,1,165.000006294251
176,192,153825,1,0,0:0:0:0:
57,146,153983,2,0,P|94:74|168:39,1,165.000006294251
288,72,154457,1,0,0:0:0:0:
344,184,154615,6,0,L|408:296,1,82.5000031471254
264,280,154930,2,0,L|240:368,1,82.5000031471254
144,288,155246,2,0,L|56:344,1,82.5000031471254
184,264,155562,1,0,0:0:0:0:
72,40,155878,6,0,P|88:152|152:216,1,165.000006294251
224,248,156351,1,0,0:0:0:0:
336,296,156509,2,0,P|344:208|272:144,1,165.000006294251
184,96,156983,1,0,0:0:0:0:
304,96,157141,6,0,L|424:104,1,82.5000031471254
352,224,157457,2,0,L|432:304,1,82.5000031471254
296,336,157773,1,0,0:0:0:0:
176,328,157930,1,0,0:0:0:0:
88,240,158088,1,0,0:0:0:0:
336,224,158404,6,0,P|408:160|408:72,1,165.000006294251
288,112,158878,1,0,0:0:0:0:
168,120,159036,2,0,P|48:152|8:176,1,165.000006294251
128,224,159509,1,0,0:0:0:0:
240,280,159667,6,0,L|344:320,1,82.5000031471254
368,192,159983,2,0,L|472:160,1,82.5000031471254
384,56,160299,2,0,L|448:0,2,82.5000031471254
192,208,160930,6,0,L|344:88,1,165.000006294251
200,80,161404,1,0,0:0:0:0:
104,152,161562,2,0,P|88:240|152:304,1,165.000006294251
248,352,162036,1,0,0:0:0:0:
368,320,162194,5,0,0:0:0:0:
424,208,162351,1,0,0:0:0:0:
400,88,162509,1,0,0:0:0:0:
304,16,162667,1,0,0:0:0:0:
184,24,162825,1,0,0:0:0:0:
248,128,162983,1,0,0:0:0:0:
304,16,163141,1,0,0:0:0:0:
88,144,163457,6,0,P|120:240|224:264,1,165.000006294251
296,240,163930,1,0,0:0:0:0:
208,152,164088,2,0,L|360:48,1,165.000006294251
464,104,164562,1,0,0:0:0:0:
416,216,164720,6,0,L|368:328,1,82.5000031471254
264,272,165036,2,0,L|176:328,1,82.5000031471254
88,256,165351,1,0,0:0:0:0:
40,144,165509,1,0,0:0:0:0:
88,32,165667,1,0,0:0:0:0:
304,152,165983,6,0,P|392:240|360:336,1,165.000006294251
264,272,166457,1,0,0:0:0:0:
192,176,166615,2,0,P|224:64|328:56,1,165.000006294251
384,40,167088,1,0,0:0:0:0:
456,144,167246,6,0,L|512:240,1,82.5000031471254
384,272,167562,2,0,L|360:360,1,82.5000031471254
248,312,167878,1,0,0:0:0:0:
128,304,168036,1,0,0:0:0:0:
56,208,168194,1,0,0:0:0:0:
88,88,168351,1,0,0:0:0:0:
264,240,168509,6,0,L|240:128,1,110
312,48,169141,2,0,L|344:184,1,110
424,224,169773,5,0,0:0:0:0:
384,264,169930,5,0,0:0:0:0:
320,288,170088,5,0,0:0:0:0:
240,288,170246,5,0,0:0:0:0:
160,248,170404,5,0,0:0:0:0:
112,160,170562,5,0,0:0:0:0:
112,48,170720,5,0,0:0:0:0:
256,192,171036,12,0,173562,0:0:0:0:
