osu file format v14

[General]
AudioFilename: audio.mp3
AudioLeadIn: 0
PreviewTime: 103036
Countdown: 0
SampleSet: Soft
StackLeniency: 0.7
Mode: 0
LetterboxInBreaks: 0
WidescreenStoryboard: 0

[Editor]
Bookmarks: 35799,69484,103168,136852,153694,187378,204220,221247,254931,290720,324404,358088,374930,394128,427822
DistanceSpacing: 1
BeatDivisor: 8
GridSize: 4
TimelineZoom: 2.599999

[Metadata]
Title:Spirit Away
TitleUnicode:Spirit Away
Artist:Euchaeta
ArtistUnicode:Euchaeta
Creator:Hinsvar
Version:Zen
Source:
Tags:ユーキータ The Return of the Parade electronic newage new-age new age progressive rock instrumental
BeatmapID:3817408
BeatmapSetID:1857409

[Difficulty]
HPDrainRate:5.5
CircleSize:3.5
OverallDifficulty:9
ApproachRate:9.5
SliderMultiplier:3.2
SliderTickRate:1

[Events]
//Background and Video events
0,0,"BG.jpg",0,0
//Break Periods
2,204420,218432
2,375130,391432
//Storyboard Layer 0 (Background)
//Storyboard Layer 1 (Fail)
//Storyboard Layer 2 (Pass)
//Storyboard Layer 3 (Foreground)
//Storyboard Layer 4 (Overlay)
//Storyboard Sound Samples

[TimingPoints]
4221,526.315789473684,4,2,1,50,1,0
35799,-250,4,2,1,50,0,0
52642,-166.666666666667,4,2,1,55,0,0
69484,-125,4,2,1,60,0,0
102642,-100,4,2,1,70,0,0
103168,-83.3333333333333,4,2,1,80,0,1
136852,-125,4,2,1,60,0,0
153694,-100,4,2,1,70,0,0
187378,-83.3333333333333,4,2,1,80,0,1
204220,-100,4,2,1,70,0,0
220010,618.556701030929,4,2,1,70,1,8
221247,526.315789473684,4,2,1,40,1,0
221247,-250.000000000001,4,2,1,40,0,0
238089,-200.000000000001,4,2,1,45,0,0
253878,-166.666666666667,4,2,1,50,0,0
254404,-142.857142857143,4,2,1,55,0,0
254931,-125,4,2,1,60,0,0
271773,-111.111111111111,4,2,1,65,0,0
288615,526.315789473684,4,2,1,70,1,8
290720,526.315789473684,4,2,1,70,1,0
358088,-83.3333333333333,4,2,1,80,0,1
374930,-100,4,2,1,70,0,0
390720,618.556701030928,4,2,1,70,1,8
391957,545.454545454546,4,2,1,30,1,0
394128,526.315789473684,4,2,2,70,1,0
419391,-100,4,2,3,70,0,0
428864,-100,4,2,1,60,0,0
429917,-100,4,2,1,50,0,0
430970,-100,4,2,1,40,0,0
432022,-100,4,2,1,30,0,0
433075,-100,4,2,1,20,0,0
434128,-100,4,2,1,10,0,0

[Colours]
Combo1 : 207,225,43
Combo2 : 146,227,79
Combo3 : 141,201,241
Combo4 : 238,125,244

[HitObjects]
256,192,33694,12,0,35624,0:0:0:0:
34,330,35799,5,4,3:2:0:0:
117,348,35975,1,2,0:0:0:0:
196,317,36150,1,2,0:0:0:0:
229,238,36326,2,0,P|235:196|232:131,1,85.3333333333333,2|0,3:2|0:0,0:0:0:0:
169,19,36852,2,0,P|163:61|164:104,1,85.3333333333333,2|0,3:2|0:0,0:0:0:0:
94,153,37378,1,2,3:2:0:0:
76,141,37554,1,0,0:0:0:0:
54,141,37729,1,2,0:0:0:0:
250,79,37905,5,2,3:2:0:0:
322,127,38080,1,2,0:0:0:0:
410,127,38256,1,2,0:0:0:0:
482,175,38431,2,0,L|496:282,1,85.3333333333333,2|0,3:2|0:0,0:0:0:0:
334,265,38957,2,0,L|401:213,1,85.3333333333333,2|0,3:2|0:0,0:0:0:0:
484,349,39484,2,0,L|405:316,1,85.3333333333333,2|0,3:2|0:0,0:0:0:0:
236,232,40010,6,0,B|206:225|187:262|152:257,1,85.3333333333333,2|0,3:2|0:0,0:0:0:0:
87,307,40536,1,2,3:2:0:0:
10,269,40712,1,2,0:0:0:0:
83,225,40887,1,2,0:0:0:0:
59,141,41063,2,0,P|45:101|56:53,1,85.3333333333333,2|0,3:2|0:0,0:0:0:0:
249,101,41589,2,0,P|263:141|252:189,1,85.3333333333333,2|0,3:2|0:0,0:0:0:0:
144,126,42115,5,2,3:2:0:0:
154,107,42291,1,0,0:0:0:0:
167,123,42466,1,0,0:0:0:0:
162,208,42642,2,0,P|125:228|80:260,1,85.3333333333333,2|0,3:2|0:0,0:0:0:0:
226,383,43168,2,0,P|263:362|298:338,1,85.3333333333333,2|0,3:2|0:0,0:0:0:0:
196,297,43694,1,2,3:2:0:0:
316,87,44045,1,2,0:0:0:0:
386,39,44220,5,2,3:2:0:0:
324,170,44396,1,2,0:0:0:0:
240,51,44571,1,2,0:0:0:0:
163,89,44747,2,0,P|126:73|73:64,1,85.3333333333333,2|0,3:2|0:0,0:0:0:0:
44,228,45273,2,0,P|81:244|134:253,1,85.3333333333333,2|0,3:2|0:0,0:0:0:0:
216,186,45799,1,2,3:2:0:0:
198,171,45975,1,0,0:0:0:0:
192,192,46150,1,2,0:0:0:0:
322,368,46326,5,2,3:2:0:0:
346,286,46501,1,2,0:0:0:0:
304,210,46677,1,2,0:0:0:0:
339,132,46852,2,0,P|379:129|432:106,1,85.3333333333333,2|0,3:2|0:0,0:0:0:0:
233,92,47378,2,0,P|259:61|280:7,1,85.3333333333333,2|0,3:2|0:0,0:0:0:0:
123,130,47905,2,0,P|120:90|97:37,1,85.3333333333333,2|0,3:2|0:0,0:0:0:0:
128,277,48431,6,0,P|129:312|150:358,1,85.3333333333333,2|0,3:2|0:0,0:0:0:0:
235,367,48957,1,2,3:2:0:0:
304,315,49133,1,2,0:0:0:0:
253,383,49308,1,2,0:0:0:0:
154,383,49484,2,0,P|112:370|55:361,1,85.3333333333333,2|0,3:2|0:0,0:0:0:0:
44,263,50010,2,0,P|86:276|143:285,1,85.3333333333333,2|0,3:2|0:0,0:0:0:0:
253,216,50536,5,2,3:2:0:0:
268,230,50712,1,0,0:0:0:0:
275,210,50887,1,0,0:0:0:0:
305,130,51063,2,0,P|291:89|283:37,1,85.3333333333333,2|0,3:2|0:0,0:0:0:0:
345,267,51589,2,0,P|359:308|367:360,1,85.3333333333333,2|0,3:2|0:0,0:0:0:0:
446,378,52115,1,2,3:2:0:0:
180,288,52466,1,2,0:0:0:0:
141,365,52642,5,6,3:2:0:0:
107,245,52817,1,2,0:0:0:0:
226,215,52992,1,2,0:0:0:0:
257,331,53168,2,0,P|320:336|396:348,1,127.99999609375,2|0,3:2|0:0,0:0:0:0:
311,212,53694,2,0,P|374:207|450:195,1,127.99999609375,2|0,3:2|0:0,0:0:0:0:
445,112,54220,1,2,3:2:0:0:
423,87,54396,1,0,0:0:0:0:
411,116,54571,1,2,0:0:0:0:
232,44,54747,5,2,3:2:0:0:
144,144,54922,1,2,0:0:0:0:
96,28,55098,1,2,0:0:0:0:
158,137,55273,2,0,P|163:197|175:266,1,127.99999609375,2|0,3:2|0:0,0:0:0:0:
332,230,55799,2,0,P|327:170|315:101,1,127.99999609375,2|0,3:2|0:0,0:0:0:0:
235,72,56326,2,0,P|208:60|183:34,2,63.9999980468751,2|0|2,3:2|0:0|0:0,0:0:0:0:
194,284,56852,6,0,P|139:260|89:208,1,127.99999609375,2|0,3:2|0:0,0:0:0:0:
82,84,57378,1,2,3:2:0:0:
137,17,57554,1,2,0:0:0:0:
148,144,57729,1,2,0:0:0:0:
21,154,57905,1,2,3:2:0:0:
364,144,58256,1,2,0:0:0:0:
491,154,58431,2,0,P|487:115|498:80,2,63.9999980468751,2|0|2,3:2|0:0|0:0,0:0:0:0:
375,17,58957,5,2,3:2:0:0:
350,37,59133,1,0,0:0:0:0:
318,31,59308,1,0,0:0:0:0:
250,80,59484,2,0,P|184:62|136:14,1,127.99999609375,2|0,3:2|0:0,0:0:0:0:
90,183,60010,2,0,P|40:154|43:66,1,127.99999609375,2|0,3:2|0:0,0:0:0:0:
202,176,60536,1,2,3:2:0:0:
228,192,60712,1,0,0:0:0:0:
231,223,60887,1,2,0:0:0:0:
347,292,61063,5,2,3:2:0:0:
392,172,61238,1,2,0:0:0:0:
472,270,61413,1,2,0:0:0:0:
348,306,61589,2,0,P|290:322|226:358,1,127.99999609375,2|0,3:2|0:0,0:0:0:0:
72,324,62115,2,0,P|130:308|194:272,1,127.99999609375,2|0,3:2|0:0,0:0:0:0:
178,191,62642,1,2,3:2:0:0:
196,165,62817,1,0,0:0:0:0:
209,193,62992,1,2,0:0:0:0:
250,40,63168,5,2,3:2:0:0:
134,93,63343,1,2,0:0:0:0:
31,15,63519,1,2,0:0:0:0:
140,80,63694,2,0,L|132:149,2,63.9999980468751,2|0|2,3:2|0:0|0:0,0:0:0:0:
175,221,64220,2,0,L|183:290,2,63.9999980468751,2|0|2,3:2|0:0|0:0,0:0:0:0:
125,349,64747,1,2,3:2:0:0:
94,358,64922,1,0,0:0:0:0:
69,336,65098,1,2,0:0:0:0:
262,234,65273,6,0,P|319:235|399:275,1,127.99999609375,2|0,3:2|0:0,0:0:0:0:
512,240,65799,1,2,3:2:0:0:
463,358,65975,1,2,0:0:0:0:
370,270,66150,1,2,0:0:0:0:
385,241,66326,2,0,P|412:222|434:200,1,63.9999980468751,0|0,3:2|0:0,0:0:0:0:
275,169,66677,1,2,0:0:0:0:
235,94,66852,2,0,P|207:75|185:53,1,63.9999980468751,2|0,3:2|0:0,0:0:0:0:
44,201,67203,1,10,0:0:0:0:
44,201,67291,1,10,0:0:0:0:
44,201,67378,5,2,3:2:0:0:
127,217,67554,1,8,0:0:0:0:
269,297,67729,2,0,L|275:256,2,31.9999990234375,8|8|2,0:0|0:0|3:2,0:0:0:0:
157,353,68080,1,8,0:0:0:0:
157,353,68168,1,8,0:0:0:0:
157,353,68256,2,0,L|116:359,1,31.9999990234375,8|8,0:0|0:0,0:0:0:0:
100,337,68431,2,0,L|28:316,1,63.9999980468751,2|8,3:2|0:0,0:0:0:0:
8,241,68782,1,2,0:0:0:0:
98,151,68957,5,2,3:2:0:0:
225,136,69133,1,8,0:0:0:0:
351,121,69308,1,2,0:0:0:0:
441,31,69484,5,6,3:2:0:0:
365,239,69659,1,8,0:0:0:0:
274,35,69835,1,8,0:0:0:0:
365,239,70010,2,0,B|197:273|197:273|188:226,1,213.333333333333,8|0,0:0|0:0,0:0:0:0:
189,231,70536,1,8,0:0:0:0:
193,235,70975,1,8,0:0:0:0:
197,239,71063,1,8,0:0:0:0:
89,275,71238,1,8,0:0:0:0:
27,183,71413,1,8,0:0:0:0:
50,74,71589,6,0,B|108:82|108:82|230:29|230:29|296:40,1,256,2|8,3:2|0:0,0:0:0:0:
50,104,72554,1,8,0:0:0:0:
50,104,72642,1,8,0:0:0:0:
132,101,72817,1,8,0:0:0:0:
210,67,72992,1,8,0:0:0:0:
293,69,73168,1,8,0:0:0:0:
428,356,73694,5,2,3:2:0:0:
471,253,73870,1,8,0:0:0:0:
413,158,74045,1,0,0:0:0:0:
370,261,74220,2,0,B|264:231|264:231|278:338,1,213.333333333333,8|0,0:0|0:0,0:0:0:0:
277,333,74747,1,8,0:0:0:0:
392,232,75185,1,8,0:0:0:0:
392,232,75273,1,8,0:0:0:0:
309,208,75449,1,8,0:0:0:0:
244,263,75624,1,8,0:0:0:0:
255,348,75799,6,0,B|205:375|136:334|141:311|69:259|15:285,2,256,2|8|8,3:2|0:0|0:0,0:0:0:0:
255,348,77028,1,8,0:0:0:0:
255,348,77203,1,8,0:0:0:0:
334,298,77378,5,8,0:0:0:0:
254,266,77554,1,8,0:0:0:0:
181,310,77729,1,8,0:0:0:0:
108,133,77905,5,2,3:2:0:0:
228,181,78080,1,8,0:0:0:0:
337,115,78256,1,8,0:0:0:0:
217,67,78431,2,0,P|142:22|15:43,1,213.333333333333,8|0,0:0|0:0,0:0:0:0:
21,38,78957,1,8,0:0:0:0:
324,205,79396,1,8,0:0:0:0:
324,205,79484,1,8,0:0:0:0:
239,221,79659,1,8,0:0:0:0:
172,271,79835,1,8,0:0:0:0:
127,343,80010,6,0,B|16:279|16:279|122:206,1,256,2|8,3:2|0:0,0:0:0:0:
362,54,80975,1,8,0:0:0:0:
362,54,81063,1,8,0:0:0:0:
447,54,81238,1,8,0:0:0:0:
474,136,81413,1,8,0:0:0:0:
405,186,81589,1,8,0:0:0:0:
80,37,82115,5,2,3:2:0:0:
14,126,82291,1,8,0:0:0:0:
123,141,82466,1,8,0:0:0:0:
57,230,82642,2,0,B|142:294|142:294|205:208,1,213.333333333333,8|0,0:0|0:0,0:0:0:0:
205,207,83168,1,8,0:0:0:0:
495,82,83606,1,8,0:0:0:0:
495,82,83694,1,8,0:0:0:0:
426,30,83870,1,8,0:0:0:0:
341,41,84045,1,8,0:0:0:0:
291,110,84220,6,0,B|311:156|297:320|313:365,2,256,2|8|8,3:2|0:0|0:0,0:0:0:0:
205,121,85449,1,8,0:0:0:0:
149,56,85624,1,8,0:0:0:0:
295,126,85799,5,8,0:0:0:0:
158,196,85975,1,8,0:0:0:0:
63,76,86150,1,8,0:0:0:0:
53,90,86326,5,2,3:2:0:0:
251,200,86501,1,8,0:0:0:0:
403,30,86677,1,8,0:0:0:0:
338,85,86852,2,0,P|236:92|124:130,1,213.333333333333,8|0,0:0|0:0,0:0:0:0:
131,126,87378,1,8,0:0:0:0:
462,350,87817,1,8,0:0:0:0:
462,350,87905,1,8,0:0:0:0:
386,309,88080,1,8,0:0:0:0:
306,282,88256,1,8,0:0:0:0:
221,268,88431,6,0,P|147:354|-3:364,1,256,2|8,3:2|0:0,0:0:0:0:
375,233,89396,1,8,0:0:0:0:
375,233,89484,1,8,0:0:0:0:
361,149,89659,1,8,0:0:0:0:
389,69,89835,1,8,0:0:0:0:
451,13,90010,1,8,0:0:0:0:
174,315,90536,5,2,3:2:0:0:
101,230,90712,1,8,0:0:0:0:
114,120,90887,1,8,0:0:0:0:
41,34,91063,2,0,P|171:23|253:7,1,213.333333333333,8|0,0:0|0:0,0:0:0:0:
252,7,91589,1,8,0:0:0:0:
480,194,92028,1,8,0:0:0:0:
480,194,92115,1,8,0:0:0:0:
396,177,92291,1,8,0:0:0:0:
311,166,92466,1,8,0:0:0:0:
226,161,92642,6,0,B|144:117|144:117|163:47|163:47|254:42,2,256,2|8|8,3:2|0:0|0:0,0:0:0:0:
243,245,93870,1,8,0:0:0:0:
259,328,94045,1,8,0:0:0:0:
255,344,94220,5,8,0:0:0:0:
293,221,94396,1,8,0:0:0:0:
332,99,94571,1,8,0:0:0:0:
484,126,94747,5,2,3:2:0:0:
256,145,94922,1,8,0:0:0:0:
28,174,95098,1,8,0:0:0:0:
74,260,95273,2,0,B|118:238|124:105|185:80,1,213.333333333333,8|0,0:0|0:0,0:0:0:0:
182,81,95799,1,8,0:0:0:0:
491,238,96238,1,8,0:0:0:0:
491,238,96326,1,8,0:0:0:0:
382,218,96501,1,8,0:0:0:0:
448,129,96677,1,8,0:0:0:0:
357,63,96852,6,0,B|234:84|234:84|104:58,1,256,2|8,3:2|0:0,0:0:0:0:
14,374,97817,1,8,0:0:0:0:
14,374,97905,1,8,0:0:0:0:
80,318,98080,1,8,0:0:0:0:
152,278,98256,1,8,0:0:0:0:
224,234,98431,1,8,0:0:0:0:
492,28,98957,5,2,3:2:0:0:
387,65,99133,1,8,0:0:0:0:
355,171,99308,1,8,0:0:0:0:
250,208,99484,2,0,B|216:102|216:102|141:15,1,213.333333333333,8|0,0:0|0:0,0:0:0:0:
149,24,100010,1,8,0:0:0:0:
132,375,100449,1,8,0:0:0:0:
132,375,100536,1,8,0:0:0:0:
76,310,100712,1,8,0:0:0:0:
37,236,100887,1,8,0:0:0:0:
11,155,101063,6,0,B|53:114|53:114|72:47|72:47|113:104|113:104|170:122,2,256,2|8|8,3:2|0:0|0:0,0:0:0:0:
11,155,102642,6,0,P|51:146|96:143,3,80,8|8|8|8,0:0|0:0|0:0|0:0,0:0:0:0:
277,24,103168,5,4,3:2:0:0:
406,86,103299,1,2,0:0:0:0:
406,86,103365,1,2,0:0:0:0:
406,86,103431,1,2,0:0:0:0:
183,128,103563,1,2,0:0:0:0:
251,231,103694,2,0,P|240:280|238:348,1,95.9999970703126,10|0,0:0|0:0,0:0:0:0:
67,99,103957,2,0,P|78:50|80:-18,1,95.9999970703126,2|0,0:0|0:0,0:0:0:0:
30,246,104220,5,2,3:2:0:0:
125,233,104352,1,2,0:0:0:0:
216,116,104484,2,0,P|265:117|314:146,1,95.9999970703126,2|0,0:0|0:0,0:0:0:0:
110,359,104747,5,10,0:0:0:0:
139,205,104878,1,2,0:0:0:0:
423,167,105010,2,0,P|424:93|468:20,1,143.999995605469,2|0,0:0|0:0,0:0:0:0:
456,32,105273,5,0,3:0:0:0:
488,248,105405,1,2,0:0:0:0:
488,248,105470,1,2,0:0:0:0:
488,248,105536,1,2,0:0:0:0:
318,205,105668,1,2,0:0:0:0:
300,91,105799,2,0,P|252:99|207:113,1,95.9999970703126,10|0,0:0|0:0,0:0:0:0:
152,3,106063,1,2,0:0:0:0:
175,190,106194,1,2,0:0:0:0:
23,68,106326,6,0,P|64:92|117:85,1,95.9999970703126,2|0,3:2|0:0,0:0:0:0:
194,220,106589,1,2,0:0:0:0:
171,313,106720,1,2,0:0:0:0:
6,98,106852,5,10,0:0:0:0:
220,7,106984,1,2,0:0:0:0:
435,85,107115,2,0,P|439:146|458:245,1,143.999995605469,2|0,0:0|0:0,0:0:0:0:
453,227,107378,5,0,3:2:0:0:
327,146,107510,1,2,0:0:0:0:
327,146,107576,1,2,0:0:0:0:
327,146,107642,1,2,0:0:0:0:
309,310,107773,1,2,0:0:0:0:
221,220,107905,2,0,P|176:221|128:204,1,95.9999970703126,8|0,0:0|0:0,0:0:0:0:
13,371,108168,2,0,P|80:346|151:347,1,143.999995605469,2|0,0:0|0:0,0:0:0:0:
151,347,108431,5,0,3:0:0:0:
136,212,108563,1,2,0:0:0:0:
136,212,108628,1,2,0:0:0:0:
136,212,108694,1,2,0:0:0:0:
100,67,108826,1,2,0:0:0:0:
423,65,108957,2,0,P|404:108|401:156,1,95.9999970703126,10|0,0:0|0:0,0:0:0:0:
243,116,109220,2,0,P|260:70|263:22,1,95.9999970703126,2|0,0:0|0:0,0:0:0:0:
311,190,109484,5,0,3:2:0:0:
443,333,109615,1,2,0:0:0:0:
443,333,109681,1,2,0:0:0:0:
443,333,109747,2,0,P|375:340|282:366,1,143.999995605469,2|0,0:0|0:0,0:0:0:0:
301,358,110010,1,8,0:0:0:0:
168,281,110142,1,2,0:0:0:0:
168,281,110207,1,2,0:0:0:0:
168,281,110273,1,2,0:0:0:0:
329,225,110405,1,2,0:0:0:0:
97,99,110536,5,2,3:2:0:0:
231,202,110668,2,0,P|233:125|243:6,1,191.999994140625,2|0,0:0|0:0,0:0:0:0:
490,31,111063,1,10,0:0:0:0:
482,207,111194,1,2,0:0:0:0:
330,120,111326,1,2,0:0:0:0:
425,111,111457,1,2,0:0:0:0:
231,202,111589,5,0,3:0:0:0:
128,367,111720,1,2,0:0:0:0:
128,367,111786,1,2,0:0:0:0:
128,367,111852,1,2,0:0:0:0:
39,195,111984,1,2,0:0:0:0:
133,268,112115,2,0,P|179:278|239:293,1,95.9999970703126,10|0,0:0|0:0,0:0:0:0:
106,35,112378,2,0,P|60:25|0:10,1,95.9999970703126,2|0,0:0|0:0,0:0:0:0:
141,148,112642,5,2,3:2:0:0:
360,29,112773,1,2,0:0:0:0:
207,66,112905,1,2,0:0:0:0:
290,111,113036,1,2,0:0:0:0:
361,274,113168,6,0,P|353:226|356:178,1,95.9999970703126,10|0,0:0|0:0,0:0:0:0:
129,236,113431,2,0,P|139:307|135:378,1,143.999995605469,2|0,0:0|0:0,0:0:0:0:
135,378,113694,5,0,3:0:0:0:
241,198,113826,1,2,0:0:0:0:
241,198,113892,1,2,0:0:0:0:
241,198,113957,1,2,0:0:0:0:
376,364,114089,1,2,0:0:0:0:
477,276,114220,2,0,P|434:278|377:265,1,95.9999970703126,10|0,0:0|0:0,0:0:0:0:
144,216,114484,1,2,0:0:0:0:
0,322,114615,1,2,0:0:0:0:
49,186,114747,6,0,P|49:138|54:88,1,95.9999970703126,2|0,3:2|0:0,0:0:0:0:
327,10,115010,1,2,0:0:0:0:
390,181,115142,1,2,0:0:0:0:
66,172,115273,6,0,P|66:124|71:74,1,95.9999970703126,10|0,0:0|0:0,0:0:0:0:
310,24,115536,2,0,P|310:96|302:171,1,143.999995605469,2|0,0:0|0:0,0:0:0:0:
302,167,115799,5,0,3:0:0:0:
197,102,115931,1,2,0:0:0:0:
197,102,115997,1,2,0:0:0:0:
197,102,116063,1,2,0:0:0:0:
407,86,116194,1,2,0:0:0:0:
468,215,116326,2,0,P|466:173|443:206,1,95.9999970703126,8|0,0:0|0:0,0:0:0:0:
295,368,116589,2,0,P|218:349|200:275,1,143.999995605469,2|0,0:0|0:0,0:0:0:0:
196,294,116852,5,0,3:0:0:0:
415,309,116984,1,2,0:0:0:0:
415,309,117049,1,2,0:0:0:0:
415,309,117115,1,2,0:0:0:0:
242,219,117247,1,2,0:0:0:0:
278,40,117378,2,0,P|281:88|290:136,1,95.9999970703126,10|0,0:0|0:0,0:0:0:0:
69,160,117642,2,0,P|77:204|81:265,1,95.9999970703126,2|0,0:0|0:0,0:0:0:0:
283,362,117905,5,0,3:0:0:0:
338,254,118036,1,2,0:0:0:0:
338,254,118102,1,2,0:0:0:0:
338,254,118168,2,0,P|408:242|449:179,1,143.999995605469,2|0,0:0|0:0,0:0:0:0:
447,185,118431,1,8,0:0:0:0:
230,160,118563,1,2,0:0:0:0:
230,160,118628,1,2,0:0:0:0:
230,160,118694,1,2,0:0:0:0:
127,33,118826,1,2,0:0:0:0:
6,142,118957,5,2,3:2:0:0:
31,284,119089,2,0,P|73:210|145:115,1,191.999994140625,2|0,0:0|0:0,0:0:0:0:
364,41,119484,1,10,0:0:0:0:
474,270,119615,1,2,0:0:0:0:
384,43,119747,1,8,0:0:0:0:
455,286,119878,1,2,0:0:0:0:
484,131,120010,5,6,3:2:0:0:
367,227,120142,1,2,0:0:0:0:
367,227,120207,1,2,0:0:0:0:
367,227,120273,1,2,0:0:0:0:
225,164,120405,1,2,0:0:0:0:
236,352,120536,2,0,L|216:259,1,95.9999970703126,10|0,0:0|0:0,0:0:0:0:
27,95,120799,2,0,L|49:197,1,95.9999970703126,2|0,0:0|0:0,0:0:0:0:
14,344,121063,5,2,3:2:0:0:
108,360,121194,1,2,0:0:0:0:
306,202,121326,2,0,P|315:158|337:99,1,95.9999970703126,2|0,0:0|0:0,0:0:0:0:
14,194,121589,5,10,0:0:0:0:
126,276,121720,1,2,0:0:0:0:
234,97,121852,2,0,P|280:36|366:-1,1,143.999995605469,2|0,0:0|0:0,0:0:0:0:
338,4,122115,5,0,3:0:0:0:
157,22,122247,1,2,0:0:0:0:
157,22,122313,1,2,0:0:0:0:
157,22,122378,1,2,0:0:0:0:
352,98,122510,1,2,0:0:0:0:
456,49,122642,2,0,P|454:96|465:143,1,95.9999970703126,10|0,0:0|0:0,0:0:0:0:
294,219,122905,1,2,0:0:0:0:
239,117,123036,1,2,0:0:0:0:
46,32,123168,6,0,P|90:51|163:46,1,95.9999970703126,2|0,3:2|0:0,0:0:0:0:
148,258,123431,1,2,0:0:0:0:
56,278,123563,1,2,0:0:0:0:
166,374,123694,5,10,0:0:0:0:
280,161,123826,1,2,0:0:0:0:
485,194,123957,2,0,P|498:264|495:336,1,143.999995605469,2|0,0:0|0:0,0:0:0:0:
495,336,124220,5,0,3:0:0:0:
381,233,124352,1,2,0:0:0:0:
381,233,124418,1,2,0:0:0:0:
381,233,124484,1,2,0:0:0:0:
448,109,124615,1,2,0:0:0:0:
330,24,124747,2,0,P|282:23|237:10,1,95.9999970703126,8|0,0:0|0:0,0:0:0:0:
154,182,125010,2,0,P|87:220|40:273,1,143.999995605469,2|0,0:0|0:0,0:0:0:0:
42,269,125273,5,0,3:0:0:0:
264,328,125405,1,2,0:0:0:0:
264,328,125470,1,2,0:0:0:0:
264,328,125536,1,2,0:0:0:0:
94,357,125668,1,2,0:0:0:0:
61,171,125799,2,0,P|55:128|35:67,1,95.9999970703126,10|0,0:0|0:0,0:0:0:0:
230,227,126063,2,0,P|215:181|208:133,1,95.9999970703126,2|0,0:0|0:0,0:0:0:0:
308,12,126326,5,0,3:0:0:0:
149,68,126457,1,2,0:0:0:0:
149,68,126523,1,2,0:0:0:0:
149,68,126589,2,0,P|218:93|302:100,1,143.999995605469,2|0,0:0|0:0,0:0:0:0:
287,100,126852,1,8,0:0:0:0:
349,365,126984,1,2,0:0:0:0:
349,365,127049,1,2,0:0:0:0:
349,365,127115,1,2,0:0:0:0:
375,164,127247,1,2,0:0:0:0:
152,168,127378,5,2,3:2:0:0:
26,209,127510,2,0,P|109:256|185:314,1,191.999994140625,2|0,0:0|0:0,0:0:0:0:
44,380,127905,1,10,0:0:0:0:
26,209,128036,1,2,0:0:0:0:
193,13,128168,1,2,0:0:0:0:
175,184,128299,1,2,0:0:0:0:
92,93,128431,5,0,3:0:0:0:
356,113,128563,1,2,0:0:0:0:
356,113,128628,1,2,0:0:0:0:
356,113,128694,1,2,0:0:0:0:
299,214,128826,1,2,0:0:0:0:
198,285,128957,2,0,P|201:333|212:380,1,95.9999970703126,10|0,0:0|0:0,0:0:0:0:
36,280,129220,2,0,P|47:233|51:185,1,95.9999970703126,2|0,0:0|0:0,0:0:0:0:
297,306,129484,5,2,3:2:0:0:
496,228,129615,1,2,0:0:0:0:
362,373,129747,1,2,0:0:0:0:
373,249,129878,1,2,0:0:0:0:
250,153,130010,2,0,P|214:128|161:101,1,95.9999970703126,10|0,0:0|0:0,0:0:0:0:
423,156,130273,2,0,P|449:93|500:18,1,143.999995605469,2|0,0:0|0:0,0:0:0:0:
490,29,130536,5,0,3:0:0:0:
345,90,130668,1,2,0:0:0:0:
345,90,130734,1,2,0:0:0:0:
345,90,130799,1,2,0:0:0:0:
137,18,130931,1,2,0:0:0:0:
91,209,131063,2,0,L|110:303,1,95.9999970703126,10|0,0:0|0:0,0:0:0:0:
213,188,131326,1,2,0:0:0:0:
231,91,131457,1,2,0:0:0:0:
24,117,131589,6,0,P|69:121|131:85,1,95.9999970703126,2|0,3:2|0:0,0:0:0:0:
326,26,131852,1,2,0:0:0:0:
444,66,131984,1,2,0:0:0:0:
10,133,132115,6,0,P|53:144|120:120,1,95.9999970703126,10|0,0:0|0:0,0:0:0:0:
346,136,132378,2,0,P|402:173|509:171,1,143.999995605469,2|0,0:0|0:0,0:0:0:0:
476,181,132642,5,0,3:0:0:0:
467,358,132773,1,2,0:0:0:0:
467,358,132839,1,2,0:0:0:0:
467,358,132905,1,2,0:0:0:0:
369,279,133036,1,2,0:0:0:0:
174,353,133168,2,0,P|190:308|211:264,1,95.9999970703126,8|0,0:0|0:0,0:0:0:0:
188,48,133431,2,0,P|146:108|60:150,1,143.999995605469,2|0,0:0|0:0,0:0:0:0:
85,143,133694,5,0,3:0:0:0:
309,50,133826,1,2,0:0:0:0:
309,50,133892,1,2,0:0:0:0:
309,50,133957,1,2,0:0:0:0:
65,24,134089,1,2,0:0:0:0:
200,206,134220,2,0,P|247:209|286:183,1,95.9999970703126,10|0,0:0|0:0,0:0:0:0:
199,346,134484,2,0,P|151:342|112:368,1,95.9999970703126,2|0,0:0|0:0,0:0:0:0:
352,309,134747,5,0,3:0:0:0:
396,160,134878,1,2,0:0:0:0:
396,160,134944,1,2,0:0:0:0:
396,160,135010,2,0,P|403:86|395:-2,1,143.999995605469,2|0,0:0|0:0,0:0:0:0:
398,16,135273,1,8,0:0:0:0:
497,103,135405,1,2,0:0:0:0:
497,103,135470,1,2,0:0:0:0:
497,103,135536,1,2,0:0:0:0:
318,74,135668,1,2,0:0:0:0:
2,37,135799,5,2,3:2:0:0:
185,22,135931,2,0,P|101:72|19:138,1,191.999994140625,2|0,0:0|0:0,0:0:0:0:
226,347,136326,1,10,0:0:0:0:
185,123,136457,1,2,0:0:0:0:
20,221,136589,1,2,0:0:0:0:
92,325,136720,1,8,0:0:0:0:
226,347,136852,6,0,B|245:261|427:365|442:265,1,256,4|8,3:2|0:0,0:0:0:0:
294,63,137642,1,0,3:0:0:0:
334,135,137773,1,8,0:0:0:0:
376,62,137905,2,0,P|431:29|497:8,1,128,2|0,3:2|0:0,0:0:0:0:
130,179,138431,1,8,0:0:0:0:
208,200,138563,1,0,3:0:0:0:
187,120,138694,2,0,P|194:88|210:58,1,64,0|0,3:0|0:0,0:0:0:0:
24,21,138957,6,0,P|41:122|49:220,1,192,2|0,3:2|0:0,0:0:0:0:
48,211,139484,1,8,0:0:0:0:
232,272,139747,1,0,3:0:0:0:
180,336,139878,1,8,0:0:0:0:
100,321,140010,2,0,P|98:354|107:391,1,64,2|0,3:2|0:0,0:0:0:0:
90,308,140273,1,0,3:0:0:0:
368,372,140536,1,8,0:0:0:0:
329,297,140668,1,8,0:0:0:0:
388,238,140799,1,0,3:0:0:0:
463,276,140931,1,0,3:0:0:0:
450,357,141063,1,2,3:2:0:0:
316,136,141326,6,0,P|308:106|302:68,1,64,0|0,3:0|0:0,0:0:0:0:
163,32,141589,2,0,P|179:92|191:168,1,128,8|0,0:0|0:0,0:0:0:0:
259,202,141984,1,8,0:0:0:0:
181,172,142115,2,0,P|153:170|116:147,1,64,2|8,3:2|0:0,0:0:0:0:
86,77,142378,1,0,3:0:0:0:
331,24,142642,2,0,P|359:26|396:49,1,64,8|0,0:0|0:0,0:0:0:0:
426,119,142905,1,0,3:0:0:0:
374,183,143036,1,0,3:0:0:0:
440,232,143168,6,0,P|455:294|461:357,1,128,2|0,3:2|0:0,0:0:0:0:
381,333,143563,1,0,3:0:0:0:
307,236,143694,2,0,P|304:299|294:363,1,128,8|0,0:0|0:0,0:0:0:0:
222,318,144089,1,8,0:0:0:0:
140,300,144220,2,0,P|110:307|76:324,1,64,2|0,3:2|0:0,0:0:0:0:
172,209,144484,1,0,3:0:0:0:
163,218,144747,2,0,P|133:209|95:206,1,64,8|0,0:0|0:0,0:0:0:0:
114,9,145010,2,0,P|143:17|181:20,1,64,0|0,3:0|0:0,0:0:0:0:
230,102,145273,6,0,L|6:128,1,192,6|0,3:2|0:0,0:0:0:0:
39,124,145799,1,8,0:0:0:0:
384,27,146063,1,0,3:0:0:0:
332,92,146194,1,8,0:0:0:0:
346,174,146326,2,0,P|376:191|421:190,1,64,2|0,3:2|0:0,0:0:0:0:
266,37,146589,2,0,P|214:7|137:9,1,128,0|8,3:0|0:0,0:0:0:0:
122,86,146984,2,0,L|143:154,2,64,0|0|0,3:0|0:0|0:0,0:0:0:0:
201,203,147378,6,0,P|154:287|117:383,1,192,2|0,3:2|0:0,0:0:0:0:
119,376,147905,1,8,0:0:0:0:
365,247,148168,1,0,3:0:0:0:
328,172,148299,1,8,0:0:0:0:
359,94,148431,2,0,P|391:96|428:108,1,64,2|0,3:2|0:0,0:0:0:0:
472,171,148694,2,0,P|476:235|500:309,1,128,0|8,3:0|0:0,0:0:0:0:
425,343,149089,2,0,P|407:316|378:290,2,64,0|0|0,3:0|0:0|0:0,0:0:0:0:
500,377,149484,1,2,3:2:0:0:
291,226,149747,6,0,L|222:241,1,64,0|0,3:0|0:0,0:0:0:0:
147,259,150010,1,8,0:0:0:0:
338,126,150273,1,0,3:0:0:0:
255,115,150405,1,8,0:0:0:0:
182,75,150536,2,0,P|163:46|159:3,1,64,2|0,3:2|0:0,0:0:0:0:
32,94,150799,2,0,P|68:151|76:236,1,128,0|8,3:0|0:0,0:0:0:0:
156,241,151194,2,0,P|161:206|177:172,1,64,0|0,3:0|0:0,0:0:0:0:
250,150,151457,1,0,3:0:0:0:
330,42,151589,6,0,P|395:46|452:19,1,128,2|0,3:2|0:0,0:0:0:0:
502,85,151984,1,0,3:0:0:0:
484,166,152115,2,0,P|419:170|362:143,1,128,8|0,0:0|0:0,0:0:0:0:
312,209,152510,1,0,3:0:0:0:
346,367,152642,5,8,0:0:0:0:
409,256,152773,1,8,0:0:0:0:
500,345,152905,1,8,0:0:0:0:
27,284,153168,5,8,0:0:0:0:
137,219,153299,1,8,0:0:0:0:
171,341,153431,1,8,0:0:0:0:
474,39,153694,6,0,B|383:76|405:269|310:300,1,320,6|8,3:2|0:0,0:0:0:0:
83,91,154484,2,0,P|50:86|51:126,1,80
176,178,154747,2,0,P|193:93|145:35,1,160,2|2,3:2|0:0,0:0:0:0:
95,190,155142,1,2,0:0:0:0:
143,253,155273,1,8,0:0:0:0:
466,354,155536,5,2,0:0:0:0:
366,286,155668,1,2,0:0:0:0:
443,194,155799,2,0,P|470:132|492:38,1,160,0|2,3:0|0:0,0:0:0:0:
416,16,156194,1,2,0:0:0:0:
396,93,156326,1,8,0:0:0:0:
142,51,156589,2,0,L|163:132,1,80,2|0,0:0|0:0,0:0:0:0:
205,195,156852,5,0,3:0:0:0:
186,210,156984,1,0,0:0:0:0:
127,263,157115,1,2,0:0:0:0:
229,283,157247,1,2,0:0:0:0:
291,365,157378,2,0,B|347:385|393:311|451:331,1,160,8|0,0:0|0:0,0:0:0:0:
154,312,157905,6,0,P|75:126|-8:16,1,320,2|8,3:2|0:0,0:0:0:0:
237,205,158694,2,0,P|253:241|261:280,1,80
353,189,158957,2,0,P|326:259|313:358,1,160,2|0,3:2|0:0,0:0:0:0:
476,18,159484,1,8,3:2:0:0:
397,35,159615,1,0,0:0:0:0:
322,60,159747,1,2,0:0:0:0:
250,95,159878,1,0,0:0:0:0:
182,137,160010,6,0,B|143:40|143:40|-1:21,1,240,2|2,3:2|0:0,0:0:0:0:
24,248,160536,2,0,B|63:345|63:345|207:364,1,240,10|2,0:0|0:0,0:0:0:0:
183,138,161063,1,2,3:2:0:0:
183,138,161326,1,2,0:0:0:0:
154,245,161457,1,2,0:0:0:0:
313,305,161589,1,8,0:0:0:0:
342,198,161720,1,2,0:0:0:0:
154,245,161852,1,2,0:0:0:0:
413,38,162115,6,0,B|477:95|442:274|511:348,1,320,6|8,3:2|0:0,0:0:0:0:
225,248,162905,2,0,P|236:209|261:180,1,80
355,134,163168,2,0,P|282:100|189:100,1,160,2|2,3:2|0:0,0:0:0:0:
56,246,163563,1,2,0:0:0:0:
139,228,163694,1,8,0:0:0:0:
139,228,163957,2,0,P|138:182|130:139,1,80,2|0,0:0|0:0,0:0:0:0:
227,376,164220,6,0,P|244:302|256:213,2,160,0|2|8,3:0|0:0|0:0,0:0:0:0:
146,374,164878,1,0,0:0:0:0:
89,316,165010,1,2,0:0:0:0:
340,85,165273,1,2,3:2:0:0:
257,19,165405,1,2,0:0:0:0:
154,25,165536,2,0,P|145:63|139:103,2,80,2|2|8,0:0|0:0|0:0,0:0:0:0:
487,168,166063,1,2,0:0:0:0:
372,202,166194,1,2,0:0:0:0:
270,290,166326,6,0,B|237:323|169:218|124:244,2,160,2|0|8,3:2|0:0|0:0,0:0:0:0:
284,278,167115,2,0,B|267:294|233:242|211:255,1,80,2|0,0:0|0:0,0:0:0:0:
287,369,167378,1,0,3:0:0:0:
309,362,167510,1,0,0:0:0:0:
370,309,167642,2,0,P|394:238|445:164,1,160,2|8,0:0|0:0,0:0:0:0:
428,89,168036,1,0,0:0:0:0:
331,48,168168,1,2,0:0:0:0:
284,166,168299,1,2,0:0:0:0:
133,222,168431,6,0,B|125:171|35:64|36:1,1,240,2|0,3:2|0:0,0:0:0:0:
155,13,168957,2,0,B|145:72|38:161|21:210,1,240,10|0,0:0|0:0,0:0:0:0:
70,347,169484,1,2,3:2:0:0:
442,264,169747,1,2,0:0:0:0:
159,103,170010,2,0,P|147:70|145:19,1,80,10|0,0:0|0:0,0:0:0:0:
149,122,170273,1,2,0:0:0:0:
258,345,170536,6,0,B|341:315|359:131|457:90,1,320,6|8,3:2|0:0,0:0:0:0:
2,28,171326,1,0,0:0:0:0:
81,93,171457,1,8,0:0:0:0:
243,17,171589,1,2,3:2:0:0:
74,113,171720,1,8,0:0:0:0:
253,180,171852,2,0,P|273:148|317:132,2,80,2|2|8,0:0|0:0|0:0,0:0:0:0:
507,316,172378,6,0,P|484:348|448:363,1,80,2|8,0:0|0:0,0:0:0:0:
367,361,172642,1,0,3:0:0:0:
265,298,172773,1,8,0:0:0:0:
371,241,172905,1,2,0:0:0:0:
211,22,173168,1,10,0:0:0:0:
453,348,173431,1,0,0:0:0:0:
435,330,173563,1,8,0:0:0:0:
351,370,173694,1,2,3:2:0:0:
268,282,173826,1,8,0:0:0:0:
385,255,173957,1,2,0:0:0:0:
260,123,174089,1,2,0:0:0:0:
436,82,174220,1,8,0:0:0:0:
16,24,174484,2,0,P|55:39|69:84,1,80
124,155,174747,6,0,P|152:96|232:45,2,160,2|0|8,3:2|0:0|0:0,0:0:0:0:
248,341,175536,1,2,0:0:0:0:
375,290,175668,1,8,0:0:0:0:
330,359,175799,1,2,3:2:0:0:
351,369,175931,1,8,0:0:0:0:
230,257,176063,2,0,P|158:256|66:241,1,160,2|8,0:0|0:0,0:0:0:0:
39,355,176457,1,0,0:0:0:0:
88,263,176589,1,2,0:0:0:0:
65,161,176720,1,8,0:0:0:0:
114,69,176852,5,2,3:2:0:0:
96,52,176984,2,0,B|130:30|213:112|265:73,1,160,8|0,0:0|0:0,0:0:0:0:
470,58,177378,2,0,B|412:39|323:190|233:154,1,240,10|0,0:0|0:0,0:0:0:0:
229,83,177905,1,2,3:2:0:0:
239,61,178036,1,8,0:0:0:0:
348,171,178168,1,2,0:0:0:0:
374,287,178299,1,2,0:0:0:0:
277,361,178431,2,0,P|245:341|228:297,1,80,8|2,0:0|0:0,0:0:0:0:
105,197,178694,1,2,0:0:0:0:
18,274,178826,1,8,0:0:0:0:
30,296,178957,6,0,B|125:269|7:19|111:17,1,320,6|8,3:2|0:0,0:0:0:0:
423,74,179747,1,0,0:0:0:0:
451,173,179878,1,8,0:0:0:0:
340,332,180010,1,2,0:0:0:0:
224,184,180142,1,8,0:0:0:0:
360,158,180273,2,0,P|391:184|446:196,2,80,2|2|8,0:0|0:0|0:0,0:0:0:0:
84,189,180799,6,0,P|122:201|153:227,1,80,2|8,0:0|0:0,0:0:0:0:
20,377,181063,1,0,3:0:0:0:
79,276,181194,1,8,0:0:0:0:
15,359,181326,1,2,0:0:0:0:
378,146,181589,1,8,0:0:0:0:
17,82,181852,1,0,0:0:0:0:
118,24,181984,1,8,0:0:0:0:
21,63,182115,1,2,3:2:0:0:
17,82,182247,1,8,0:0:0:0:
118,155,182378,1,2,0:0:0:0:
263,71,182510,1,2,0:0:0:0:
478,33,182642,1,8,0:0:0:0:
445,346,182905,2,0,P|412:334|357:328,1,80
154,271,183168,6,0,P|201:279|317:254,2,160,2|0|8,3:2|0:0|0:0,0:0:0:0:
201,9,183957,1,2,0:0:0:0:
231,182,184089,1,8,0:0:0:0:
200,95,184220,1,2,3:2:0:0:
223,98,184352,1,8,0:0:0:0:
325,34,184484,2,0,P|385:77|498:122,1,160,2|8,0:0|0:0,0:0:0:0:
484,213,184878,1,0,0:0:0:0:
453,96,185010,1,2,0:0:0:0:
388,262,185142,1,8,0:0:0:0:
313,360,185273,5,2,3:2:0:0:
318,338,185405,2,0,B|289:321|199:371|169:301,1,160,8|0,0:0|0:0,0:0:0:0:
188,114,185799,2,0,B|187:147|276:200|230:261,1,160,8|2,0:0|0:0,0:0:0:0:
257,251,186194,1,8,0:0:0:0:
102,246,186326,1,2,3:2:0:0:
210,98,186457,1,8,0:0:0:0:
365,103,186589,1,2,0:0:0:0:
33,31,186852,5,10,0:0:0:0:
289,3,186984,1,10,0:0:0:0:
97,139,187115,1,10,0:0:0:0:
183,320,187247,1,10,0:0:0:0:
8,309,187378,5,6,3:2:0:0:
100,367,187510,1,2,0:0:0:0:
100,367,187576,1,2,0:0:0:0:
100,367,187642,1,2,0:0:0:0:
273,340,187773,1,2,0:0:0:0:
442,196,187905,2,0,P|411:235|397:291,1,95.9999970703126,10|0,0:0|0:0,0:0:0:0:
177,240,188168,1,2,0:0:0:0:
136,35,188299,1,8,0:0:0:0:
215,109,188431,5,2,3:2:0:0:
103,164,188563,1,8,0:0:0:0:
326,137,188694,2,0,L|352:45,1,95.9999970703126,2|0,0:0|0:0,0:0:0:0:
229,15,188957,5,10,0:0:0:0:
91,189,189089,1,2,0:0:0:0:
449,108,189220,2,0,L|464:256,1,143.999995605469,2|0,0:0|0:0,0:0:0:0:
463,251,189484,5,0,3:0:0:0:
202,212,189615,1,2,0:0:0:0:
202,212,189681,1,2,0:0:0:0:
202,212,189747,1,2,0:0:0:0:
325,288,189878,1,2,0:0:0:0:
204,383,190010,2,0,P|228:341|235:293,1,95.9999970703126,10|0,0:0|0:0,0:0:0:0:
126,130,190273,2,0,P|79:117|40:88,1,95.9999970703126,2|0,0:0|0:0,0:0:0:0:
6,298,190536,5,2,3:2:0:0:
177,220,190668,1,8,0:0:0:0:
75,221,190799,2,0,P|94:265|104:311,1,95.9999970703126,2|0,0:0|0:0,0:0:0:0:
304,26,191063,5,10,0:0:0:0:
232,195,191194,1,2,0:0:0:0:
106,48,191326,2,0,P|33:65|21:10,1,143.999995605469,2|0,0:0|0:0,0:0:0:0:
19,13,191589,5,0,3:0:0:0:
135,150,191720,1,2,0:0:0:0:
135,150,191786,1,2,0:0:0:0:
135,150,191852,1,2,0:0:0:0:
304,130,191984,1,2,0:0:0:0:
356,210,192115,2,0,P|400:223|453:243,1,95.9999970703126,8|0,0:0|0:0,0:0:0:0:
259,51,192378,2,0,P|193:31|113:1,1,143.999995605469,2|0,0:0|0:0,0:0:0:0:
122,5,192642,5,0,3:0:0:0:
246,208,192773,1,10,0:0:0:0:
246,208,192839,1,2,0:0:0:0:
246,208,192905,1,2,0:0:0:0:
207,375,193036,1,2,0:0:0:0:
137,267,193168,2,0,P|125:222|124:166,1,95.9999970703126,10|0,0:0|0:0,0:0:0:0:
330,113,193431,1,2,0:0:0:0:
353,277,193563,1,8,0:0:0:0:
247,294,193694,5,0,3:0:0:0:
6,345,193826,1,10,0:0:0:0:
6,345,193892,1,2,0:0:0:0:
6,345,193957,2,0,P|80:342|155:369,1,143.999995605469,2|0,0:0|0:0,0:0:0:0:
145,363,194220,1,8,0:0:0:0:
45,251,194352,1,2,0:0:0:0:
45,251,194418,1,2,0:0:0:0:
45,251,194484,1,2,0:0:0:0:
155,33,194615,1,2,0:0:0:0:
178,236,194747,5,2,3:2:0:0:
101,175,194878,2,0,P|68:86|6:13,1,191.999994140625,8|2,0:0|0:0,0:0:0:0:
253,191,195273,1,10,0:0:0:0:
371,6,195405,1,2,0:0:0:0:
278,68,195536,2,0,P|232:82|197:114,1,95.9999970703126,2|8,0:0|0:0,0:0:0:0:
480,264,195799,5,0,3:0:0:0:
354,364,195931,1,2,0:0:0:0:
354,364,195997,1,2,0:0:0:0:
354,364,196063,1,2,0:0:0:0:
212,285,196194,1,2,0:0:0:0:
388,180,196326,2,0,P|343:177|288:163,1,95.9999970703126,10|0,0:0|0:0,0:0:0:0:
240,45,196589,1,2,0:0:0:0:
372,20,196720,1,8,0:0:0:0:
459,111,196852,5,2,3:2:0:0:
240,28,196984,1,8,0:0:0:0:
125,76,197115,2,0,P|96:120|55:160,1,95.9999970703126,2|0,0:0|0:0,0:0:0:0:
354,20,197378,5,10,0:0:0:0:
123,48,197510,1,2,0:0:0:0:
183,194,197642,2,0,P|186:265|183:337,1,143.999995605469,2|0,0:0|0:0,0:0:0:0:
183,337,197905,5,0,3:0:0:0:
74,270,198036,1,10,0:0:0:0:
74,270,198102,1,2,0:0:0:0:
74,270,198168,1,2,0:0:0:0:
305,251,198299,1,2,0:0:0:0:
449,354,198431,2,0,P|404:335|357:333,1,95.9999970703126,10|0,0:0|0:0,0:0:0:0:
169,191,198694,2,0,P|216:185|258:163,1,95.9999970703126,2|0,0:0|0:0,0:0:0:0:
478,90,198957,5,2,3:2:0:0:
404,152,199089,1,8,0:0:0:0:
198,102,199220,2,0,P|179:66|182:5,1,95.9999970703126,2|0,0:0|0:0,0:0:0:0:
428,241,199484,5,10,0:0:0:0:
266,259,199615,1,2,0:0:0:0:
137,156,199747,2,0,P|124:100|150:18,1,143.999995605469,2|0,0:0|0:0,0:0:0:0:
149,19,200010,5,0,3:0:0:0:
113,256,200142,1,2,0:0:0:0:
113,256,200207,1,2,0:0:0:0:
113,256,200273,1,2,0:0:0:0:
37,114,200405,1,2,0:0:0:0:
201,233,200536,2,0,P|251:214|306:203,1,95.9999970703126,8|0,0:0|0:0,0:0:0:0:
489,361,200799,2,0,P|414:332|400:252,1,143.999995605469,2|0,0:0|0:0,0:0:0:0:
395,276,201063,5,0,3:0:0:0:
224,136,201194,1,10,0:0:0:0:
224,136,201260,1,2,0:0:0:0:
224,136,201326,1,2,0:0:0:0:
272,297,201457,1,2,0:0:0:0:
358,111,201589,2,0,P|366:67|383:10,1,95.9999970703126,10|0,0:0|0:0,0:0:0:0:
190,51,201852,1,2,0:0:0:0:
25,9,201984,1,8,0:0:0:0:
98,84,202115,5,0,3:0:0:0:
201,241,202247,1,10,0:0:0:0:
201,241,202313,1,2,0:0:0:0:
201,241,202378,2,0,P|229:310|233:389,1,143.999995605469,2|0,0:0|0:0,0:0:0:0:
234,377,202642,1,8,0:0:0:0:
64,205,202773,1,2,0:0:0:0:
64,205,202839,1,2,0:0:0:0:
64,205,202905,1,2,0:0:0:0:
225,118,203036,1,2,0:0:0:0:
488,179,203168,5,2,3:2:0:0:
347,283,203299,2,0,P|352:178|365:83,1,191.999994140625,8|2,0:0|0:0,0:0:0:0:
467,21,203694,1,10,0:0:0:0:
245,5,203826,1,2,0:0:0:0:
34,39,203957,1,10,0:0:0:0:
256,23,204089,1,10,0:0:0:0:
256,192,204220,5,4,3:2:0:0:
145,62,218957,6,0,B|187:-5|328:125|370:57,2,240,8|0|0,0:0|3:0|3:0,0:0:0:0:
357,354,220010,6,0,P|395:326|413:256,1,106.666666666667,4|0,0:0|0:0,0:0:0:0:
222,356,220422,1,2,0:0:0:0:
65,198,220628,2,0,P|70:245|122:295,1,106.666666666667,2|0,0:0|0:0,0:0:0:0:
256,192,221040,1,2,0:0:0:0:
354,17,221247,6,0,P|305:-3|225:18,2,128,10|8|8,0:0|0:0|0:0,0:0:0:0:
433,261,222825,2,0,P|426:283|421:317,2,42.6666666666667,8|0|0,0:0|0:0|0:0,0:0:0:0:
474,184,223352,2,0,P|423:151|369:105,1,128,10|8,0:0|0:0,0:0:0:0:
156,30,224404,1,8,0:0:0:0:
151,50,224580,1,0,0:0:0:0:
136,65,224755,1,0,0:0:0:0:
115,72,224931,1,8,0:0:0:0:
115,312,225457,6,0,P|133:330|153:357,2,42.6666666666667,10|0|0,0:0|0:0|0:0,0:0:0:0:
121,226,225983,2,0,P|76:181|26:113,1,128,8|8,0:0|0:0,0:0:0:0:
238,32,227036,1,8,0:0:0:0:
258,38,227211,1,0,0:0:0:0:
277,47,227387,1,0,0:0:0:0:
317,132,227562,2,0,P|259:135|182:150,1,128,10|8,0:0|0:0,0:0:0:0:
310,355,228615,5,8,0:0:0:0:
321,337,228790,1,0,0:0:0:0:
324,315,228966,1,0,0:0:0:0:
175,265,229141,5,8,0:0:0:0:
181,309,229317,1,0,0:0:0:0:
203,345,229492,1,0,0:0:0:0:
278,206,229668,6,0,P|283:134|277:60,2,128,10|8|8,0:0|0:0|0:0,0:0:0:0:
32,62,231247,2,0,P|30:37|38:14,2,42.6666666666667,8|0|0,0:0|0:0|0:0,0:0:0:0:
78,133,231773,2,0,P|154:101|218:102,1,128,10|8,0:0|0:0,0:0:0:0:
419,27,232825,1,8,0:0:0:0:
438,35,233001,1,0,0:0:0:0:
453,49,233176,1,0,0:0:0:0:
463,67,233352,1,8,0:0:0:0:
448,351,233878,6,0,P|428:334|416:306,2,42.6666666666667,10|0|0,0:0|0:0|0:0,0:0:0:0:
501,284,234404,2,0,P|488:221|485:151,1,128,8|8,0:0|0:0,0:0:0:0:
288,26,235457,1,8,0:0:0:0:
278,45,235632,1,0,0:0:0:0:
261,58,235808,1,0,0:0:0:0:
183,92,235983,2,0,P|124:64|86:3,1,128,10|8,0:0|0:0,0:0:0:0:
30,285,237036,5,8,0:0:0:0:
50,279,237211,1,0,0:0:0:0:
70,273,237387,1,0,0:0:0:0:
206,212,237562,5,8,0:0:0:0:
166,200,237738,1,0,0:0:0:0:
126,188,237913,1,0,0:0:0:0:
37,111,238089,6,0,B|92:100|129:34|189:27,2,160,10|8|8,0:0|0:0|0:0,0:0:0:0:
336,27,239668,1,8,0:0:0:0:
346,51,239843,1,0,0:0:0:0:
342,77,240018,1,0,0:0:0:0:
326,157,240194,2,0,P|328:237|346:320,1,160,10|8,0:0|0:0,0:0:0:0:
26,313,241247,1,8,0:0:0:0:
49,325,241422,1,0,0:0:0:0:
69,342,241597,1,0,0:0:0:0:
83,364,241773,1,8,0:0:0:0:
476,277,242299,5,10,0:0:0:0:
454,292,242475,1,0,0:0:0:0:
429,300,242650,1,0,0:0:0:0:
343,306,242825,2,0,B|290:311|248:242|189:247,1,160,8|8,0:0|0:0,0:0:0:0:
4,20,243878,1,8,0:0:0:0:
27,34,244054,1,0,0:0:0:0:
43,56,244229,1,0,0:0:0:0:
121,21,244404,2,0,P|138:102|142:188,1,160,10|8,0:0|0:0,0:0:0:0:
482,316,245457,5,8,0:0:0:0:
464,336,245632,1,0,0:0:0:0:
448,357,245808,1,0,0:0:0:0:
355,244,245983,5,8,0:0:0:0:
343,296,246159,1,0,0:0:0:0:
338,349,246334,1,0,0:0:0:0:
201,207,246510,6,0,B|201:265|229:302|218:373,2,160,10|8|8,0:0|0:0|0:0,0:0:0:0:
424,134,248089,1,8,0:0:0:0:
411,111,248264,1,0,0:0:0:0:
405,86,248439,1,0,0:0:0:0:
337,34,248615,2,0,P|266:29|157:9,1,160,10|8,0:0|0:0,0:0:0:0:
17,201,249668,1,8,0:0:0:0:
43,196,249843,1,0,0:0:0:0:
69,191,250018,1,0,0:0:0:0:
95,186,250194,1,8,0:0:0:0:
417,186,250720,5,10,0:0:0:0:
443,191,250896,1,0,0:0:0:0:
469,196,251071,1,0,0:0:0:0:
495,201,251247,2,0,B|504:158|466:85|489:35,1,160,8|8,0:0|0:0,0:0:0:0:
220,133,252299,1,8,0:0:0:0:
206,155,252475,1,0,0:0:0:0:
197,180,252650,1,0,0:0:0:0:
320,214,252825,2,0,P|255:249|235:338,1,160,10|0,0:0|0:0,0:0:0:0:
232,327,253878,6,0,P|220:305|189:296,3,47.9999985351563,8|8|8|8,0:0|0:0|0:0|0:0,0:0:0:0:
60,264,254404,6,0,P|73:289|108:299,1,55.9999982910157,8|8,0:0|0:0,0:0:0:0:
371,358,254668,2,0,P|357:332|322:322,1,55.9999982910157,8|8,0:0|0:0,0:0:0:0:
160,219,254931,5,6,3:2:0:0:
116,143,255106,1,2,0:0:0:0:
159,71,255282,1,2,0:0:0:0:
203,145,255457,2,0,P|290:135|377:97,1,170.666666666667,2|0,0:0|0:0,0:0:0:0:
480,177,255983,2,0,P|393:187|306:225,1,170.666666666667,2|0,0:0|0:0,0:0:0:0:
302,303,256510,1,2,0:0:0:0:
50,69,256861,1,2,0:0:0:0:
88,144,257036,5,2,3:2:0:0:
171,161,257211,1,0,0:0:0:0:
254,178,257387,1,0,0:0:0:0:
317,109,257562,2,0,P|382:94|461:16,1,170.666666666667,2|0,0:0|0:0,0:0:0:0:
457,167,258089,2,0,P|411:118|304:88,1,170.666666666667,2|0,0:0|0:0,0:0:0:0:
357,187,258615,2,0,P|337:250|365:358,1,170.666666666667,2|0,0:0|0:0,0:0:0:0:
443,369,259141,5,2,3:2:0:0:
43,259,259668,1,2,0:0:0:0:
125,239,259843,1,2,0:0:0:0:
164,314,260018,1,2,0:0:0:0:
251,332,260194,2,0,P|252:255|269:152,1,170.666666666667,2|0,0:0|0:0,0:0:0:0:
261,9,260720,2,0,P|259:94|245:178,1,170.666666666667,2|0,0:0|0:0,0:0:0:0:
162,154,261247,1,2,3:2:0:0:
501,49,261773,6,0,P|455:26|474:101,1,170.666666666667,2|0,0:0|0:0,0:0:0:0:
376,183,262299,2,0,P|309:167|290:254,1,170.666666666667,2|0,0:0|0:0,0:0:0:0:
152,333,262825,2,0,P|85:313|3:403,1,170.666666666667,2|2,0:0|0:0,0:0:0:0:
38,234,263352,5,2,3:2:0:0:
145,208,263527,1,2,0:0:0:0:
119,101,263703,1,2,0:0:0:0:
12,127,263878,2,0,P|91:76|92:4,1,170.666666666667,2|0,0:0|0:0,0:0:0:0:
181,157,264404,2,0,P|190:75|263:37,1,170.666666666667,2|0,0:0|0:0,0:0:0:0:
328,92,264931,1,2,0:0:0:0:
457,351,265282,1,2,0:0:0:0:
301,215,265457,5,2,3:2:0:0:
378,317,265632,1,2,0:0:0:0:
501,275,265808,1,2,0:0:0:0:
499,147,265983,2,0,P|460:86|419:-13,1,170.666666666667,2|0,0:0|0:0,0:0:0:0:
272,39,266510,2,0,P|311:100|352:199,1,170.666666666667,2|0,0:0|0:0,0:0:0:0:
229,286,267036,2,0,P|183:213|151:134,1,170.666666666667,2|0,0:0|0:0,0:0:0:0:
272,39,267562,5,2,3:2:0:0:
487,358,268089,1,2,0:0:0:0:
343,342,268264,1,2,0:0:0:0:
424,266,268439,1,2,0:0:0:0:
280,250,268615,2,0,L|99:299,1,170.666666666667,2|0,0:0|0:0,0:0:0:0:
180,137,269141,2,0,L|312:269,1,170.666666666667,2|0,0:0|0:0,0:0:0:0:
130,280,269668,1,2,3:2:0:0:
379,8,270194,6,0,P|350:95|338:185,1,170.666666666667,2|0,0:0|0:0,0:0:0:0:
178,302,270720,2,0,P|264:278|343:262,1,170.666666666667,2|0,0:0|0:0,0:0:0:0:
173,172,271247,2,0,P|160:88|133:8,1,170.666666666667,2|0,0:0|0:0,0:0:0:0:
24,32,271773,5,2,3:2:0:0:
132,94,271948,1,2,0:0:0:0:
240,32,272124,1,2,0:0:0:0:
362,9,272299,2,0,P|440:36|474:135,1,191.999994140625,2|0,3:2|0:0,0:0:0:0:
222,197,272825,2,0,P|206:115|275:37,1,191.999994140625,2|0,3:2|0:0,0:0:0:0:
457,223,273352,2,0,P|394:277|291:256,1,191.999994140625,2|0,3:2|0:0,0:0:0:0:
391,377,273878,5,2,3:2:0:0:
366,192,274054,1,2,0:0:0:0:
371,373,274229,1,2,0:0:0:0:
267,254,274404,2,0,P|250:158|154:131,1,191.999994140625,2|0,3:2|0:0,0:0:0:0:
15,62,274931,2,0,P|32:158|128:185,1,191.999994140625,2|0,3:2|0:0,0:0:0:0:
348,84,275457,2,0,L|144:117,1,191.999994140625,2|0,3:2|0:0,0:0:0:0:
172,258,275983,5,2,3:2:0:0:
172,258,276247,5,8,0:0:0:0:
449,113,276510,5,2,3:2:0:0:
381,45,276685,1,2,0:0:0:0:
421,231,276861,1,2,0:0:0:0:
334,185,277036,2,0,B|293:138|212:124|182:71,1,191.999994140625,2|0,3:2|0:0,0:0:0:0:
46,234,277562,2,0,B|87:281|168:295|198:348,1,191.999994140625,2|0,3:2|0:0,0:0:0:0:
418,271,278089,5,2,3:2:0:0:
418,271,278352,5,8,0:0:0:0:
183,205,278615,6,0,P|196:140|209:-2,1,191.999994140625,2|0,3:2|0:0,0:0:0:0:
329,179,279141,2,0,P|316:244|303:386,1,191.999994140625,2|0,3:2|0:0,0:0:0:0:
194,222,279668,2,0,P|172:159|113:29,1,191.999994140625,2|0,3:2|0:0,0:0:0:0:
318,162,280194,5,2,3:2:0:0:
464,232,280369,1,2,0:0:0:0:
381,373,280545,1,2,0:0:0:0:
235,303,280720,2,0,P|147:289|35:280,1,191.999994140625,2|0,3:2|0:0,0:0:0:0:
164,195,281247,2,0,P|242:140|317:80,1,191.999994140625,2|0,3:2|0:0,0:0:0:0:
50,9,281773,2,0,P|104:87|164:162,1,191.999994140625,2|0,3:2|0:0,0:0:0:0:
442,243,282299,5,2,3:2:0:0:
296,266,282475,1,2,0:0:0:0:
178,355,282650,1,2,0:0:0:0:
34,303,282825,2,0,P|114:226|91:151,1,191.999994140625,2|0,3:2|0:0,0:0:0:0:
304,287,283352,2,0,P|292:196|366:141,1,191.999994140625,2|0,3:2|0:0,0:0:0:0:
14,178,283878,2,0,P|121:151|139:74,1,191.999994140625,2|0,3:2|0:0,0:0:0:0:
364,199,284404,5,2,3:2:0:0:
364,199,284668,5,8,0:0:0:0:
429,15,284931,5,2,3:2:0:0:
293,121,285106,1,2,0:0:0:0:
327,290,285282,1,2,0:0:0:0:
487,352,285457,2,0,P|450:302|452:173,1,191.999994140625,2|0,3:2|0:0,0:0:0:0:
233,50,285983,2,0,P|270:100|268:229,1,191.999994140625,2|0,3:2|0:0,0:0:0:0:
109,347,286510,5,2,3:2:0:0:
109,347,286773,5,8,0:0:0:0:
307,295,287036,6,0,B|359:284|442:365|496:350,1,191.999994140625,2|0,3:2|0:0,0:0:0:0:
344,196,287562,5,10,0:0:0:0:
232,228,287694,1,10,0:0:0:0:
332,172,287825,1,10,0:0:0:0:
35,59,288089,5,10,0:0:0:0:
199,108,288220,1,10,0:0:0:0:
73,227,288352,1,10,0:0:0:0:
73,227,290193,6,0,P|105:237|104:200,1,80,10|8,0:0|0:0,0:0:0:0:
204,124,290457,2,0,P|172:114|173:151,1,80,10|8,0:0|0:0,0:0:0:0:
23,305,290720,6,0,B|82:257|179:296|160:326|267:370|344:323,1,320,6|8,3:2|0:0,0:0:0:0:
467,231,291509,2,0,P|444:208|429:161,1,80
334,26,291772,2,0,P|379:70|409:164,1,160,2|2,3:2|0:0,0:0:0:0:
345,208,292167,1,2,0:0:0:0:
266,192,292298,1,8,0:0:0:0:
21,121,292562,5,2,0:0:0:0:
138,99,292693,1,2,0:0:0:0:
227,18,292825,2,0,P|311:29|389:67,1,160,0|2,3:0|0:0,0:0:0:0:
453,30,293220,1,2,0:0:0:0:
493,98,293351,1,8,0:0:0:0:
279,205,293614,2,0,L|258:125,1,80,2|0,0:0|0:0,0:0:0:0:
185,160,293877,5,0,3:0:0:0:
165,146,294009,1,0,0:0:0:0:
169,242,294141,1,2,0:0:0:0:
52,267,294272,1,2,0:0:0:0:
7,333,294404,2,0,P|93:357|120:306,1,160,8|0,0:0|0:0,0:0:0:0:
414,31,294930,6,0,P|366:203|468:257,1,320,2|10,3:2|0:0,0:0:0:0:
246,361,295720,2,0,L|266:279,1,80
275,203,295983,2,0,L|233:39,1,160,2|0,3:2|0:0,0:0:0:0:
14,144,296509,1,8,3:2:0:0:
73,197,296641,1,0,0:0:0:0:
150,180,296772,1,2,0:0:0:0:
209,233,296904,1,0,0:0:0:0:
286,216,297035,6,0,P|350:170|501:95,1,240,2|0,3:2|0:0,0:0:0:0:
503,213,297562,2,0,P|395:162|296:95,1,240,10|0,0:0|0:0,0:0:0:0:
295,239,298088,1,2,3:2:0:0:
295,239,298351,1,2,0:0:0:0:
146,274,298483,1,2,0:0:0:0:
159,150,298614,1,8,0:0:0:0:
264,157,298746,1,2,0:0:0:0:
307,87,298877,1,2,0:0:0:0:
307,87,299141,6,0,B|248:133|185:81|166:25|64:-19|8:56,1,320,6|8,3:2|0:0,0:0:0:0:
110,302,299930,2,0,P|128:273|147:216,1,80
254,354,300193,2,0,P|253:267|219:201,1,160,2|2,3:2|0:0,0:0:0:0:
416,213,300588,1,2,0:0:0:0:
342,264,300720,1,8,0:0:0:0:
342,264,300983,2,0,P|369:291|398:333,1,80,2|0,0:0|0:0,0:0:0:0:
413,125,301246,6,0,P|417:45|495:37,2,160,0|2|10,3:0|0:0|0:0,0:0:0:0:
38,23,302035,2,0,P|61:55|105:68,1,80
211,150,302298,1,2,3:2:0:0:
201,172,302430,1,0,0:0:0:0:
85,217,302562,1,2,0:0:0:0:
210,366,302693,1,2,0:0:0:0:
75,342,302825,2,0,P|159:284|228:257,1,160,8|0,0:0|0:0,0:0:0:0:
342,221,303220,1,2,0:0:0:0:
252,121,303351,6,0,B|273:12|384:52|370:118|474:164|500:62,1,320,2|10,3:2|0:0,0:0:0:0:
236,109,304141,2,0,B|234:81|263:83|264:100|292:105|292:78,1,80,2|0,0:0|0:0,0:0:0:0:
112,30,304404,1,2,3:2:0:0:
132,41,304535,1,0,0:0:0:0:
154,120,304667,2,0,P|79:139|5:198,1,160,2|8,0:0|0:0,0:0:0:0:
60,255,305062,1,0,0:0:0:0:
170,280,305193,1,2,0:0:0:0:
282,369,305325,1,2,0:0:0:0:
100,335,305456,6,0,B|129:285|102:144|145:101,1,240,2|0,3:2|0:0,0:0:0:0:
368,28,305983,2,0,B|409:69|382:210|411:260,1,240,10|0,0:0|0:0,0:0:0:0:
499,366,306509,1,2,3:2:0:0:
256,60,306772,1,2,0:0:0:0:
63,243,307035,2,0,P|48:279|16:312,1,80,8|0,0:0|0:0,0:0:0:0:
56,219,307298,1,2,0:0:0:0:
417,49,307562,6,0,B|282:-23|274:176|112:114,1,320,6|8,3:2|0:0,0:0:0:0:
255,362,308351,1,0,0:0:0:0:
292,257,308483,1,8,0:0:0:0:
473,221,308614,1,2,3:2:0:0:
302,237,308746,1,8,0:0:0:0:
360,30,308877,2,0,P|369:70|370:122,2,80,2|2|8,0:0|0:0|0:0,0:0:0:0:
141,275,309404,6,0,P|143:315|152:354,1,80,2|8,0:0|0:0,0:0:0:0:
18,352,309667,1,0,3:0:0:0:
57,256,309798,1,8,0:0:0:0:
27,155,309930,1,2,0:0:0:0:
254,36,310193,1,10,0:0:0:0:
134,190,310456,1,2,0:0:0:0:
143,167,310588,1,8,0:0:0:0:
46,162,310720,1,0,3:0:0:0:
76,263,310851,1,8,0:0:0:0:
37,359,310983,1,2,0:0:0:0:
181,267,311114,1,2,0:0:0:0:
216,98,311246,1,8,0:0:0:0:
504,248,311509,2,0,P|469:255|417:276,1,80
335,361,311772,6,0,P|342:281|360:203,2,160,2|0|10,3:2|0:0|0:0,0:0:0:0:
199,87,312562,1,2,0:0:0:0:
46,40,312693,1,8,0:0:0:0:
11,137,312825,1,2,3:2:0:0:
33,130,312956,1,8,0:0:0:0:
65,47,313088,2,0,P|104:134|165:165,1,160,2|8,0:0|0:0,0:0:0:0:
210,228,313483,1,0,0:0:0:0:
323,97,313614,1,2,0:0:0:0:
168,150,313746,1,8,0:0:0:0:
341,255,313877,5,2,3:2:0:0:
354,274,314009,2,0,B|393:223|382:188|408:111,1,160,8|0,0:0|0:0,0:0:0:0:
180,19,314404,2,0,B|212:115|196:168|254:244,1,240,10|0,0:0|0:0,0:0:0:0:
362,359,314930,1,2,3:2:0:0:
341,371,315062,1,8,0:0:0:0:
486,345,315193,1,2,0:0:0:0:
454,142,315325,1,2,0:0:0:0:
298,207,315456,2,0,P|310:248|310:300,1,80,8|2,0:0|0:0,0:0:0:0:
161,107,315720,1,2,0:0:0:0:
271,53,315851,1,8,0:0:0:0:
257,32,315983,6,0,B|232:72|179:81|92:-9|-3:18|-3:143,1,320,6|8,3:2|0:0,0:0:0:0:
257,365,316772,1,0,0:0:0:0:
217,268,316904,1,8,0:0:0:0:
366,319,317035,1,2,3:2:0:0:
204,281,317167,1,8,0:0:0:0:
208,97,317298,2,0,P|206:58|196:13,2,80,2|2|8,0:0|0:0|0:0,0:0:0:0:
32,362,317825,6,0,P|23:322|21:283,1,80,2|0,0:0|0:0,0:0:0:0:
128,147,318088,1,0,3:0:0:0:
255,219,318220,1,8,0:0:0:0:
396,182,318351,1,2,0:0:0:0:
88,11,318614,1,10,0:0:0:0:
435,100,318877,1,0,0:0:0:0:
442,76,319009,1,8,0:0:0:0:
401,209,319141,1,2,3:2:0:0:
351,42,319272,1,8,0:0:0:0:
299,134,319404,1,2,0:0:0:0:
185,178,319535,1,2,0:0:0:0:
104,353,319667,1,8,0:0:0:0:
72,43,319930,2,0,P|109:56|112:94,1,80
313,262,320193,6,0,P|239:287|233:363,2,160,2|0|10,3:2|0:0|0:0,0:0:0:0:
27,179,320983,1,2,0:0:0:0:
214,236,321114,1,8,0:0:0:0:
109,277,321246,1,0,3:2:0:0:
87,286,321377,1,8,0:0:0:0:
154,136,321509,2,0,P|222:104|253:26,1,160,2|8,0:0|0:0,0:0:0:0:
118,44,321904,1,0,0:0:0:0:
158,157,322035,1,2,0:0:0:0:
275,181,322167,1,8,0:0:0:0:
315,294,322298,5,2,3:2:0:0:
317,317,322430,2,0,B|399:304|350:233|437:223,1,160,8|0,0:0|0:0,0:0:0:0:
206,236,322825,2,0,B|176:313|262:306|227:386,1,160,8|2,0:0|0:0,0:0:0:0:
41,180,323351,5,2,3:2:0:0:
48,202,323483,1,8,0:0:0:0:
71,193,323614,1,2,0:0:0:0:
62,170,323746,1,8,0:0:0:0:
140,59,323877,5,10,0:0:0:0:
273,88,324009,1,10,0:0:0:0:
488,171,324141,1,10,0:0:0:0:
355,200,324272,1,10,0:0:0:0:
269,321,324404,6,0,B|336:250|300:202|304:125|261:74|354:20,1,320,4|8,3:2|0:0,0:0:0:0:
6,21,325193,2,0,P|44:37|80:73,1,80,0|8,0:0|0:0,0:0:0:0:
179,125,325456,1,2,3:2:0:0:
187,148,325588,1,8,0:0:0:0:
271,208,325720,1,2,0:0:0:0:
171,236,325851,1,2,0:0:0:0:
75,359,325983,1,8,0:0:0:0:
75,359,326246,2,0,P|85:316|70:279,1,80,2|8,0:0|0:0,0:0:0:0:
287,222,326509,6,0,P|277:265|292:302,1,80,2|8,3:2|0:0,0:0:0:0:
369,363,326772,1,2,0:0:0:0:
470,81,327035,1,8,0:0:0:0:
392,345,327298,2,0,P|399:275|414:169,1,160,2|0,0:0|3:0,0:0:0:0:
506,262,327693,1,8,0:0:0:0:
426,268,327825,1,2,0:0:0:0:
318,229,327956,1,2,0:0:0:0:
206,138,328088,2,0,B|161:135|128:204|51:191,1,160,10|0,0:0|0:0,0:0:0:0:
86,306,328483,1,8,0:0:0:0:
98,287,328614,6,0,B|125:253|100:201|27:207|4:137|14:70|91:28|159:82,1,320,2|10,3:2|0:0,0:0:0:0:
422,168,329404,2,0,P|460:154|468:108,1,80
380,29,329667,1,2,3:2:0:0:
386,52,329798,1,8,0:0:0:0:
331,110,329930,2,0,P|295:95|241:88,1,80,2|0,0:0|0:0,0:0:0:0:
196,33,330193,1,10,0:0:0:0:
88,83,330325,1,0,0:0:0:0:
192,167,330456,1,2,0:0:0:0:
139,318,330588,1,8,0:0:0:0:
346,363,330720,5,2,3:2:0:0:
365,375,330851,2,0,B|349:331|377:264|351:214,1,160,8|0,0:0|0:0,0:0:0:0:
219,366,331246,2,0,B|151:323|138:215|84:170,1,240,10|0,0:0|0:0,0:0:0:0:
15,256,331772,1,2,3:2:0:0:
37,247,331904,1,8,0:0:0:0:
104,168,332035,1,2,0:0:0:0:
253,242,332167,1,2,0:0:0:0:
139,352,332298,1,8,0:0:0:0:
203,103,332430,1,2,0:0:0:0:
174,27,332562,1,2,0:0:0:0:
510,140,332825,6,0,B|427:120|324:312|228:255,1,320,6|8,3:2|0:0,0:0:0:0:
51,19,333614,2,0,P|54:68|101:82,1,80,0|8,0:0|0:0,0:0:0:0:
148,210,333877,1,2,3:2:0:0:
164,192,334009,1,8,0:0:0:0:
249,157,334141,1,2,0:0:0:0:
176,83,334272,1,2,0:0:0:0:
41,182,334404,1,8,0:0:0:0:
41,182,334667,2,0,L|21:259,1,80,2|8,0:0|0:0,0:0:0:0:
245,254,334930,5,2,3:2:0:0:
265,357,335062,1,8,0:0:0:0:
275,335,335193,2,0,B|286:287|249:230|277:165,1,160,0|8,0:0|0:0,0:0:0:0:
486,30,335720,2,0,P|450:36|452:81,1,80,2|0,0:0|0:0,0:0:0:0:
497,225,335983,1,2,3:2:0:0:
381,334,336114,1,8,0:0:0:0:
292,240,336246,1,2,0:0:0:0:
350,154,336377,1,2,0:0:0:0:
374,230,336509,1,8,0:0:0:0:
131,334,336772,1,2,0:0:0:0:
15,225,336904,1,2,0:0:0:0:
162,154,337035,6,0,P|113:94|35:18,2,160,2|0|10,3:2|0:0|0:0,0:0:0:0:
489,34,337825,1,2,0:0:0:0:
330,52,337956,1,8,0:0:0:0:
348,211,338088,1,2,3:2:0:0:
413,102,338220,1,8,0:0:0:0:
316,71,338351,1,2,0:0:0:0:
196,313,338614,2,0,P|223:322|242:283,1,80,8|0,0:0|0:0,0:0:0:0:
112,285,338877,1,2,0:0:0:0:
287,309,339009,1,2,0:0:0:0:
105,312,339141,5,2,3:2:0:0:
89,293,339272,2,0,B|115:231|82:182|87:131,1,160,8|0,0:0|0:0,0:0:0:0:
221,23,339667,2,0,B|182:116|231:189|224:266,1,240,10|2,0:0|0:0,0:0:0:0:
436,350,340193,1,2,3:2:0:0:
412,343,340325,1,8,0:0:0:0:
298,357,340456,1,2,0:0:0:0:
345,237,340588,1,2,0:0:0:0:
291,33,340720,1,10,0:0:0:0:
456,55,340851,1,2,0:0:0:0:
433,221,340983,1,10,0:0:0:0:
267,198,341114,1,2,0:0:0:0:
101,165,341246,6,0,B|16:185|-27:132|-3:63|95:36|168:55|177:108,1,320,6|8,3:2|0:0,0:0:0:0:
278,360,342035,2,0,P|250:349|227:300,1,80,0|8,0:0|0:0,0:0:0:0:
190,183,342298,1,2,3:2:0:0:
333,128,342430,1,8,0:0:0:0:
212,32,342562,1,2,0:0:0:0:
246,112,342693,1,2,0:0:0:0:
333,100,342825,1,8,0:0:0:0:
132,273,343088,2,0,P|91:272|59:292,1,80,2|8,0:0|0:0,0:0:0:0:
58,91,343351,6,0,P|92:111|132:111,1,80,0|8,3:0|0:0,0:0:0:0:
284,27,343614,1,2,0:0:0:0:
228,357,343877,1,8,0:0:0:0:
273,50,344141,2,0,P|291:85|315:208,1,160,2|0,0:0|3:0,0:0:0:0:
364,264,344535,1,8,0:0:0:0:
415,171,344667,1,2,0:0:0:0:
292,202,344798,1,2,0:0:0:0:
137,153,344930,2,0,B|79:103|194:55|142:0,1,160,10|0,0:0|0:0,0:0:0:0:
68,28,345325,1,8,0:0:0:0:
54,48,345456,6,0,B|134:137|290:-4|365:68,1,320,2|10,3:2|0:0,0:0:0:0:
214,355,346246,2,0,P|216:318|212:265,1,80,0|8,0:0|0:0,0:0:0:0:
137,172,346509,1,2,3:2:0:0:
133,195,346641,1,8,0:0:0:0:
83,257,346772,2,0,P|39:270|10:300,1,80,2|0,0:0|0:0,0:0:0:0:
99,366,347035,1,10,0:0:0:0:
233,347,347167,1,0,0:0:0:0:
411,375,347298,1,2,0:0:0:0:
247,325,347430,1,10,0:0:0:0:
401,182,347562,5,2,3:2:0:0:
421,194,347693,2,0,P|393:257|324:217,1,160,8|0,0:0|0:0,0:0:0:0:
186,129,348088,2,0,P|144:34|40:94,1,240,10|0,0:0|0:0,0:0:0:0:
113,189,348614,1,2,3:2:0:0:
89,194,348746,1,8,0:0:0:0:
119,335,348877,1,2,0:0:0:0:
193,261,349009,1,2,0:0:0:0:
165,101,349141,1,8,0:0:0:0:
15,8,349272,1,2,0:0:0:0:
256,34,349404,1,2,0:0:0:0:
256,350,349667,6,0,B|309:243|248:223|155:270|83:243|140:129,1,320,6|8,3:2|0:0,0:0:0:0:
471,139,350456,2,0,P|486:100|487:56,1,80,0|8,0:0|0:0,0:0:0:0:
325,21,350720,1,2,3:2:0:0:
345,33,350851,1,8,0:0:0:0:
393,102,350983,1,2,0:0:0:0:
264,167,351114,1,2,0:0:0:0:
199,38,351246,1,8,0:0:0:0:
199,38,351509,2,0,P|159:27|119:32,1,80,2|8,0:0|0:0,0:0:0:0:
18,155,351772,5,2,3:2:0:0:
30,175,351904,2,0,B|63:125|142:184|200:126,1,160,8|2,0:0|0:0,0:0:0:0:
306,309,352298,2,0,B|304:337|353:344|347:374,1,80,8|0,0:0|0:0,0:0:0:0:
381,108,352562,1,2,0:0:0:0:
381,108,352825,2,0,P|372:73|374:25,1,80,2|8,3:2|0:0,0:0:0:0:
85,17,353088,2,0,P|94:52|92:100,1,80,2|2,0:0|0:0,0:0:0:0:
227,199,353351,5,10,0:0:0:0:
179,112,353483,1,0,0:0:0:0:
266,69,353614,1,0,0:0:0:0:
304,152,353746,1,0,0:0:0:0:
269,302,353877,6,0,L|187:285,1,80,2|0,3:2|0:0,0:0:0:0:
68,364,354141,2,0,L|85:282,1,80
230,100,354404,2,0,L|196:264,1,160,10|0,0:0|0:0,0:0:0:0:
110,159,354798,1,8,0:0:0:0:
426,365,354930,5,2,3:2:0:0:
381,244,355062,1,8,0:0:0:0:
298,343,355193,2,0,P|263:351|237:318,1,80,2|0,0:0|0:0,0:0:0:0:
193,196,355456,1,10,0:0:0:0:
292,165,355588,1,0,0:0:0:0:
181,174,355720,1,2,0:0:0:0:
299,15,355851,1,8,0:0:0:0:
114,107,355983,5,2,3:2:0:0:
8,15,356114,2,0,P|82:19|92:93,1,160,8|0,0:0|0:0,0:0:0:0:
410,58,356509,1,10,0:0:0:0:
256,123,356641,1,0,0:0:0:0:
228,256,356772,1,2,0:0:0:0:
356,330,356904,1,8,0:0:0:0:
356,330,356970,1,8,0:0:0:0:
356,330,357035,5,10,3:2:0:0:
381,240,357167,1,8,0:0:0:0:
469,371,357298,1,8,0:0:0:0:
389,212,357430,1,8,0:0:0:0:
180,364,357562,2,0,L|138:292,1,80,10|0,0:0|0:0,0:0:0:0:
256,123,357825,2,0,L|297:194,1,80,10|0,0:0|0:0,0:0:0:0:
493,23,358088,5,6,3:2:0:0:
390,143,358220,1,2,0:0:0:0:
390,143,358285,1,2,0:0:0:0:
390,143,358351,1,2,0:0:0:0:
270,19,358483,1,2,0:0:0:0:
181,54,358614,2,0,P|138:69|73:74,1,95.9999970703126,10|0,0:0|0:0,0:0:0:0:
165,324,358877,1,2,0:0:0:0:
225,163,359009,1,8,0:0:0:0:
347,250,359141,5,2,3:2:0:0:
251,255,359272,1,8,0:0:0:0:
44,368,359404,2,0,P|59:327|61:266,1,95.9999970703126,2|0,0:0|0:0,0:0:0:0:
351,285,359667,5,10,0:0:0:0:
247,220,359798,1,2,0:0:0:0:
44,26,359930,2,0,P|48:98|72:166,1,143.999995605469,2|0,0:0|0:0,0:0:0:0:
71,165,360193,5,0,3:0:0:0:
309,24,360325,1,10,0:0:0:0:
309,24,360391,1,2,0:0:0:0:
309,24,360456,1,2,0:0:0:0:
289,141,360588,1,2,0:0:0:0:
220,72,360720,2,0,P|171:74|123:28,1,95.9999970703126,10|0,0:0|0:0,0:0:0:0:
284,260,360983,2,0,P|325:233|390:249,1,95.9999970703126,2|0,0:0|0:0,0:0:0:0:
400,34,361246,5,2,3:2:0:0:
413,130,361377,1,8,0:0:0:0:
479,352,361509,2,0,L|492:257,1,95.9999970703126,2|0,0:0|0:0,0:0:0:0:
284,260,361772,5,10,0:0:0:0:
70,206,361904,1,2,0:0:0:0:
50,363,362035,2,0,P|91:321|191:272,1,143.999995605469,2|0,0:0|0:0,0:0:0:0:
164,279,362298,5,0,3:0:0:0:
372,278,362430,1,2,0:0:0:0:
372,278,362496,1,2,0:0:0:0:
372,278,362562,1,2,0:0:0:0:
274,361,362693,1,2,0:0:0:0:
228,187,362825,2,0,P|233:143|232:90,1,95.9999970703126,8|0,0:0|0:0,0:0:0:0:
489,28,363088,2,0,P|481:94|483:173,1,143.999995605469,2|0,0:0|0:0,0:0:0:0:
482,171,363351,5,0,3:0:0:0:
360,99,363483,1,10,0:0:0:0:
360,99,363548,1,2,0:0:0:0:
360,99,363614,1,2,0:0:0:0:
124,145,363746,1,2,0:0:0:0:
259,212,363877,2,0,P|299:200|364:197,1,95.9999970703126,8|0,0:0|0:0,0:0:0:0:
333,369,364141,1,2,0:0:0:0:
239,118,364272,1,8,0:0:0:0:
281,30,364404,5,0,3:0:0:0:
391,280,364535,1,10,0:0:0:0:
391,280,364601,1,2,0:0:0:0:
391,280,364667,2,0,P|319:284|250:303,1,143.999995605469,2|0,0:0|0:0,0:0:0:0:
250,303,364930,1,8,0:0:0:0:
198,136,365062,1,2,0:0:0:0:
198,136,365127,1,2,0:0:0:0:
198,136,365193,1,2,0:0:0:0:
6,23,365325,1,2,0:0:0:0:
34,114,365456,5,2,3:2:0:0:
220,222,365588,2,0,P|280:190|266:79,1,191.999994140625,8|2,0:0|0:0,0:0:0:0:
72,219,365983,1,10,0:0:0:0:
191,369,366114,1,2,0:0:0:0:
402,280,366246,2,0,P|358:291|352:336,1,95.9999970703126,2|0,0:0|0:0,0:0:0:0:
83,329,366509,5,6,3:2:0:0:
155,141,366641,1,2,0:0:0:0:
155,141,366706,1,2,0:0:0:0:
155,141,366772,1,2,0:0:0:0:
264,316,366904,1,2,0:0:0:0:
382,187,367035,2,0,P|429:191|466:222,1,95.9999970703126,10|0,0:0|0:0,0:0:0:0:
363,46,367298,1,2,0:0:0:0:
477,22,367430,1,8,0:0:0:0:
295,220,367562,5,2,3:2:0:0:
140,183,367693,1,8,0:0:0:0:
60,129,367825,2,0,P|46:84|72:41,1,95.9999970703126,2|0,0:0|0:0,0:0:0:0:
252,13,368088,5,10,0:0:0:0:
229,155,368220,1,2,0:0:0:0:
367,294,368351,2,0,P|306:330|236:344,1,143.999995605469,2|0,0:0|0:0,0:0:0:0:
236,343,368614,5,0,3:0:0:0:
483,248,368746,1,10,0:0:0:0:
483,248,368812,1,2,0:0:0:0:
483,248,368877,1,2,0:0:0:0:
259,259,369009,1,2,0:0:0:0:
478,107,369141,2,0,P|472:59|478:12,1,95.9999970703126,8|0,0:0|0:0,0:0:0:0:
293,79,369404,2,0,P|299:127|293:175,1,95.9999970703126,2|0,0:0|0:0,0:0:0:0:
160,334,369667,5,2,3:2:0:0:
447,363,369798,1,8,0:0:0:0:
351,353,369930,2,0,P|313:327|312:276,1,95.9999970703126,2|0,0:0|0:0,0:0:0:0:
207,101,370193,1,10,0:0:0:0:
14,151,370325,1,2,0:0:0:0:
92,289,370456,2,0,P|144:244|218:262,1,143.999995605469,2|0,0:0|0:0,0:0:0:0:
213,258,370720,5,0,3:0:0:0:
177,353,370851,1,2,0:0:0:0:
177,353,370917,1,2,0:0:0:0:
177,353,370983,1,2,0:0:0:0:
121,162,371114,1,2,0:0:0:0:
343,169,371246,2,0,P|320:129|320:56,1,95.9999970703126,8|0,0:0|0:0,0:0:0:0:
143,42,371509,2,0,P|83:76|-26:76,1,143.999995605469,2|0,0:0|0:0,0:0:0:0:
9,84,371772,5,0,3:0:0:0:
242,14,371904,1,10,0:0:0:0:
242,14,371970,1,2,0:0:0:0:
242,14,372035,1,2,0:0:0:0:
212,243,372167,1,2,0:0:0:0:
388,241,372298,2,0,P|343:228|292:176,1,95.9999970703126,8|0,0:0|0:0,0:0:0:0:
506,364,372562,1,2,0:0:0:0:
463,172,372693,1,8,0:0:0:0:
498,83,372825,5,0,3:0:0:0:
347,18,372956,1,10,0:0:0:0:
347,18,373022,1,2,0:0:0:0:
347,18,373088,2,0,P|311:76|212:132,1,143.999995605469,2|0,0:0|0:0,0:0:0:0:
250,119,373351,1,8,0:0:0:0:
19,25,373483,1,2,0:0:0:0:
19,25,373548,1,2,0:0:0:0:
19,25,373614,1,2,0:0:0:0:
195,36,373746,1,2,0:0:0:0:
1,149,373877,5,2,3:2:0:0:
104,96,374009,2,0,P|130:182|137:293,1,191.999994140625,8|2,0:0|0:0,0:0:0:0:
408,353,374404,1,10,0:0:0:0:
483,233,374535,1,2,0:0:0:0:
231,278,374667,1,10,0:0:0:0:
46,232,374798,1,10,0:0:0:0:
204,123,374930,5,4,0:0:0:0:
256,192,391957,12,0,394002,0:0:0:0:
17,94,394128,5,14,3:2:0:0:
154,167,394303,1,2,0:0:0:0:
72,284,394478,1,2,0:0:0:0:
273,251,394654,2,0,B|299:196|273:94|299:27,1,213.333333333333,10|0,3:2|0:0,0:0:0:0:
375,261,395180,2,0,B|314:265|239:339|168:350,1,213.333333333333,10|0,3:2|0:0,0:0:0:0:
334,169,395706,2,0,B|368:219|469:247|514:303,1,213.333333333333,10|0,3:2|0:0,0:0:0:0:
273,251,396233,5,10,3:2:0:0:
155,185,396408,1,2,0:0:0:0:
263,14,396584,1,2,0:0:0:0:
378,180,396759,2,0,P|454:174|393:99,1,213.333333333333,10|0,3:2|0:0,0:0:0:0:
223,321,397285,2,0,P|297:363|323:264,1,213.333333333333,10|0,3:2|0:0,0:0:0:0:
10,146,397812,2,0,P|23:220|163:230,1,213.333333333333,10|0,3:2|0:0,0:0:0:0:
81,31,398338,5,10,3:2:0:0:
81,31,398864,1,10,3:2:0:0:
256,47,399040,1,2,0:0:0:0:
240,222,399215,1,2,0:0:0:0:
415,237,399391,2,0,P|454:160|454:25,1,213.333333333333,10|0,3:2|0:0,0:0:0:0:
214,136,399917,2,0,P|211:241|255:338,1,213.333333333333,10|0,3:2|0:0,0:0:0:0:
467,359,400443,5,10,3:2:0:0:
467,359,400970,2,0,P|419:309|456:373,1,213.333333333333,10|0,3:2|0:0,0:0:0:0:
302,248,401496,2,0,P|285:180|237:265,1,213.333333333333,10|0,3:2|0:0,0:0:0:0:
92,130,402022,2,0,P|111:63|4:63,1,213.333333333333,10|0,3:2|0:0,0:0:0:0:
20,184,402549,5,10,3:2:0:0:
207,242,402724,1,2,0:0:0:0:
154,334,402899,1,2,0:0:0:0:
344,291,403075,2,0,P|455:298|481:205,1,213.333333333333,10|0,3:2|0:0,0:0:0:0:
261,146,403601,2,0,P|199:238|266:307,1,213.333333333333,10|0,3:2|0:0,0:0:0:0:
430,145,404128,2,0,P|380:45|287:69,1,213.333333333333,10|0,3:2|0:0,0:0:0:0:
117,26,404654,5,10,3:2:0:0:
219,104,404829,1,2,0:0:0:0:
272,277,405005,1,2,0:0:0:0:
54,357,405180,2,0,B|73:303|9:227|25:146,1,213.333333333333,10|0,3:2|0:0,0:0:0:0:
164,14,405706,2,0,B|202:59|300:42|362:96,1,213.333333333333,10|0,3:2|0:0,0:0:0:0:
491,236,406233,2,0,B|434:246|400:339|322:366,1,213.333333333333,10|0,3:2|0:0,0:0:0:0:
218,205,406759,5,10,3:2:0:0:
218,205,407285,1,10,3:2:0:0:
186,102,407461,1,2,0:0:0:0:
311,136,407636,1,2,0:0:0:0:
271,379,407812,2,0,P|192:316|56:318,1,213.333333333333,10|0,3:2|0:0,0:0:0:0:
30,134,408338,2,0,P|109:197|245:195,1,213.333333333333,10|0,3:2|0:0,0:0:0:0:
463,82,408864,5,10,3:2:0:0:
463,82,409391,2,0,P|423:44|442:124,1,213.333333333333,10|0,3:2|0:0,0:0:0:0:
308,363,409917,2,0,P|306:307|208:354,1,213.333333333333,10|0,3:2|0:0,0:0:0:0:
40,192,410443,2,0,P|78:152|21:21,1,213.333333333333,10|0,3:2|0:0,0:0:0:0:
353,16,410970,5,14,3:2:0:0:
181,85,411145,1,2,0:0:0:0:
346,125,411320,1,2,0:0:0:0:
493,161,411496,2,0,P|495:224|504:376,1,213.333333333333,10|0,3:2|0:0,0:0:0:0:
290,186,412022,2,0,P|343:152|470:68,1,213.333333333333,10|0,3:2|0:0,0:0:0:0:
414,351,412549,2,0,P|358:321|222:253,1,213.333333333333,10|0,3:2|0:0,0:0:0:0:
46,62,413075,5,10,3:2:0:0:
140,218,413250,1,2,0:0:0:0:
294,186,413426,1,2,0:0:0:0:
128,121,413601,2,0,B|190:114|246:6|304:5,1,213.333333333333,10|0,3:2|0:0,0:0:0:0:
271,294,414128,2,0,B|310:246|273:130|314:89,1,213.333333333333,10|0,3:2|0:0,0:0:0:0:
498,318,414654,2,0,B|491:257|383:201|382:143,1,213.333333333333,10|0,3:2|0:0,0:0:0:0:
488,27,415180,6,0,P|468:78|470:134,2,106.666666666667,10|0|0,3:2|0:0|0:0,0:0:0:0:
308,200,415706,1,10,3:2:0:0:
199,28,415882,1,2,0:0:0:0:
17,116,416057,1,2,0:0:0:0:
23,221,416233,2,0,B|92:258|140:120|211:155,1,213.333333333333,10|0,3:2|0:0,0:0:0:0:
463,151,416759,2,0,B|394:188|346:50|275:85,1,213.333333333333,10|0,3:2|0:0,0:0:0:0:
104,78,417285,6,0,P|55:54|23:6,2,106.666666666667,10|0|0,3:2|0:0|0:0,0:0:0:0:
338,220,417812,2,0,P|436:268|500:364,1,213.333333333333,10|0,3:2|0:0,0:0:0:0:
280,284,418338,2,0,P|189:344|74:352,1,213.333333333333,10|0,3:2|0:0,0:0:0:0:
252,201,418864,2,0,P|245:93|296:-10,1,213.333333333333,10|0,3:2|0:0,0:0:0:0:
439,254,419391,5,2,3:2:0:0:
360,182,419566,1,2,0:0:0:0:
252,201,419742,1,2,0:0:0:0:
141,16,419917,2,0,P|178:54|220:86,2,106.666666666667,2|0|0,3:2|0:0|0:0,0:0:0:0:
52,109,420443,2,0,P|65:160|86:209,1,106.666666666667,2|0,3:2|0:0,0:0:0:0:
45,333,420794,1,2,0:0:0:0:
233,371,420970,2,0,B|241:327|189:203|214:149,1,213.333333333333,2|0,3:2|0:0,0:0:0:0:
369,12,421496,5,2,3:2:0:0:
508,94,421671,1,2,0:0:0:0:
426,233,421847,1,2,0:0:0:0:
323,365,422022,2,0,P|329:321|331:255,2,106.666666666667,2|0|0,3:2|0:0|0:0,0:0:0:0:
180,125,422549,2,0,P|182:71|189:19,1,106.666666666667,2|0,3:2|0:0,0:0:0:0:
256,192,422899,1,2,0:0:0:0:
24,364,423075,2,0,P|88:281|193:265,1,213.333333333333,2|0,3:2|0:0,0:0:0:0:
165,93,423601,5,2,3:2:0:0:
115,73,423777,1,0,0:0:0:0:
78,34,423952,1,0,0:0:0:0:
414,22,424128,5,2,3:2:0:0:
272,69,424303,1,2,0:0:0:0:
186,191,424478,1,2,0:0:0:0:
343,340,424654,2,0,P|393:352|452:382,1,106.666666666667,2|0,3:2|0:0,0:0:0:0:
436,161,425005,1,2,0:0:0:0:
416,57,425180,2,0,P|365:44|306:14,1,106.666666666667,2|0,3:2|0:0,0:0:0:0:
61,27,425531,1,2,0:0:0:0:
190,150,425706,5,2,3:2:0:0:
199,296,425882,1,0,0:0:0:0:
199,296,425970,1,0,0:0:0:0:
199,296,426057,1,0,0:0:0:0:
18,381,426233,2,0,P|59:358|85:293,1,106.666666666667,2|0,3:2|0:0,0:0:0:0:
84,305,426496,1,0,0:0:0:0:
84,305,426584,2,0,L|86:242,1,53.3333333333333,2|0,0:0|0:0,0:0:0:0:
139,149,426759,2,0,P|93:175|71:223,1,106.666666666667,2|0,3:2|0:0,0:0:0:0:
256,380,427110,1,2,0:0:0:0:
239,81,427285,6,0,L|291:111,1,53.3333333333333,2|0,3:2|0:0,0:0:0:0:
263,4,427461,2,0,L|211:34,1,53.3333333333333,2|0,0:0|0:0,0:0:0:0:
256,192,427636,1,2,0:0:0:0:
256,192,427724,1,2,0:0:0:0:
256,192,427812,5,6,0:0:0:0:
256,192,427987,12,2,434128,0:0:0:0:
