osu file format v14

[General]
AudioFilename: kokoro.mp3
AudioLeadIn: 0
PreviewTime: 85205
Countdown: 0
SampleSet: Soft
StackLeniency: 0.4
Mode: 0
LetterboxInBreaks: 0
WidescreenStoryboard: 0

[Editor]
Bookmarks: 15218,19565,56957
DistanceSpacing: 1
BeatDivisor: 4
GridSize: 4
TimelineZoom: 2.6

[Metadata]
Title:Kokoro
TitleUnicode:こころ
Artist:Euchaeta
ArtistUnicode:Euchaeta
Creator:kwk
Version:Special
Source:VOEZ
Tags:Original Soundtrack vol. 1 volume 6th naxess
BeatmapID:1013338
BeatmapSetID:464864

[Difficulty]
HPDrainRate:7
CircleSize:3.5
OverallDifficulty:8
ApproachRate:9.3
SliderMultiplier:2.8
SliderTickRate:1

[Events]
//Background and Video events
0,0,"Kokoro.jpg",0,0
//Break Periods
//Storyboard Layer 0 (Background)
//Storyboard Layer 1 (Fail)
//Storyboard Layer 2 (Pass)
//Storyboard Layer 3 (Foreground)
//Storyboard Sound Samples

[TimingPoints]
-12,434.782608695652,4,2,1,45,1,0
12161,-100,4,2,1,60,0,0
15640,-100,4,2,1,45,0,0
26074,-100,4,2,1,60,0,0
29553,-76.9230769230769,4,2,1,70,0,0
43466,-76.9230769230769,4,2,1,80,0,0
57379,-100,4,2,1,75,0,0
59118,-100,4,2,1,60,0,0
60857,-100,4,2,1,75,0,0
62596,-100,4,2,1,60,0,0
64335,-100,4,2,1,75,0,0
66074,-100,4,2,1,80,0,0
70857,-100,4,2,1,60,0,0
71727,434.782608695652,4,2,0,45,1,0
71727,-166.666666666667,4,2,0,45,0,0
84770,-100,4,2,1,70,0,0
85205,-66.6666666666667,4,2,1,75,0,0
85640,-66.6666666666667,4,2,1,85,0,1
97813,-66.6666666666667,4,2,1,90,0,1
98248,-58.8235294117647,4,2,1,95,0,1
99009,-100,4,2,1,70,0,0
109987,-76.9230769230769,4,2,1,85,0,0
113466,-76.9230769230769,4,2,1,5,0,0

[Colours]
Combo1 : 255,255,166
Combo2 : 255,128,128
Combo3 : 0,255,255
Combo4 : 0,255,128

[HitObjects]
260,300,1727,6,0,P|296:204|268:128,1,140,6|0,0:0|0:0,0:0:0:0:
216,132,2053,1,0,0:0:0:0:
152,184,2161,2,0,P|212:216|272:192,1,70,2|0,0:0|0:0,0:0:0:0:
347,134,2379,2,0,P|289:169|280:233,1,70
288,272,2596,6,0,P|224:332|128:328,1,140,2|2,0:0|0:0,0:0:0:0:
100,300,2922,1,0,0:0:0:0:
56,228,3031,2,0,P|120:168|216:172,1,140,2|0,0:0|0:0,0:0:0:0:
248,184,3357,1,0,0:0:0:0:
324,220,3466,6,0,P|372:208|404:112,1,140,8|0,0:0|0:0,0:0:0:0:
288,76,3792,1,8,0:0:0:0:
248,184,3900,2,0,P|218:202|184:208,1,70,8|0,0:0|0:0,0:0:0:0:
88,84,4118,2,0,P|117:65|152:60,1,70,8|0,0:0|0:0,0:0:0:0:
288,76,4335,2,0,P|344:120|360:208,1,140,8|0,0:0|0:0,0:0:0:0:
348,240,4625,5,0,0:0:0:0:
308,280,4698,1,0,0:0:0:0:
252,288,4770,2,0,P|232:240|264:184,1,70,8|0,0:0|0:0,0:0:0:0:
184,72,4987,2,0,P|177:123|121:156,1,70,8|0,0:0|0:0,0:0:0:0:
40,240,5205,6,0,P|88:220|143:252,1,70,2|0,0:0|0:0,0:0:0:0:
400,296,5422,1,0,0:0:0:0:
324,332,5531,1,0,0:0:0:0:
251,287,5640,2,0,P|235:249|292:176,1,140,2|0,0:0|0:0,0:0:0:0:
344,112,5966,1,0,0:0:0:0:
396,48,6074,6,0,P|365:31|331:30,1,70,2|0,0:0|0:0,0:0:0:0:
288,176,6292,2,0,P|318:192|352:193,1,70,2|0,0:0|0:0,0:0:0:0:
440,128,6509,2,0,P|460:204|432:268,1,140,2|0,0:0|0:0,0:0:0:0:
104,256,6944,6,0,P|184:268|244:236,1,140,8|0,0:0|0:0,0:0:0:0:
288,176,7270,1,8,0:0:0:0:
264,344,7379,2,0,P|296:324|320:284,1,70,8|0,0:0|0:0,0:0:0:0:
416,308,7596,2,0,P|414:270|392:229,1,70,8|0,0:0|0:0,0:0:0:0:
432,72,7813,2,0,P|352:88|304:144,1,140,8|0,0:0|0:0,0:0:0:0:
288,176,8103,5,0,0:0:0:0:
256,224,8176,1,0,0:0:0:0:
204,244,8248,2,0,P|176:184|204:124,1,70,8|0,0:0|0:0,0:0:0:0:
48,80,8466,2,0,P|113:85|151:140,1,70,8|0,0:0|0:0,0:0:0:0:
288,176,8683,6,0,P|360:144|368:80,1,140,6|0,0:0|0:0,0:0:0:0:
284,60,9009,1,0,0:0:0:0:
208,96,9118,2,0,P|172:160|208:252,1,140,2|0,0:0|0:0,0:0:0:0:
260,256,9444,1,0,0:0:0:0:
338,219,9553,6,0,P|318:190|287:175,1,70,2|0,0:0|0:0,0:0:0:0:
408,264,9770,2,0,P|422:232|420:198,1,70,2|0,0:0|0:0,0:0:0:0:
54,218,9987,2,0,P|117:243|183:223,1,140,2|0,0:0|0:0,0:0:0:0:
204,136,10313,1,0,0:0:0:0:
256,64,10422,6,0,P|300:84|324:140,1,70,8|0,0:0|0:0,0:0:0:0:
400,44,10640,2,0,P|418:88|397:145,1,70,0|8,0:0|0:0,0:0:0:0:
240,258,10857,2,0,P|196:238|172:182,1,70,8|0,0:0|0:0,0:0:0:0:
96,278,11075,2,0,P|77:233|98:176,1,70,8|0,0:0|0:0,0:0:0:0:
256,64,11292,6,0,P|324:120|320:184,1,140,8|0,0:0|0:0,0:0:0:0:
272,252,11582,1,0,0:0:0:0:
284,308,11654,1,0,0:0:0:0:
320,348,11726,2,0,P|348:316|340:252,1,70,8|0,0:0|0:0,0:0:0:0:
212,168,11944,2,0,P|184:200|192:264,1,70,8|0,0:0|0:0,0:0:0:0:
432,243,12161,6,0,P|412:207|312:167,1,140,2|0,0:0|0:0,0:0:0:0:
108,264,12487,1,0,0:0:0:0:
148,348,12596,2,0,P|260:304|256:216,1,210,2|0,0:0|0:0,0:0:0:0:
320,40,13031,2,0,P|248:56|212:148,1,140,2|0,0:0|0:0,0:0:0:0:
364,120,13357,5,0,0:0:0:0:
440,80,13466,2,0,P|448:32|436:0,1,70,2|0,0:0|0:0,0:0:0:0:
352,208,13683,2,0,P|371:252|398:272,1,70,2|0,0:0|0:0,0:0:0:0:
96,248,14118,5,2,0:0:0:0:
244,88,14335,1,2,0:0:0:0:
444,192,14553,1,2,0:0:0:0:
72,248,14770,1,2,0:0:0:0:
460,28,15205,1,2,0:0:0:0:
368,192,15640,6,0,P|280:212|232:184,1,140,6|0,0:0|0:0,0:0:0:0:
232,108,15966,1,0,0:0:0:0:
152,84,16074,2,0,P|102:132|88:199,1,140,2|0,0:0|0:0,0:0:0:0:
152,252,16400,1,0,0:0:0:0:
232,284,16509,6,0,P|264:320|260:376,1,70,2|0,0:0|0:0,0:0:0:0:
344,260,16726,2,0,L|428:204,1,70,2|0,0:0|0:0,0:0:0:0:
288,172,16944,2,0,P|242:188|192:165,1,70,2|0,0:0|0:0,0:0:0:0:
84,72,17161,2,0,P|129:55|179:78,1,70
403,104,17379,6,0,P|313:140|277:196,1,140,8|0,0:0|0:0,0:0:0:0:
100,268,17705,1,8,0:0:0:0:
64,176,17813,2,0,P|100:169|133:178,1,70,8|0,0:0|0:0,0:0:0:0:
352,276,18031,2,0,P|375:305|380:340,1,70,8|0,0:0|0:0,0:0:0:0:
231,290,18248,6,0,P|241:221|288:171,1,140,8|0,0:0|0:0,0:0:0:0:
332,48,18538,1,0,0:0:0:0:
284,80,18611,1,0,0:0:0:0:
232,100,18683,2,0,P|136:96|112:68,1,140,8|8,0:0|0:0,0:0:0:0:
52,280,19118,6,0,L|220:248,1,140,2|0,0:0|0:0,0:0:0:0:
384,304,19444,1,0,0:0:0:0:
300,288,19553,2,0,P|280:184|328:128,1,140,2|0,0:0|0:0,0:0:0:0:
360,104,19879,1,0,0:0:0:0:
284,68,19987,6,0,L|212:36,1,70,2|0,0:0|0:0,0:0:0:0:
384,220,20205,2,0,L|447:248,1,70,2|0,0:0|0:0,0:0:0:0:
168,344,20422,2,0,P|268:312|284:252,1,140,2|0,0:0|0:0,0:0:0:0:
300,204,20748,1,0,0:0:0:0:
296,116,20857,6,0,P|256:128|228:152,1,70,8|0,0:0|0:0,0:0:0:0:
112,244,21074,2,0,P|152:236|180:212,1,70,0|8,0:0|0:0,0:0:0:0:
344,36,21292,2,0,P|372:64|392:120,1,70,8|0,0:0|0:0,0:0:0:0:
316,296,21509,2,0,P|288:268|268:212,1,70,8|0,0:0|0:0,0:0:0:0:
106,101,21726,6,0,P|198:117|254:173,1,140,8|0,0:0|0:0,0:0:0:0:
368,216,22016,1,0,0:0:0:0:
420,192,22089,1,0,0:0:0:0:
472,168,22161,2,0,P|480:128|472:88,1,70,8|0,0:0|0:0,0:0:0:0:
336,40,22379,2,0,P|328:80|336:120,1,70,8|0,0:0|0:0,0:0:0:0:
368,216,22596,6,0,P|304:256|234:253,1,140,6|0,0:0|0:0,0:0:0:0:
212,176,22922,1,0,0:0:0:0:
148,124,23031,2,0,P|72:196|88:264,1,140,2|0,0:0|0:0,0:0:0:0:
112,296,23357,1,0,0:0:0:0:
196,292,23466,6,0,P|192:244|168:212,1,70,2|0,0:0|0:0,0:0:0:0:
130,58,23683,2,0,P|136:105|161:136,1,70,2|0,0:0|0:0,0:0:0:0:
246,166,23900,2,0,P|278:181|313:182,1,70
471,124,24118,2,0,P|454:153|427:175,1,70,2|0,0:0|0:0,0:0:0:0:
314,183,24335,6,0,P|299:116|327:53,1,140,8|0,0:0|0:0,0:0:0:0:
376,248,24661,1,8,0:0:0:0:
328,320,24770,2,0,L|208:308,1,70,8|0,0:0|0:0,0:0:0:0:
152,276,24987,2,0,L|82:282,1,70,8|0,0:0|0:0,0:0:0:0:
40,136,25205,6,0,L|224:124,1,140,8|0,0:0|0:0,0:0:0:0:
320,120,25495,1,0,0:0:0:0:
364,128,25567,1,0,0:0:0:0:
411,136,25640,2,0,P|411:216|353:271,1,140,8|8,0:0|0:0,0:0:0:0:
312,316,25966,1,0,0:0:0:0:
232,340,26074,6,0,P|160:348|80:296,1,140,2|0,0:0|0:0,0:0:0:0:
174,210,26400,1,0,0:0:0:0:
95,142,26509,2,0,B|80:180|48:204|48:204|121:168|200:228,1,210,2|0,0:0|0:0,0:0:0:0:
284,213,26944,2,0,P|244:129|152:109,1,140,2|0,0:0|0:0,0:0:0:0:
128,64,27270,5,0,0:0:0:0:
128,64,27379,2,0,L|164:-8,1,70,2|0,0:0|0:0,0:0:0:0:
403,69,27596,2,0,L|363:153,1,70,2|0,0:0|0:0,0:0:0:0:
212,356,28031,5,2,0:0:0:0:
324,228,28248,1,2,0:0:0:0:
128,136,28466,1,2,0:0:0:0:
436,64,28683,1,2,0:0:0:0:
56,200,29118,2,0,P|128:232|220:168,1,140,2|0,0:0|0:0,0:0:0:0:
316,83,29553,5,4,0:0:0:0:
403,55,29661,1,0,0:0:0:0:
456,129,29770,1,0,0:0:0:0:
403,203,29879,1,0,0:0:0:0:
316,174,29987,2,0,P|251:147|237:92,1,90.9999958343508
116,48,30205,2,0,P|109:111|124:158,1,90.9999958343508
44,272,30422,6,0,L|140:258,1,90.9999958343508,2|0,0:0|0:0,0:0:0:0:
328,320,30640,2,0,L|237:306,1,90.9999958343508,2|0,0:0|0:0,0:0:0:0:
348,240,30857,5,8,0:0:0:0:
437,224,30965,1,8,0:0:0:0:
384,149,31074,1,8,0:0:0:0:
473,133,31182,1,8,0:0:0:0:
332,64,31292,6,0,B|446:47|445:48,1,90.9999958343508,2|0,0:0|0:0,0:0:0:0:
192,136,31509,2,0,B|77:119|78:120,1,90.9999958343508,2|0,0:0|0:0,0:0:0:0:
348,240,31726,2,0,L|440:224,1,90.9999958343508
356,152,31944,2,0,P|304:160|264:216,1,90.9999958343508,2|0,0:0|0:0,0:0:0:0:
240,304,32161,2,0,L|137:273,1,90.9999958343508
20,184,32379,2,0,L|106:155,1,90.9999958343508,2|0,0:0|0:0,0:0:0:0:
200,64,32596,5,10,0:0:0:0:
286,92,32704,1,8,0:0:0:0:
436,136,32814,5,8,0:0:0:0:
350,164,32922,1,8,0:0:0:0:
200,204,33031,5,2,0:0:0:0:
286,232,33139,1,0,0:0:0:0:
350,164,33248,1,0,0:0:0:0:
328,80,33356,1,0,0:0:0:0:
238,56,33466,2,0,L|116:69,1,90.9999958343508
350,164,33683,2,0,L|446:269,1,90.9999958343508
137,310,33900,6,0,L|160:208,1,90.9999958343508,2|0,0:0|0:0,0:0:0:0:
317,78,34118,2,0,L|355:179,1,90.9999958343508,2|0,0:0|0:0,0:0:0:0:
428,320,34335,5,8,0:0:0:0:
342,341,34443,1,8,0:0:0:0:
272,289,34552,1,8,0:0:0:0:
268,201,34661,1,8,0:0:0:0:
349,163,34770,6,0,P|360:110|337:51,1,90.9999958343508,2|0,0:0|0:0,0:0:0:0:
164,80,34987,2,0,L|264:115,1,90.9999958343508,2|0,0:0|0:0,0:0:0:0:
155,242,35205,2,0,L|55:277,1,90.9999958343508
193,327,35422,5,8,0:0:0:0:
281,348,35531,1,8,0:0:0:0:
349,230,35640,5,10,0:0:0:0:
263,258,35748,1,8,0:0:0:0:
369,324,35857,5,8,0:0:0:0:
457,303,35966,1,8,0:0:0:0:
437,214,36074,2,0,P|427:170|437:110,1,90.9999958343508,2|0,0:0|0:0,0:0:0:0:
455,35,36292,5,8,0:0:0:0:
352,85,36400,1,8,0:0:0:0:
244,43,36509,5,4,0:0:0:0:
270,130,36618,1,0,0:0:0:0:
252,218,36726,1,0,0:0:0:0:
208,296,36835,1,0,0:0:0:0:
124,335,36944,2,0,P|116:278|136:237,1,90.9999958343508,2|0,0:0|0:0,0:0:0:0:
244,43,37161,2,0,L|280:160,1,90.9999958343508
304,302,37379,6,0,L|441:279,1,90.9999958343508,2|0,0:0|0:0,0:0:0:0:
127,248,37596,2,0,L|216:263,1,90.9999958343508,2|0,0:0|0:0,0:0:0:0:
408,72,37813,5,8,0:0:0:0:
344,137,37922,1,8,0:0:0:0:
193,173,38031,5,8,0:0:0:0:
257,108,38140,1,8,0:0:0:0:
212,28,38248,6,0,P|152:23|104:56,1,90.9999958343508,2|0,0:0|0:0,0:0:0:0:
16,164,38466,2,0,P|76:169|124:136,1,90.9999958343508,2|0,0:0|0:0,0:0:0:0:
344,136,38683,2,0,P|352:188|328:238,1,90.9999958343508
44,328,38901,2,0,P|85:295|140:290,1,90.9999958343508
256,280,39118,2,0,P|289:309|333:320,1,90.9999958343508,2|0,0:0|0:0,0:0:0:0:
421,175,39335,2,0,P|387:145|343:135,1,90.9999958343508,2|0,0:0|0:0,0:0:0:0:
225,41,39553,5,8,0:0:0:0:
180,119,39661,1,8,0:0:0:0:
36,200,39770,5,8,0:0:0:0:
127,200,39878,1,8,0:0:0:0:
268,280,39987,5,2,0:0:0:0:
220,200,40095,1,0,0:0:0:0:
284,132,40205,1,0,0:0:0:0:
368,168,40313,1,0,0:0:0:0:
372,260,40422,2,0,P|420:244|452:204,1,90.9999958343508,2|0,0:0|0:0,0:0:0:0:
456,96,40640,2,0,L|376:40,1,90.9999958343508
170,50,40857,6,0,P|219:52|256:80,1,90.9999958343508,2|0,0:0|0:0,0:0:0:0:
82,166,41074,2,0,B|182:138,1,90.9999958343508,2|0,0:0|0:0,0:0:0:0:
364,168,41292,5,8,0:0:0:0:
280,202,41400,1,8,0:0:0:0:
184,316,41509,5,8,0:0:0:0:
267,285,41617,1,8,0:0:0:0:
350,321,41726,6,0,L|453:276,1,90.9999958343508,2|0,0:0|0:0,0:0:0:0:
446,82,41944,2,0,L|418:188,1,90.9999958343508,2|0,0:0|0:0,0:0:0:0:
191,229,42161,2,0,P|169:191|167:141,1,90.9999958343508,2|0,0:0|0:0,0:0:0:0:
208,63,42379,5,0,0:0:0:0:
285,110,42487,1,0,0:0:0:0:
353,49,42596,5,8,0:0:0:0:
375,137,42705,1,0,0:0:0:0:
321,209,42813,1,0,0:0:0:0:
234,238,42922,1,0,0:0:0:0:
145,259,43031,5,8,0:0:0:0:
244,256,43140,1,0,0:0:0:0:
348,284,43248,1,0,0:0:0:0:
452,340,43357,1,0,0:0:0:0:
396,126,43466,6,0,P|392:81|397:36,1,90.9999958343508,4|0,0:0|0:0,0:0:0:0:
244,256,43683,2,0,P|249:302|242:346,1,90.9999958343508,2|0,0:0|0:0,0:0:0:0:
8,128,43900,2,0,P|44:173|81:191,1,90.9999958343508,2|0,0:0|0:0,0:0:0:0:
163,205,44118,1,0,0:0:0:0:
247,169,44226,1,0,0:0:0:0:
279,85,44335,6,0,P|215:81|181:109,1,90.9999958343508,2|0,0:0|0:0,0:0:0:0:
105,52,44553,2,0,P|89:114|111:152,1,90.9999958343508,0|2,0:0|0:0,0:0:0:0:
42,217,44770,2,0,P|100:242|142:227,1,90.9999958343508
248,168,44987,1,2,0:0:0:0:
194,94,45096,1,0,0:0:0:0:
98,136,45205,6,0,L|-8:136,1,90.9999958343508
288,92,45422,2,0,L|396:92,1,90.9999958343508,2|0,0:0|0:0,0:0:0:0:
460,200,45640,5,8,0:0:0:0:
368,192,45748,1,8,0:0:0:0:
216,280,45857,5,8,0:0:0:0:
308,272,45966,1,8,0:0:0:0:
476,324,46074,6,0,L|385:332,1,90.9999958343508,4|0,0:0|0:0,0:0:0:0:
125,271,46292,2,0,L|215:279,1,90.9999958343508,4|0,0:0|0:0,0:0:0:0:
277,123,46509,2,0,L|308:29,2,90.9999958343508,4|0|0,0:0|0:0|0:0,0:0:0:0:
426,245,46944,6,0,P|356:247|307:219,1,90.9999958343508,4|0,0:0|0:0,0:0:0:0:
221,204,47161,2,0,P|177:192|132:198,1,90.9999958343508,2|0,0:0|0:0,0:0:0:0:
83,328,47379,2,0,P|142:309|174:253,1,90.9999958343508
171,109,47596,1,0,0:0:0:0:
259,86,47705,1,0,0:0:0:0:
346,68,47813,6,0,L|237:155,1,90.9999958343508,2|0,0:0|0:0,0:0:0:0:
272,252,48031,2,0,L|343:195,1,90.9999958343508,0|2,0:0|0:0,0:0:0:0:
469,214,48248,2,0,L|377:291,1,90.9999958343508
124,256,48466,5,2,0:0:0:0:
200,308,48574,1,0,0:0:0:0:
272,252,48683,2,0,P|288:200|272:136,1,90.9999958343508
116,72,48900,2,0,P|100:124|116:188,1,90.9999958343508,2|0,0:0|0:0,0:0:0:0:
192,184,49118,5,10,0:0:0:0:
240,108,49226,1,8,0:0:0:0:
272,252,49335,5,8,0:0:0:0:
320,176,49444,1,8,0:0:0:0:
404,244,49553,6,0,L|464:156,1,90.9999958343508,4|0,0:0|0:0,0:0:0:0:
50,209,49770,2,0,L|140:192,1,90.9999958343508,4|0,0:0|0:0,0:0:0:0:
460,348,49987,5,4,0:0:0:0:
372,320,50096,1,0,0:0:0:0:
284,292,50205,1,0,0:0:0:0:
196,264,50313,1,0,0:0:0:0:
264,120,50422,6,0,L|376:116,1,90.9999958343508,4|0,0:0|0:0,0:0:0:0:
236,20,50640,2,0,P|196:40|172:84,1,90.9999958343508,2|0,0:0|0:0,0:0:0:0:
72,60,50857,2,0,P|69:104|95:147,1,90.9999958343508,2|0,0:0|0:0,0:0:0:0:
172,184,51074,1,0,0:0:0:0:
108,248,51183,1,0,0:0:0:0:
120,340,51292,6,0,P|164:320|204:256,1,90.9999958343508,2|0,0:0|0:0,0:0:0:0:
232,40,51509,2,0,P|227:88|262:154,1,90.9999958343508,0|2,0:0|0:0,0:0:0:0:
428,280,51726,2,0,P|388:251|313:249,1,90.9999958343508
260,212,51944,1,2,0:0:0:0:
168,208,52053,1,0,0:0:0:0:
96,260,52161,2,0,P|135:288|210:290,1,90.9999958343508
360,88,52379,2,0,P|321:116|246:118,1,90.9999958343508,2|0,0:0|0:0,0:0:0:0:
188,110,52596,5,10,0:0:0:0:
112,62,52705,1,8,0:0:0:0:
36,214,52813,5,8,0:0:0:0:
100,150,52922,1,8,0:0:0:0:
172,206,53031,6,0,P|180:258|156:346,1,90.9999958343508,4|0,0:0|0:0,0:0:0:0:
352,340,53248,2,0,P|344:288|368:200,1,90.9999958343508,4|0,0:0|0:0,0:0:0:0:
384,136,53466,2,0,L|452:48,2,90.9999958343508,4|0|0,0:0|0:0|0:0,0:0:0:0:
240,56,53900,6,0,L|176:120,1,90.9999958343508,4|0,0:0|0:0,0:0:0:0:
40,132,54118,2,0,L|104:196,1,90.9999958343508,2|0,0:0|0:0,0:0:0:0:
144,308,54335,2,0,L|233:220,1,90.9999958343508,2|0,0:0|0:0,0:0:0:0:
272,176,54553,1,0,0:0:0:0:
336,112,54661,1,0,0:0:0:0:
408,56,54770,6,0,L|320:28,1,90.9999958343508,2|0,0:0|0:0,0:0:0:0:
448,172,54987,2,0,L|362:142,1,90.9999958343508,0|2,0:0|0:0,0:0:0:0:
488,288,55205,2,0,L|396:256,1,90.9999958343508
176,244,55422,5,2,0:0:0:0:
92,280,55531,1,0,0:0:0:0:
164,336,55640,2,0,P|220:332|288:256,1,90.9999958343508
402,258,55857,2,0,P|346:254|278:178,1,90.9999958343508,2|0,0:0|0:0,0:0:0:0:
236,100,56074,5,10,0:0:0:0:
327,87,56183,1,8,0:0:0:0:
481,156,56292,5,8,0:0:0:0:
390,169,56401,1,8,0:0:0:0:
316,237,56509,6,0,P|299:303|317:363,1,90.9999958343508
481,156,56726,2,0,P|482:110|466:68,1,90.9999958343508
218,63,56944,5,8,0:0:0:0:
158,131,57053,1,8,0:0:0:0:
158,221,57161,1,8,0:0:0:0:
202,300,57270,1,8,0:0:0:0:
392,292,57379,6,0,P|404:212|360:152,1,140,2|0,0:0|0:0,0:0:0:0:
291,179,57705,2,0,L|151:223,1,140,2|0,0:0|0:0,0:0:0:0:
84,264,58031,2,0,P|63:292|56:326,1,70,0|2,0:0|0:0,0:0:0:0:
164,340,58248,1,2,0:0:0:0:
80,172,58466,1,6,0:0:0:0:
232,256,58683,1,6,0:0:0:0:
256,88,58901,2,0,L|284:68,3,35
324,36,59118,5,8,0:0:0:0:
296,244,59335,1,0,0:0:0:0:
364,192,59444,2,0,P|380:264|340:320,1,140,8|0,0:0|0:0,0:0:0:0:
176,356,59770,6,0,L|192:272,1,70,8|0,0:0|0:0,0:0:0:0:
36,260,59987,2,0,L|24:160,1,70
136,84,60205,2,0,L|148:24,3,46.6666666666667,8|0|0|8,0:0|0:0|0:0|0:0,0:0:0:0:
232,192,60640,1,0,0:0:0:0:
436,96,60857,5,6,0:0:0:0:
316,264,61074,2,0,P|296:296|300:340,1,70,2|0,0:0|0:0,0:0:0:0:
396,308,61292,2,0,P|396:220|320:168,1,140,0|2,0:0|0:0,0:0:0:0:
168,96,61618,1,0,0:0:0:0:
152,184,61727,2,0,P|88:228|8:204,2,140,0|6|6,0:0|0:0|0:0,0:0:0:0:
212,20,62379,2,0,P|232:56|264:80,1,70
332,104,62596,5,8,0:0:0:0:
72,144,62814,1,0,0:0:0:0:
152,184,62922,2,0,P|168:312|156:332,1,140,8|0,0:0|0:0,0:0:0:0:
88,360,63248,1,8,0:0:0:0:
252,128,63466,1,0,0:0:0:0:
448,304,63683,2,0,L|468:348,2,46.6666666666667,8|0|0,0:0|0:0|0:0,0:0:0:0:
468,256,63901,2,0,B|384:224|332:272,1,140,8|8,0:0|0:0,0:0:0:0:
116,288,64335,6,0,P|194:270|272:332,1,140,6|0,0:0|0:0,0:0:0:0:
180,360,64661,1,2,0:0:0:0:
80,304,64770,2,0,L|124:164,1,140,0|2,0:0|0:0,0:0:0:0:
204,68,65096,1,0,0:0:0:0:
280,24,65205,2,0,L|368:8,2,46.6666666666667
248,148,65422,1,4,0:0:0:0:
380,244,65640,2,0,P|408:165|392:96,1,140,6|0,0:0|0:0,0:0:0:0:
115,102,66074,6,0,L|255:150,1,140,8|0,0:0|0:0,0:0:0:0:
364,316,66401,1,8,0:0:0:0:
364,316,66509,2,0,P|252:324|232:304,1,140,0|8,0:0|0:0,0:0:0:0:
247,147,66944,2,0,L|167:203,1,70
84,228,67161,2,0,P|84:168|96:140,3,46.6666666666667,8|0|0|8,0:0|0:0|0:0|0:0,0:0:0:0:
332,152,67596,2,0,L|396:148,3,35
296,192,67813,6,0,P|204:168|184:120,1,140,6|0,0:0|0:0,0:0:0:0:
108,28,68140,1,0,0:0:0:0:
108,28,68248,2,0,B|99:57|115:85|115:85|100:128|100:128|108:188|108:188,1,140,2|0,0:0|0:0,0:0:0:0:
324,344,68574,1,0,0:0:0:0:
324,344,68683,2,0,P|334:279|266:300,1,140,2|0,0:0|0:0,0:0:0:0:
192,144,69009,1,0,0:0:0:0:
192,144,69118,2,0,P|256:112|336:116,1,140,6|2,0:0|0:0,0:0:0:0:
84,212,69770,5,2,0:0:0:0:
328,112,69987,1,2,0:0:0:0:
168,76,70205,1,2,0:0:0:0:
432,52,70422,2,0,P|444:120|404:220,1,140
140,180,70857,6,0,P|180:160|256:172,2,93.3333333333333,2|2|2,0:0|0:0|0:0,0:0:0:0:
140,180,71727,6,0,P|287:180|316:204,1,167.999994873047,8|0,0:0|0:0,0:0:0:0:
384,256,72379,1,0,0:0:0:0:
316,332,72596,1,0,0:0:0:0:
216,272,72813,1,0,0:0:0:0:
208,296,72921,1,0,0:0:0:0:
200,320,73031,1,0,0:0:0:0:
104,352,73248,1,0,0:0:0:0:
20,244,73466,6,0,P|16:184|44:132,1,83.9999974365235,8|0,0:0|0:0,0:0:0:0:
60,128,73792,1,0,0:0:0:0:
100,100,73900,2,0,P|95:32|56:-4,2,83.9999974365235
108,212,74770,1,0,0:0:0:0:
228,140,74987,1,0,0:0:0:0:
200,256,75205,5,8,0:0:0:0:
108,212,75422,1,0,0:0:0:0:
128,188,75531,1,0,0:0:0:0:
148,168,75640,1,0,0:0:0:0:
116,76,75857,1,0,0:0:0:0:
48,156,76074,5,0,0:0:0:0:
144,112,76292,1,0,0:0:0:0:
252,96,76509,1,0,0:0:0:0:
360,112,76727,1,0,0:0:0:0:
435,192,76944,6,0,P|401:215|352:216,1,83.9999974365235,8|0,0:0|0:0,0:0:0:0:
320,200,77270,1,0,0:0:0:0:
276,196,77379,2,0,P|216:216|188:284,1,125.999996154785,8|0,0:0|0:0,0:0:0:0:
200,308,77813,2,0,L|256:300,1,41.9999987182618
88,260,78031,2,0,L|46:257,2,41.9999987182618,8|0|8,0:0|0:0|0:0,0:0:0:0:
48,152,78466,1,0,0:0:0:0:
182,75,78683,6,0,P|260:116|275:195,1,167.999994873047,8|0,0:0|0:0,0:0:0:0:
272,288,79335,1,0,0:0:0:0:
356,344,79553,1,0,0:0:0:0:
440,288,79770,1,0,0:0:0:0:
448,260,79879,1,0,0:0:0:0:
440,232,79987,1,0,0:0:0:0:
360,184,80205,1,0,0:0:0:0:
240,256,80422,6,0,P|200:272|148:260,1,83.9999974365235,8|0,0:0|0:0,0:0:0:0:
128,236,80748,1,0,0:0:0:0:
88,224,80857,2,0,P|40:224|-4:272,1,83.9999974365235
72,308,81292,1,0,0:0:0:0:
0,152,81726,6,0,P|12:85|48:56,1,83.9999974365235
116,44,82161,1,8,0:0:0:0:
212,72,82379,1,0,0:0:0:0:
304,28,82596,1,0,0:0:0:0:
396,68,82813,1,0,0:0:0:0:
456,192,83031,5,8,0:0:0:0:
340,208,83248,1,0,0:0:0:0:
352,180,83357,1,0,0:0:0:0:
364,152,83466,1,0,0:0:0:0:
252,164,83683,1,0,0:0:0:0:
220,56,83900,5,8,0:0:0:0:
92,164,84118,1,0,0:0:0:0:
208,200,84335,1,0,0:0:0:0:
132,64,84553,1,0,0:0:0:0:
116,292,84770,5,4,0:0:0:0:
116,292,85205,5,0,0:0:0:0:
107,187,85314,1,0,0:0:0:0:
172,104,85423,1,0,0:0:0:0:
275,90,85531,1,0,0:0:0:0:
367,140,85640,6,0,P|383:248|311:344,1,210.000008010865,6|0,0:0|0:0,0:0:0:0:
229,304,85966,1,0,0:0:0:0:
196,205,86074,2,0,P|257:205|307:242,1,105.000004005432,2|0,0:0|0:0,0:0:0:0:
336,48,86292,1,2,0:0:0:0:
373,145,86400,1,0,0:0:0:0:
270,121,86509,6,0,P|236:65|240:20,1,105.000004005432,2|0,0:0|0:0,0:0:0:0:
468,116,86726,1,0,0:0:0:0:
453,220,86835,1,0,0:0:0:0:
360,271,86944,2,0,P|259:293|166:247,1,210.000008010865,8|8,0:0|0:0,0:0:0:0:
384,73,87379,6,0,P|402:118|393:172,1,105.000004005432,2|0,0:0|0:0,0:0:0:0:
360,272,87596,1,0,0:0:0:0:
257,296,87705,1,0,0:0:0:0:
166,247,87813,2,0,P|134:203|190:74,2,210.000008010865,2|0|2,0:0|0:0|0:0,0:0:0:0:
90,45,88466,5,0,0:0:0:0:
190,74,88574,1,0,0:0:0:0:
293,55,88683,2,0,P|380:86|313:139,1,210.000008010865,2|2,0:0|0:0,0:0:0:0:
94,313,89118,6,0,P|174:229|181:132,1,210.000008010865,2|0,0:0|0:0,0:0:0:0:
182,139,89444,1,0,0:0:0:0:
272,296,89553,2,0,P|304:248|311:182,1,105.000004005432,8|0,0:0|0:0,0:0:0:0:
432,180,89770,2,0,P|406:128|346:96,1,105.000004005432,8|0,0:0|0:0,0:0:0:0:
208,40,89987,2,0,P|184:100|185:156,1,105.000004005432,2|0,0:0|0:0,0:0:0:0:
64,320,90205,6,0,L|187:346,1,105.000004005432
312,202,90422,2,0,L|178:231,1,105.000004005432,8|0,0:0|0:0,0:0:0:0:
292,56,90640,2,0,L|426:28,1,105.000004005432,8|0,0:0|0:0,0:0:0:0:
44,64,90857,2,0,P|83:117|138:143,1,105.000004005432,6|0,0:0|0:0,0:0:0:0:
218,158,91074,1,0,0:0:0:0:
312,202,91183,1,0,0:0:0:0:
360,296,91292,2,0,P|235:331|167:287,1,210.000008010865,2|0,0:0|0:0,0:0:0:0:
129,137,91726,5,2,0:0:0:0:
197,56,91835,1,0,0:0:0:0:
301,71,91944,1,0,0:0:0:0:
344,166,92053,1,0,0:0:0:0:
279,247,92161,5,2,0:0:0:0:
235,150,92270,1,0,0:0:0:0:
301,71,92379,1,0,0:0:0:0:
404,86,92487,1,0,0:0:0:0:
452,179,92596,2,0,P|424:293|338:331,1,210.000008010865,6|0,0:0|0:0,0:0:0:0:
261,43,93031,6,0,L|280:160,1,105.000004005432,2|0,0:0|0:0,0:0:0:0:
87,331,93248,2,0,L|133:182,1,105.000004005432,2|0,0:0|0:0,0:0:0:0:
346,225,93466,2,0,P|296:251|235:241,1,105.000004005432,2|0,0:0|0:0,0:0:0:0:
173,106,93683,1,0,0:0:0:0:
277,146,93792,1,0,0:0:0:0:
380,132,93900,2,0,P|395:74|352:64,1,105.000004005432,8|0,0:0|0:0,0:0:0:0:
104,240,94118,2,0,P|90:294|132:308,1,105.000004005432,8|0,0:0|0:0,0:0:0:0:
172,104,94335,6,0,L|216:224,1,105.000004005432,6|0,0:0|0:0,0:0:0:0:
316,244,94553,1,0,0:0:0:0:
277,146,94661,1,0,0:0:0:0:
98,153,94770,2,0,B|159:145|159:145|178:84,1,105.000004005432,2|0,0:0|0:0,0:0:0:0:
364,24,94987,2,0,B|363:79|363:79|406:132,1,105.000004005432,2|0,0:0|0:0,0:0:0:0:
396,312,95205,2,0,B|318:245|318:245|220:309,1,210.000008010865,2|0,0:0|0:0,0:0:0:0:
104,116,95640,6,0,P|56:204|128:268,1,210.000008010865
404,48,96074,2,0,P|331:39|268:80,1,105.000004005432,2|0,0:0|0:0,0:0:0:0:
259,140,96292,1,8,0:0:0:0:
354,134,96400,1,8,0:0:0:0:
303,49,96509,2,0,P|249:40|191:76,1,105.000004005432,2|0,0:0|0:0,0:0:0:0:
203,228,96726,5,8,0:0:0:0:
259,140,96834,1,8,0:0:0:0:
152,143,96944,2,0,L|49:158,1,105.000004005432,2|0,0:0|0:0,0:0:0:0:
293,287,97161,6,0,L|183:215,1,105.000004005432,2|0,0:0|0:0,0:0:0:0:
298,53,97379,2,0,L|253:147,1,105.000004005432,2|0,0:0|0:0,0:0:0:0:
64,308,97596,2,0,L|216:323,1,105.000004005432,2|0,0:0|0:0,0:0:0:0:
428,200,97813,6,0,P|364:168|275:179,1,105.000004005432,2|0,0:0|0:0,0:0:0:0:
216,180,98031,1,8,0:0:0:0:
112,232,98140,1,8,0:0:0:0:
346,24,98248,6,0,P|286:63|251:163,1,119.000002269745,2|0,0:0|0:0,0:0:0:0:
220,232,98466,5,8,0:0:0:0:
276,352,98575,1,8,0:0:0:0:
408,188,98683,1,6,0:0:0:0:
164,48,99009,6,0,L|169:175,1,70,4|0,0:0|0:0,0:0:0:0:
150,58,99335,2,0,L|153:169,1,70,4|0,0:0|0:0,0:0:0:0:
95,232,99553,6,0,P|188:242|235:212,1,140,2|0,0:0|0:0,0:0:0:0:
274,151,99879,1,0,0:0:0:0:
297,70,99987,2,0,P|333:45|438:73,1,140,2|0,0:0|0:0,0:0:0:0:
457,136,100313,1,0,0:0:0:0:
460,220,100422,6,0,P|440:268|411:294,1,70,2|0,0:0|0:0,0:0:0:0:
128,292,100640,1,6,0:0:0:0:
360,208,100857,1,6,0:0:0:0:
157,140,101075,2,0,P|177:92|206:66,1,70
386,41,101292,6,0,P|395:97|387:155,1,70,8|0,0:0|0:0,0:0:0:0:
286,288,101509,2,0,P|240:312|198:315,1,70,0|8,0:0|0:0,0:0:0:0:
87,148,101726,2,0,P|143:139|201:147,1,70,8|0,0:0|0:0,0:0:0:0:
358,212,101944,2,0,P|382:258|385:300,1,70,8|0,0:0|0:0,0:0:0:0:
89,278,102161,2,0,L|153:233,1,70,8|0,0:0|0:0,0:0:0:0:
232,136,102379,5,0,0:0:0:0:
276,148,102451,1,0,0:0:0:0:
323,148,102524,1,0,0:0:0:0:
367,136,102596,2,0,P|389:93|395:38,1,70,8|0,0:0|0:0,0:0:0:0:
232,136,102813,2,0,P|210:179|204:234,1,70,8|0,0:0|0:0,0:0:0:0:
398,267,103031,6,0,P|345:309|249:316,1,140,2|0,0:0|0:0,0:0:0:0:
196,290,103357,1,0,0:0:0:0:
124,240,103466,2,0,P|182:203|264:234,1,140,2|0,0:0|0:0,0:0:0:0:
331,205,103792,1,0,0:0:0:0:
404,165,103900,2,0,P|373:132|332:122,1,70,2|0,0:0|0:0,0:0:0:0:
398,267,104118,5,6,0:0:0:0:
480,80,104335,1,6,0:0:0:0:
276,38,104553,2,0,P|246:70|239:108,1,70
67,116,104770,6,0,L|60:208,1,70,8|0,0:0|0:0,0:0:0:0:
337,290,104987,2,0,L|332:220,1,70,0|8,0:0|0:0,0:0:0:0:
179,220,105205,2,0,L|174:289,1,70,8|0,0:0|0:0,0:0:0:0:
450,185,105422,2,0,L|445:116,1,70,8|0,0:0|0:0,0:0:0:0:
328,28,105640,6,0,P|268:72|232:64,1,70,8|0,0:0|0:0,0:0:0:0:
160,92,105857,1,0,0:0:0:0:
105,106,105929,1,0,0:0:0:0:
61,141,106002,1,0,0:0:0:0:
40,192,106074,2,0,P|49:234|73:259,1,70,8|0,0:0|0:0,0:0:0:0:
176,345,106292,2,0,P|167:303|143:278,1,70,8|0,0:0|0:0,0:0:0:0:
136,189,106509,6,0,P|229:181|277:134,1,140,6|0,0:0|0:0,0:0:0:0:
319,91,106835,1,0,0:0:0:0:
356,16,106944,2,0,P|400:66|392:136,1,140,2|0,0:0|0:0,0:0:0:0:
364,212,107270,1,0,0:0:0:0:
296,264,107379,6,0,P|248:252|211:195,1,70,2|0,0:0|0:0,0:0:0:0:
203,54,107596,1,6,0:0:0:0:
364,212,107813,1,6,0:0:0:0:
241,342,108031,2,0,L|255:273,1,70
388,308,108248,6,0,P|431:285|453:225,1,70,8|0,0:0|0:0,0:0:0:0:
468,104,108466,2,0,P|425:127|403:187,1,70,0|8,0:0|0:0,0:0:0:0:
124,308,108683,2,0,P|81:285|59:225,1,70,8|0,0:0|0:0,0:0:0:0:
44,104,108901,2,0,P|87:127|109:187,1,70,8|0,0:0|0:0,0:0:0:0:
348,200,109118,6,0,B|324:152|272:152,1,70,8|0,0:0|0:0,0:0:0:0:
172,184,109335,1,0,0:0:0:0:
144,231,109408,1,0,0:0:0:0:
150,286,109480,1,0,0:0:0:0:
196,315,109553,2,0,B|248:268,1,70,8|0,0:0|0:0,0:0:0:0:
444,56,109770,2,0,L|336:64,1,70,8|0,0:0|0:0,0:0:0:0:
140,104,109987,5,8,0:0:0:0:
228,106,110095,1,0,0:0:0:0:
284,174,110204,1,0,0:0:0:0:
272,262,110313,1,0,0:0:0:0:
196,316,110422,5,8,0:0:0:0:
185,228,110530,1,0,0:0:0:0:
248,167,110639,1,0,0:0:0:0:
335,180,110748,1,0,0:0:0:0:
415,225,110857,5,8,0:0:0:0:
336,263,110965,1,0,0:0:0:0:
256,224,111074,1,4,0:0:0:0:
256,132,111183,1,0,0:0:0:0:
332,80,111292,1,4,0:0:0:0:
240,300,111509,5,0,0:0:0:0:
252,256,111618,1,0,0:0:0:0:
260,224,111726,1,0,0:0:0:0:
64,92,111944,5,8,0:0:0:0:
64,92,112052,1,0,0:0:0:0:
200,148,112161,5,8,0:0:0:0:
200,148,112269,1,0,0:0:0:0:
84,240,112379,5,8,0:0:0:0:
84,240,112487,1,0,0:0:0:0:
236,300,112596,5,8,0:0:0:0:
228,56,113031,2,0,P|296:40|208:108,1,363.999983337403,6|0,0:0|0:0,0:0:0:0:
