osu file format v14

[General]
AudioFilename: kokoro.mp3
AudioLeadIn: 0
PreviewTime: 85205
Countdown: 0
SampleSet: Soft
StackLeniency: 0.4
Mode: 0
LetterboxInBreaks: 0
WidescreenStoryboard: 0

[Editor]
Bookmarks: 15218,19565,56957
DistanceSpacing: 0.6
BeatDivisor: 4
GridSize: 4
TimelineZoom: 3.799999

[Metadata]
Title:Kokoro
TitleUnicode:こころ
Artist:Euchaeta
ArtistUnicode:Euchaeta
Creator:kwk
Version:Insane
Source:VOEZ
Tags:Original Soundtrack vol. 1 volume 6th naxess
BeatmapID:996139
BeatmapSetID:464864

[Difficulty]
HPDrainRate:7
CircleSize:3.5
OverallDifficulty:7
ApproachRate:9
SliderMultiplier:2.5
SliderTickRate:1

[Events]
//Background and Video events
0,0,"Kokoro.jpg",0,0
//Break Periods
//Storyboard Layer 0 (Background)
//Storyboard Layer 1 (Fail)
//Storyboard Layer 2 (Pass)
//Storyboard Layer 3 (Foreground)
//Storyboard Sound Samples

[TimingPoints]
-12,434.782608695652,4,2,1,45,1,0
2596,-100,4,2,1,45,0,0
12161,-100,4,2,1,60,0,0
12487,-100,4,2,1,5,0,0
12596,-100,4,2,1,60,0,0
12922,-100,4,2,1,5,0,0
13031,-100,4,2,1,60,0,0
13357,-100,4,2,1,5,0,0
13466,-100,4,2,1,60,0,0
15640,-100,4,2,1,45,0,0
26074,-100,4,2,1,60,0,0
26401,-100,4,2,1,5,0,0
26509,-100,4,2,1,60,0,0
26835,-100,4,2,1,5,0,0
26944,-100,4,2,1,60,0,0
27270,-100,4,2,1,5,0,0
27379,-100,4,2,1,60,0,0
29553,-76.9230769230769,4,2,1,70,0,0
43466,-76.9230769230769,4,2,1,80,0,0
57379,-100,4,2,1,75,0,0
59118,-100,4,2,1,60,0,0
60857,-100,4,2,1,75,0,0
62596,-100,4,2,1,60,0,0
64335,-100,4,2,1,75,0,0
66074,-100,4,2,1,80,0,0
70857,-133.333333333333,4,2,1,80,0,0
71292,-133.333333333333,4,2,1,5,0,0
71727,434.782608695652,4,2,0,45,1,0
71727,-133.333333333333,4,2,0,45,0,0
84770,-100,4,2,1,70,0,0
85205,-83.3333333333333,4,2,1,75,0,0
85640,-83.3333333333333,4,2,1,85,0,1
97813,-83.3333333333333,4,2,1,90,0,1
98248,-83.3333333333333,4,2,1,95,0,1
99009,-100,4,2,1,70,0,0
109987,-100,4,2,1,85,0,0
110205,-100,4,2,1,5,0,0
110422,-100,4,2,1,85,0,0
110640,-100,4,2,1,5,0,0
110857,-100,4,2,1,85,0,0
111074,-100,4,2,1,5,0,0
111292,-100,4,2,1,85,0,0
111509,-100,4,2,1,5,0,0
111944,-100,4,2,1,85,0,0
113466,-100,4,2,1,5,0,0

[Colours]
Combo1 : 255,255,166
Combo2 : 255,128,128
Combo3 : 0,255,255
Combo4 : 0,255,128

[HitObjects]
64,208,1727,6,0,B|152:256|212:180,1,125,6|0,0:0|0:0,0:0:0:0:
236,176,2053,1,0,0:0:0:0:
284,136,2161,2,0,P|372:140|404:164,1,125,2|0,0:0|0:0,0:0:0:0:
428,216,2487,1,0,0:0:0:0:
424,280,2596,2,0,P|393:308|352:324,1,62.5,2|0,0:0|0:0,0:0:0:0:
276,256,2813,2,0,P|306:227|348:212,1,62.5,2|0,0:0|0:0,0:0:0:0:
212,344,3031,2,0,P|168:288|168:224,1,125,2|0,0:0|0:0,0:0:0:0:
64,140,3466,6,0,P|92:128|113:104,1,62.5,8|0,0:0|0:0,0:0:0:0:
220,16,3683,2,0,P|204:52|204:100,1,62.5,0|8,0:0|0:0,0:0:0:0:
296,176,3900,2,0,P|310:148|315:117,1,62.5,8|0,0:0|0:0,0:0:0:0:
456,48,4118,2,0,P|427:58|406:82,1,62.5,8|0,0:0|0:0,0:0:0:0:
408,204,4335,6,0,L|453:246,1,62.5,8|0,0:0|0:0,0:0:0:0:
316,264,4553,2,0,P|280:268|248:256,1,62.5
164,224,4770,2,0,P|212:168|285:166,1,125,8|8,0:0|0:0,0:0:0:0:
320,164,5096,1,0,0:0:0:0:
380,180,5205,6,0,P|440:160|460:80,1,125,2|0,0:0|0:0,0:0:0:0:
420,60,5531,1,0,0:0:0:0:
360,64,5640,2,0,P|293:73|196:44,1,125,2|0,0:0|0:0,0:0:0:0:
176,52,5966,1,0,0:0:0:0:
124,84,6074,6,0,P|108:116|112:184,1,62.5,2|0,0:0|0:0,0:0:0:0:
228,242,6292,2,0,P|244:210|240:142,1,62.5,2|0,0:0|0:0,0:0:0:0:
360,64,6509,2,0,P|378:88|372:200,1,125,2|0,0:0|0:0,0:0:0:0:
247,184,6944,6,0,P|259:155|284:137,1,62.5,8|0,0:0|0:0,0:0:0:0:
336,272,7161,2,0,P|310:312|252:311,1,62.5,0|8,0:0|0:0,0:0:0:0:
80,320,7379,2,0,P|54:302|41:274,1,62.5,8|0,0:0|0:0,0:0:0:0:
93,140,7596,2,0,P|118:157|129:186,1,62.5,8|0,0:0|0:0,0:0:0:0:
188,288,7813,6,0,P|244:228|304:212,1,125,8|0,0:0|0:0,0:0:0:0:
340,244,8140,1,0,0:0:0:0:
392,280,8248,2,0,P|448:254|472:200,1,125,8|8,0:0|0:0,0:0:0:0:
440,100,8683,6,0,P|380:116|312:104,1,125,6|0,0:0|0:0,0:0:0:0:
256,96,9009,1,0,0:0:0:0:
196,116,9118,2,0,P|124:204|120:260,1,125,2|0,0:0|0:0,0:0:0:0:
128,276,9444,1,0,0:0:0:0:
164,328,9553,6,0,P|204:288|200:232,1,62.5,2|0,0:0|0:0,0:0:0:0:
304,280,9770,2,0,P|289:225|238:200,1,62.5,2|0,0:0|0:0,0:0:0:0:
332,134,9987,2,0,P|277:119|230:150,1,62.5,2|0,0:0|0:0,0:0:0:0:
219,36,10205,2,0,P|179:75|183:131,1,62.5,0|0,0:0|0:0,0:0:0:0:
84,152,10422,6,0,P|147:195|216:192,1,125,8|0,0:0|0:0,0:0:0:0:
252,180,10748,1,8,0:0:0:0:
312,168,10857,2,0,P|356:236|336:312,1,125,8|8,0:0|0:0,0:0:0:0:
304,316,11183,1,0,0:0:0:0:
244,336,11292,6,0,L|148:352,1,62.5,8|0,0:0|0:0,0:0:0:0:
60,280,11509,2,0,L|148:268,1,62.5
268,224,11726,2,0,L|207:214,1,62.5,8|0,0:0|0:0,0:0:0:0:
328,148,11944,2,0,L|390:157,1,62.5,8|0,0:0|0:0,0:0:0:0:
369,330,12161,6,0,P|349:250|401:146,1,187.5,2|0,0:0|0:0,0:0:0:0:
344,52,12596,2,0,B|256:12|156:52,1,187.5,2|0,0:0|0:0,0:0:0:0:
123,156,13031,2,0,P|163:239|144:330,1,187.5,2|0,0:0|0:0,0:0:0:0:
60,360,13466,5,2,0:0:0:0:
248,224,13683,1,2,0:0:0:0:
256,336,14118,5,2,0:0:0:0:
32,256,14335,1,2,0:0:0:0:
220,116,14553,1,2,0:0:0:0:
256,336,14770,5,2,0:0:0:0:
220,112,15205,1,2,0:0:0:0:
456,124,15640,6,0,P|392:164|328:152,1,125,6|0,0:0|0:0,0:0:0:0:
296,120,15966,1,0,0:0:0:0:
248,84,16074,2,0,P|186:83|137:119,1,125,2|0,0:0|0:0,0:0:0:0:
112,176,16400,1,0,0:0:0:0:
112,240,16509,6,0,P|132:284|180:316,1,62.5,2|0,0:0|0:0,0:0:0:0:
268,336,16726,2,0,P|248:292|200:260,1,62.5,2|0,0:0|0:0,0:0:0:0:
216,176,16944,2,0,P|256:176|300:192,1,62.5,2|0,0:0|0:0,0:0:0:0:
416,268,17161,2,0,P|376:268|332:252,1,62.5,0|0,0:0|0:0,0:0:0:0:
277,181,17379,6,0,P|288:108|344:68,1,125,8|0,0:0|0:0,0:0:0:0:
388,68,17705,1,8,0:0:0:0:
448,76,17813,2,0,P|437:149|381:189,1,125,8|8,0:0|0:0,0:0:0:0:
340,188,18140,1,0,0:0:0:0:
277,181,18248,6,0,P|249:225|241:269,1,62.5,8|0,0:0|0:0,0:0:0:0:
343,274,18466,2,0,P|330:303|312:328,1,62.5,0|0,0:0|0:0,0:0:0:0:
192,308,18683,2,0,P|153:261|160:200,1,125,8|8,0:0|0:0,0:0:0:0:
64,92,19118,6,0,P|160:108|196:88,1,125,2|0,0:0|0:0,0:0:0:0:
244,80,19444,1,0,0:0:0:0:
300,52,19553,2,0,P|361:39|421:53,1,125,2|0,0:0|0:0,0:0:0:0:
444,112,19879,1,0,0:0:0:0:
456,172,19987,6,0,P|430:208|388:240,1,62.5,2|0,0:0|0:0,0:0:0:0:
432,328,20205,2,0,P|387:324|339:303,1,62.5,2|0,0:0|0:0,0:0:0:0:
304,240,20422,2,0,P|268:304|276:368,1,125,2|0,0:0|0:0,0:0:0:0:
416,220,20857,6,0,L|404:108,1,62.5,8|0,0:0|0:0,0:0:0:0:
180,220,21074,2,0,L|173:282,1,62.5,0|8,0:0|0:0,0:0:0:0:
304,240,21292,2,0,P|297:209|283:181,1,62.5,8|0,0:0|0:0,0:0:0:0:
56,292,21509,2,0,P|68:336|92:368,1,62.5,8|0,0:0|0:0,0:0:0:0:
260,344,21726,6,0,P|311:336|364:320,1,62.5,8|0,0:0|0:0,0:0:0:0:
392,236,21944,1,0,0:0:0:0:
392,236,22053,1,0,0:0:0:0:
392,236,22161,2,0,L|320:212,1,62.5,8|0,0:0|0:0,0:0:0:0:
440,128,22379,2,0,P|491:120|544:104,1,62.5,8|0,0:0|0:0,0:0:0:0:
336,76,22596,6,0,P|276:132|196:148,1,125,6|0,0:0|0:0,0:0:0:0:
176,124,22922,1,0,0:0:0:0:
112,120,23031,2,0,P|72:208|124:268,1,125,2|0,0:0|0:0,0:0:0:0:
112,284,23357,1,0,0:0:0:0:
164,320,23466,6,0,L|256:348,1,62.5,2|0,0:0|0:0,0:0:0:0:
328,272,23683,2,0,L|267:255,1,62.5,2|0,0:0|0:0,0:0:0:0:
228,164,23900,2,0,P|236:88|312:36,1,125,2|0,0:0|0:0,0:0:0:0:
421,164,24335,6,0,L|360:148,1,62.5,8|0,0:0|0:0,0:0:0:0:
228,164,24553,2,0,L|167:179,1,62.5,0|8,0:0|0:0,0:0:0:0:
48,288,24770,2,0,L|108:272,1,62.5,8|0,0:0|0:0,0:0:0:0:
240,304,24988,2,0,L|300:319,1,62.5,8|0,0:0|0:0,0:0:0:0:
468,332,25205,6,0,P|460:240|420:200,1,125,8|0,0:0|0:0,0:0:0:0:
388,188,25531,1,0,0:0:0:0:
324,184,25640,2,0,P|252:116|260:80,1,125,8|8,0:0|0:0,0:0:0:0:
78,101,26074,6,0,P|173:70|259:105,1,187.5,2|0,0:0|0:0,0:0:0:0:
424,256,26509,2,0,P|372:192|424:112,1,187.5,2|0,0:0|0:0,0:0:0:0:
252,296,26944,2,0,P|156:326|70:291,1,187.5,2|0,0:0|0:0,0:0:0:0:
160,192,27379,2,0,L|300:192,1,125,2|2,0:0|0:0,0:0:0:0:
340,264,28031,5,2,0:0:0:0:
208,104,28248,1,2,0:0:0:0:
212,308,28466,1,2,0:0:0:0:
294,149,28683,1,2,0:0:0:0:
272,36,29118,2,0,P|300:136|272:176,1,125,2|0,0:0|0:0,0:0:0:0:
36,308,29553,6,0,L|116:248,1,81.2499962806703,4|0,0:0|0:0,0:0:0:0:
212,308,29770,2,0,L|296:244,1,81.2499962806703,0|0,0:0|0:0,0:0:0:0:
388,308,29987,2,0,L|472:244,1,81.2499962806703,0|0,0:0|0:0,0:0:0:0:
348,184,30205,2,0,P|292:152|220:184,1,81.2499962806703,0|0,0:0|0:0,0:0:0:0:
148,60,30422,6,0,P|148:124|212:170,1,81.2499962806703,2|0,0:0|0:0,0:0:0:0:
80,208,30640,2,0,P|136:240|208:207,1,81.2499962806703,2|0,0:0|0:0,0:0:0:0:
380,216,30857,5,8,0:0:0:0:
344,236,30966,1,8,0:0:0:0:
304,236,31074,1,8,0:0:0:0:
268,220,31183,1,8,0:0:0:0:
240,188,31292,6,0,P|292:168|364:208,1,81.2499962806703,2|0,0:0|0:0,0:0:0:0:
476,224,31509,2,0,P|424:244|352:204,1,81.2499962806703,2|0,0:0|0:0,0:0:0:0:
64,256,31726,2,0,P|116:236|188:276,1,81.2499962806703,0|0,0:0|0:0,0:0:0:0:
300,291,31944,2,0,P|248:311|176:271,1,81.2499962806703,2|0,0:0|0:0,0:0:0:0:
140,239,32161,5,2,0:0:0:0:
424,172,32379,1,2,0:0:0:0:
76,120,32596,5,10,0:0:0:0:
112,104,32705,1,8,0:0:0:0:
148,88,32813,1,8,0:0:0:0:
184,72,32922,1,8,0:0:0:0:
216,48,33031,6,0,L|128:48,1,81.2499962806703,2|0,0:0|0:0,0:0:0:0:
361,112,33248,2,0,L|261:112,1,81.2499962806703,0|0,0:0|0:0,0:0:0:0:
506,172,33466,2,0,L|406:172,1,81.2499962806703,0|0,0:0|0:0,0:0:0:0:
260,236,33683,1,0,0:0:0:0:
228,264,33792,1,0,0:0:0:0:
216,304,33901,6,0,P|249:366|326:365,1,81.2499962806703,2|0,0:0|0:0,0:0:0:0:
347,228,34118,2,0,P|314:166|237:167,1,81.2499962806703,2|0,0:0|0:0,0:0:0:0:
196,184,34335,5,8,0:0:0:0:
156,184,34444,1,8,0:0:0:0:
120,168,34553,1,8,0:0:0:0:
100,132,34661,1,8,0:0:0:0:
96,96,34770,6,0,P|152:84|204:104,1,81.2499962806703,2|0,0:0|0:0,0:0:0:0:
324,20,34987,2,0,P|306:74|263:109,1,81.2499962806703,2|0,0:0|0:0,0:0:0:0:
236,176,35205,2,0,P|254:230|297:265,1,81.2499962806703,0|0,0:0|0:0,0:0:0:0:
396,300,35422,1,8,0:0:0:0:
424,272,35531,1,8,0:0:0:0:
432,232,35640,2,8,P|414:178|371:143,1,81.2499962806703,10|8,0:0|0:0,0:0:0:0:
236,176,35857,5,8,0:0:0:0:
274,193,35966,1,8,0:0:0:0:
314,189,36074,2,0,P|358:121|314:37,1,162.499992561341,2|8,0:0|0:0,0:0:0:0:
331,50,36401,1,8,0:0:0:0:
331,50,36509,6,0,L|443:94,1,81.2499962806703,4|0,0:0|0:0,0:0:0:0:
404,172,36727,2,0,L|452:282,1,81.2499962806703
368,309,36944,2,0,L|324:420,1,81.2499962806703,2|0,0:0|0:0,0:0:0:0:
228,216,37161,2,0,L|262:131,1,81.2499962806703,0|0,0:0|0:0,0:0:0:0:
416,68,37379,6,0,P|364:76|320:96,1,81.2499962806703,2|0,0:0|0:0,0:0:0:0:
132,244,37596,2,0,P|112:297|116:334,1,81.2499962806703,2|0,0:0|0:0,0:0:0:0:
248,312,37813,5,8,0:0:0:0:
288,324,37922,1,8,0:0:0:0:
328,328,38031,1,8,0:0:0:0:
368,324,38140,1,8,0:0:0:0:
408,312,38248,6,0,P|424:204|396:152,1,162.499992561341,2|2,0:0|0:0,0:0:0:0:
196,104,38683,2,0,P|180:148|196:192,1,81.2499962806703,0|0,0:0|0:0,0:0:0:0:
284,240,38900,2,0,P|300:196|284:152,1,81.2499962806703,0|0,0:0|0:0,0:0:0:0:
280,64,39118,1,2,0:0:0:0:
160,328,39335,1,2,0:0:0:0:
108,88,39553,5,8,0:0:0:0:
132,120,39661,1,8,0:0:0:0:
160,152,39770,1,8,0:0:0:0:
188,180,39879,1,8,0:0:0:0:
220,204,39987,6,0,P|244:164|252:112,1,81.2499962806703,8|0,0:0|0:0,0:0:0:0:
324,56,40205,2,0,P|346:96|387:129,1,81.2499962806703,0|0,0:0|0:0,0:0:0:0:
404,216,40422,2,0,P|357:215|308:234,1,81.2499962806703,2|0,0:0|0:0,0:0:0:0:
168,300,40640,1,0,0:0:0:0:
132,320,40748,1,0,0:0:0:0:
100,320,40857,6,0,P|116:264|156:232,1,81.2499962806703,2|0,0:0|0:0,0:0:0:0:
196,184,41074,2,0,P|252:169|300:188,1,81.2499962806703,2|0,0:0|0:0,0:0:0:0:
444,224,41292,5,8,0:0:0:0:
408,240,41400,1,8,0:0:0:0:
368,244,41509,1,8,0:0:0:0:
328,236,41618,1,8,0:0:0:0:
296,208,41726,6,0,P|292:160|332:116,1,81.2499962806703,2|0,0:0|0:0,0:0:0:0:
472,140,41944,2,0,P|476:188|436:232,1,81.2499962806703,2|0,0:0|0:0,0:0:0:0:
356,312,42161,2,0,P|312:312|252:328,1,81.2499962806703,2|0,0:0|0:0,0:0:0:0:
188,244,42379,1,0,0:0:0:0:
228,224,42487,1,0,0:0:0:0:
260,200,42596,6,4,L|271:130,1,40.6249981403352,8|0,0:0|0:0,0:0:0:0:
88,128,43031,2,4,L|80:76,1,40.6249981403352,8|0,0:0|0:0,0:0:0:0:
232,320,43466,6,0,L|124:324,1,81.2499962806703,4|0,0:0|0:0,0:0:0:0:
368,256,43683,2,0,L|456:256,1,81.2499962806703,2|0,0:0|0:0,0:0:0:0:
236,180,43900,2,0,P|240:112|312:52,1,162.499992561341,2|0,0:0|0:0,0:0:0:0:
472,32,44227,1,0,0:0:0:0:
472,32,44335,6,0,L|468:128,1,81.2499962806703,2|0,0:0|0:0,0:0:0:0:
328,152,44553,2,0,L|328:240,1,81.2499962806703,0|2,0:0|0:0,0:0:0:0:
464,260,44770,2,0,L|460:360,1,81.2499962806703
224,328,44987,5,2,0:0:0:0:
184,324,45096,1,0,0:0:0:0:
144,316,45205,2,0,L|144:208,1,81.2499962806703
328,152,45422,2,0,L|328:244,1,81.2499962806703,2|0,0:0|0:0,0:0:0:0:
192,72,45640,6,0,L|112:80,3,81.2499962806703,8|8|8|8,0:0|0:0|0:0|0:0,0:0:0:0:
48,232,46074,2,0,P|60:312|144:332,1,162.499992561341,4|4,0:0|0:0,0:0:0:0:
280,272,46509,1,4,0:0:0:0:
272,304,46618,1,0,0:0:0:0:
264,336,46726,1,0,0:0:0:0:
212,108,46944,6,0,L|192:24,1,81.2499962806703,4|0,0:0|0:0,0:0:0:0:
80,236,47161,2,0,L|100:148,1,81.2499962806703,2|0,0:0|0:0,0:0:0:0:
180,324,47378,2,0,P|240:336|304:260,1,162.499992561341
400,160,47705,1,0,0:0:0:0:
400,160,47813,6,0,P|432:148|492:160,1,81.2499962806703,2|0,0:0|0:0,0:0:0:0:
272,96,48031,2,0,P|277:62|316:12,1,81.2499962806703,0|2,0:0|0:0,0:0:0:0:
120,156,48248,2,0,P|93:134|80:76,1,81.2499962806703
112,284,48466,5,2,0:0:0:0:
148,272,48574,1,0,0:0:0:0:
180,260,48683,2,0,L|276:292,1,81.2499962806703
420,232,48901,2,0,L|336:200,1,81.2499962806703,2|0,0:0|0:0,0:0:0:0:
212,108,49118,5,10,0:0:0:0:
248,112,49226,1,8,0:0:0:0:
284,124,49335,1,8,0:0:0:0:
316,144,49444,1,8,0:0:0:0:
336,176,49553,1,4,0:0:0:0:
156,296,49770,1,4,0:0:0:0:
352,332,49987,5,4,0:0:0:0:
352,296,50096,1,0,0:0:0:0:
340,260,50205,1,0,0:0:0:0:
316,232,50313,1,0,0:0:0:0:
280,220,50422,6,0,P|284:159|356:92,2,162.499992561341,4|2|2,0:0|0:0|0:0,0:0:0:0:
160,364,51074,2,0,P|184:328|196:284,1,81.2499962806703
224,80,51292,2,0,P|200:116|192:164,1,81.2499962806703,2|0,0:0|0:0,0:0:0:0:
60,232,51509,2,0,P|103:234|156:212,1,81.2499962806703,0|2,0:0|0:0,0:0:0:0:
288,288,51726,2,0,P|269:243|229:211,1,81.2499962806703
360,156,51944,5,2,0:0:0:0:
352,196,52053,1,0,0:0:0:0:
360,236,52161,2,0,P|379:274|416:308,1,81.2499962806703
496,216,52379,2,0,P|476:177|444:148,1,81.2499962806703,2|0,0:0|0:0,0:0:0:0:
370,88,52596,2,0,L|272:88,3,81.2499962806703,10|8|8|8,0:0|0:0|0:0|0:0,0:0:0:0:
220,16,53031,6,0,P|188:96|236:168,1,162.499992561341,4|4,0:0|0:0,0:0:0:0:
400,188,53466,1,4,0:0:0:0:
380,212,53574,1,0,0:0:0:0:
360,236,53683,1,0,0:0:0:0:
180,336,53900,6,0,P|156:292|168:228,1,81.2499962806703,4|0,0:0|0:0,0:0:0:0:
72,248,54118,2,0,P|92:200|160:176,1,81.2499962806703,2|0,0:0|0:0,0:0:0:0:
196,188,54335,2,0,P|240:128|212:48,1,162.499992561341,2|0,0:0|0:0,0:0:0:0:
132,112,54661,1,0,0:0:0:0:
132,112,54770,6,0,L|48:112,1,81.2499962806703,2|0,0:0|0:0,0:0:0:0:
300,24,54987,2,0,L|211:54,1,81.2499962806703,0|2,0:0|0:0,0:0:0:0:
440,136,55205,2,0,L|360:96,1,81.2499962806703
284,176,55422,5,2,0:0:0:0:
268,204,55531,1,0,0:0:0:0:
252,232,55640,1,0,0:0:0:0:
408,288,55857,1,2,0:0:0:0:
159,351,56074,5,10,0:0:0:0:
191,343,56183,1,8,0:0:0:0:
223,335,56292,1,8,0:0:0:0:
255,327,56400,1,8,0:0:0:0:
286,318,56509,2,0,L|452:280,1,162.499992561341
350,69,56944,5,8,0:0:0:0:
342,101,57053,1,8,0:0:0:0:
334,133,57162,1,8,0:0:0:0:
326,165,57270,1,8,0:0:0:0:
318,197,57379,6,0,L|282:329,1,125,2|0,0:0|0:0,0:0:0:0:
144,176,57813,2,0,L|179:43,1,125,0|0,0:0|0:0,0:0:0:0:
318,197,58248,1,2,0:0:0:0:
96,352,58466,2,0,L|64:288,1,62.5,6|0,0:0|0:0,0:0:0:0:
176,291,58683,2,0,L|200:219,1,62.5,6|0,0:0|0:0,0:0:0:0:
318,197,58900,1,0,0:0:0:0:
372,81,59118,6,0,P|312:67|255:88,1,125,8|0,0:0|0:0,0:0:0:0:
196,232,59553,2,0,P|128:252|48:208,1,125,0|8,0:0|0:0,0:0:0:0:
136,96,59987,6,0,L|136:172,1,62.5,0|0,0:0|0:0,0:0:0:0:
324,232,60205,2,0,L|324:144,1,62.5,8|0,0:0|0:0,0:0:0:0:
232,116,60422,2,0,L|232:192,1,62.5,8|0,0:0|0:0,0:0:0:0:
420,252,60640,2,0,L|420:164,1,62.5,0|0,0:0|0:0,0:0:0:0:
331,53,60857,6,0,P|291:100|232:116,1,125,6|2,0:0|0:0,0:0:0:0:
112,304,61292,2,0,P|172:248|260:256,1,125,0|2,0:0|0:0,0:0:0:0:
212,352,61726,1,0,0:0:0:0:
388,356,61944,2,0,L|420:292,1,62.5,6|0,0:0|0:0,0:0:0:0:
308,295,62161,2,0,L|284:223,1,62.5,6|0,0:0|0:0,0:0:0:0:
164,152,62379,1,0,0:0:0:0:
368,152,62596,6,0,P|296:124|232:132,1,125,8|0,0:0|0:0,0:0:0:0:
32,248,63031,2,0,P|104:276|168:268,1,125,0|8,0:0|0:0,0:0:0:0:
272,248,63466,6,0,P|320:300|324:348,1,62.5,0|0,0:0|0:0,0:0:0:0:
432,288,63683,2,0,P|410:355|371:383,1,62.5,8|0,0:0|0:0,0:0:0:0:
376,200,63900,2,0,P|328:148|324:100,1,62.5,8|0,0:0|0:0,0:0:0:0:
216,160,64118,2,0,P|237:92|276:64,1,62.5,8|0,0:0|0:0,0:0:0:0:
424,116,64335,6,0,P|468:212|452:276,1,125,6|0,0:0|0:0,0:0:0:0:
362,288,64770,2,0,P|318:192|334:128,1,125,0|2,0:0|0:0,0:0:0:0:
344,24,65205,1,0,0:0:0:0:
424,116,65422,2,0,L|444:32,1,62.5,6|0,0:0|0:0,0:0:0:0:
320,176,65639,2,0,L|280:100,1,62.5,6|0,0:0|0:0,0:0:0:0:
180,92,65857,1,0,0:0:0:0:
92,184,66074,6,0,P|148:220|208:220,1,125,8|0,0:0|0:0,0:0:0:0:
416,236,66509,2,0,P|360:272|300:272,1,125,0|8,0:0|0:0,0:0:0:0:
60,348,66944,2,0,L|144:328,1,62.5
204,220,67161,2,0,L|124:240,1,62.5,8|0,0:0|0:0,0:0:0:0:
20,160,67379,2,0,L|141:129,1,125,8|0,0:0|0:0,0:0:0:0:
396,197,67813,6,0,P|360:248|300:272,1,125,6|0,0:0|0:0,0:0:0:0:
208,152,68248,2,0,P|258:123|294:167,1,125,2|0,0:0|0:0,0:0:0:0:
112,208,68683,2,0,B|76:148|120:72,1,125,2|0,0:0|0:0,0:0:0:0:
196,320,69118,2,0,P|120:344|48:324,1,125,2|2,0:0|0:0,0:0:0:0:
380,300,69770,5,2,0:0:0:0:
284,208,69987,1,2,0:0:0:0:
200,316,70205,1,2,0:0:0:0:
372,104,70422,1,2,0:0:0:0:
249,37,70857,2,0,P|241:149|313:225,1,187.500007152558,2|0,0:0|0:0,0:0:0:0:
123,215,71726,6,0,P|205:252|283:207,1,187.500007152558,8|0,0:0|0:0,0:0:0:0:
299,163,72379,1,0,0:0:0:0:
319,119,72596,1,0,0:0:0:0:
359,95,72813,1,0,0:0:0:0:
407,91,73031,1,0,0:0:0:0:
451,107,73248,1,0,0:0:0:0:
483,139,73466,6,0,P|447:203|411:227,1,93.7500035762788,8|0,0:0|0:0,0:0:0:0:
391,235,73900,2,0,P|336:239|275:235,2,93.7500035762788,0|0|0,0:0|0:0|0:0,0:0:0:0:
179,143,74770,5,0,0:0:0:0:
179,95,74987,1,0,0:0:0:0:
199,51,75205,2,0,P|275:39|327:55,1,93.7500035762788,8|0,0:0|0:0,0:0:0:0:
335,59,75640,1,0,0:0:0:0:
383,55,75857,1,0,0:0:0:0:
423,31,76074,5,0,0:0:0:0:
403,123,76292,1,0,0:0:0:0:
399,215,76509,1,0,0:0:0:0:
423,303,76726,1,0,0:0:0:0:
485,235,76944,6,0,P|445:213|351:243,1,140.625005364418,8|0,0:0|0:0,0:0:0:0:
339,251,77379,2,0,P|313:292|275:323,1,93.7500035762788,8|0,0:0|0:0,0:0:0:0:
187,315,77813,5,0,0:0:0:0:
139,235,78031,1,8,0:0:0:0:
143,143,78248,1,8,0:0:0:0:
187,59,78466,1,0,0:0:0:0:
419,23,78683,6,0,P|443:107|427:147,1,93.7500035762788,8|0,0:0|0:0,0:0:0:0:
419,151,79118,1,0,0:0:0:0:
379,175,79335,1,0,0:0:0:0:
339,199,79553,1,0,0:0:0:0:
307,231,79770,1,0,0:0:0:0:
287,275,79987,1,0,0:0:0:0:
243,291,80205,1,0,0:0:0:0:
199,275,80422,6,0,P|155:179|179:155,1,93.7500035762788,8|0,0:0|0:0,0:0:0:0:
187,183,80857,2,0,P|227:151|243:99,1,93.7500035762788,0|0,0:0|0:0,0:0:0:0:
271,75,81292,2,0,P|371:59|435:99,1,93.7500035762788,0|0,0:0|0:0,0:0:0:0:
403,79,81726,1,0,0:0:0:0:
435,115,81944,1,0,0:0:0:0:
451,159,82161,6,0,P|455:223|407:279,1,93.7500035762788,8|0,0:0|0:0,0:0:0:0:
339,307,82596,2,0,P|335:243|383:187,1,93.7500035762788,0|0,0:0|0:0,0:0:0:0:
451,159,83031,5,8,0:0:0:0:
371,107,83248,1,0,0:0:0:0:
287,3,83466,5,0,0:0:0:0:
271,95,83683,1,0,0:0:0:0:
209,215,83900,5,8,0:0:0:0:
300,191,84117,1,0,0:0:0:0:
443,95,84335,5,0,0:0:0:0:
352,119,84553,1,0,0:0:0:0:
300,192,84770,2,0,L|336:340,1,125,4|0,0:0|0:0,0:0:0:0:
200,256,85205,5,0,0:0:0:0:
191,212,85313,1,0,0:0:0:0:
180,168,85422,1,0,0:0:0:0:
168,124,85531,1,0,0:0:0:0:
78,142,85640,6,0,P|128:208|192:212,1,149.999995422363,6|0,0:0|0:0,0:0:0:0:
332,52,86074,6,0,P|308:96|240:104,1,74.9999977111817,2|0,0:0|0:0,0:0:0:0:
191,212,86292,2,0,P|235:236|243:304,1,74.9999977111817,2|0,0:0|0:0,0:0:0:0:
348,356,86509,2,0,P|372:312|440:304,1,74.9999977111817,2|0,0:0|0:0,0:0:0:0:
484,200,86726,2,0,P|440:176|432:108,1,74.9999977111817
332,52,86944,2,8,P|308:96|240:104,1,74.9999977111817,8|0,0:0|0:0,0:0:0:0:
52,136,87161,2,8,P|76:92|144:84,1,74.9999977111817,8|0,0:0|0:0,0:0:0:0:
208,152,87379,6,0,L|92:164,1,74.9999977111817,2|0,0:0|0:0,0:0:0:0:
56,272,87596,1,0,0:0:0:0:
136,312,87705,1,0,0:0:0:0:
224,304,87813,2,0,P|256:287|279:239,1,74.9999977111817,2|0,0:0|0:0,0:0:0:0:
396,256,88031,2,0,P|398:220|368:176,1,74.9999977111817,0|0,0:0|0:0,0:0:0:0:
439,91,88248,2,0,P|376:68|288:116,1,149.999995422363,2|0,0:0|0:0,0:0:0:0:
260,164,88574,1,0,0:0:0:0:
200,212,88683,2,0,P|133:241|63:218,1,149.999995422363,2|2,0:0|0:0,0:0:0:0:
104,72,89118,6,0,P|128:116|124:156,1,74.9999977111817,2|0,0:0|0:0,0:0:0:0:
345,171,89335,2,0,P|341:135|320:104,1,74.9999977111817,0|0,0:0|0:0,0:0:0:0:
227,103,89553,2,0,P|231:66|251:36,1,74.9999977111817,8|0,0:0|0:0,0:0:0:0:
468,68,89770,2,0,P|447:99|443:135,1,74.9999977111817,8|0,0:0|0:0,0:0:0:0:
396,240,89987,6,2,L|320:280,1,74.9999977111817,2|0,0:0|0:0,0:0:0:0:
52,248,90205,2,0,B|148:252,1,74.9999977111817,0|0,0:0|0:0,0:0:0:0:
276,360,90422,2,0,P|236:320|232:272,1,74.9999977111817,8|0,0:0|0:0,0:0:0:0:
252,152,90640,2,0,P|267:118|296:95,1,74.9999977111817,8|0,0:0|0:0,0:0:0:0:
480,156,90857,6,0,P|400:148|304:204,1,149.999995422363,6|0,0:0|0:0,0:0:0:0:
272,232,91183,1,0,0:0:0:0:
120,207,91292,6,0,P|156:200|192:210,1,74.9999977111817,2|0,0:0|0:0,0:0:0:0:
232,304,91509,2,0,P|267:317|304:310,1,74.9999977111817,0|0,0:0|0:0,0:0:0:0:
428,296,91726,2,0,L|348:228,1,74.9999977111817,2|0,0:0|0:0,0:0:0:0:
240,60,91944,1,0,0:0:0:0:
316,52,92053,1,0,0:0:0:0:
380,92,92161,2,0,P|360:132|280:168,1,74.9999977111817,2|0,0:0|0:0,0:0:0:0:
160,152,92379,2,0,P|204:149|275:200,1,74.9999977111817,0|0,0:0|0:0,0:0:0:0:
352,348,92596,6,0,P|288:268|304:228,1,149.999995422363,6|0,0:0|0:0,0:0:0:0:
376,228,92922,1,0,0:0:0:0:
440,188,93031,2,0,P|445:116|388:73,1,149.999995422363,2|2,0:0|0:0,0:0:0:0:
312,84,93357,1,0,0:0:0:0:
236,96,93466,6,0,L|152:48,1,74.9999977111817,2|0,0:0|0:0,0:0:0:0:
44,116,93683,2,0,L|128:164,1,74.9999977111817,0|0,0:0|0:0,0:0:0:0:
236,216,93900,2,0,L|170:253,1,74.9999977111817,8|0,0:0|0:0,0:0:0:0:
298,311,94118,2,0,L|363:273,1,74.9999977111817,8|0,0:0|0:0,0:0:0:0:
432,52,94335,6,0,P|451:111|424:176,1,74.9999977111817,6|0,0:0|0:0,0:0:0:0:
184,112,94553,1,0,0:0:0:0:
268,76,94661,1,0,0:0:0:0:
354,108,94770,2,0,P|352:156|325:196,1,74.9999977111817,2|0,0:0|0:0,0:0:0:0:
164,216,94987,2,0,L|238:209,1,74.9999977111817,2|0,0:0|0:0,0:0:0:0:
315,274,95204,2,0,P|289:315|192:328,1,149.999995422363,2|0,0:0|0:0,0:0:0:0:
88,224,95640,6,0,L|172:216,1,74.9999977111817,0|0,0:0|0:0,0:0:0:0:
424,132,95857,2,0,L|316:136,1,74.9999977111817,0|0,0:0|0:0,0:0:0:0:
248,104,96074,2,0,P|260:192|312:232,1,149.999995422363,2|8,0:0|0:0,0:0:0:0:
376,256,96400,1,8,0:0:0:0:
440,212,96509,6,0,P|400:180|364:176,1,74.9999977111817,2|0,0:0|0:0,0:0:0:0:
184,240,96726,2,0,P|158:266|147:302,1,74.9999977111817,8|8,0:0|0:0,0:0:0:0:
260,344,96944,2,0,P|285:317|296:281,1,74.9999977111817,2|0,0:0|0:0,0:0:0:0:
296,40,97161,2,0,P|285:75|293:112,1,74.9999977111817,2|0,0:0|0:0,0:0:0:0:
380,244,97379,2,0,P|405:270|441:282,1,74.9999977111817,2|0,0:0|0:0,0:0:0:0:
448,128,97596,2,0,P|422:101|386:89,1,74.9999977111817,2|0,0:0|0:0,0:0:0:0:
184,92,97813,6,0,P|148:103|122:130,1,74.9999977111817,2|0,0:0|0:0,0:0:0:0:
116,248,98031,1,8,0:0:0:0:
164,324,98140,1,8,0:0:0:0:
256,332,98248,2,0,P|252:284|208:240,1,74.9999977111817,2|0,0:0|0:0,0:0:0:0:
236,116,98466,5,8,0:0:0:0:
188,192,98573,1,0,0:0:0:0:
96,200,98683,2,0,P|100:152|148:108,1,74.9999977111817,6|0,0:0|0:0,0:0:0:0:
356,68,99009,6,0,L|416:132,1,62.5,4|0,0:0|0:0,0:0:0:0:
352,240,99335,5,4,0:0:0:0:
352,240,99553,2,0,P|280:228|232:180,1,125,2|0,0:0|0:0,0:0:0:0:
232,148,99879,1,0,0:0:0:0:
208,92,99987,2,0,P|140:136|132:224,1,125,2|0,0:0|0:0,0:0:0:0:
156,224,100313,1,0,0:0:0:0:
208,244,100422,6,0,P|246:275|238:315,1,62.5,2|0,0:0|0:0,0:0:0:0:
316,352,100640,2,0,P|340:305|333:263,1,62.5,6|0,0:0|0:0,0:0:0:0:
232,148,100857,2,0,P|288:164|328:216,1,125,6|0,0:0|0:0,0:0:0:0:
360,256,101183,1,0,0:0:0:0:
400,296,101292,6,0,P|464:244|472:188,1,125,8|0,0:0|0:0,0:0:0:0:
456,48,101726,2,0,P|392:100|384:156,1,125,8|8,0:0|0:0,0:0:0:0:
156,104,102161,6,0,P|212:108|284:148,1,125,8|0,0:0|0:0,0:0:0:0:
308,180,102487,1,0,0:0:0:0:
316,236,102596,2,0,P|310:278|288:316,1,62.5,8|0,0:0|0:0,0:0:0:0:
180,264,102813,2,0,P|185:221|208:184,1,62.5,8|0,0:0|0:0,0:0:0:0:
156,104,103031,6,0,L|28:168,1,125,2|0,0:0|0:0,0:0:0:0:
203,290,103466,2,0,L|335:226,1,125,2|0,0:0|0:0,0:0:0:0:
356,196,103792,1,0,0:0:0:0:
364,140,103900,6,0,P|311:118|261:144,1,62.5,2|0,0:0|0:0,0:0:0:0:
265,29,104118,2,0,P|220:64|217:121,1,62.5,6|0,0:0|0:0,0:0:0:0:
119,61,104335,2,0,P|126:117|173:148,1,62.5,6|0,0:0|0:0,0:0:0:0:
73,203,104553,2,0,P|124:224|174:199,1,62.5,0|0,0:0|0:0,0:0:0:0:
228,184,104770,6,0,P|224:268|176:316,1,125,8|0,0:0|0:0,0:0:0:0:
144,300,105096,1,8,0:0:0:0:
88,300,105205,2,0,P|156:348|232:340,1,125,8|8,0:0|0:0,0:0:0:0:
252,336,105531,1,0,0:0:0:0:
308,320,105640,6,0,L|400:280,1,62.5,8|0,0:0|0:0,0:0:0:0:
452,216,105857,2,0,L|360:176,1,62.5,0|0,0:0|0:0,0:0:0:0:
284,216,106074,2,0,L|295:116,1,62.5,8|0,0:0|0:0,0:0:0:0:
265,39,106292,2,0,L|184:98,1,62.5,8|0,0:0|0:0,0:0:0:0:
100,40,106509,6,0,L|112:196,1,125,6|0,0:0|0:0,0:0:0:0:
132,216,106835,1,0,0:0:0:0:
180,244,106944,2,0,P|236:216|328:212,1,125,2|0,0:0|0:0,0:0:0:0:
348,228,107270,1,0,0:0:0:0:
388,268,107379,6,0,P|356:299|316:308,1,62.5,2|0,0:0|0:0,0:0:0:0:
220,352,107596,2,0,P|233:324|257:304,1,62.5,6|0,0:0|0:0,0:0:0:0:
440,184,107813,2,0,P|444:148|436:112,1,62.5,6|0,0:0|0:0,0:0:0:0:
336,44,108031,2,0,P|332:80|340:116,1,62.5,0|0,0:0|0:0,0:0:0:0:
316,216,108248,6,0,P|244:208|196:160,1,125,8|0,0:0|0:0,0:0:0:0:
180,116,108574,1,8,0:0:0:0:
188,52,108683,2,0,P|236:52|268:68,1,62.5,8|0,0:0|0:0,0:0:0:0:
356,32,108900,2,0,P|360:76|328:128,1,62.5,8|0,0:0|0:0,0:0:0:0:
316,216,109118,6,0,L|340:296,1,62.5,8|0,0:0|0:0,0:0:0:0:
460,228,109335,2,0,L|436:140,1,62.5,0|0,0:0|0:0,0:0:0:0:
200,220,109553,2,0,L|176:300,1,62.5,8|0,0:0|0:0,0:0:0:0:
52,228,109770,2,0,L|76:140,1,62.5,8|0,0:0|0:0,0:0:0:0:
160,64,109987,6,0,P|232:56|316:112,1,125,8|0,0:0|0:0,0:0:0:0:
352,320,110422,2,0,P|280:328|196:272,1,125,8|0,0:0|0:0,0:0:0:0:
384,96,110857,2,0,P|392:168|336:252,1,125,8|4,0:0|0:0,0:0:0:0:
128,288,111292,2,0,P|120:216|176:132,1,125,6|0,0:0|0:0,0:0:0:0:
372,220,111943,5,8,0:0:0:0:
224,244,112161,1,8,0:0:0:0:
276,96,112378,1,8,0:0:0:0:
312,292,112596,1,8,0:0:0:0:
124,232,113031,6,0,P|200:148|320:224,1,250,6|0,0:0|0:0,0:0:0:0:
