osu file format v14

[General]
AudioFilename: audio.mp3
AudioLeadIn: 0
PreviewTime: 45204
Countdown: 0
SampleSet: Soft
StackLeniency: 0.7
Mode: 0
LetterboxInBreaks: 0
WidescreenStoryboard: 1

[Editor]
Bookmarks: 7704,13329,30204,45204,60204,75204
DistanceSpacing: 1.2
BeatDivisor: 2
GridSize: 8
TimelineZoom: 1.000006

[Metadata]
Title:Houkago Di(e)stra(u)ction (TV Size)
TitleUnicode:放課後ディストラクション (TV Size)
Artist:Etsuko Yakushimaru
ArtistUnicode:やくしまる えつこ
Creator:Sargent150
Version:Normal
Source:ハイスコアガール
Tags:High Score Girl Ending ED
BeatmapID:2428682
BeatmapSetID:865571

[Difficulty]
HPDrainRate:3
CircleSize:3
OverallDifficulty:3
ApproachRate:4
SliderMultiplier:1.4
SliderTickRate:1

[Events]
//Background and Video events
Video,0,"High Score Girl ED Ending HD.mp4"
0,0,"Hi-Score-Girl-02-43.jpg",0,0
//Break Periods
//Storyboard Layer 0 (Background)
//Storyboard Layer 1 (Fail)
//Storyboard Layer 2 (Pass)
//Storyboard Layer 3 (Foreground)
//Storyboard Layer 4 (Overlay)
//Storyboard Sound Samples

[TimingPoints]
204,468.75,4,2,0,100,1,0
7704,-125,4,2,0,100,0,0
13329,-100,4,2,0,100,0,0
35829,-125,4,2,0,100,0,0
36532,-100,4,2,0,100,0,0
43329,-125,4,2,0,100,0,0
44032,-100,4,2,0,100,0,0
45204,-100,4,2,0,100,0,1
59969,-100,4,2,0,100,0,0

[HitObjects]
96,121,204,6,0,P|177:98|237:110,1,140
244,190,907,2,0,P|163:213|103:201,1,140
83,283,1610,2,0,P|98:348|143:374,1,70
162,294,2079,1,0,0:0:0:0:
330,294,2547,1,0,0:0:0:0:
246,149,3016,1,0,0:0:0:0:
77,148,3485,1,0,0:0:0:0:
214,50,3954,6,0,L|215:144,1,70
218,203,4422,2,0,L|312:202,1,70
372,198,4891,2,0,L|371:104,1,70
365,43,5360,2,0,L|271:44,1,70
294,127,5829,5,0,0:0:0:0:
294,211,6063,1,0,0:0:0:0:
210,211,6297,1,0,0:0:0:0:
210,127,6532,1,0,0:0:0:0:
211,43,6766,2,0,L|281:43,1,70
365,46,7235,2,0,L|365:116,1,70
301,162,7704,6,0,P|270:214|271:232,1,56
317,270,8172,2,0,P|348:218|347:200,3,56
379,152,9110,2,0,P|420:196|422:214,1,56
416,268,9579,6,0,P|405:293|385:313,1,56
315,347,10047,2,0,P|287:342|263:328,3,56
244,251,10985,2,0,P|218:262|199:282,1,56
219,359,11454,6,0,P|244:347|263:327,1,56
320,273,11922,2,0,P|336:295|342:322,3,56
287,376,12860,2,0,P|269:354|262:327,1,56
227,255,13329,5,0,0:0:0:0:
306,261,13563,1,0,0:0:0:0:
275,186,13797,2,0,L|206:173,1,70
168,94,14266,1,0,0:0:0:0:
247,100,14500,1,0,0:0:0:0:
214,23,14735,2,0,L|145:10,1,70
47,20,15204,2,0,P|25:48|15:81,1,70
12,178,15672,6,0,P|26:210|51:234,1,70
95,161,16141,1,0,0:0:0:0:
11,306,16610,1,0,0:0:0:0:
179,307,17079,5,0,0:0:0:0:
221,234,17313,1,0,0:0:0:0:
265,305,17547,1,0,0:0:0:0:
305,231,17782,1,0,0:0:0:0:
347,303,18016,2,0,P|371:278|386:246,1,70
354,169,18485,2,0,P|322:153|288:153,1,70
205,136,18954,6,0,P|217:103|243:80,1,70,0|0,0:0|2:0,0:0:0:0:
361,165,19422,2,0,P|348:197|322:220,1,70,0|0,0:0|2:0,0:0:0:0:
283,149,19891,1,0,0:0:0:0:
150,46,20360,2,0,P|183:11|227:-2,1,70
303,75,20829,5,0,0:0:0:0:
224,81,21063,1,0,0:0:0:0:
203,163,21297,2,0,L|272:150,1,70
244,236,21766,1,0,0:0:0:0:
165,242,22000,1,0,0:0:0:0:
142,326,22235,2,0,L|211:313,1,70
293,297,22704,2,0,P|314:269|324:236,1,70
328,139,23172,6,0,P|314:107|289:83,1,70
245,156,23641,1,0,0:0:0:0:
329,11,24110,1,0,0:0:0:0:
458,118,24579,5,0,0:0:0:0:
385,160,24813,1,0,0:0:0:0:
456,204,25047,1,0,0:0:0:0:
382,244,25282,1,0,0:0:0:0:
454,286,25516,2,0,P|429:310|397:325,1,70
320,293,25985,2,0,P|304:261|304:227,1,70
365,178,26454,6,0,P|381:209|382:244,1,70
397,324,26922,2,0,P|378:353|348:370,1,70
264,361,27391,1,0,0:0:0:0:
196,207,27860,2,0,P|214:177|244:160,1,70
323,191,28329,6,0,P|304:220|275:238,1,70
207,287,28797,1,0,0:0:0:0:
40,254,29266,1,0,0:0:0:0:
150,127,29735,1,0,0:0:0:0:
153,289,30204,6,0,P|117:284|87:261,1,70
151,207,30672,1,0,0:0:0:0:
228,172,30907,1,0,0:0:0:0:
237,256,31141,2,0,P|193:361|91:356,1,210
33,215,32079,6,0,P|13:185|10:151,1,70,0|0,0:0|2:0,0:0:0:0:
61,85,32547,2,0,P|94:78|128:87,1,70,0|0,0:0|2:0,0:0:0:0:
90,159,33016,1,0,0:0:0:0:
158,11,33485,1,0,0:0:0:0:
388,255,33954,6,0,P|418:238|438:209,1,70
361,179,34422,1,0,0:0:0:0:
277,174,34657,1,0,0:0:0:0:
299,255,34891,2,0,P|361:333|458:311,1,210
474,231,35829,6,0,L|395:232,3,56
375,158,36766,1,0,0:0:0:0:
334,231,37000,1,0,0:0:0:0:
290,160,37235,1,0,0:0:0:0:
249,233,37469,1,0,0:0:0:0:
208,156,37704,6,0,P|217:122|240:97,1,70
323,85,38172,1,0,0:0:0:0:
380,146,38407,1,0,0:0:0:0:
348,223,38641,2,0,P|443:194|442:94,1,210
368,62,39579,6,0,P|388:33|419:18,1,70,0|0,0:0|2:0,0:0:0:0:
496,54,40047,2,0,P|475:82|444:97,1,70,0|0,0:0|2:0,0:0:0:0:
368,62,40516,1,0,0:0:0:0:
508,154,40985,1,0,0:0:0:0:
359,233,41454,6,0,P|389:216|409:187,1,70
332,157,41922,1,0,0:0:0:0:
248,152,42157,1,0,0:0:0:0:
270,233,42391,2,0,P|332:311|429:289,1,210
485,240,43329,6,0,L|482:300,3,56
445,372,44266,1,0,0:0:0:0:
400,300,44500,1,0,0:0:0:0:
359,375,44735,1,0,0:0:0:0:
318,301,44969,1,0,0:0:0:0:
277,374,45204,6,0,P|203:332|169:282,1,140
221,220,45907,2,0,P|294:261|328:311,1,140
400,268,46610,2,0,P|435:211|421:161,1,70
352,205,47079,1,0,0:0:0:0:
233,86,47547,1,0,0:0:0:0:
190,248,48016,1,0,0:0:0:0:
309,368,48485,1,0,0:0:0:0:
143,340,48954,6,0,L|208:272,1,70
248,229,49422,2,0,L|180:163,1,70
136,124,49891,2,0,L|70:191,1,70
31,238,50360,2,0,L|98:303,1,70
141,229,50829,5,0,0:0:0:0:
200,170,51063,1,0,0:0:0:0:
260,229,51297,1,0,0:0:0:0:
200,289,51532,1,0,0:0:0:0:
140,347,51766,2,0,L|90:297,1,70
33,236,52235,2,0,L|82:186,1,70
137,119,52704,6,0,P|218:96|278:108,1,140
285,188,53407,2,0,P|204:211|144:199,1,140
124,281,54110,2,0,P|139:346|184:372,1,70
203,292,54579,1,0,0:0:0:0:
371,292,55047,1,0,0:0:0:0:
287,147,55516,1,0,0:0:0:0:
118,146,55985,1,0,0:0:0:0:
255,48,56454,6,0,L|256:142,1,70
259,201,56922,2,0,L|353:200,1,70
413,196,57391,2,0,L|412:102,1,70
406,41,57860,2,0,L|312:42,1,70
335,125,58329,5,0,0:0:0:0:
335,209,58563,1,0,0:0:0:0:
251,209,58797,1,0,0:0:0:0:
251,125,59032,1,0,0:0:0:0:
252,41,59266,2,0,L|322:41,1,70
406,44,59735,2,0,L|406:114,1,70
486,129,60204,6,0,P|462:175|422:196,1,70
366,186,60672,2,0,P|385:234|422:259,1,70
475,261,61141,2,0,P|451:307|411:328,1,70
353,317,61610,1,0,0:0:0:0:
298,253,61844,1,0,0:0:0:0:
272,333,62079,2,0,L|412:342,2,140
213,272,63250,1,0,0:0:0:0:
194,349,63485,2,0,P|155:326|138:295,1,70
153,220,63954,2,0,P|180:198|217:193,1,70
297,194,64422,6,0,P|280:144|246:118,1,70
187,111,64891,1,0,0:0:0:0:
109,143,65125,1,0,0:0:0:0:
120,59,65360,6,0,L|34:56,1,70
29,138,65829,1,0,0:0:0:0:
61,215,66063,1,0,0:0:0:0:
144,219,66297,6,0,P|124:263|82:294,1,70
25,291,66766,1,0,0:0:0:0:
77,356,67000,1,0,0:0:0:0:
159,339,67235,2,0,P|186:312|211:256,1,70
159,170,67704,6,0,P|183:124|223:103,1,70
279,124,68172,2,0,P|266:156|241:180,1,70
193,246,68641,2,0,P|223:262|258:264,1,70
325,213,69110,1,0,0:0:0:0:
360,137,69344,1,0,0:0:0:0:
327,59,69579,2,0,L|187:50,2,140
410,70,70750,1,0,0:0:0:0:
442,147,70985,2,0,P|425:189|397:210,1,70,0|0,2:0|2:0,2:0:0:0:
327,212,71454,2,0,P|298:192|281:159,1,70
361,136,71922,6,0,P|344:105|315:85,1,70
232,96,72391,1,0,0:0:0:0:
200,173,72625,1,0,0:0:0:0:
205,257,72860,6,0,L|123:268,1,70
68,313,73329,1,0,0:0:0:0:
145,349,73563,1,0,0:0:0:0:
228,342,73797,6,0,L|310:331,1,70
286,249,74266,1,0,0:0:0:0:
365,276,74500,1,0,0:0:0:0:
348,198,74735,2,0,P|397:204|433:235,1,70
448,136,75204,5,0,0:0:0:0:
408,64,75438,1,0,0:0:0:0:
368,136,75672,1,0,0:0:0:0:
328,64,75906,1,0,0:0:0:0:
288,136,76141,2,0,L|208:144,1,70
248,64,76610,2,0,L|168:72,1,70
136,143,77079,5,0,0:0:0:0:
175,216,77313,1,0,0:0:0:0:
91,214,77547,1,0,0:0:0:0:
53,138,77782,1,0,0:0:0:0:
96,66,78016,2,0,P|132:61|169:68,1,70
237,109,78485,2,0,P|254:141|260:178,1,70
251,257,78954,5,0,0:0:0:0:
332,229,79188,1,0,0:0:0:0:
251,257,79422,1,0,0:0:0:0:
332,229,79657,1,0,0:0:0:0:
320,312,79891,2,0,P|380:297|399:278,1,70
402,375,80360,2,0,P|452:339|463:314,1,70
458,249,80829,5,0,0:0:0:0:
402,186,81063,1,0,0:0:0:0:
349,251,81297,2,0,P|324:226|317:184,1,70
231,190,81766,1,0,0:0:0:0:
175,127,82000,1,0,0:0:0:0:
122,192,82234,2,0,P|97:167|90:125,1,70
128,59,82704,6,0,P|175:49|223:54,1,70
256,108,83172,2,0,P|290:107|324:98,1,70
282,25,83641,1,0,0:0:0:0:
373,166,84110,1,0,0:0:0:0:
204,164,84579,6,0,L|104:162,1,70
129,246,85047,2,0,L|198:247,1,70
274,210,85516,1,0,0:0:0:0:
158,332,85985,1,0,0:0:0:0:
122,167,86454,6,0,P|108:134|108:100,1,70
252,68,86922,2,0,P|265:100|265:134,1,70
187,117,87391,1,0,0:0:0:0:
351,150,87860,1,0,0:0:0:0:
237,273,88329,5,0,0:0:0:0:
399,313,88797,2,0,L|496:336,1,70
