osu file format v14

[General]
AudioFilename: audio.mp3
AudioLeadIn: 0
PreviewTime: 45204
Countdown: 1
SampleSet: Soft
StackLeniency: 0
Mode: 0
LetterboxInBreaks: 0
WidescreenStoryboard: 1

[Editor]
Bookmarks: 204,7704,15204,22704,29735,37704,45204,60204,67704,75204,82704,89266
DistanceSpacing: 4
BeatDivisor: 2
GridSize: 16
TimelineZoom: 1.3

[Metadata]
Title:Houkago Di(e)stra(u)ction (TV Size)
TitleUnicode:放課後ディストラクション (TV Size)
Artist:Etsuko Yakushimaru
ArtistUnicode:やくしまる えつこ
Creator:Sargent150
Version:Insane
Source:ハイスコアガール
Tags:High Score Girl Ending ED
BeatmapID:2615781
BeatmapSetID:865571

[Difficulty]
HPDrainRate:5
CircleSize:4
OverallDifficulty:8
ApproachRate:8.5
SliderMultiplier:1.4
SliderTickRate:1

[Events]
//Background and Video events
0,0,"Hi-Score-Girl-02-43.jpg",0,0
Video,0,"High Score Girl ED Ending HD.mp4"
//Break Periods
//Storyboard Layer 0 (Background)
//Storyboard Layer 1 (Fail)
//Storyboard Layer 2 (Pass)
//Storyboard Layer 3 (Foreground)
//Storyboard Layer 4 (Overlay)
//Storyboard Sound Samples

[TimingPoints]
204,468.75,4,2,0,50,1,0
45204,-100,4,2,0,50,0,1
60204,-100,4,2,0,50,0,0

[Colours]
Combo1 : 255,192,0
Combo2 : 0,0,255
Combo3 : 18,124,255
Combo4 : 242,24,57

[HitObjects]
77,79,204,6,0,L|230:77,1,140
220,150,907,2,0,L|80:151,1,140
79,357,1610,1,0,0:0:0:0:
224,225,1844,1,0,0:0:0:0:
218,384,2079,6,0,L|307:383,1,70
395,226,2782,2,0,L|325:226,1,70
265,307,3954,2,0,L|335:307,1,70
434,149,4657,2,0,L|345:150,1,70
258,76,5829,6,0,L|261:175,1,70
480,87,6297,1,0,0:0:0:0:
390,254,6532,1,0,0:0:0:0:
360,146,6766,2,0,L|434:147,1,70
418,354,7235,2,0,L|348:353,1,70
59,66,7704,6,0,L|62:165,1,70
411,56,8172,1,0,0:0:0:0:
278,376,8407,1,0,0:0:0:0:
74,90,8641,2,0,P|108:93|138:110,1,70
83,160,9110,1,0,0:0:0:0:
447,21,9344,1,0,0:0:0:0:
369,320,9579,6,0,L|270:323,1,70
362,25,10047,1,0,0:0:0:0:
84,310,10282,1,0,0:0:0:0:
363,154,10516,2,0,P|304:150|280:129,1,70
340,88,10985,1,0,0:0:0:0:
73,358,11219,1,0,0:0:0:0:
336,278,11454,6,0,L|333:208,1,70
47,280,11922,1,0,0:0:0:0:
336,31,12157,1,0,0:0:0:0:
201,332,12391,2,0,P|216:301|217:267,1,70
145,282,12860,1,0,0:0:0:0:
505,197,13094,1,0,0:0:0:0:
138,77,13329,5,0,0:0:0:0:
374,311,13563,1,0,0:0:0:0:
91,188,13797,1,0,0:0:0:0:
420,187,14032,1,0,0:0:0:0:
130,299,14266,1,0,0:0:0:0:
362,73,14500,1,0,0:0:0:0:
251,351,14735,1,0,0:0:0:0:
259,47,14969,2,0,L|255:129,1,70
13,208,15438,5,0,0:0:0:0:
183,384,15672,1,0,0:0:0:0:
192,134,15907,1,0,0:0:0:0:
350,338,16141,2,0,P|399:340|435:326,1,70
443,179,16610,2,0,P|394:177|358:191,1,70
398,258,17079,5,0,0:0:0:0:
323,0,17313,1,0,0:0:0:0:
333,291,17547,1,0,0:0:0:0:
391,28,17782,1,0,0:0:0:0:
292,218,18016,2,0,P|269:254|232:269,1,70
222,199,18485,5,0,0:0:0:0:
222,199,18719,1,0,0:0:0:0:
91,38,18954,2,0,P|134:26|174:28,1,70
138,221,19422,2,0,P|95:233|55:231,1,70
42,147,19891,2,0,P|85:135|125:137,1,70
89,330,20359,2,0,P|46:342|6:340,1,70
163,157,20829,5,0,0:0:0:0:
372,367,21063,1,0,0:0:0:0:
239,135,21297,2,0,P|281:128|327:146,1,70
299,349,21766,2,0,P|257:356|211:338,1,70
356,83,22235,5,0,0:0:0:0:
447,363,22469,1,0,0:0:0:0:
191,303,22704,1,0,0:0:0:0:
355,239,22938,5,0,0:0:0:0:
135,182,23172,1,0,0:0:0:0:
283,66,23407,1,0,0:0:0:0:
224,280,23641,2,0,P|192:296|157:299,1,70
95,219,24110,2,0,P|126:202|161:199,1,70
296,365,24579,5,0,0:0:0:0:
359,24,24813,1,0,0:0:0:0:
222,343,25047,1,0,0:0:0:0:
431,57,25282,1,0,0:0:0:0:
187,206,25516,2,0,P|142:191|113:149,1,70
170,34,25985,2,0,P|203:42|230:64,1,70
0,229,26454,6,0,P|25:183|56:163,1,70
257,262,26922,2,0,P|232:308|201:328,1,70
126,243,27391,2,0,P|151:197|182:177,1,70
383,276,27859,2,0,P|358:322|327:342,1,70
512,190,28329,5,0,0:0:0:0:
172,20,28797,1,0,0:0:0:0:
168,370,29266,1,0,0:0:0:0:
0,185,29735,5,0,0:0:0:0:
16,338,29969,2,0,P|70:337|146:275,1,140
194,339,30672,2,0,P|224:306|236:267,1,70
290,339,31141,2,0,P|336:311|371:219,1,140
499,212,31844,6,0,P|450:249|418:249,1,70
229,100,32313,2,0,P|252:74|284:61,1,70
364,158,32782,1,0,0:0:0:0:
364,158,33016,1,0,0:0:0:0:
155,10,33485,5,0,0:0:0:0:
306,200,33954,2,0,L|216:196,1,70
178,384,34422,1,0,0:0:0:0:
33,122,34657,1,0,0:0:0:0:
19,347,34891,2,0,P|63:374|226:356,1,210
142,78,35829,5,0,0:0:0:0:
369,305,36063,1,0,0:0:0:0:
95,191,36297,1,0,0:0:0:0:
416,192,36532,1,0,0:0:0:0:
142,305,36766,1,0,0:0:0:0:
369,78,37000,1,0,0:0:0:0:
255,352,37235,1,0,0:0:0:0:
256,31,37469,1,0,0:0:0:0:
188,215,37704,6,0,P|191:257|229:297,1,70
274,218,38172,1,0,0:0:0:0:
274,218,38407,1,0,0:0:0:0:
341,273,38641,2,0,P|355:205|326:142,1,140
479,296,39344,5,0,0:0:0:0:
226,170,39579,1,0,0:0:0:0:
512,104,39813,1,0,0:0:0:0:
322,319,40048,1,0,0:0:0:0:
355,29,40282,1,0,0:0:0:0:
491,215,40516,2,0,L|398:220,1,70
186,127,41219,6,0,L|182:196,1,70
412,183,41688,1,0,0:0:0:0:
200,373,41922,1,0,0:0:0:0:
186,105,42157,1,0,0:0:0:0:
1,341,42391,2,0,L|9:183,1,140
242,313,43094,6,0,P|294:323|339:313,1,70
379,129,43563,2,0,P|345:119|310:120,1,70
309,226,44032,1,0,0:0:0:0:
99,60,44266,5,0,0:0:0:0:
32,369,44500,1,0,0:0:0:0:
30,30,44735,1,0,0:0:0:0:
97,341,44969,1,0,0:0:0:0:
216,66,45204,6,0,L|384:64,1,140
357,140,45907,2,0,L|217:141,1,140
217,228,46610,1,0,0:0:0:0:
347,308,46844,1,0,0:0:0:0:
438,187,47079,1,0,0:0:0:0:
182,35,47547,1,0,0:0:0:0:
182,349,48016,1,0,0:0:0:0:
248,113,48485,5,0,0:0:0:0:
15,69,48954,2,0,P|51:31|86:19,1,70
271,151,49422,2,0,P|234:188|199:200,1,70
140,115,49891,2,0,P|176:77|211:65,1,70
257,301,50360,1,0,0:0:0:0:
331,44,50594,2,0,L|336:216,1,140
477,65,51297,5,0,0:0:0:0:
411,365,51532,1,0,0:0:0:0:
412,28,51766,1,0,0:0:0:0:
473,334,52000,1,0,0:0:0:0:
465,114,52235,2,0,L|382:118,1,70
304,352,52704,6,0,L|443:347,1,140
437,272,53407,2,0,L|297:276,1,140
297,185,54110,1,0,0:0:0:0:
445,36,54344,1,0,0:0:0:0:
437,182,54579,1,0,0:0:0:0:
257,16,55047,1,0,0:0:0:0:
92,328,55516,1,0,0:0:0:0:
414,328,55985,5,0,0:0:0:0:
395,21,56454,2,0,P|438:9|478:11,1,70
450,238,56922,2,0,P|407:250|367:248,1,70
425,129,57391,2,0,P|468:117|508:119,1,70
480,346,57859,2,0,P|437:358|397:356,1,70
491,37,58329,6,0,L|488:136,1,70
269,48,58797,1,0,0:0:0:0:
359,215,59032,1,0,0:0:0:0:
389,107,59266,2,0,L|315:108,1,70
331,315,59735,2,0,L|401:314,1,70
385,37,60204,5,0,0:0:0:0:
297,309,60438,1,0,0:0:0:0:
319,62,60672,1,0,0:0:0:0:
358,351,60907,1,0,0:0:0:0:
211,72,61141,6,0,L|217:153,1,70
459,182,61610,1,0,0:0:0:0:
273,353,61844,1,0,0:0:0:0:
410,103,62079,1,0,0:0:0:0:
396,363,62313,5,0,0:0:0:0:
255,99,62547,1,0,0:0:0:0:
147,364,62782,1,0,0:0:0:0:
26,105,63016,1,0,0:0:0:0:
196,277,63250,5,0,0:0:0:0:
179,14,63485,2,0,P|168:34|167:93,1,70
232,62,63954,1,0,0:0:0:0:
3,152,64188,1,0,0:0:0:0:
215,297,64422,5,0,0:0:0:0:
301,30,64657,1,0,0:0:0:0:
391,299,64891,1,0,0:0:0:0:
146,120,65125,1,0,0:0:0:0:
440,125,65360,1,0,0:0:0:0:
299,351,65594,5,0,0:0:0:0:
209,122,65829,2,0,L|296:125,1,70
185,278,66297,1,0,0:0:0:0:
338,38,66532,1,0,0:0:0:0:
413,349,66766,5,0,0:0:0:0:
413,34,67000,1,0,0:0:0:0:
98,34,67235,1,0,0:0:0:0:
98,349,67469,1,0,0:0:0:0:
0,220,67704,6,0,L|4:122,1,70
154,33,68172,1,0,0:0:0:0:
192,322,68407,1,0,0:0:0:0:
339,80,68641,2,0,L|336:149,1,70
483,136,69110,5,0,0:0:0:0:
262,347,69344,1,0,0:0:0:0:
221,49,69579,1,0,0:0:0:0:
482,217,69813,1,0,0:0:0:0:
171,289,70047,6,0,L|176:212,1,70
327,1,70516,1,0,0:0:0:0:
487,286,70750,1,0,0:0:0:0:
354,155,70985,2,0,L|351:244,1,70
158,289,71454,5,0,0:0:0:0:
353,94,71688,1,0,0:0:0:0:
118,191,71922,1,0,0:0:0:0:
393,192,72157,1,0,0:0:0:0:
158,94,72391,1,0,0:0:0:0:
353,289,72625,1,0,0:0:0:0:
256,54,72860,1,0,0:0:0:0:
256,329,73094,1,0,0:0:0:0:
117,73,73329,6,0,L|119:172,1,70
247,145,73797,1,0,0:0:0:0:
123,368,74032,1,0,0:0:0:0:
199,83,74266,2,0,P|244:71|312:89,1,70
326,237,74735,2,0,P|292:247|257:247,1,70
357,52,75204,5,0,0:0:0:0:
265,327,75438,1,0,0:0:0:0:
174,52,75672,1,0,0:0:0:0:
78,333,75907,1,0,0:0:0:0:
7,121,76141,2,0,P|73:93|115:111,1,70
139,304,76610,2,0,P|73:332|31:314,1,70
186,80,77079,5,0,0:0:0:0:
81,262,77313,1,0,0:0:0:0:
367,185,77547,1,0,0:0:0:0:
262,367,77782,1,0,0:0:0:0:
448,272,78016,2,0,L|365:274,1,70
80,272,78485,2,0,L|149:273,1,70
110,75,78954,5,0,0:0:0:0:
177,358,79188,1,0,0:0:0:0:
171,36,79422,1,0,0:0:0:0:
112,330,79657,1,0,0:0:0:0:
389,117,79891,2,0,L|301:120,1,70
115,296,80359,2,0,L|184:293,1,70
165,47,80829,5,0,0:0:0:0:
254,342,81063,1,0,0:0:0:0:
340,48,81297,1,0,0:0:0:0:
111,260,81532,1,0,0:0:0:0:
425,189,81766,1,0,0:0:0:0:
109,128,82000,1,0,0:0:0:0:
362,318,82235,1,0,0:0:0:0:
210,34,82469,1,0,0:0:0:0:
211,344,82704,6,0,P|254:364|300:347,1,70
420,140,83172,1,0,0:0:0:0:
262,293,83407,1,0,0:0:0:0:
397,203,83641,2,0,P|421:157|404:102,1,70
247,49,84110,2,0,P|223:95|240:150,1,70
5,321,84579,6,0,L|9:229,1,70
119,102,85047,1,0,0:0:0:0:
215,313,85282,1,0,0:0:0:0:
334,104,85516,2,0,L|339:195,1,70
480,317,85984,2,0,L|476:247,1,70
196,101,86454,6,0,P|235:73|314:97,1,70
342,341,86922,1,0,0:0:0:0:
255,69,87157,1,0,0:0:0:0:
207,346,87391,2,0,P|183:371|151:384,1,70
19,283,87860,2,0,P|70:245|135:260,1,70
211,36,88329,6,0,L|212:135,1,70
113,314,89032,1,0,0:0:0:0:
