osu file format v14

[General]
AudioFilename: Etherwood - Cast Away.mp3
AudioLeadIn: 0
PreviewTime: 94335
Countdown: 0
SampleSet: Soft
StackLeniency: 0.4
Mode: 0
LetterboxInBreaks: 0
WidescreenStoryboard: 0

[Editor]
Bookmarks: 44484,63902,77778,88877,94426,113848,116622,138819
DistanceSpacing: 1.2
BeatDivisor: 4
GridSize: 8
TimelineZoom: 1.2

[Metadata]
Title:Cast Away
TitleUnicode:Cast Away
Artist:Etherwood
ArtistUnicode:Etherwood
Creator:Rohit6
Version:Insane
Source:
Tags:dnb drum and bass Nerova Riuz GX theramdans MrSuicidesheep Hospital Records liquid
BeatmapID:807867
BeatmapSetID:368466

[Difficulty]
HPDrainRate:5.5
CircleSize:4
OverallDifficulty:8
ApproachRate:9
SliderMultiplier:1.4
SliderTickRate:1

[Events]
//Background and Video events
0,0,"asdasd.jpg",0,0
//Break Periods
2,88726,91741
2,114044,114978
//Storyboard Layer 0 (Background)
//Storyboard Layer 1 (Fail)
//Storyboard Layer 2 (Pass)
//Storyboard Layer 3 (Foreground)
//Storyboard Sound Samples

[TimingPoints]
87,346.820809248555,4,2,5,40,1,0
44480,-100,4,2,1,60,0,0
44740,-100,4,2,1,30,0,0
44913,-100,4,2,2,60,0,0
45260,-100,4,2,1,30,0,0
45433,-100,4,2,2,60,0,0
45607,-100,4,2,1,60,0,0
46127,-100,4,2,1,30,0,0
46300,-100,4,2,2,60,0,0
47254,-100,4,2,1,60,0,0
47514,-100,4,2,2,30,0,0
47688,-100,4,2,2,60,0,0
48034,-100,4,2,2,30,0,0
48208,-100,4,2,2,60,0,0
48641,-100,4,2,1,60,0,0
48902,-100,4,2,1,30,0,0
49075,-100,4,2,2,60,0,0
49595,-100,4,2,1,30,0,0
49769,-100,4,2,1,60,0,0
49942,-100,4,2,1,60,0,0
50289,-100,4,2,1,30,0,0
50462,-100,4,2,2,60,0,0
50809,-100,4,2,1,30,0,0
50982,-100,4,2,2,60,0,0
51416,-100,4,2,1,60,0,0
51676,-100,4,2,1,30,0,0
51850,-100,4,2,2,60,0,0
52196,-100,4,2,2,30,0,0
52370,-100,4,2,2,60,0,0
52803,-100,4,2,1,60,0,0
53150,-100,4,2,2,60,0,0
54191,-100,4,2,1,60,0,0
54451,-100,4,2,1,30,0,0
54624,-100,4,2,2,60,0,0
55144,-133.333333333333,4,2,3,80,0,0
55404,-133.333333333333,4,2,2,20,0,0
55578,-100,4,2,1,60,0,0
55838,-100,4,2,2,30,0,0
56011,-100,4,2,2,60,0,0
56358,-100,4,2,2,30,0,0
56532,-100,4,2,2,60,0,0
56705,-100,4,2,2,60,0,0
56965,-100,4,2,1,60,0,0
57225,-100,4,2,1,30,0,0
57399,-100,4,2,2,60,0,0
58352,-100,4,2,1,60,0,0
58613,-100,4,2,1,30,0,0
58786,-100,4,2,1,60,0,0
59133,-100,4,2,1,30,0,0
59306,-100,4,2,2,60,0,0
59740,-100,4,2,1,60,0,0
60000,-100,4,2,1,30,0,0
60173,-100,4,2,1,60,0,0
60347,-100,4,2,1,70,0,0
60433,-100,4,2,2,80,0,0
60520,-100,4,2,2,60,0,0
60867,-100,4,2,2,30,0,0
61040,-100,4,2,2,60,0,0
61387,-100,4,2,2,30,0,0
61560,-100,4,2,2,60,0,0
61907,-100,4,2,2,30,0,0
62081,-100,4,2,2,60,0,0
62514,-100,4,2,1,60,0,0
62774,-100,4,2,1,30,0,0
62948,-100,4,2,2,60,0,0
63295,-100,4,2,2,30,0,0
63468,-100,4,2,2,60,0,0
63902,-100,4,2,1,60,0,0
64595,-100,4,2,2,60,0,0
65289,-100,4,2,1,60,0,0
65549,-100,4,2,2,30,0,0
65722,-100,4,2,2,60,0,0
66243,-133.333333333333,4,2,3,80,0,0
66503,-133.333333333333,4,2,2,40,0,0
66676,-100,4,2,1,60,0,0
66936,-100,4,2,2,30,0,0
67110,-100,4,2,2,60,0,0
67456,-100,4,2,2,30,0,0
67630,-100,4,2,2,60,0,0
68063,-100,4,2,1,60,0,0
68323,-100,4,2,1,30,0,0
68497,-100,4,2,2,60,0,0
69451,-100,4,2,1,60,0,0
69711,-100,4,2,1,30,0,0
69884,-100,4,2,1,60,0,0
70231,-100,4,2,1,30,0,0
70404,-100,4,2,2,60,0,0
70838,-100,4,2,1,60,0,0
71011,-100,4,2,1,30,0,0
71185,-100,4,2,2,60,0,0
71792,-100,4,2,2,60,0,0
72225,-100,4,2,1,60,0,0
72485,-100,4,2,2,30,0,0
72659,-100,4,2,2,60,0,0
73613,-100,4,2,1,60,0,0
73873,-100,4,2,2,30,0,0
74046,-100,4,2,2,60,0,0
74393,-100,4,2,2,30,0,0
74566,-100,4,2,2,60,0,0
75000,-100,4,2,1,60,0,0
75433,-100,4,2,2,60,0,0
76127,-100,4,2,2,50,0,0
76300,-100,4,2,1,60,0,0
76647,-100,4,2,1,30,0,0
76821,-100,4,2,2,60,0,0
77341,-133.333333333333,4,2,3,80,0,0
77601,-133.333333333333,4,2,2,30,0,0
77774,-111.111111111111,4,2,2,60,0,0
77861,-111.111111111111,4,2,2,30,0,0
78034,-100,4,2,2,60,0,0
78208,-100,4,2,2,30,0,0
78381,-100,4,2,2,60,0,0
79162,-100,4,2,1,60,0,0
79422,-100,4,2,2,30,0,0
79595,-100,4,2,2,60,0,0
80549,-100,4,2,1,60,0,0
80722,-100,4,2,1,30,0,0
80896,-100,4,2,2,60,0,0
81936,-100,4,2,1,60,0,0
82196,-100,4,2,1,30,0,0
82370,-100,4,2,2,60,0,0
82543,-100,4,2,2,60,0,0
83323,-100,4,2,1,60,0,0
83584,-100,4,2,1,30,0,0
83757,-100,4,2,2,60,0,0
84711,-100,4,2,1,60,0,0
84971,-100,4,2,1,30,0,0
85144,-100,4,2,2,60,0,0
86098,-100,4,2,1,60,0,0
86271,-100,4,2,2,30,0,0
86445,-100,4,2,2,60,0,0
87225,-100,4,2,2,30,0,0
87399,-100,4,2,1,60,0,0
87745,-100,4,2,1,30,0,0
87919,-100,4,2,2,60,0,0
88439,-100,4,2,3,60,0,0
92341,-100,4,2,3,10,0,0
92514,-100,4,2,3,35,0,0
92688,-100,4,2,3,40,0,0
92861,-100,4,2,3,45,0,0
93034,-100,4,2,3,50,0,0
93208,-100,4,2,3,55,0,0
93381,-100,4,2,3,60,0,0
93555,-100,4,2,3,65,0,0
93728,-100,4,2,3,70,0,0
93902,-100,4,2,3,75,0,0
94075,-100,4,2,3,80,0,0
94248,-100,4,2,3,5,0,0
94422,-83.3333333333333,4,2,1,90,0,1
94508,-83.3333333333333,4,2,2,45,0,1
94682,-83.3333333333333,4,2,2,90,0,1
95202,-83.3333333333333,4,2,2,45,0,1
95376,-83.3333333333333,4,2,2,90,0,1
95809,-83.3333333333333,4,2,1,90,0,1
95896,-83.3333333333333,4,2,1,45,0,1
96069,-83.3333333333333,4,2,2,90,0,1
97196,-83.3333333333333,4,2,1,90,0,1
97283,-83.3333333333333,4,2,1,45,0,1
97456,-83.3333333333333,4,2,1,90,0,1
97803,-83.3333333333333,4,2,2,90,0,1
97977,-83.3333333333333,4,2,2,45,0,1
98150,-83.3333333333333,4,2,2,90,0,1
98584,-83.3333333333333,4,2,1,90,0,1
98670,-83.3333333333333,4,2,1,45,0,1
98844,-83.3333333333333,4,2,2,90,0,1
99017,-83.3333333333333,4,2,2,45,0,1
99191,-83.3333333333333,4,2,2,90,0,1
99364,-83.3333333333333,4,2,2,45,0,1
99537,-83.3333333333333,4,2,2,90,0,1
99711,-83.3333333333333,4,2,2,45,0,1
99884,-83.3333333333333,4,2,2,90,0,1
99971,-83.3333333333333,4,2,1,90,0,1
100058,-83.3333333333333,4,2,1,45,0,1
100231,-83.3333333333333,4,2,2,90,0,1
100751,-83.3333333333333,4,2,2,45,0,1
100925,-83.3333333333333,4,2,2,90,0,1
101358,-83.3333333333333,4,2,1,90,0,1
101445,-83.3333333333333,4,2,2,45,0,1
101618,-83.3333333333333,4,2,2,90,0,1
102139,-83.3333333333333,4,2,2,45,0,1
102312,-83.3333333333333,4,2,2,90,0,1
102485,-83.3333333333333,4,2,2,45,0,1
102659,-83.3333333333333,4,2,1,90,0,1
102832,-83.3333333333333,4,2,2,45,0,1
103006,-83.3333333333333,4,2,2,90,0,1
103526,-83.3333333333333,4,2,2,45,0,1
103699,-83.3333333333333,4,2,2,90,0,1
103873,-83.3333333333333,4,2,2,45,0,1
104046,-83.3333333333333,4,2,1,90,0,1
104219,-83.3333333333333,4,2,2,45,0,1
104393,-83.3333333333333,4,2,2,90,0,1
104913,-83.3333333333333,4,2,2,45,0,1
105173,-100,4,2,3,100,0,0
105347,-133.333333333333,4,2,2,10,0,0
105520,-83.3333333333333,4,2,1,90,0,1
105607,-83.3333333333333,4,2,1,45,0,1
105780,-83.3333333333333,4,2,2,90,0,1
106300,-83.3333333333333,4,2,2,45,0,1
106474,-83.3333333333333,4,2,2,90,0,1
106907,-83.3333333333333,4,2,1,90,0,1
106994,-83.3333333333333,4,2,2,45,0,1
107167,-83.3333333333333,4,2,2,90,0,1
107688,-83.3333333333333,4,2,2,45,0,1
107861,-83.3333333333333,4,2,2,90,0,1
108295,-83.3333333333333,4,2,1,90,0,1
108381,-83.3333333333333,4,2,1,45,0,1
108555,-83.3333333333333,4,2,1,90,0,1
109075,-83.3333333333333,4,2,1,45,0,1
109248,-83.3333333333333,4,2,2,90,0,1
109595,-83.3333333333333,4,2,1,90,0,1
109769,-83.3333333333333,4,2,1,45,0,1
109942,-83.3333333333333,4,2,1,90,0,1
110115,-83.3333333333333,4,2,1,45,0,1
110289,-83.3333333333333,4,2,2,90,0,1
110982,-83.3333333333333,4,2,1,90,0,1
111156,-83.3333333333333,4,2,1,45,0,1
111329,-83.3333333333333,4,2,2,90,0,1
111850,-83.3333333333333,4,2,1,45,0,1
112023,-83.3333333333333,4,2,2,90,0,1
112456,-83.3333333333333,4,2,1,90,0,1
112543,-83.3333333333333,4,2,1,45,0,1
112717,-83.3333333333333,4,2,2,90,0,1
113237,-83.3333333333333,4,2,1,45,0,1
113410,-83.3333333333333,4,2,2,90,0,1
113584,-83.3333333333333,4,2,1,45,0,1
113757,-83.3333333333333,4,2,1,90,0,1
113844,-100,4,2,1,60,0,0
115491,-200,4,2,1,60,0,0
115838,-200,4,2,3,80,0,0
116532,-100,4,2,1,60,0,0
116878,-100,4,2,2,30,0,0
117052,-100,4,2,2,60,0,0
117399,-100,4,2,2,30,0,0
117572,-100,4,2,2,60,0,0
118006,-100,4,2,1,60,0,0
118266,-100,4,2,2,30,0,0
118439,-100,4,2,2,60,0,0
119046,-100,4,2,3,60,0,0
119393,-100,4,2,1,60,0,0
119653,-100,4,2,1,30,0,0
119826,-100,4,2,1,60,0,0
120173,-100,4,2,1,30,0,0
120347,-100,4,2,2,60,0,0
120780,-100,4,2,2,30,0,0
120954,-100,4,2,1,30,0,0
121127,-100,4,2,2,60,0,0
121300,-100,4,2,1,60,0,0
121647,-100,4,2,2,60,0,0
121821,-100,4,2,0,60,0,0
122167,-100,4,2,1,60,0,0
122341,-100,4,2,1,30,0,0
122514,-100,4,2,2,60,0,0
123555,-100,4,2,1,60,0,0
123815,-100,4,2,1,30,0,0
123988,-100,4,2,2,60,0,0
124942,-100,4,2,1,60,0,0
125202,-100,4,2,1,30,0,0
125376,-100,4,2,2,60,0,0
126329,-100,4,2,1,60,0,0
126589,-100,4,2,1,30,0,0
126763,-100,4,2,2,60,0,0
127370,-100,4,2,3,60,0,0
127543,-100,4,2,2,30,0,0
127717,-100,4,2,1,60,0,0
127977,-100,4,2,1,30,0,0
128150,-100,4,2,2,60,0,0
129104,-100,4,2,1,60,0,0
129364,-100,4,2,1,30,0,0
129537,-100,4,2,1,60,0,0
129711,-100,4,2,2,60,0,0
130491,-100,4,2,1,60,0,0
130578,-100,4,2,2,30,0,0
130751,-100,4,2,2,60,0,0
131878,-100,4,2,1,60,0,0
132139,-100,4,2,1,30,0,0
132312,-100,4,2,1,60,0,0
132485,-100,4,2,2,60,0,0
132919,-100,4,2,3,60,0,0
133092,-100,4,2,1,30,0,0
133266,-100,4,2,1,60,0,0
133526,-100,4,2,2,30,0,0
133699,-100,4,2,2,60,0,0
134046,-100,4,2,1,30,0,0
134219,-100,4,2,2,60,0,0
134653,-100,4,2,1,60,0,0
134913,-100,4,2,1,30,0,0
135087,-100,4,2,2,60,0,0
135693,-100,4,2,3,60,0,0
136040,-100,4,2,1,60,0,0
136300,-100,4,2,1,30,0,0
136474,-100,4,2,1,60,0,0
136647,-100,4,2,5,60,0,0
137341,-100,4,2,1,60,0,0
137514,-100,4,2,1,30,0,0
137688,-100,4,2,2,60,0,0
138468,-100,4,2,3,60,0,0

[Colours]
Combo1 : 255,165,74
Combo2 : 128,255,0
Combo3 : 0,255,64
Combo4 : 255,106,106

[HitObjects]
71,83,44480,6,0,L|98:220,1,140,0|0,3:0|0:0,0:0:0:0:
199,341,45000,1,8,0:0:0:0:
164,139,45173,2,0,L|182:230,1,70
118,354,45520,1,8,0:0:0:0:
268,207,45693,1,0,0:0:0:0:
299,205,45780,1,0,0:0:0:0:
327,204,45867,6,0,B|371:178|429:199|429:199|406:213|382:201,1,140,0|0,3:0|0:0,0:0:0:0:
278,122,46387,1,8,0:0:0:0:
324,280,46560,1,0,0:0:0:0:
333,310,46647,1,0,0:0:0:0:
342,340,46734,1,0,0:0:0:0:
222,313,46907,1,8,0:0:0:0:
349,172,47081,1,0,0:0:0:0:
366,151,47167,1,0,0:0:0:0:
381,132,47254,6,0,P|408:184|392:280,1,140,0|0,3:0|0:0,0:0:0:0:
296,357,47774,1,8,0:0:0:0:
233,191,47948,2,0,L|149:192,1,70
41,43,48295,1,8,0:0:0:0:
200,96,48468,2,0,L|176:152,1,35
134,225,48641,6,0,L|100:72,1,140,0|0,3:0|0:0,0:0:0:0:
252,15,49162,1,0,0:0:0:0:
230,285,49335,2,0,L|196:132,1,140,8|0,0:0|0:0,0:0:0:0:
335,43,49855,1,0,0:0:0:0:
280,216,50029,6,0,P|195:211|145:273,1,140,0|0,3:0|0:0,0:0:0:0:
44,364,50549,1,8,0:0:0:0:
70,171,50722,2,0,L|151:158,1,70
264,13,51069,1,8,0:0:0:0:
64,30,51243,2,0,L|81:62,1,35
139,159,51416,6,0,P|209:182|274:128,1,140,0|0,3:0|0:0,0:0:0:0:
360,30,51936,1,8,0:0:0:0:
189,39,52110,2,0,L|197:138,1,70
150,272,52456,1,0,0:0:0:0:
287,267,52630,1,0,0:0:0:0:
308,253,52717,1,0,0:0:0:0:
330,239,52803,6,0,B|368:223|396:236|396:236|373:208|373:163,1,140,0|0,3:0|0:0,0:0:0:0:
376,132,53237,1,0,0:0:0:0:
399,97,53323,1,0,0:0:0:0:
438,83,53410,1,0,0:0:0:0:
477,97,53497,1,8,0:0:0:0:
446,249,53670,2,0,L|478:274,2,35
321,146,54017,1,0,0:0:0:0:
444,167,54191,6,0,B|394:165|379:198|364:237|294:218,1,140,0|0,3:0|0:0,0:0:0:0:
183,202,54711,1,8,0:0:0:0:
321,146,54884,1,0,0:0:0:0:
323,148,54970,1,0,0:0:0:0:
325,150,55057,1,0,0:0:0:0:
147,127,55231,6,0,B|110:116|110:116|81:89,1,78.7500030040742,2|0,0:0|0:0,0:0:0:0:
145,54,55578,6,0,L|71:198,1,140,4|0,3:0|0:0,0:0:0:0:
113,315,56098,1,8,0:0:0:0:
218,167,56271,2,0,L|312:186,1,70
410,31,56618,1,8,0:0:0:0:
430,202,56792,1,0,0:0:0:0:
425,232,56878,1,0,0:0:0:0:
421,263,56965,6,0,B|370:255|370:255|330:268|330:268|270:258,1,140,0|0,3:0|0:0,0:0:0:0:
83,293,57485,1,8,0:0:0:0:
188,142,57659,1,0,0:0:0:0:
188,173,57745,1,0,0:0:0:0:
188,204,57832,1,0,0:0:0:0:
93,74,58006,1,8,0:0:0:0:
219,36,58179,1,0,0:0:0:0:
249,43,58266,1,0,0:0:0:0:
279,47,58352,6,0,B|348:65|348:65|423:57,1,140,0|0,3:0|0:0,0:0:0:0:
395,260,58873,2,0,B|335:223|335:223|268:252,1,140,0|0,3:0|0:0,0:0:0:0:
133,340,59393,1,8,0:0:0:0:
224,154,59566,2,0,L|249:205,1,35
316,323,59740,6,0,B|245:330|245:330|180:281,1,140,0|0,3:0|0:0,0:0:0:0:
358,203,60260,2,0,L|370:255,1,35
391,325,60433,1,8,0:0:0:0:
458,186,60607,1,0,0:0:0:0:
344,65,60780,2,0,P|322:103|314:135,1,70
316,323,61127,6,0,P|247:313|171:343,1,140
58,292,61647,1,8,0:0:0:0:
125,142,61821,2,0,B|158:151|158:151|216:146,1,70
344,65,62167,1,8,0:0:0:0:
268,185,62341,2,0,L|258:229,1,35
210,321,62514,6,0,B|114:318|114:318|82:280,1,140,0|0,3:0|0:0,0:0:0:0:
57,165,63034,1,8,0:0:0:0:
191,225,63208,2,0,P|228:227|285:205,1,70
316,45,63555,1,8,0:0:0:0:
424,138,63728,1,0,0:0:0:0:
424,138,63815,1,0,0:0:0:0:
424,138,63902,6,0,P|363:178|284:144,1,140,0|0,3:0|0:0,0:0:0:0:
261,149,64335,1,0,0:0:0:0:
220,161,64422,1,0,0:0:0:0:
195,194,64508,1,0,0:0:0:0:
189,235,64595,1,8,0:0:0:0:
367,256,64769,2,0,L|394:287,2,35
261,149,65115,1,0,0:0:0:0:
351,331,65289,6,0,P|422:312|441:233,1,140,0|0,3:0|0:0,0:0:0:0:
461,124,65809,1,8,0:0:0:0:
367,256,65982,1,0,0:0:0:0:
367,256,66069,1,0,0:0:0:0:
367,256,66156,1,0,0:0:0:0:
340,95,66329,6,0,B|301:81|301:81|253:88,1,78.7500030040742,2|0,0:0|0:0,0:0:0:0:
294,154,66676,6,0,L|309:-1,1,140,4|0,3:0|0:0,0:0:0:0:
192,78,67196,1,8,0:0:0:0:
367,127,67370,2,0,P|373:160|358:196,1,70
253,325,67717,1,8,0:0:0:0:
424,309,67890,1,0,0:0:0:0:
445,308,67977,1,0,0:0:0:0:
462,308,68063,6,0,B|417:284|390:309|363:336|319:300,1,140,0|0,3:0|0:0,0:0:0:0:
267,192,68584,1,8,0:0:0:0:
113,201,68757,1,0,0:0:0:0:
113,201,68844,1,0,0:0:0:0:
113,201,68930,1,0,0:0:0:0:
75,350,69104,1,8,0:0:0:0:
218,356,69277,1,0,0:0:0:0:
218,356,69364,1,0,0:0:0:0:
218,356,69451,6,0,B|268:344|268:344|308:347|308:347|359:331,1,140,0|0,3:0|0:0,0:0:0:0:
206,275,69971,2,0,B|256:263|256:263|296:266|296:266|347:250,1,140,0|0,3:0|0:0,0:0:0:0:
194,199,70491,1,8,0:0:0:0:
87,351,70665,2,0,L|79:283,1,35
65,215,70838,6,0,B|48:184|48:184|64:86,1,105,0|0,3:0|0:0,0:0:0:0:
68,78,71185,1,8,0:0:0:0:
214,141,71358,1,0,0:0:0:0:
220,119,71445,1,0,0:0:0:0:
222,97,71532,1,0,0:0:0:0:
218,79,71618,1,0,0:0:0:0:
210,63,71705,1,8,0:0:0:0:
125,132,71878,2,0,L|98:154,1,35
135,40,72052,2,0,L|119:8,1,35
222,97,72225,6,0,L|378:83,1,140,0|0,3:0|0:0,0:0:0:0:
361,84,72919,1,0,0:0:0:0:
474,172,73092,1,0,0:0:0:0:
474,172,73179,1,0,0:0:0:0:
474,172,73266,1,8,0:0:0:0:
384,315,73439,2,0,L|361:266,1,35
332,197,73613,6,0,B|307:132|307:132|336:58,1,140,0|0,3:0|0:0,0:0:0:0:
455,18,74133,1,8,0:0:0:0:
307,130,74306,2,0,L|214:136,1,70
64,212,74653,1,8,0:0:0:0:
138,51,74826,2,0,L|152:102,1,35
177,184,75000,6,0,B|246:191|246:191|325:153,1,140,0|0,3:0|0:0,0:0:0:0:
351,141,75433,1,0,0:0:0:0:
393,144,75520,1,0,0:0:0:0:
427,167,75607,1,0,0:0:0:0:
445,204,75693,1,8,0:0:0:0:
257,277,75867,2,0,L|279:234,1,35
365,216,76040,1,0,0:0:0:0:
302,343,76214,1,0,0:0:0:0:
173,350,76387,6,0,P|220:326|319:359,1,140,0|0,3:0|0:0,0:0:0:0:
423,380,76907,1,8,0:0:0:0:
332,210,77081,1,0,0:0:0:0:
313,176,77167,1,0,0:0:0:0:
294,142,77254,1,0,0:0:0:0:
468,259,77428,6,0,B|427:270|427:270|380:304,1,78.7500030040742,2|0,0:0|0:0,0:0:0:0:
358,316,77774,6,0,P|324:310|276:283,1,62.9999980773926
165,228,78121,2,0,P|199:227|247:203,1,70
377,170,78468,1,0,0:0:0:0:
201,137,78641,1,0,0:0:0:0:
412,94,78815,1,8,0:0:0:0:
172,59,78988,2,0,L|190:113,1,35
232,213,79162,6,0,P|163:212|123:135,1,140,0|0,3:0|0:0,0:0:0:0:
253,68,79682,1,8,0:0:0:0:
360,208,79855,1,0,0:0:0:0:
398,209,79942,1,0,0:0:0:0:
436,211,80029,1,0,0:0:0:0:
350,80,80202,1,8,0:0:0:0:
223,165,80376,1,0,0:0:0:0:
187,186,80462,1,0,0:0:0:0:
149,205,80549,6,0,B|79:207|79:207|41:183,1,105,0|0,3:0|0:0,0:0:0:0:
26,165,80896,1,8,0:0:0:0:
149,102,81069,1,0,3:0:0:0:
131,89,81156,1,0,0:0:0:0:
110,82,81243,1,0,0:0:0:0:
92,82,81329,1,0,0:0:0:0:
75,85,81416,1,8,0:0:0:0:
190,179,81589,2,0,L|163:218,1,35
11,167,81763,2,0,L|0:105,1,35
96,160,81936,6,0,L|67:297,1,140,0|0,3:0|0:0,0:0:0:0:
185,252,82456,1,0,0:0:0:0:
7,110,82630,1,8,0:0:0:0:
207,44,82803,1,0,0:0:0:0:
207,44,83150,1,0,0:0:0:0:
107,167,83323,6,0,B|50:183|36:236|36:236|62:243|83:217,1,140,0|0,3:0|0:0,0:0:0:0:
229,174,83844,1,8,0:0:0:0:
101,70,84017,1,0,0:0:0:0:
69,229,84191,1,0,0:0:0:0:
52,259,84277,1,0,0:0:0:0:
33,296,84364,1,8,0:0:0:0:
193,241,84537,1,0,0:0:0:0:
210,211,84623,1,0,0:0:0:0:
229,174,84711,6,0,B|287:135|287:135|370:140,1,140
502,15,85231,1,8,0:0:0:0:
466,205,85404,2,0,L|443:129,1,70
268,69,85751,2,0,L|291:145,1,70,8|0,0:0|0:0,0:0:0:0:
313,210,86011,1,0,0:0:0:0:
313,210,86098,6,0,B|207:212|207:212|167:173,1,140
159,151,86532,1,0,0:0:0:0:
159,109,86618,1,0,0:0:0:0:
184,75,86705,1,0,0:0:0:0:
225,69,86792,2,0,L|298:68,1,70,8|0,0:0|0:0,0:0:0:0:
355,28,87052,1,0,0:0:0:0:
355,28,87139,2,0,P|366:58|356:104,1,70
204,303,87485,6,0,B|258:259|258:259|335:243,1,140,0|0,3:0|0:0,0:0:0:0:
486,241,88006,1,8,0:0:0:0:
369,73,88179,2,0,L|358:106,1,35
207,204,88352,2,0,L|217:170,1,35
164,20,88526,5,2,0:0:0:0:
256,192,92341,12,0,94248,0:0:0:0:
245,174,94422,6,0,L|271:253,1,83.9999974365235,0|0,3:0|0:0,0:0:0:0:
440,358,94769,1,0,0:0:0:0:
374,216,94942,1,8,0:0:0:0:
202,347,95115,2,0,L|95:335,1,83.9999974365235
38,200,95462,1,8,0:0:0:0:
202,112,95636,1,0,0:0:0:0:
249,99,95722,1,0,0:0:0:0:
295,120,95809,6,0,P|317:171|299:225,1,83.9999974365235,0|0,3:0|0:0,0:0:0:0:
202,347,96156,1,0,0:0:0:0:
237,174,96329,1,8,0:0:0:0:
322,332,96503,1,0,0:0:0:0:
149,254,96676,1,0,0:0:0:0:
339,222,96850,1,8,0:0:0:0:
202,347,97023,2,0,L|152:348,1,41.9999987182618
68,348,97196,6,0,L|79:236,1,83.9999974365235,0|0,3:0|0:0,0:0:0:0:
169,99,97543,1,0,0:0:0:0:
195,253,97717,1,0,3:0:0:0:
83,128,97890,2,0,P|41:125|4:143,1,83.9999974365235
195,253,98237,2,0,P|249:247|294:205,1,83.9999974365235,8|0,0:0|0:0,0:0:0:0:
301,187,98497,1,0,0:0:0:0:
331,143,98584,6,0,L|350:237,1,83.9999974365235,0|0,3:0|0:0,0:0:0:0:
170,184,98930,2,0,L|151:90,1,83.9999974365235
271,249,99277,2,0,L|165:268,1,83.9999974365235,8|0,0:0|0:0,0:0:0:0:
232,81,99624,2,0,L|314:66,1,83.9999974365235
106,239,99971,6,0,L|87:145,1,83.9999974365235,0|0,3:0|0:0,0:0:0:0:
208,8,100318,1,0,0:0:0:0:
58,36,100491,1,8,0:0:0:0:
232,123,100665,2,0,L|251:217,1,83.9999974365235
135,358,101011,1,8,0:0:0:0:
295,309,101185,2,0,L|356:292,1,41.9999987182618
435,266,101358,6,0,P|437:209|410:155,1,83.9999974365235,0|0,3:0|0:0,0:0:0:0:
299,60,101705,1,0,0:0:0:0:
461,34,101878,1,8,0:0:0:0:
302,175,102052,2,0,P|235:160|207:124,1,83.9999974365235
32,32,102399,2,0,P|99:47|127:83,1,83.9999974365235,8|0,0:0|0:0,0:0:0:0:
115,109,102659,1,0,0:0:0:0:
120,161,102745,6,0,B|161:157|161:157|212:125,1,83.9999974365235,0|0,3:0|0:0,0:0:0:0:
373,36,103092,1,0,0:0:0:0:
214,3,103266,1,0,0:0:0:0:
302,175,103439,2,0,P|341:164|373:123,1,83.9999974365235,8|0,0:0|0:0,0:0:0:0:
197,106,103786,2,0,P|158:117|126:158,1,83.9999974365235
64,341,104133,6,0,B|91:311|91:311|102:260,1,83.9999974365235,0|0,3:0|0:0,0:0:0:0:
123,74,104480,1,0,0:0:0:0:
234,197,104653,1,8,0:0:0:0:
88,177,104826,2,0,P|41:164|15:135,1,83.9999974365235
213,183,105173,6,0,P|236:217|212:292,1,105,2|0,0:0|0:0,0:0:0:0:
167,315,105520,6,0,P|155:278|177:226,1,83.9999974365235,0|0,3:0|0:0,0:0:0:0:
329,141,105867,1,0,0:0:0:0:
198,81,106040,1,8,0:0:0:0:
70,161,106214,2,0,L|52:276,1,83.9999974365235
24,20,106560,1,8,0:0:0:0:
183,41,106734,2,0,L|208:108,1,41.9999987182618
232,173,106907,6,0,B|276:172|276:172|326:145,1,83.9999974365235,0|0,3:0|0:0,0:0:0:0:
466,35,107254,1,0,0:0:0:0:
397,189,107428,1,8,0:0:0:0:
291,57,107601,2,0,B|253:38|253:38|195:38,1,83.9999974365235
24,20,107948,1,8,0:0:0:0:
59,180,108121,1,0,0:0:0:0:
87,210,108208,1,0,0:0:0:0:
119,226,108295,6,0,B|162:237|162:237|210:228,1,83.9999974365235,0|0,3:0|0:0,0:0:0:0:
370,106,108641,1,0,0:0:0:0:
210,75,108815,1,0,3:0:0:0:
338,205,108988,2,0,B|382:208|382:208|427:191,1,83.9999974365235
509,7,109335,1,8,0:0:0:0:
349,26,109508,1,0,0:0:0:0:
491,140,109682,6,0,P|499:205|471:250,1,83.9999974365235,0|0,3:0|0:0,0:0:0:0:
347,275,110029,2,0,P|339:210|367:165,1,83.9999974365235
446,39,110376,1,8,0:0:0:0:
277,24,110549,1,0,0:0:0:0:
257,185,110722,1,0,0:0:0:0:
425,204,110896,1,0,0:0:0:0:
229,101,111069,6,0,L|145:92,1,83.9999974365235,0|0,3:0|0:0,0:0:0:0:
22,246,111416,1,0,0:0:0:0:
0,94,111589,1,8,0:0:0:0:
146,218,111763,2,0,P|196:223|236:202,1,83.9999974365235
354,62,112110,1,8,0:0:0:0:
352,246,112283,2,0,L|306:188,1,41.9999987182618
262,132,112456,6,0,P|216:124|162:159,1,83.9999974365235,0|0,3:0|0:0,0:0:0:0:
52,291,112803,1,0,0:0:0:0:
25,137,112977,1,8,0:0:0:0:
186,261,113150,2,0,L|283:258,1,83.9999974365235
361,102,113497,2,0,L|264:105,1,83.9999974365235,8|0,0:0|0:0,0:0:0:0:
102,205,113844,5,0,0:0:0:0:
327,152,115578,5,2,0:0:0:0:
327,152,115751,1,0,0:0:0:0:
251,216,115925,2,0,B|189:237|189:237|148:231,1,105,2|0,0:0|0:0,0:0:0:0:
97,164,116619,6,0,B|144:142|144:142|178:147|178:147|229:130,1,140,4|2,0:0|0:0,3:0:0:0:
402,52,117139,1,8,0:0:0:0:
354,213,117312,2,0,L|327:127,1,70
173,68,117659,1,8,0:0:0:0:
175,250,117832,2,0,L|224:214,1,35
278,171,118006,6,0,B|316:153|316:153|371:156|371:156|425:135,1,140,0|2,3:0|0:0,0:0:0:0:
366,21,118526,1,8,0:0:0:0:
250,125,118699,1,0,3:0:0:0:
233,160,118786,1,0,0:0:0:0:
236,198,118873,1,0,3:0:0:0:
257,229,118959,1,0,0:0:0:0:
281,255,119046,2,0,P|246:297|211:300,1,70,2|0,3:2|0:0,0:0:0:0:
186,313,119306,1,0,0:0:0:0:
141,309,119393,6,0,B|162:265|132:242|102:221|138:155,1,140,0|4,3:0|0:0,0:0:0:0:
149,21,119913,1,0,3:0:0:0:
242,151,120087,2,0,P|217:192|171:217,1,70
72,283,120433,1,8,0:0:0:0:
47,102,120607,2,0,L|33:150,1,35
15,231,120780,6,0,P|67:204|128:230,1,105,0|0,3:0|0:0,0:0:0:0:
177,285,121127,2,0,L|227:284,1,35,8|0,0:0|0:0,0:0:0:0:
302,322,121300,6,0,B|318:278|318:278|301:171,1,140,0|8,0:0|3:2,0:0:0:0:
294,143,121734,1,0,0:0:0:0:
299,98,121821,1,0,3:0:0:0:
329,66,121907,1,0,0:0:0:0:
373,60,121994,1,0,3:0:0:0:
414,77,122081,1,0,0:0:0:0:
440,106,122167,6,0,B|447:176|447:176|424:218,1,105,0|0,3:0|0:0,0:0:0:0:
425,219,122514,1,0,0:0:0:0:
425,219,123034,6,0,L|358:225,1,35,8|0,0:0|0:0,0:0:0:0:
254,270,123208,2,0,B|245:192,1,70,8|0,0:0|0:0,0:0:0:0:
242,161,123468,1,0,0:0:0:0:
238,126,123555,6,0,B|239:109|220:93|220:93|188:139|215:192,1,140,0|2,3:0|0:0,0:0:0:0:
352,253,124075,1,0,0:0:0:0:
301,76,124248,1,0,3:0:0:0:
278,44,124335,1,0,0:0:0:0:
245,23,124422,1,0,3:0:0:0:
206,20,124508,1,0,0:0:0:0:
171,37,124595,1,8,3:2:0:0:
206,210,124769,1,0,0:0:0:0:
244,211,124855,1,0,0:0:0:0:
286,212,124942,6,0,B|309:114|309:114|297:61,1,140,0|4,3:0|0:0,0:0:0:0:
300,75,125636,5,8,0:0:0:0:
161,169,125809,1,0,0:0:0:0:
164,131,125895,1,0,0:0:0:0:
167,93,125982,1,0,0:0:0:0:
283,199,126156,1,2,0:2:0:0:
92,136,126329,6,0,B|69:234|69:234|81:287,1,140,0|4,3:0|0:0,0:0:0:0:
227,349,126850,1,8,0:0:0:0:
270,145,127023,1,0,3:0:0:0:
282,104,127110,1,0,0:0:0:0:
256,71,127196,1,0,3:0:0:0:
215,61,127283,1,0,0:0:0:0:
178,83,127370,6,0,B|161:121|161:121|171:195,1,105,2|0,3:2|0:0,0:0:0:0:
179,232,127717,6,0,B|90:259|90:259|26:238,1,140,4|2,3:0|0:0,0:0:0:0:
26,121,128237,1,0,0:0:0:0:
188,162,128410,2,0,L|175:256,1,70,8|0,0:0|0:0,0:0:0:0:
173,273,128670,1,0,0:0:0:0:
166,314,128757,2,0,L|114:311,1,35,0|0,3:0|0:0,0:0:0:0:
75,161,128930,2,0,L|127:164,1,35,0|0,3:0|0:0,0:0:0:0:
5,279,129104,5,0,3:0:0:0:
5,279,129277,2,0,P|20:238|20:205,1,70,0|0,3:0|0:0,0:0:0:0:
27,91,129624,1,0,0:0:0:0:
139,166,129797,2,0,P|171:178|218:183,1,70,8|0,0:0|3:0,0:0:0:0:
249,188,130058,1,0,0:0:0:0:
289,188,130144,1,8,0:0:0:0:
359,352,130318,1,0,3:0:0:0:
324,337,130404,1,0,0:0:0:0:
287,326,130491,6,0,P|246:315|195:310,1,70,0|0,3:0|0:0,0:0:0:0:
36,368,130838,1,8,0:0:0:0:
123,202,131011,2,0,L|167:218,1,35
239,239,131185,1,0,0:0:0:0:
51,266,131358,1,8,0:0:0:0:
110,102,131532,1,0,0:0:0:0:
144,78,131618,1,0,0:0:0:0:
185,73,131705,1,0,0:0:0:0:
223,89,131792,1,0,0:0:0:0:
254,115,131878,6,0,P|312:156|390:113,1,140,0|2,3:0|0:0,0:0:0:0:
512,16,132399,1,0,0:0:0:0:
427,196,132572,1,0,3:0:0:0:
391,214,132659,1,0,0:0:0:0:
349,212,132745,1,0,3:0:0:0:
314,188,132832,1,0,0:0:0:0:
294,150,132919,2,0,P|235:164|179:124,1,105,2|0,3:2|0:0,0:0:0:0:
246,85,133266,6,0,P|272:151|233:216,1,140,4|2,3:0|0:0,0:0:0:0:
146,302,133786,1,8,0:0:0:0:
128,140,133959,2,0,P|162:136|220:164,1,70
355,219,134306,1,8,0:0:0:0:
293,95,134480,2,0,L|283:151,1,35
260,251,134653,6,0,P|191:269|110:234,1,140,0|2,3:0|0:0,0:0:0:0:
38,151,135173,1,8,0:0:0:0:
168,50,135347,1,0,3:0:0:0:
205,68,135433,1,0,0:0:0:0:
246,77,135520,1,0,3:0:0:0:
286,64,135607,1,0,0:0:0:0:
320,40,135693,2,0,L|343:127,1,70,10|0,3:2|0:0,0:0:0:0:
398,160,135954,1,0,0:0:0:0:
398,160,136040,6,0,B|352:210|306:154|257:215,1,140,0|0,3:0|0:0,0:0:0:0:
269,201,136734,5,0,0:0:0:0:
381,261,136907,1,0,0:0:0:0:
322,375,137081,1,0,0:0:0:0:
205,311,137254,1,0,0:0:0:0:
246,121,137428,6,0,L|315:130,1,70
122,256,137774,1,2,0:0:0:0:
146,127,137948,1,12,0:0:0:0:
205,311,138121,1,0,3:0:0:0:
246,318,138208,1,0,0:0:0:0:
286,306,138295,1,0,3:0:0:0:
319,281,138381,1,0,0:0:0:0:
334,242,138468,2,0,P|367:232|421:255,1,70,2|0,3:2|0:0,0:0:0:0:
468,310,138728,1,0,0:0:0:0:
468,310,138815,5,4,0:0:0:0:
