osu file format v14

[General]
AudioFilename: audio.mp3
AudioLeadIn: 0
PreviewTime: 60337
Countdown: 0
SampleSet: Soft
StackLeniency: 0.7
Mode: 0
LetterboxInBreaks: 0
WidescreenStoryboard: 0

[Editor]
DistanceSpacing: 1
BeatDivisor: 4
GridSize: 16
TimelineZoom: 1

[Metadata]
Title:Yami to Kagaribi
TitleUnicode:闇と篝火
Artist:Ether
ArtistUnicode:Ether
Creator:Adinda
Version:Illusion
Source:
Tags:jrock j-rock rock symphonic japanese 闇堕精霊譚 エルム凪 erum nagi elm erumu
BeatmapID:3941676
BeatmapSetID:1910934

[Difficulty]
HPDrainRate:6
CircleSize:4
OverallDifficulty:8.2
ApproachRate:9
SliderMultiplier:1.9
SliderTickRate:1

[Events]
//Background and Video events
0,0,"d.jpg",0,0
//Break Periods
//Storyboard Layer 0 (Background)
//Storyboard Layer 1 (Fail)
//Storyboard Layer 2 (Pass)
//Storyboard Layer 3 (Foreground)
//Storyboard Layer 4 (Overlay)
//Storyboard Sound Samples

[TimingPoints]
2087,333.333333333334,4,2,1,60,1,0
2087,-90.9090909090909,4,2,1,85,0,0
12670,-90.9090909090909,4,2,1,5,0,0
12753,-90.9090909090909,4,2,1,85,0,0
23587,-125,4,2,1,80,0,0
28753,-111.111111111111,4,2,1,80,0,0
60753,-83.3333333333333,4,2,1,90,0,1
64670,-83.3333333333333,4,2,1,5,0,1
64753,-83.3333333333333,4,2,1,90,0,1
78003,-83.3333333333333,4,2,1,5,0,1
78086,-83.3333333333333,4,2,1,90,0,1
79337,-83.3333333333333,4,2,1,5,0,1
79420,-83.3333333333333,4,2,1,90,0,1
80670,-83.3333333333333,4,2,1,5,0,1
80753,-83.3333333333333,4,2,1,90,0,1
82087,-90.9090909090909,4,2,1,85,0,0
92670,-90.9090909090909,4,2,1,5,0,0
92753,-90.9090909090909,4,2,1,85,0,0
103420,-133.333333333333,4,2,1,50,0,0
112753,-133.333333333333,4,2,1,80,0,0
114087,-111.111111111111,4,2,1,80,0,0
135087,-133.333333333333,4,2,1,70,0,0
135337,-133.333333333333,4,2,1,5,0,0
135420,-83.3333333333333,4,2,1,90,0,1
139337,-83.3333333333333,4,2,1,5,0,1
139420,-83.3333333333333,4,2,1,90,0,1
152670,-83.3333333333333,4,2,1,5,0,1
152753,-83.3333333333333,4,2,1,90,0,1
154004,-83.3333333333333,4,2,1,5,0,1
154087,-83.3333333333333,4,2,1,90,0,1
155337,-83.3333333333333,4,2,1,5,0,1
155420,-83.3333333333333,4,2,1,90,0,1
157087,-133.333333333333,4,2,1,75,0,0
176753,-133.333333333333,4,2,1,80,0,0
177587,-133.333333333333,4,2,1,85,0,0
178087,-83.3333333333333,4,2,1,90,0,1
182003,-83.3333333333333,4,2,1,5,0,1
182087,-83.3333333333333,4,2,1,90,0,1
188753,-222.222222222221,4,2,1,80,0,0
192753,-100,4,2,1,90,0,0
194087,-117.647058823529,4,2,1,80,0,0
198003,-117.647058823529,4,2,1,5,0,0
198087,-117.647058823529,4,2,1,80,0,0
198587,-83.3333333333333,4,2,1,85,0,0
199420,-83.3333333333333,4,2,1,90,0,1
206003,-83.3333333333333,4,2,1,5,0,1
206086,-83.3333333333333,4,2,1,90,0,1
207337,-83.3333333333333,4,2,1,5,0,1
207420,-83.3333333333333,4,2,1,90,0,1
214003,-83.3333333333333,4,2,1,5,0,1
214086,-83.3333333333333,4,2,1,90,0,1
227336,-83.3333333333333,4,2,1,5,0,1
227419,-83.3333333333333,4,2,1,90,0,1
228670,-83.3333333333333,4,2,1,5,0,1
228753,-83.3333333333333,4,2,1,90,0,1
230003,-83.3333333333333,4,2,1,5,0,1
230086,-83.3333333333333,4,2,1,90,0,1
231420,-90.9090909090909,4,2,1,85,0,0
242003,-90.9090909090909,4,2,1,5,0,0
242086,-90.9090909090909,4,2,1,85,0,0
252837,-90.9090909090909,4,2,1,25,0,0
259920,-90.9090909090909,4,2,1,5,0,0

[Colours]
Combo1 : 170,227,255
Combo2 : 174,94,255

[HitObjects]
80,57,753,5,2,0:0:0:0:
80,57,1086,1,2,0:0:0:0:
80,57,1420,1,2,0:0:0:0:
80,57,1753,1,0,0:0:0:0:
204,36,2087,6,0,B|150:24|150:24|124:31|124:31|-5:3,2,209.000006378174,14|8|8,0:1|0:0|0:1,0:0:0:0:
401,106,2920,1,8,0:1:0:0:
401,106,3087,2,0,B|382:100|382:100|339:22,1,104.500003189087,8|2,0:0|0:0,0:0:0:0:
365,4,3337,1,2,0:0:0:0:
365,4,3420,6,8,L|467:197,1,209.000006378174,10|10,0:1|0:0,0:0:0:0:
462,188,3920,1,8,0:1:0:0:
367,265,4087,2,0,P|352:302|376:375,1,104.500003189087,2|8,0:0|0:1,0:0:0:0:
247,310,4420,2,0,B|240:292|240:292|158:239,1,104.500003189087,10|0,0:0|0:0,0:0:0:0:
19,308,4753,6,8,B|-16:343|-16:343|45:193,1,209.000006378174,10|8,0:1|0:0,0:0:0:0:
152,102,5253,2,0,P|129:159|29:99,1,209.000006378174,2|8,0:0|0:1,0:0:0:0:
241,11,5753,2,0,B|239:34|239:34|281:114,1,104.500003189087,10|0,0:0|0:0,0:0:0:0:
488,97,6087,6,0,P|469:76|394:59,1,104.500003189087,14|8,0:1|0:0,0:0:0:0:
397,58,6337,1,8,0:0:0:0:
397,58,6420,1,8,0:0:0:0:
257,237,6587,2,0,P|276:216|351:199,1,104.500003189087,14|0,0:1|0:0,0:0:0:0:
434,322,6920,2,0,B|449:270|449:270|429:215,1,104.500003189087,8|8,0:1|0:0,0:0:0:0:
431,222,7170,1,8,0:3:0:0:
431,222,7253,1,4,0:3:0:0:
179,181,7420,6,0,B|126:153|126:153|101:157|101:157|-14:102,2,209.000006378174,14|8|8,0:1|0:0|0:1,0:0:0:0:
84,267,8253,1,8,0:1:0:0:
84,267,8420,2,0,P|59:314|90:359,1,104.500003189087,8|2,0:0|0:0,0:0:0:0:
125,344,8670,1,2,0:0:0:0:
125,344,8753,6,8,B|223:371|223:371|335:344,1,209.000006378174,10|10,0:1|0:0,0:0:0:0:
327,345,9253,1,8,0:1:0:0:
444,199,9420,2,0,P|455:224|516:282,1,104.500003189087,2|8,0:0|0:1,0:0:0:0:
512,101,9753,2,0,P|501:76|440:18,1,104.500003189087,10|0,0:0|0:0,0:0:0:0:
293,57,10087,6,8,B|255:95|255:95|95:30,1,209.000006378174,10|8,0:1|0:0,0:0:0:0:
181,177,10587,2,0,B|143:139|143:139|-17:204,1,209.000006378174,2|8,0:0|0:1,0:0:0:0:
110,264,11087,2,0,P|97:302|121:376,1,104.500003189087,10|0,0:0|0:0,0:0:0:0:
320,326,11420,6,0,B|334:338|334:338|427:379,1,104.500003189087,14|8,0:1|0:0,0:0:0:0:
412,372,11670,1,8,0:0:0:0:
412,372,11753,1,8,0:0:0:0:
390,258,11920,2,0,B|376:246|376:246|283:205,1,104.500003189087,14|0,0:1|0:0,0:0:0:0:
462,160,12253,1,4,0:3:0:0:
462,160,12337,1,4,0:3:0:0:
462,160,12420,2,0,B|476:83|476:83|455:2,1,156.750004783631,12|0,0:0|0:0,0:0:0:0:
379,83,12753,6,0,B|327:63|274:74|274:74|246:25|188:6,2,209.000006378174,14|8|8,0:1|0:0|0:1,0:0:0:0:
213,169,13587,1,8,0:1:0:0:
213,169,13753,2,0,B|225:224|225:224|215:286,1,104.500003189087,8|2,0:0|0:0,0:0:0:0:
184,288,14003,1,2,0:0:0:0:
184,288,14087,6,8,B|139:283|95:307|95:307|84:331|84:331|46:367|-13:362,1,209.000006378174,10|10,0:1|0:0,0:0:0:0:
1,362,14587,1,8,0:1:0:0:
82,144,14753,2,0,P|48:128|-11:75,1,104.500003189087,2|8,0:0|0:1,0:0:0:0:
288,60,15087,2,0,P|249:25|203:1,1,104.500003189087,10|0,0:0|0:0,0:0:0:0:
479,94,15420,6,8,B|456:131|430:151|430:151|459:204|471:283,1,209.000006378174,10|8,0:1|0:0,0:0:0:0:
323,370,15920,2,0,B|346:333|372:313|372:313|343:260|331:181,1,209.000006378174,2|8,0:0|0:1,0:0:0:0:
257,294,16420,2,0,B|202:307|202:307|149:294,1,104.500003189087,10|0,0:0|0:0,0:0:0:0:
28,60,16753,6,8,B|26:140|-26:180|-26:180|9:153|50:158,1,209.000006378174,14|8,0:1|0:0,0:0:0:0:
309,70,17253,2,8,B|268:111|189:101|189:101|156:68|109:55,1,209.000006378174,14|8,0:1|0:1,0:1:0:0:
383,2,17753,1,8,0:0:0:0:
383,2,17837,1,8,0:3:0:0:
383,2,17920,1,4,0:3:0:0:
456,272,18087,6,0,P|489:219|448:77,2,209.000006378174,14|8|8,0:1|0:0|0:1,0:0:0:0:
366,358,18920,1,8,0:1:0:0:
366,358,19087,2,0,B|351:331|351:331|281:293,1,104.500003189087,8|2,0:0|0:0,0:0:0:0:
261,265,19337,1,2,0:0:0:0:
261,265,19420,6,8,B|163:298|163:298|52:261,1,209.000006378174,10|10,0:1|0:0,0:0:0:0:
62,264,19920,1,8,0:1:0:0:
97,112,20087,2,0,P|117:145|164:196,1,104.500003189087,2|8,0:0|0:1,0:0:0:0:
0,83,20420,2,0,P|20:50|67:-1,1,104.500003189087,10|0,0:0|0:0,0:0:0:0:
314,27,20753,6,8,B|359:15|412:31|412:31|458:77|520:68,1,209.000006378174,10|8,0:1|0:0,0:0:0:0:
440,337,21253,2,0,B|453:306|478:275|478:275|438:224|429:146,1,209.000006378174,2|8,0:0|0:1,0:0:0:0:
319,289,21753,2,0,B|265:298|265:298|210:288,1,104.500003189087,10|0,0:0|0:0,0:0:0:0:
128,117,22087,6,0,P|114:83|65:33,1,104.500003189087,14|8,0:1|0:0,0:0:0:0:
68,35,22337,1,8,0:0:0:0:
68,35,22420,1,8,0:0:0:0:
58,202,22587,2,0,P|72:236|121:286,1,104.500003189087,14|0,0:1|0:0,0:0:0:0:
357,139,22920,5,8,0:0:0:0:
231,102,23087,1,8,0:0:0:0:
320,21,23253,1,8,0:0:0:0:
272,218,23420,1,14,0:1:0:0:
450,293,23587,5,8,0:1:0:0:
450,293,23670,1,8,0:1:0:0:
450,293,23753,2,8,B|441:334|441:334|450:382,1,76,8|8,0:1|0:1,0:1:0:0:
356,331,24087,1,10,0:0:0:0:
356,331,24253,1,2,0:0:0:0:
145,365,24420,2,0,B|110:351|110:351|86:315,1,76,2|0,0:0|0:0,0:0:0:0:
120,222,24753,6,0,P|112:187|122:140,1,76,2|0,0:0|0:0,0:0:0:0:
118,147,25003,1,8,0:1:0:0:
118,147,25087,2,8,P|90:131|55:102,1,76,10|8,0:1|0:1,0:1:0:0:
240,71,25420,2,0,P|210:46|178:26,1,76,10|8,0:0|0:1,0:0:0:0:
292,169,25753,5,10,0:1:0:0:
275,189,25837,1,8,0:1:0:0:
293,217,25920,1,10,0:1:0:0:
276,237,26004,1,8,0:1:0:0:
276,237,26087,2,0,P|291:266|329:300,1,76,10|0,0:1|0:0,0:0:0:0:
322,295,26337,1,8,0:1:0:0:
322,295,26420,6,0,B|332:330|332:330|325:372,1,76,2|8,0:0|0:1,0:0:0:0:
230,336,26753,1,10,0:0:0:0:
230,336,26920,1,2,0:0:0:0:
74,268,27087,6,0,P|46:242|27:209,1,76,2|0,0:0|0:0,0:0:0:0:
74,140,27420,2,0,B|44:71|44:71|75:-10,1,152,2|10,0:0|0:1,0:0:0:0:
156,189,27920,1,10,0:1:0:0:
156,189,28087,1,10,0:0:0:0:
245,86,28253,5,10,0:1:0:0:
265,96,28336,1,8,0:1:0:0:
287,98,28419,1,10,0:1:0:0:
309,92,28502,1,8,0:1:0:0:
327,78,28586,1,10,0:1:0:0:
339,59,28669,1,8,0:1:0:0:
342,36,28753,6,0,B|448:0|448:0|502:34,1,170.999994781494,14|8,0:1|0:0,0:0:0:0:
438,166,29253,1,2,0:0:0:0:
438,166,29420,2,0,B|430:208|430:208|437:260,1,85.4999973907472,2|8,0:0|0:1,0:0:0:0:
349,253,29753,2,0,B|354:210|354:210|346:168,1,85.4999973907472,10|8,0:0|0:1,0:0:0:0:
208,40,30087,5,10,0:1:0:0:
208,40,30253,2,8,P|177:60|118:80,1,85.4999973907472,10|8,0:1|0:0,0:0:0:0:
33,158,30587,2,0,P|83:155|126:257,1,170.999994781494,2|8,0:0|0:1,0:0:0:0:
4,365,31087,2,0,P|35:345|94:325,1,85.4999973907472,8|8,0:0|0:1,0:0:0:0:
273,367,31420,6,8,P|246:323|281:204,1,170.999994781494,10|10,0:1|0:0,0:0:0:0:
396,249,31920,2,0,L|472:207,1,85.4999973907472,2|0,0:0|0:0,0:0:0:0:
497,86,32253,2,8,L|422:127,1,85.4999973907472,10|8,0:1|0:0,0:0:0:0:
271,212,32587,1,10,0:1:0:0:
183,167,32753,5,10,0:1:0:0:
183,167,32920,2,0,B|140:175|140:175|86:164,1,85.4999973907472,10|8,0:1|0:0,0:0:0:0:
238,1,33253,2,8,B|275:18|323:7|323:7|332:54|374:75,1,170.999994781494,10|8,0:1|0:1,0:1:0:0:
478,28,33753,1,8,0:0:0:0:
478,28,33920,1,8,0:1:0:0:
448,184,34087,6,8,P|463:235|441:360,1,170.999994781494,14|8,0:1|0:0,0:0:0:0:
307,317,34587,1,2,0:0:0:0:
307,317,34753,2,0,P|275:336|227:378,1,85.4999973907472,2|8,0:0|0:1,0:0:0:0:
100,367,35087,2,0,P|132:339|169:317,1,85.4999973907472,10|8,0:0|0:1,0:0:0:0:
49,194,35420,5,10,0:1:0:0:
49,194,35587,2,8,B|41:235|41:235|49:281,1,85.4999973907472,10|8,0:1|0:0,0:0:0:0:
192,124,35920,2,0,B|148:150|148:150|76:132|72:53,1,170.999994781494,2|8,0:0|0:1,0:0:0:0:
235,0,36420,5,10,0:0:0:0:
235,0,36587,1,10,0:1:0:0:
311,53,36753,2,0,B|398:16|398:16|446:23|454:62,1,170.999994781494,10|10,0:1|0:0,0:0:0:0:
302,171,37253,2,0,B|292:215|292:215|303:260,1,85.4999973907472,2|0,0:0|0:0,0:0:0:0:
377,215,37587,1,10,0:1:0:0:
377,215,37753,1,8,0:0:0:0:
217,217,37920,5,10,0:1:0:0:
217,217,38087,2,0,P|166:206|88:294,1,170.999994781494,14|10,0:1|0:0,0:0:0:0:
182,300,38587,2,8,P|136:367|54:366,1,170.999994781494,10|8,0:1|0:1,0:1:0:0:
274,321,39087,1,10,0:0:0:0:
274,321,39170,1,2,0:0:0:0:
274,321,39253,1,2,0:0:0:0:
470,377,39420,6,8,B|463:342|482:313|482:313|501:297|501:297|517:262|506:208,1,170.999994781494,14|8,0:1|0:0,0:0:0:0:
351,121,39920,1,2,0:0:0:0:
351,121,40087,2,0,P|385:106|428:82,1,85.4999973907472,2|8,0:0|0:1,0:0:0:0:
252,0,40420,2,0,P|286:15|329:39,1,85.4999973907472,10|8,0:0|0:1,0:0:0:0:
170,65,40753,5,10,0:1:0:0:
170,65,40920,2,8,B|160:106|160:106|171:162,1,85.4999973907472,10|8,0:1|0:0,0:1:0:0:
104,221,41253,2,0,P|61:221|10:323,1,170.999994781494,2|8,0:0|0:1,0:0:0:0:
90,298,41753,2,8,P|99:323|142:364,1,85.4999973907472,8|8,0:0|0:1,0:0:0:0:
297,336,42087,6,8,B|382:357|382:357|468:338,1,170.999994781494,10|10,0:1|0:0,0:0:0:0:
379,251,42587,2,0,L|345:172,1,85.4999973907472,2|0,0:0|0:0,0:0:0:0:
438,116,42920,2,8,L|404:37,1,85.4999973907472,10|8,0:1|0:0,0:0:0:0:
208,1,43253,5,10,0:1:0:0:
257,68,43420,1,10,0:1:0:0:
136,180,43587,1,10,0:1:0:0:
210,81,43753,1,10,0:0:0:0:
254,187,43920,2,8,P|232:240|262:352,1,170.999994781494,10|8,0:1|0:1,0:1:0:0:
439,297,44420,1,8,0:0:0:0:
439,297,44587,1,8,0:1:0:0:
257,346,44753,6,8,B|199:346|153:366|153:366|84:336,1,170.999994781494,12|8,0:1|0:0,0:0:0:0:
23,140,45253,1,2,0:0:0:0:
23,140,45420,2,0,B|14:182|14:182|26:233,1,85.4999973907472,2|8,0:0|0:1,0:0:0:0:
155,89,45753,2,0,P|126:71|82:34,1,85.4999973907472,10|8,0:0|0:1,0:0:0:0:
283,12,46087,6,8,P|312:30|356:67,1,85.4999973907472,10|8,0:1|0:1,0:1:0:0:
300,135,46420,1,10,0:0:0:0:
300,135,46587,2,0,P|277:187|306:298,1,170.999994781494,2|8,0:0|0:1,0:0:0:0:
402,202,47087,1,10,0:0:0:0:
402,202,47253,1,2,0:0:0:0:
374,332,47420,6,8,B|327:329|285:351|285:351|236:339|212:306,1,170.999994781494,10|10,0:1|0:0,0:0:0:0:
139,126,47920,2,0,B|149:82|149:82|136:43,1,85.4999973907472,2|0,0:0|0:0,0:0:0:0:
50,88,48253,1,10,0:1:0:0:
50,88,48420,1,8,0:0:0:0:
116,208,48587,5,10,0:1:0:0:
29,269,48753,2,0,P|24:317|128:344,1,170.999994781494,12|8,0:1|0:0,0:0:0:0:
290,261,49253,2,0,P|299:289|336:336,1,85.4999973907472,10|0,0:1|0:0,0:0:0:0:
483,228,49587,2,0,B|489:186|489:186|477:141,1,85.4999973907472,10|10,0:1|0:0,0:0:0:0:
478,145,49837,1,2,0:0:0:0:
478,145,49920,1,10,0:1:0:0:
373,3,50087,6,8,B|335:4|310:24|310:24|299:53|299:53|268:86|224:86,1,170.999994781494,14|10,0:1|0:0,0:0:0:0:
40,19,50587,2,0,B|31:62|31:62|44:109,1,85.4999973907472,2|8,0:0|0:1,0:0:0:0:
104,203,50920,2,8,P|65:228|34:259,1,85.4999973907472,10|8,0:1|0:0,0:0:0:0:
102,356,51253,5,2,0:0:0:0:
209,216,51420,2,8,P|186:260|212:382,1,170.999994781494,10|10,0:1|0:0,0:0:0:0:
353,321,51920,2,0,P|323:291|287:269,1,85.4999973907472,10|0,0:1|0:0,0:0:0:0:
496,306,52253,2,8,P|465:276|429:253,1,85.4999973907472,10|8,0:1|0:0,0:0:0:0:
359,162,52587,5,10,0:1:0:0:
359,162,52753,2,0,B|333:84|333:84|361:-5,2,170.999994781494,8|8|8,0:1|0:0|0:1,0:0:0:0:
242,82,53587,1,10,0:1:0:0:
242,82,53753,2,0,P|211:52|175:29,1,85.4999973907472,10|0,0:0|0:0,0:0:0:0:
17,201,54087,6,0,P|9:255|105:270,1,170.999994781494,14|8,0:1|0:0,0:0:0:0:
182,166,54587,2,0,B|137:183|137:183|68:148|84:69,1,170.999994781494,14|8,0:1|0:0,0:0:0:0:
83,83,55003,1,8,0:0:0:0:
83,83,55087,1,8,0:0:0:0:
83,83,55170,1,8,0:3:0:0:
83,83,55253,1,4,0:3:0:0:
291,15,55420,6,8,B|345:30|345:30|358:53|358:53|451:83,1,170.999994781494,14|8,0:1|0:0,0:0:0:0:
457,226,55920,2,0,P|479:267|444:388,1,170.999994781494,2|8,0:0|0:1,0:0:0:0:
362,300,56420,2,0,P|330:324|283:344,1,85.4999973907472,10|0,0:0|0:0,0:0:0:0:
163,222,56753,6,8,B|106:222|106:222|63:266|-6:254,1,170.999994781494,10|8,0:1|0:0,0:0:0:0:
67,137,57253,2,0,B|124:137|124:137|167:181|236:169,1,170.999994781494,10|8,0:1|0:1,0:0:0:0:
314,15,57753,2,0,B|305:56|305:56|314:106,1,85.4999973907472,10|0,0:0|0:0,0:0:0:0:
471,197,58087,6,8,B|524:297|524:297|505:358,1,170.999994781494,10|8,0:1|0:0,0:0:0:0:
414,309,58587,2,0,B|365:309|319:330|319:330|244:304,1,170.999994781494,2|8,0:0|0:1,0:0:0:0:
35,220,59087,2,0,B|26:264|26:264|37:309,1,85.4999973907472,10|0,0:0|0:0,0:0:0:0:
147,360,59420,6,0,B|156:320|156:320|147:276,1,85.4999973907472,14|8,0:0|0:1,0:0:0:0:
147,276,59670,1,8,0:1:0:0:
147,276,59753,1,8,0:3:0:0:
113,79,59920,5,8,0:0:0:0:
87,93,60003,1,8,0:0:0:0:
57,99,60086,1,8,0:1:0:0:
28,94,60170,1,8,0:1:0:0:
2,79,60253,1,8,0:1:0:0:
166,4,60420,1,8,0:0:0:0:
166,4,60503,1,8,0:0:0:0:
166,4,60587,1,8,0:1:0:0:
480,93,60753,6,0,B|512:103|524:125|524:125|506:19|407:13,1,227.999993041992,14|8,0:1|0:0,0:0:0:0:
273,89,61253,2,0,P|243:124|285:297,1,227.999993041992,2|8,0:0|0:1,0:0:0:0:
357,189,61753,1,10,0:0:0:0:
272,288,61920,5,2,0:0:0:0:
272,288,62003,1,2,0:0:0:0:
272,288,62087,2,0,B|255:317|206:323|206:323|157:260|64:270,1,227.999993041992,10|8,0:1|0:0,0:0:0:0:
0,211,62587,2,8,B|17:240|66:246|66:246|115:183|208:193,1,227.999993041992,10|8,0:1|0:1,0:1:0:0:
489,148,63087,2,0,B|501:91|501:91|485:30,1,113.999996520996,10|0,0:0|0:0,0:0:0:0:
235,1,63420,6,8,B|277:27|345:12|345:12|358:78|420:94,1,227.999993041992,10|8,0:1|0:0,0:0:0:0:
372,369,63920,1,2,0:0:0:0:
451,294,64087,1,8,0:1:0:0:
408,220,64253,1,8,0:1:0:0:
343,338,64420,2,0,B|236:328|282:375|171:359,1,170.999994781494,10|0,0:0|0:0,0:0:0:0:
176,359,64753,6,0,B|171:273|57:259|57:259|77:332,1,227.999993041992,14|10,0:1|0:0,0:0:0:0:
203,136,65253,2,8,P|139:181|3:135,1,227.999993041992,14|8,0:1|0:1,0:1:0:0:
179,17,65753,1,8,0:0:0:0:
179,17,65837,1,8,0:3:0:0:
179,17,65920,1,4,0:3:0:0:
359,67,66087,6,0,B|334:98|306:126|306:126|333:183|355:271,1,227.999993041992,14|8,0:1|0:0,0:0:0:0:
478,124,66587,2,0,B|503:155|531:183|531:183|504:240|482:328,1,227.999993041992,2|8,0:0|0:1,0:0:0:0:
224,253,67087,2,0,B|168:269|168:269|108:250,1,113.999996520996,10|2,0:0|0:0,0:0:0:0:
112,221,67337,1,2,0:0:0:0:
114,190,67420,6,0,B|62:139|62:139|7:303,1,227.999993041992,10|10,0:1|0:0,0:0:0:0:
194,60,67920,2,8,B|252:43|252:43|272:50|272:50|421:4,1,227.999993041992,10|8,0:1|0:1,0:1:0:0:
329,216,68420,1,10,0:0:0:0:
329,216,68587,1,2,0:0:0:0:
373,294,68753,6,8,B|417:323|483:311|483:311|464:250|413:221,1,227.999993041992,10|8,0:1|0:0,0:0:0:0:
161,279,69253,2,0,B|136:304|100:304|100:304|163:260|156:162,1,227.999993041992,2|8,0:0|0:1,0:0:0:0:
30,54,69753,2,0,B|13:111|13:111|29:171,1,113.999996520996,10|0,0:0|0:0,0:0:0:0:
260,66,70087,6,0,P|287:29|353:8,1,113.999996520996,14|8,0:1|0:0,0:0:0:0:
350,8,70337,1,8,0:0:0:0:
350,8,70420,1,8,0:0:0:0:
501,156,70587,2,0,P|474:119|408:98,1,113.999996520996,14|0,0:1|0:0,0:0:0:0:
341,367,70920,5,8,0:0:0:0:
367,330,71003,1,8,0:0:0:0:
338,292,71087,1,8,0:0:0:0:
364,255,71170,1,8,0:0:0:0:
339,220,71253,1,8,0:0:0:0:
365,183,71336,1,8,0:0:0:0:
365,183,71420,6,0,B|285:180|227:211|227:211|151:168,1,227.999993041992,12|8,0:1|0:0,0:0:0:0:
39,8,71920,2,0,B|13:46|-28:67|-28:67|-28:153|29:195,1,227.999993041992,2|8,0:0|0:1,0:0:0:0:
216,110,72420,1,10,0:0:0:0:
194,194,72587,5,2,0:0:0:0:
194,194,72670,1,2,0:0:0:0:
194,194,72753,2,8,P|139:156|199:29,1,227.999993041992,10|8,0:1|0:0,0:0:0:0:
356,66,73253,2,8,B|484:-9|484:-9|459:68,1,227.999993041992,10|8,0:1|0:1,0:1:0:0:
323,228,73753,5,10,0:0:0:0:
380,280,73920,1,2,0:0:0:0:
270,347,74087,2,8,B|161:374|161:374|47:345,1,227.999993041992,10|8,0:1|0:0,0:0:0:0:
90,161,74587,5,10,0:1:0:0:
90,161,74670,1,8,0:1:0:0:
90,161,74753,1,8,0:1:0:0:
16,101,74920,1,8,0:1:0:0:
187,10,75087,2,0,P|176:55|192:130,1,113.999996520996,10|0,0:0|0:0,0:0:0:0:
451,80,75420,6,8,B|513:99|513:99|371:9,1,227.999993041992,14|8,0:1|0:0,0:0:0:0:
288,190,75920,2,8,B|225:209|225:209|367:119,1,227.999993041992,12|8,0:1|0:1,0:1:0:0:
508,310,76420,5,4,0:3:0:0:
445,229,76587,1,8,0:0:0:0:
273,310,76753,6,0,P|209:370|96:304,1,227.999993041992,12|8,0:1|0:0,0:0:0:0:
152,70,77253,2,0,P|91:52|71:192,1,227.999993041992,2|8,0:0|0:1,0:0:0:0:
321,83,77753,2,0,B|321:31|392:-3|392:-3|367:22|375:58,1,170.999994781494,10|0,0:0|0:0,0:0:0:0:
454,51,78087,6,0,B|479:82|507:110|507:110|480:167|458:255,1,227.999993041992,10|10,0:1|0:0,0:0:0:0:
344,378,78587,2,8,B|369:347|397:319|397:319|370:262|348:174,1,227.999993041992,10|8,0:1|0:1,0:1:0:0:
165,11,79087,2,0,B|50:46|50:46|26:104,1,170.999994781494,10|0,0:0|0:0,0:0:0:0:
93,157,79420,6,8,P|50:207|101:350,1,227.999993041992,10|8,0:1|0:0,0:0:0:0:
145,250,79920,2,0,B|219:236|254:175|254:175|255:199|255:199|235:227|246:264,1,227.999993041992,2|8,0:0|0:1,0:0:0:0:
410,362,80420,2,0,P|392:303|415:189,1,170.999994781494,10|0,0:0|0:0,0:0:0:0:
384,113,80753,6,0,B|444:124|444:124|496:113,1,113.999996520996,14|8,0:1|0:0,0:0:0:0:
496,113,81003,1,8,0:0:0:0:
496,113,81087,1,8,0:1:0:0:
255,19,81253,2,0,P|190:-7|141:118,1,227.999993041992,14|8,0:1|0:1,0:0:0:0:
225,307,81753,5,10,0:0:0:0:
188,350,81836,1,8,0:0:0:0:
135,366,81919,1,8,0:0:0:0:
81,350,82002,1,8,0:0:0:0:
45,305,82087,6,0,P|101:263|41:161,2,209.000006378174,14|8|8,0:1|0:0|0:1,0:0:0:0:
238,118,82920,1,8,0:1:0:0:
238,118,83086,2,0,B|212:101|212:101|175:35,1,104.500003189087,8|2,0:0|0:0,0:0:0:0:
197,16,83336,1,2,0:0:0:0:
197,16,83420,6,8,B|253:29|253:29|269:43|269:43|405:80,1,209.000006378174,10|10,0:1|0:0,0:0:0:0:
394,77,83920,1,8,0:1:0:0:
478,246,84087,2,0,B|488:194|488:194|475:142,1,104.500003189087,2|8,0:0|0:1,0:0:0:0:
320,246,84420,2,0,B|307:195|307:195|317:143,1,104.500003189087,10|0,0:0|0:0,0:0:0:0:
399,269,84753,6,8,P|388:352|275:327,1,209.000006378174,10|8,0:1|0:0,0:0:0:0:
194,168,85253,2,0,B|168:144|168:144|-20:207,1,209.000006378174,2|8,0:0|0:1,0:0:0:0:
125,347,85753,2,0,B|113:297|113:297|127:242,1,104.500003189087,10|0,0:0|0:0,0:0:0:0:
292,21,86087,6,0,L|319:125,1,104.500003189087,14|8,0:1|0:0,0:0:0:0:
318,122,86337,1,8,0:0:0:0:
318,122,86420,1,8,0:0:0:0:
443,74,86587,2,0,L|470:178,1,104.500003189087,14|0,0:1|0:0,0:0:0:0:
365,363,86920,5,8,0:1:0:0:
446,262,87087,1,8,0:0:0:0:
446,262,87170,1,8,0:3:0:0:
446,262,87253,1,4,0:3:0:0:
388,332,87420,6,0,P|334:357|182:322,2,209.000006378174,14|8|8,0:1|0:0|0:1,0:0:0:0:
178,192,88253,1,8,0:1:0:0:
178,192,88420,2,0,B|157:216|157:216|80:260,1,104.500003189087,8|2,0:0|0:0,0:0:0:0:
62,221,88670,1,2,0:0:0:0:
62,221,88753,6,8,B|3:97|3:97|42:20,1,209.000006378174,10|10,0:1|0:0,0:0:0:0:
35,33,89253,1,8,0:1:0:0:
263,6,89420,2,0,P|218:14|152:3,1,104.500003189087,2|8,0:0|0:1,0:0:0:0:
347,99,89753,2,0,P|302:91|236:102,1,104.500003189087,10|0,0:0|0:0,0:0:0:0:
363,252,90087,6,8,P|354:315|473:335,1,209.000006378174,10|8,0:1|0:0,0:0:0:0:
468,202,90587,2,0,B|470:130|507:79|507:79|467:10,1,209.000006378174,2|8,0:0|0:1,0:0:0:0:
319,177,91087,2,0,B|266:187|266:187|207:177,1,104.500003189087,10|0,0:0|0:0,0:0:0:0:
40,16,91420,6,0,P|70:61|99:120,1,104.500003189087,14|8,0:1|0:0,0:0:0:0:
92,105,91670,1,8,0:0:0:0:
92,105,91753,1,8,0:0:0:0:
52,256,91920,2,0,P|22:211|-7:152,1,104.500003189087,14|0,0:1|0:0,0:0:0:0:
98,343,92253,1,4,0:3:0:0:
98,343,92337,1,4,0:3:0:0:
98,343,92420,2,0,B|116:368|148:371|148:371|179:334|236:334,1,156.750004783631,12|0,0:0|0:0,0:0:0:0:
318,276,92753,6,0,B|359:248|418:246|418:246|432:188|486:162,2,209.000006378174,14|8|8,0:1|0:0|0:1,0:0:0:0:
161,148,93587,1,8,0:1:0:0:
161,148,93753,2,0,P|128:134|88:78,1,104.500003189087,8|2,0:0|0:0,0:0:0:0:
105,48,94003,1,2,0:0:0:0:
105,48,94087,6,8,B|169:46|228:0|228:0|241:45|280:63,1,209.000006378174,10|10,0:1|0:0,0:0:0:0:
271,58,94587,1,8,0:1:0:0:
306,156,94753,2,0,P|288:112|269:53,1,104.500003189087,2|8,0:0|0:1,0:0:0:0:
408,4,95087,2,0,P|390:48|371:107,1,104.500003189087,10|0,0:0|0:0,0:0:0:0:
507,373,95420,6,8,B|533:271|533:271|504:171,1,209.000006378174,10|8,0:1|0:0,0:0:0:0:
419,273,95920,2,0,B|365:261|365:261|343:270|343:270|214:245,1,209.000006378174,2|8,0:0|0:1,0:0:0:0:
39,9,96420,2,0,B|59:24|59:24|98:108,1,104.500003189087,10|0,0:0|0:0,0:0:0:0:
0,344,96753,6,8,P|41:304|-7:172,1,209.000006378174,14|8,0:1|0:0,0:0:0:0:
121,344,97253,2,8,P|80:304|128:172,1,209.000006378174,14|8,0:1|0:1,0:1:0:0:
169,266,97753,1,8,0:0:0:0:
169,266,97837,1,8,0:3:0:0:
169,266,97920,1,4,0:3:0:0:
248,67,98087,6,0,P|343:55|369:147,2,209.000006378174,14|8|8,0:1|0:0|0:1,0:0:0:0:
61,22,98920,1,8,0:1:0:0:
61,22,99087,2,0,B|47:73|47:73|63:132,1,104.500003189087,8|2,0:0|0:0,0:0:0:0:
97,137,99337,1,2,0:0:0:0:
97,137,99420,6,8,B|136:139|136:139|167:169|167:169|183:236|148:297,1,209.000006378174,10|10,0:1|0:0,0:0:0:0:
150,291,99920,1,8,0:1:0:0:
248,292,100087,2,0,P|206:307|146:288,1,104.500003189087,2|8,0:0|0:1,0:0:0:0:
320,126,100420,2,0,B|304:119|304:119|266:36,1,104.500003189087,10|0,0:0|0:0,0:0:0:0:
423,70,100753,6,8,L|514:263,1,209.000006378174,10|8,0:1|0:0,0:0:0:0:
378,193,101253,2,0,L|469:386,1,209.000006378174,2|8,0:0|0:1,0:0:0:0:
176,366,101753,2,0,B|126:378|126:378|63:367,1,104.500003189087,10|0,0:0|0:0,0:0:0:0:
0,146,102087,6,0,P|35:131|89:92,1,104.500003189087,14|8,0:1|0:0,0:0:0:0:
88,92,102337,1,8,0:0:0:0:
88,92,102420,1,8,0:0:0:0:
126,283,102587,2,0,P|167:251|214:229,1,104.500003189087,14|0,0:1|0:0,0:0:0:0:
375,365,102920,5,8,0:0:0:0:
501,178,103087,1,8,0:0:0:0:
456,108,103253,1,8,0:0:0:0:
457,258,103420,1,4,0:0:0:0:
224,17,104087,6,0,B|142:-10|142:-10|75:18,1,142.500005435944,0|8,3:0|0:1,0:0:0:0:
26,120,104753,2,0,P|-5:163|31:315,1,213.750008153916,8|0,0:1|0:0,0:0:0:0:
87,249,105420,1,0,3:0:0:0:
210,303,105753,2,0,P|225:322|278:349,1,71.2500027179719,8|0,0:1|3:0,0:0:0:0:
346,308,106087,6,0,B|419:322|419:322|490:310,1,142.500005435944,8|0,0:1|0:0,0:0:0:0:
448,235,106587,1,0,0:0:0:0:
448,235,106753,1,0,3:0:0:0:
226,19,107087,2,0,P|221:44|228:97,1,71.2500027179719,8|0,0:1|0:0,0:0:0:0:
309,62,107420,2,0,P|358:66|391:146,1,142.500005435944,8|0,0:1|0:0,0:0:0:0:
318,195,107920,1,0,0:0:0:0:
318,195,108087,1,0,3:0:0:0:
219,353,108420,2,0,P|200:337|151:323,1,71.2500027179719,8|0,0:1|3:0,0:0:0:0:
79,360,108753,6,0,P|37:334|81:203,1,213.750008153916,8|0,0:1|0:0,0:0:0:0:
98,281,109420,1,0,3:0:0:0:
141,111,109753,2,0,B|106:118|106:118|66:109,1,71.2500027179719,8|0,0:1|0:0,0:0:0:0:
110,34,110087,2,0,P|180:32|209:162,1,213.750008153916,8|0,0:1|0:0,0:0:0:0:
283,211,110753,1,0,3:0:0:0:
393,291,111087,2,0,P|401:322|427:352,1,71.2500027179719,8|0,0:1|3:0,0:0:0:0:
484,272,111420,6,0,P|501:228|480:135,1,142.500005435944,8|0,0:1|0:0,0:0:0:0:
408,173,111920,1,0,0:0:0:0:
408,173,112087,1,0,3:0:0:0:
215,277,112753,5,12,0:1:0:0:
110,147,112920,1,12,0:1:0:0:
90,312,113420,5,12,0:1:0:0:
195,182,113587,1,12,0:1:0:0:
0,14,113753,5,2,0:0:0:0:
0,14,113837,1,2,0:0:0:0:
0,14,113920,1,2,0:0:0:0:
0,14,114003,1,2,0:0:0:0:
0,9,114087,6,8,B|28:27|35:49|35:49|-2:100|23:166,1,170.999994781494,14|8,0:1|0:0,0:0:0:0:
161,65,114587,1,2,0:0:0:0:
161,65,114753,2,0,P|199:48|238:20,1,85.4999973907472,2|8,0:0|0:1,0:0:0:0:
308,83,115087,2,0,P|342:58|381:40,1,85.4999973907472,10|8,0:0|0:1,0:0:0:0:
422,228,115420,5,10,0:1:0:0:
422,228,115587,2,8,B|412:185|412:185|423:139,1,85.4999973907472,10|8,0:1|0:0,0:1:0:0:
512,257,115920,2,0,P|455:255|430:357,1,170.999994781494,2|8,0:0|0:1,0:0:0:0:
308,287,116420,2,8,P|266:296|223:289,1,85.4999973907472,8|8,0:0|0:1,0:0:0:0:
103,178,116753,6,8,B|50:145|50:145|16:262,1,170.999994781494,10|10,0:1|0:0,0:0:0:0:
180,115,117253,2,0,P|163:90|145:32,1,85.4999973907472,2|0,0:0|0:0,0:0:0:0:
257,177,117587,2,8,P|274:152|292:94,1,85.4999973907472,10|8,0:1|0:0,0:0:0:0:
239,21,117920,5,10,0:1:0:0:
387,81,118087,1,10,0:1:0:0:
446,20,118253,1,10,0:1:0:0:
377,120,118420,1,10,0:0:0:0:
467,276,118587,2,8,B|497:193|497:193|456:111,1,170.999994781494,10|8,0:1|0:1,0:1:0:0:
399,342,119087,1,8,0:0:0:0:
399,342,119253,1,8,0:1:0:0:
312,267,119420,6,8,B|267:264|223:286|223:286|182:277|157:244,1,170.999994781494,12|8,0:1|0:0,0:0:0:0:
295,136,119920,1,2,0:0:0:0:
295,136,120087,2,0,B|302:93|302:93|291:49,1,85.4999973907472,2|8,0:0|0:1,0:0:0:0:
189,17,120420,6,0,P|161:37|103:58,1,85.4999973907472,10|8,0:0|0:1,0:0:0:0:
0,189,120753,2,8,P|36:165|76:151,1,85.4999973907472,10|8,0:1|0:1,0:1:0:0:
109,254,121087,1,10,0:0:0:0:
109,254,121253,2,0,P|68:290|109:383,1,170.999994781494,2|8,0:0|0:1,0:0:0:0:
188,292,121753,1,10,0:0:0:0:
188,292,121920,1,2,0:0:0:0:
358,322,122087,6,8,B|391:312|413:287|413:287|421:253|421:253|446:230|496:214,1,170.999994781494,10|10,0:1|0:0,0:0:0:0:
310,197,122587,2,0,B|266:207|266:207|214:194,1,85.4999973907472,2|0,0:0|0:0,0:0:0:0:
269,115,122920,1,10,0:1:0:0:
269,115,123087,1,8,0:0:0:0:
339,64,123253,1,10,0:1:0:0:
111,10,123420,6,0,P|119:38|155:85,1,85.4999973907472,12|8,0:1|0:0,0:0:0:0:
152,82,123670,1,8,0:0:0:0:
152,82,123753,1,8,0:0:0:0:
4,176,123920,2,0,P|12:148|48:101,1,85.4999973907472,10|0,0:1|0:0,0:0:0:0:
39,296,124253,1,10,0:1:0:0:
92,228,124420,1,10,0:0:0:0:
92,228,124503,1,8,0:0:0:0:
92,228,124587,1,10,0:1:0:0:
299,337,124753,6,8,B|218:362|218:362|134:333,1,170.999994781494,14|10,0:1|0:0,0:0:0:0:
225,185,125253,2,0,P|220:219|226:274,1,85.4999973907472,2|8,0:0|0:1,0:0:0:0:
309,120,125587,2,8,P|304:154|310:209,1,85.4999973907472,10|8,0:1|0:0,0:0:0:0:
217,62,125920,5,2,0:0:0:0:
366,7,126087,2,8,P|411:-11|464:83,1,170.999994781494,10|10,0:1|0:0,0:0:0:0:
414,208,126587,2,0,L|449:296,1,85.4999973907472,10|0,0:1|0:0,0:0:0:0:
395,379,126920,2,8,L|363:299,1,85.4999973907472,10|8,0:1|0:0,0:0:0:0:
203,262,127253,5,10,0:1:0:0:
203,262,127420,2,0,B|149:259|103:281|103:281|37:252,2,170.999994781494,8|8|8,0:1|0:0|0:1,0:0:0:0:
118,156,128253,1,10,0:1:0:0:
118,156,128420,2,0,P|90:142|67:91,1,85.4999973907472,10|0,0:0|0:0,0:0:0:0:
244,55,128753,6,0,B|199:36|199:36|177:43|177:43|72:4,1,170.999994781494,14|8,0:1|0:0,0:0:0:0:
349,13,129253,2,0,P|334:61|356:184,1,170.999994781494,14|8,0:1|0:0,0:0:0:0:
352,177,129670,1,8,0:0:0:0:
352,177,129753,1,8,0:0:0:0:
352,177,129837,1,8,0:3:0:0:
352,177,129920,1,4,0:3:0:0:
434,264,130087,6,8,P|446:219|339:189,1,170.999994781494,14|8,0:1|0:0,0:0:0:0:
372,316,130587,2,0,P|293:307|289:229,1,170.999994781494,2|8,0:0|0:1,0:0:0:0:
475,97,131087,2,0,P|483:62|473:9,1,85.4999973907472,10|0,0:0|0:0,0:0:0:0:
254,19,131420,6,8,B|171:2|171:2|84:23,1,170.999994781494,10|8,0:1|0:0,0:0:0:0:
4,105,131920,2,0,P|49:105|94:219,1,170.999994781494,10|8,0:1|0:1,0:0:0:0:
4,247,132420,2,0,P|15:282|57:315,1,85.4999973907472,10|0,0:0|0:0,0:0:0:0:
304,195,132753,6,8,B|269:142|320:79|320:79|376:114,1,170.999994781494,10|8,0:1|0:0,0:0:0:0:
462,216,133253,2,0,B|470:268|503:300|503:300|472:373,1,170.999994781494,2|8,0:0|0:1,0:0:0:0:
263,288,133753,2,0,B|307:279|307:279|354:286,1,85.4999973907472,10|0,0:0|0:0,0:0:0:0:
0,379,134087,5,14,0:1:0:0:
114,185,134254,1,14,0:1:0:0:
122,332,134753,5,14,0:1:0:0:
8,138,134920,1,14,0:1:0:0:
122,66,135087,6,0,L|227:31,1,106.875004076958,2|0,0:0|0:0,0:0:0:0:
224,33,135420,6,0,B|164:49|95:5|95:5|-8:5,1,227.999993041992,14|8,0:1|0:0,0:0:0:0:
284,137,135920,2,0,B|328:101|393:99|393:99|395:39|447:2,1,227.999993041992,2|8,0:0|0:1,0:0:0:0:
512,174,136420,1,10,0:0:0:0:
323,281,136587,5,2,0:0:0:0:
323,281,136670,1,2,0:0:0:0:
323,281,136753,2,0,B|261:298|186:241|186:241|214:278|200:323,1,227.999993041992,10|8,0:1|0:0,0:0:0:0:
7,206,137253,2,8,P|-10:268|115:296,1,227.999993041992,10|8,0:1|0:1,0:1:0:0:
45,69,137753,2,0,P|57:110|119:160,1,113.999996520996,10|0,0:0|0:0,0:0:0:0:
355,1,138087,6,8,B|483:1|483:1|531:49|490:98,1,227.999993041992,10|8,0:1|0:0,0:0:0:0:
312,193,138587,1,2,0:0:0:0:
363,133,138753,1,8,0:1:0:0:
475,282,138920,1,8,0:1:0:0:
365,284,139087,2,0,P|296:316|211:286,1,170.999994781494,10|0,0:0|0:0,0:0:0:0:
210,285,139420,6,0,B|195:255|195:255|163:234|163:234|68:246|10:193,1,227.999993041992,14|10,0:1|0:0,0:0:0:0:
211,13,139920,2,8,B|195:43|195:43|163:64|163:64|68:52|10:105,1,227.999993041992,14|8,0:1|0:1,0:1:0:0:
186,154,140420,1,8,0:0:0:0:
186,154,140503,1,8,0:3:0:0:
186,154,140587,1,4,0:3:0:0:
414,31,140753,6,0,P|489:18|502:144,1,227.999993041992,14|8,0:1|0:0,0:0:0:0:
385,169,141253,2,0,B|478:285|478:285|454:365,1,227.999993041992,2|8,0:0|0:1,0:0:0:0:
288,243,141753,2,0,P|306:194|284:132,1,113.999996520996,10|2,0:0|0:0,0:0:0:0:
258,125,142003,1,2,0:0:0:0:
235,112,142087,6,0,B|165:89|165:89|151:73|151:73|19:27,1,227.999993041992,10|10,0:1|0:0,0:0:0:0:
213,197,142587,2,8,B|202:280|152:327|152:327|186:295|232:299,1,227.999993041992,10|8,0:1|0:1,0:1:0:0:
476,105,143087,1,10,0:0:0:0:
476,105,143253,1,2,0:0:0:0:
347,12,143420,6,8,B|445:91|445:91|460:165|397:178,1,227.999993041992,10|8,0:1|0:0,0:0:0:0:
239,105,143920,2,0,B|237:39|126:12|126:12|164:32|168:78,1,227.999993041992,2|8,0:0|0:1,0:0:0:0:
397,252,144420,2,0,P|414:296|398:365,1,113.999996520996,10|0,0:0|0:0,0:0:0:0:
231,332,144753,6,0,B|219:344|219:344|117:316,1,113.999996520996,14|8,0:1|0:0,0:0:0:0:
125,318,145003,1,8,0:0:0:0:
125,318,145087,1,8,0:0:0:0:
0,244,145253,2,0,B|12:256|12:256|114:228,1,113.999996520996,14|0,0:1|0:0,0:0:0:0:
357,8,145587,5,8,0:0:0:0:
336,38,145670,1,8,0:0:0:0:
358,67,145753,1,8,0:0:0:0:
337,97,145836,1,8,0:0:0:0:
360,122,145920,1,8,0:0:0:0:
339,152,146003,1,8,0:0:0:0:
339,152,146087,6,0,B|354:184|331:216|331:216|475:138,1,227.999993041992,12|8,0:1|0:0,0:0:0:0:
264,176,146587,2,0,B|184:132|184:132|171:93|171:93|73:43,1,227.999993041992,2|8,0:0|0:1,0:0:0:0:
16,341,147087,1,10,0:0:0:0:
134,274,147253,5,2,0:0:0:0:
134,274,147337,1,2,0:0:0:0:
134,274,147420,2,8,B|179:318|264:302|264:302|291:262|336:253,1,227.999993041992,10|8,0:1|0:0,0:0:0:0:
468,307,147920,2,8,B|516:344|516:344|423:193,1,227.999993041992,10|8,0:1|0:1,0:1:0:0:
298,10,148420,5,10,0:0:0:0:
359,57,148587,1,2,0:0:0:0:
231,134,148753,2,8,B|118:159|118:159|8:133,1,227.999993041992,10|8,0:1|0:0,0:0:0:0:
74,14,149253,5,10,0:1:0:0:
74,14,149337,1,8,0:1:0:0:
74,14,149420,1,8,0:1:0:0:
129,73,149587,1,8,0:1:0:0:
115,265,149753,2,0,P|83:306|21:333,1,113.999996520996,10|0,0:0|0:0,0:0:0:0:
296,203,150087,6,8,B|276:249|235:276|235:276|244:353|311:382,1,227.999993041992,14|8,0:1|0:0,0:0:0:0:
385,267,150587,2,8,B|437:298|437:298|524:255|511:161,1,227.999993041992,12|8,0:1|0:1,0:1:0:0:
296,4,151087,5,4,0:3:0:0:
351,60,151253,1,8,0:0:0:0:
140,142,151420,6,0,P|147:210|13:218,1,227.999993041992,12|8,0:1|0:0,0:0:0:0:
25,34,151920,2,0,B|88:56|88:56|99:86|99:86|232:132,1,227.999993041992,2|8,0:0|0:1,0:0:0:0:
482,243,152420,2,0,P|533:294|458:360,1,170.999994781494,10|0,0:0|0:0,0:0:0:0:
418,302,152753,6,0,B|346:309|313:371|313:371|206:371,1,227.999993041992,10|10,0:1|0:0,0:0:0:0:
61,337,153253,2,8,B|133:330|166:268|166:268|273:268,1,227.999993041992,10|8,0:1|0:1,0:1:0:0:
485,111,153753,2,0,B|526:136|526:136|447:34,1,170.999994781494,10|0,0:0|0:0,0:0:0:0:
367,9,154087,6,8,P|366:83|239:78,1,227.999993041992,10|8,0:1|0:0,0:0:0:0:
12,48,154587,2,0,B|50:60|64:97|64:97|8:145|31:238,1,227.999993041992,2|8,0:0|0:1,0:0:0:0:
205,337,155087,2,0,B|259:337|259:337|305:381|370:362,1,170.999994781494,10|0,0:0|0:0,0:0:0:0:
450,299,155420,5,12,0:0:0:0:
469,264,155503,1,8,0:0:0:0:
475,224,155586,1,8,0:1:0:0:
467,185,155670,1,8,0:1:0:0:
448,149,155753,5,8,0:3:0:0:
421,158,155836,1,8,0:3:0:0:
392,161,155919,1,4,0:3:0:0:
364,158,156003,1,4,0:3:0:0:
335,148,156087,6,8,L|312:75,1,75.9999976806641,8|8,0:3|0:3,0:3:0:0:
216,20,156309,2,4,L|239:93,1,75.9999976806641,4|4,0:3|0:3,0:3:0:0:
121,186,156531,5,4,0:3:0:0:
51,172,156642,1,4,0:3:0:0:
72,241,156753,1,12,0:1:0:0:
302,348,157087,2,8,B|234:362|234:362|156:346,2,142.500005435944,8|8|8,0:1|0:1|0:1,0:1:0:0:
467,184,158087,1,8,0:1:0:0:
447,157,158420,6,0,P|446:128|446:81,1,71.2500027179719,10|0,0:1|0:0,0:0:0:0:
363,99,158753,2,0,P|364:70|364:23,1,71.2500027179719,10|0,0:1|0:0,0:0:0:0:
277,64,159087,1,10,0:1:0:0:
277,64,159253,1,8,0:0:0:0:
100,132,159420,6,8,P|55:141|1:231,1,142.500005435944,14|8,0:1|0:1,0:1:0:0:
81,279,159920,2,0,B|108:263|130:267|130:267|159:308|206:309,1,142.500005435944,2|0,0:0|0:0,0:0:0:0:
294,246,160420,2,0,P|278:232|257:182,1,71.2500027179719,10|0,0:1|0:0,0:0:0:0:
341,23,160753,6,8,B|320:91|320:91|343:173,1,142.500005435944,14|10,0:1|0:1,0:1:0:0:
493,88,161253,2,0,B|514:156|514:156|491:238,1,142.500005435944,6|8,0:0|0:1,0:0:0:0:
426,158,161753,1,8,0:0:0:0:
426,158,161837,1,8,0:3:0:0:
426,158,161920,1,4,0:3:0:0:
315,321,162087,6,8,P|353:325|459:322,3,142.500005435944,14|8|8|8,0:1|0:1|0:1|0:1,0:1:0:0:
123,369,163420,1,8,0:1:0:0:
146,343,163753,6,0,P|140:324|106:278,1,71.2500027179719,10|0,0:1|0:0,0:0:0:0:
0,289,164087,2,0,P|6:270|40:224,1,71.2500027179719,10|0,0:1|0:0,0:0:0:0:
109,282,164420,1,10,0:1:0:0:
109,282,164587,1,8,0:0:0:0:
168,133,164753,6,8,B|95:149|95:149|17:131,1,142.500005435944,14|8,0:1|0:1,0:1:0:0:
90,55,165253,2,0,B|163:39|163:39|241:57,1,142.500005435944,2|0,0:0|0:0,0:0:0:0:
240,218,165753,2,0,P|252:243|287:284,1,71.2500027179719,10|0,0:1|0:0,0:0:0:0:
395,219,166087,6,8,P|392:261|397:376,1,142.500005435944,14|8,0:1|0:1,0:1:0:0:
475,339,166587,2,0,P|478:267|475:196,1,142.500005435944,4|8,0:0|0:1,0:0:0:0:
317,99,167087,1,10,0:0:0:0:
317,99,167170,1,8,0:3:0:0:
317,99,167253,1,4,0:3:0:0:
389,40,167420,6,8,P|347:53|249:39,2,142.500005435944,14|8|8,0:1|0:1|0:1,0:1:0:0:
77,6,168420,2,0,P|91:23|120:72,1,71.2500027179719,10|0,0:1|0:0,0:0:0:0:
54,126,168753,6,8,P|40:173|61:278,1,142.500005435944,10|8,0:1|0:1,0:1:0:0:
149,228,169253,2,0,P|135:275|156:380,1,142.500005435944,2|2,0:0|0:0,0:0:0:0:
227,277,169753,1,10,0:1:0:0:
227,277,169920,1,10,0:0:0:0:
321,340,170087,6,8,P|364:348|419:273,1,142.500005435944,14|10,0:1|0:1,0:1:0:0:
295,163,170587,2,0,P|261:143|237:120,1,71.2500027179719,2|8,0:0|0:1,0:0:0:0:
202,38,170920,2,0,P|168:58|144:81,1,71.2500027179719,2|8,0:0|0:1,0:0:0:0:
346,4,171253,5,2,0:0:0:0:
427,68,171420,2,0,B|420:104|420:104|429:144,1,71.2500027179719,12|2,0:1|0:0,0:0:0:0:
492,247,171753,1,10,0:1:0:0:
492,247,171920,2,0,P|441:244|397:327,1,142.500005435944,6|8,0:0|0:1,0:0:0:0:
473,371,172420,1,10,0:0:0:0:
473,371,172503,1,8,0:3:0:0:
473,371,172587,1,4,0:3:0:0:
394,313,172753,6,8,B|346:311|306:326|306:326|254:304,2,142.500005435944,14|8|8,0:1|0:1|0:1,0:1:0:0:
176,254,173753,2,0,P|145:270|102:288,1,71.2500027179719,10|0,0:1|0:0,0:0:0:0:
67,201,174087,6,8,P|52:158|70:54,1,142.500005435944,10|8,0:1|0:1,0:1:0:0:
148,1,174587,2,0,B|184:1|184:1|231:38|289:25,1,142.500005435944,2|2,0:0|0:0,0:0:0:0:
423,103,175087,1,10,0:1:0:0:
423,103,175253,1,10,0:0:0:0:
367,177,175420,6,8,P|363:210|460:242,1,142.500005435944,14|8,0:1|0:1,0:1:0:0:
506,343,175920,2,0,B|430:343|430:343|404:370|365:369,1,142.500005435944,2|0,0:0|0:0,0:0:0:0:
280,281,176420,6,0,B|275:316|275:316|282:357,1,71.2500027179719,10|0,0:1|0:0,0:0:0:0:
70,346,176753,2,0,B|76:310|76:310|71:275,1,71.2500027179719,14|8,0:1|0:0,0:0:0:0:
71,275,177003,1,8,0:0:0:0:
71,275,177087,1,8,0:0:0:0:
305,282,177253,2,0,B|300:317|300:317|307:358,1,71.2500027179719,14|0,0:1|0:0,0:0:0:0:
195,296,177587,5,8,0:0:0:0:
173,257,177670,1,8,0:0:0:0:
194,220,177754,1,8,0:0:0:0:
172,181,177837,1,8,0:0:0:0:
195,154,177920,1,8,0:0:0:0:
173,115,178003,1,8,0:0:0:0:
173,115,178087,6,8,B|128:88|63:86|63:86|48:28|-6:-6,2,227.999993041992,14|8|8,0:1|0:0|0:1,0:0:0:0:
297,0,178920,1,8,0:1:0:0:
297,0,179087,2,0,P|281:43|300:110,1,113.999996520996,8|0,0:0|0:0,0:0:0:0:
504,258,179420,6,8,P|493:335|365:332,1,227.999993041992,8|10,0:1|0:0,0:0:0:0:
427,289,179920,1,8,0:1:0:0:
182,378,180087,2,0,B|128:361|128:361|92:315,1,113.999996520996,2|8,0:0|0:1,0:0:0:0:
0,242,180420,2,0,B|54:225|54:225|90:179,1,113.999996520996,10|0,0:0|0:0,0:0:0:0:
32,18,180753,5,10,0:1:0:0:
101,71,180920,1,2,0:0:0:0:
224,12,181087,1,10,0:0:0:0:
186,78,181253,2,0,P|162:163|199:316,1,227.999993041992,2|10,0:0|0:1,0:0:0:0:
488,357,181753,2,0,B|534:378|534:378|461:280,1,170.999994781494,10|0,0:0|0:0,0:0:0:0:
410,216,182087,6,0,B|352:229|352:229|281:211,1,113.999996520996,14|8,0:1|0:0,0:0:0:0:
299,215,182337,1,8,0:0:0:0:
299,215,182420,1,8,0:0:0:0:
359,42,182587,2,8,B|423:-11|423:-11|476:133,1,227.999993041992,12|10,0:1|0:1,0:1:0:0:
284,7,183087,1,10,0:0:0:0:
284,7,183170,1,8,0:3:0:0:
284,7,183253,1,6,0:3:0:0:
52,58,183420,6,0,B|62:126|130:153|130:153|66:235,1,227.999993041992,14|10,0:1|0:0,0:0:0:0:
142,373,183920,2,0,P|128:325|145:255,1,113.999996520996,2|8,0:0|0:1,0:0:0:0:
396,214,184253,2,8,P|427:244|494:275,1,113.999996520996,10|8,0:1|0:0,0:0:0:0:
277,247,184587,2,0,P|329:269|371:307,1,113.999996520996,2|8,0:0|0:1,0:0:0:0:
255,362,184920,5,2,0:0:0:0:
255,362,185087,1,10,0:0:0:0:
223,171,185253,2,8,P|174:138|229:4,1,227.999993041992,10|10,0:1|0:1,0:1:0:0:
443,76,185753,1,10,0:0:0:0:
443,76,185920,1,2,0:0:0:0:
248,90,186087,6,8,B|374:30|374:30|348:69|372:118,1,227.999993041992,10|8,0:1|0:0,0:0:0:0:
476,319,186587,2,0,B|539:290|539:290|384:230,1,227.999993041992,2|8,0:0|0:1,0:0:0:0:
218,338,187087,2,0,B|162:350|162:350|101:337,1,113.999996520996,10|0,0:0|0:0,0:0:0:0:
162,264,187420,5,14,0:1:0:0:
92,24,187587,2,0,P|23:15|13:148,1,227.999993041992,8|0,0:1|0:0,0:0:0:0:
297,59,188087,1,12,0:1:0:0:
297,59,188253,2,0,B|352:64|397:22|397:22|470:21|517:65,1,227.999993041992,8|0,0:0|0:0,0:0:0:0:
413,384,188753,6,0,B|404:247|504:314|492:147,1,256.499992172241,14|8,0:1|0:0,0:0:0:0:
492,151,190087,2,0,B|414:175|414:175|397:224|397:224|317:254,1,213.749993476868,12|8,0:1|0:1,0:0:0:0:
150,98,191087,1,8,0:0:0:0:
150,98,191420,6,0,P|91:78|41:228,1,256.499992172241,12|8,0:1|0:0,0:0:0:0:
33,220,192753,2,0,B|26:267|26:267|34:318,1,95,12|8,0:1|0:0,0:0:0:0:
33,313,193003,1,8,0:0:0:0:
33,313,193087,1,8,0:0:0:0:
215,272,193253,2,0,B|317:218|317:218|295:253|308:291,1,190,12|8,0:1|0:1,0:0:0:0:
450,88,193753,1,8,0:0:0:0:
450,88,193837,1,8,0:3:0:0:
450,88,193920,1,4,0:3:0:0:
478,166,194087,6,8,P|464:217|486:335,3,161.500003080368,14|8|8|8,0:1|0:1|0:1|0:1,0:1:0:0:
334,59,195420,6,8,P|298:29|180:4,1,161.500003080368,14|8,0:1|0:1,0:1:0:0:
109,174,196087,2,8,P|188:163|254:117,1,161.500003080368,10|8,0:1|0:1,0:1:0:0:
12,220,196753,6,0,L|45:304,1,80.750001540184,14|0,0:1|0:0,0:0:0:0:
135,309,197087,1,8,0:1:0:0:
135,309,197253,2,0,L|168:393,1,80.750001540184,6|8,0:0|0:1,0:0:0:0:
254,211,197587,1,8,0:1:0:0:
254,211,197753,2,0,B|195:223|195:223|122:206,1,121.125002310276,10|0,0:0|0:0,0:0:0:0:
197,136,198087,5,14,0:1:0:0:
94,105,198253,1,10,0:0:0:0:
94,105,198337,1,8,0:0:0:0:
94,105,198420,1,10,0:1:0:0:
300,0,198587,2,0,P|288:37|307:119,1,113.999996520996,14|0,0:1|0:0,0:0:0:0:
482,274,198920,5,8,0:0:0:0:
510,237,199003,1,8,0:0:0:0:
481,204,199087,1,8,0:0:0:0:
509,167,199170,1,8,0:0:0:0:
478,133,199253,1,8,0:0:0:0:
508,102,199336,1,8,0:0:0:0:
508,102,199420,6,0,B|501:28|419:2|419:2|466:-17|505:7,1,227.999993041992,12|8,0:1|0:0,0:0:0:0:
406,102,199920,2,0,B|365:80|313:98|313:98|290:120|290:120|244:144|193:122,1,227.999993041992,2|8,0:0|0:1,0:0:0:0:
510,237,200420,1,10,0:0:0:0:
441,352,200587,5,2,0:0:0:0:
441,352,200670,1,2,0:0:0:0:
441,352,200753,2,8,B|411:380|361:371|361:371|321:302|237:295,1,227.999993041992,10|8,0:1|0:0,0:0:0:0:
108,343,201253,2,8,P|32:362|2:235,1,227.999993041992,10|8,0:1|0:1,0:1:0:0:
278,24,201753,5,10,0:0:0:0:
217,77,201920,1,2,0:0:0:0:
433,73,202087,2,8,B|496:88|496:88|348:-5,1,227.999993041992,10|8,0:1|0:0,0:0:0:0:
191,177,202587,5,10,0:1:0:0:
191,177,202670,1,8,0:1:0:0:
191,177,202753,1,8,0:1:0:0:
79,112,202920,1,8,0:1:0:0:
263,170,203087,2,0,P|277:220|256:289,1,113.999996520996,10|0,0:0|0:0,0:0:0:0:
38,359,203420,6,8,B|45:280|150:251|150:251|121:276|122:316,1,227.999993041992,14|8,0:1|0:0,0:0:0:0:
327,380,203920,2,8,B|363:353|423:358|423:358|481:315|481:315|496:257,1,227.999993041992,12|8,0:1|0:1,0:1:0:0:
375,111,204420,5,4,0:3:0:0:
404,201,204587,1,8,0:0:0:0:
473,28,204753,6,0,B|337:14|390:97|248:72,1,227.999993041992,12|8,0:1|0:0,0:0:0:0:
15,275,205253,2,0,B|48:311|120:292|120:292|136:211|71:185,1,227.999993041992,2|8,0:0|0:1,0:0:0:0:
70,26,205753,2,0,B|25:6|25:6|115:89,1,170.999994781494,10|0,0:0|0:0,0:0:0:0:
198,129,206087,6,0,P|130:104|215:23,1,227.999993041992,10|10,0:1|0:0,0:0:0:0:
512,307,206587,2,8,B|382:261|382:261|292:313,1,227.999993041992,10|8,0:1|0:1,0:1:0:0:
290,185,207087,2,0,B|322:106|322:106|284:28,1,170.999994781494,10|0,0:0|0:0,0:0:0:0:
202,16,207420,6,8,B|125:47|125:47|108:108|108:108|25:147,1,227.999993041992,10|8,0:1|0:0,0:0:0:0:
108,372,207920,2,0,P|49:322|123:204,1,227.999993041992,2|8,0:0|0:1,0:0:0:0:
242,293,208420,2,0,P|190:308|130:289,1,113.999996520996,10|0,0:0|0:0,0:0:0:0:
375,1,208753,6,0,P|412:35|454:89,1,113.999996520996,14|8,0:1|0:0,0:0:0:0:
451,84,209003,1,8,0:0:0:0:
451,84,209087,1,8,0:1:0:0:
373,222,209253,2,0,P|407:267|449:305,1,113.999996520996,12|0,0:1|0:0,0:0:0:0:
292,84,209587,5,8,0:0:0:0:
257,104,209670,1,8,0:0:0:0:
218,79,209753,1,8,0:0:0:0:
183,99,209836,1,8,0:0:0:0:
141,83,209920,1,8,0:0:0:0:
106,103,210003,1,8,0:0:0:0:
106,103,210087,6,0,B|189:225|189:225|170:309,1,227.999993041992,14|8,0:1|0:0,0:0:0:0:
92,360,210587,2,0,B|9:238|9:238|28:154,1,227.999993041992,2|8,0:0|0:1,0:0:0:0:
292,84,211087,1,10,0:0:0:0:
438,259,211253,5,2,0:0:0:0:
438,259,211337,1,2,0:0:0:0:
438,259,211420,2,0,P|447:323|309:333,1,227.999993041992,10|8,0:1|0:0,0:0:0:0:
345,220,211920,2,8,B|310:204|272:206|272:206|220:265|127:246,1,227.999993041992,10|8,0:1|0:1,0:1:0:0:
85,96,212420,2,0,B|99:100|99:100|192:55,1,113.999996520996,10|0,0:0|0:0,0:0:0:0:
36,1,212753,6,8,P|-8:45|45:190,1,227.999993041992,10|8,0:1|0:0,0:0:0:0:
357,44,213253,1,2,0:0:0:0:
424,89,213420,1,8,0:1:0:0:
278,160,213587,1,8,0:1:0:0:
502,262,213753,2,0,P|448:236|344:262,1,170.999994781494,10|0,0:0|0:0,0:0:0:0:
345,262,214087,6,0,P|419:250|432:375,1,227.999993041992,14|10,0:1|0:0,0:0:0:0:
245,305,214587,2,8,B|163:305|163:305|115:360|22:344,1,227.999993041992,14|8,0:1|0:1,0:1:0:0:
92,162,215087,1,8,0:0:0:0:
92,162,215170,1,8,0:3:0:0:
92,162,215253,1,4,0:3:0:0:
76,245,215420,6,0,P|50:188|78:27,1,227.999993041992,14|8,0:1|0:0,0:0:0:0:
295,22,215920,2,0,B|351:11|397:27|397:27|455:77|522:65,1,227.999993041992,2|8,0:0|0:1,0:0:0:0:
511,259,216420,2,0,B|513:279|513:279|464:363,1,113.999996520996,10|2,0:0|0:0,0:0:0:0:
432,343,216670,1,2,0:0:0:0:
404,322,216753,6,0,B|438:244|351:180|351:180|295:245,1,227.999993041992,10|10,0:1|0:0,0:0:0:0:
235,365,217253,2,8,B|149:335|149:335|132:295|132:295|31:260,1,227.999993041992,10|8,0:1|0:1,0:1:0:0:
0,114,217753,1,10,0:0:0:0:
0,114,217920,1,2,0:0:0:0:
211,50,218087,6,8,B|351:-3|351:-3|325:33|343:78,1,227.999993041992,10|8,0:1|0:0,0:0:0:0:
408,186,218587,2,0,B|268:133|268:133|294:169|276:214,1,227.999993041992,2|8,0:0|0:1,0:0:0:0:
377,282,219087,2,0,P|361:328|380:391,1,113.999996520996,10|0,0:0|0:0,0:0:0:0:
512,110,219420,6,0,B|519:84|519:84|469:3,1,113.999996520996,14|8,0:1|0:0,0:0:0:0:
473,9,219670,1,8,0:0:0:0:
473,9,219753,1,8,0:0:0:0:
474,231,219920,2,0,B|467:257|467:257|517:338,1,113.999996520996,14|0,0:1|0:0,0:0:0:0:
317,35,220253,5,8,0:0:0:0:
283,57,220337,1,8,0:0:0:0:
238,37,220420,1,8,0:0:0:0:
204,59,220504,1,8,0:0:0:0:
164,37,220587,1,8,0:0:0:0:
130,59,220671,1,8,0:0:0:0:
130,59,220753,6,0,B|222:145|222:145|232:211|182:235,1,227.999993041992,12|8,0:1|0:0,0:0:0:0:
393,305,221253,2,0,P|320:378|249:305,1,227.999993041992,2|8,0:0|0:1,0:0:0:0:
452,124,221753,1,10,0:0:0:0:
384,6,221920,5,2,0:0:0:0:
384,6,222003,1,2,0:0:0:0:
384,6,222087,2,8,B|381:62|346:107|346:107|351:164|405:213,1,227.999993041992,10|8,0:1|0:0,0:0:0:0:
508,277,222587,2,8,B|440:300|440:300|430:334|430:334|316:382,1,227.999993041992,10|8,0:1|0:1,0:1:0:0:
97,251,223087,5,10,0:0:0:0:
270,181,223253,1,2,0:0:0:0:
217,89,223420,2,0,B|82:156|82:156|6:115,1,227.999993041992,10|8,0:1|0:0,0:0:0:0:
277,18,223920,5,10,0:1:0:0:
277,18,224003,1,8,0:1:0:0:
277,18,224087,1,8,0:1:0:0:
321,113,224253,1,8,0:1:0:0:
200,248,224420,2,0,P|211:284|278:339,1,113.999996520996,10|0,0:0|0:0,0:0:0:0:
421,261,224753,6,8,B|435:296|472:306|472:306|530:246|495:159,1,227.999993041992,14|8,0:1|0:0,0:0:0:0:
254,49,225253,2,8,B|317:49|362:84|362:84|430:75|462:28,1,227.999993041992,12|8,0:1|0:1,0:1:0:0:
139,11,225753,5,4,0:3:0:0:
183,84,225920,1,8,0:0:0:0:
19,150,226087,6,0,P|-5:215|21:375,1,227.999993041992,12|8,0:1|0:0,0:0:0:0:
118,314,226587,2,0,B|137:337|183:342|183:342|237:285|329:295,1,227.999993041992,2|8,0:0|0:1,0:0:0:0:
450,346,227087,2,0,B|496:373|496:373|414:269,1,170.999994781494,10|0,0:0|0:0,0:0:0:0:
395,189,227420,6,0,P|452:183|385:92,1,227.999993041992,10|10,0:1|0:0,0:0:0:0:
260,134,227920,2,8,B|218:126|181:92|181:92|167:47|167:47|138:17|85:8,1,227.999993041992,10|8,0:1|0:1,0:1:0:0:
22,305,228420,2,0,P|-14:257|27:156,1,170.999994781494,10|0,0:0|0:0,0:0:0:0:
72,231,228753,6,8,B|115:282|201:264|201:264|230:226|276:211,1,227.999993041992,10|8,0:1|0:0,0:0:0:0:
483,360,229253,2,0,B|474:302|528:229|528:229|477:149,1,227.999993041992,2|8,0:0|0:1,0:0:0:0:
248,11,229753,2,0,B|305:26|305:26|322:60|322:60|395:85,1,170.999994781494,10|0,0:0|0:0,0:0:0:0:
384,174,230087,6,0,B|403:227|403:227|389:283,1,113.999996520996,14|8,0:1|0:0,0:0:0:0:
389,282,230337,1,8,0:0:0:0:
389,282,230420,1,8,0:1:0:0:
277,239,230587,2,0,B|239:236|239:236|194:265|194:265|175:349|109:373,1,227.999993041992,14|8,0:1|0:0,0:0:0:0:
32,308,231003,1,8,0:0:0:0:
16,272,231086,1,10,0:0:0:0:
8,233,231169,1,8,0:0:0:0:
8,193,231253,1,8,0:0:0:0:
16,154,231336,1,8,0:0:0:0:
32,117,231420,6,0,P|60:156|191:102,2,209.000006378174,14|8|8,0:1|0:0|0:1,0:0:0:0:
337,32,232253,1,8,0:1:0:0:
337,32,232420,2,0,B|338:55|338:55|389:130,1,104.500003189087,8|2,0:0|0:0,0:0:0:0:
423,142,232670,1,2,0:0:0:0:
423,142,232753,6,8,B|415:181|439:224|439:224|463:242|463:242|481:296|470:335,1,209.000006378174,10|10,0:1|0:0,0:0:0:0:
470,333,233253,1,8,0:1:0:0:
321,249,233420,2,0,P|286:276|225:293,1,104.500003189087,2|8,0:0|0:1,0:0:0:0:
211,374,233753,2,0,P|160:360|118:330,1,104.500003189087,10|0,0:0|0:0,0:0:0:0:
0,171,234087,6,8,B|38:140|94:139|94:139|109:78|158:59,1,209.000006378174,10|8,0:1|0:0,0:0:0:0:
366,131,234587,2,0,P|298:109|386:49,1,209.000006378174,2|8,0:0|0:1,0:0:0:0:
384,231,235087,2,0,P|416:250|470:304,1,104.500003189087,10|0,0:0|0:0,0:0:0:0:
305,365,235420,6,0,B|317:313|317:313|302:260,1,104.500003189087,14|8,0:1|0:0,0:0:0:0:
303,263,235670,1,8,0:0:0:0:
303,263,235753,1,8,0:0:0:0:
182,310,235920,2,0,B|170:258|170:258|185:205,1,104.500003189087,14|0,0:1|0:0,0:0:0:0:
304,102,236253,2,0,P|336:83|390:29,1,104.500003189087,8|8,0:1|0:0,0:0:0:0:
384,36,236503,1,8,0:3:0:0:
384,36,236587,1,4,0:3:0:0:
68,9,236753,6,0,P|136:1|162:126,2,209.000006378174,14|8|8,0:1|0:0|0:1,0:0:0:0:
16,178,237587,1,8,0:1:0:0:
16,178,237753,2,0,B|4:229|4:229|17:291,1,104.500003189087,8|2,0:0|0:0,0:0:0:0:
62,287,238003,1,2,0:0:0:0:
62,287,238087,6,8,B|125:284|185:322|185:322|259:284,1,209.000006378174,10|10,0:1|0:0,0:0:0:0:
255,285,238587,1,8,0:1:0:0:
279,54,238753,2,0,B|274:73|274:73|324:147,1,104.500003189087,2|8,0:0|0:1,0:0:0:0:
255,285,239087,2,0,B|260:266|260:266|210:192,1,104.500003189087,10|0,0:0|0:0,0:0:0:0:
366,313,239420,6,8,P|402:370|504:308,1,209.000006378174,10|8,0:1|0:0,0:0:0:0:
433,175,239920,2,0,B|512:49|512:49|445:72,1,209.000006378174,2|8,0:0|0:1,0:0:0:0:
334,112,240420,2,0,P|344:77|331:4,1,104.500003189087,10|0,0:0|0:0,0:0:0:0:
148,64,240753,6,0,P|177:31|237:13,1,104.500003189087,14|8,0:1|0:0,0:0:0:0:
233,13,241003,1,8,0:0:0:0:
233,13,241087,1,8,0:0:0:0:
87,160,241253,2,0,P|58:127|-2:109,1,104.500003189087,14|0,0:1|0:0,0:0:0:0:
79,327,241587,1,4,0:3:0:0:
79,327,241670,1,4,0:3:0:0:
79,327,241753,2,0,B|157:345|157:345|233:327,1,156.750004783631,12|0,0:0|0:0,0:0:0:0:
297,271,242087,6,0,B|258:202|317:132|317:132|362:173,2,209.000006378174,14|8|8,0:1|0:0|0:1,0:0:0:0:
465,351,242920,1,8,0:1:0:0:
465,351,243087,2,0,B|446:340|446:340|399:263,1,104.500003189087,8|2,0:0|0:0,0:0:0:0:
435,237,243337,1,2,0:0:0:0:
435,237,243420,6,8,B|458:133|458:133|433:28,1,209.000006378174,10|10,0:1|0:0,0:0:0:0:
434,33,243920,1,8,0:1:0:0:
321,56,244087,2,0,P|281:43|215:62,1,104.500003189087,2|8,0:0|0:1,0:0:0:0:
45,167,244420,2,0,B|30:114|30:114|44:66,1,104.500003189087,10|0,0:0|0:0,0:0:0:0:
182,183,244753,6,8,P|111:164|72:274,1,209.000006378174,10|8,0:1|0:0,0:0:0:0:
322,218,245253,2,0,B|200:270|200:270|110:224,1,209.000006378174,2|8,0:0|0:1,0:0:0:0:
256,102,245753,2,0,B|241:52|241:52|254:-2,1,104.500003189087,10|0,0:0|0:0,0:0:0:0:
400,60,246087,6,8,B|467:13|467:13|511:143,1,209.000006378174,14|8,0:1|0:0,0:0:0:0:
469,338,246587,2,8,B|525:352|525:352|392:261,1,209.000006378174,14|8,0:1|0:1,0:1:0:0:
314,371,247087,1,8,0:0:0:0:
314,371,247170,1,8,0:3:0:0:
314,371,247253,1,4,0:3:0:0:
46,156,247420,6,0,P|25:211|55:367,2,209.000006378174,14|8|8,0:1|0:0|0:1,0:0:0:0:
134,49,248253,1,8,0:1:0:0:
134,49,248420,2,0,B|143:62|143:62|225:116,1,104.500003189087,8|2,0:0|0:0,0:0:0:0:
246,89,248670,1,2,0:0:0:0:
246,89,248753,6,8,B|296:116|296:116|308:135|308:135|423:200,1,209.000006378174,10|10,0:1|0:0,0:0:0:0:
420,198,249253,1,8,0:1:0:0:
497,53,249420,2,0,P|487:94|501:160,1,104.500003189087,2|8,0:0|0:1,0:0:0:0:
420,198,249753,2,0,P|430:239|416:305,1,104.500003189087,10|0,0:0|0:0,0:0:0:0:
326,369,250087,6,8,P|332:308|207:286,1,209.000006378174,10|8,0:1|0:0,0:0:0:0:
35,365,250587,2,0,B|61:347|61:304|61:304|0:264|1:180,1,209.000006378174,2|8,0:0|0:1,0:0:0:0:
150,70,251087,2,0,B|139:51|139:51|66:-1,1,104.500003189087,10|0,0:0|0:0,0:0:0:0:
276,0,251420,6,0,B|265:53|265:53|277:110,1,104.500003189087,14|8,0:1|0:0,0:0:0:0:
275,102,251670,1,8,0:0:0:0:
275,102,251753,1,8,0:0:0:0:
465,58,251920,2,0,B|507:73|507:73|531:116|531:116|531:195|475:223,1,209.000006378174,14|8,0:1|0:0,0:0:0:0:
321,191,252420,5,8,0:0:0:0:
402,266,252587,1,8,0:0:0:0:
211,378,252753,1,4,0:0:0:0:
256,192,252837,12,0,259920,0:0:0:0:
