osu file format v14

[General]
AudioFilename: audio.mp3
AudioLeadIn: 0
PreviewTime: 261148
Countdown: 0
SampleSet: Soft
StackLeniency: 0.6
Mode: 0
LetterboxInBreaks: 0
EpilepsyWarning: 1
WidescreenStoryboard: 1

[Editor]
Bookmarks: 62964,79908,90574,101241,111907,122575,127908,133241,143908,154575,165231,175908,197241,207908,229241,250575,261241,271908,283908,294575,299908,305241,315908,337241,369241,379908,390575,411908,422575,433241,445241,455908,478564
DistanceSpacing: 0.9
BeatDivisor: 4
GridSize: 4
TimelineZoom: 1.8

[Metadata]
Title:Tregedy / Alucard
TitleUnicode:Tregedy / Alucard
Artist:Eternal Melody
ArtistUnicode:Eternal Melody
Creator:Plaudible
Version:The Blasphemy of Betrayal
Source:
Tags:黒崎朔夜 Tragedy sakuya kurosaki japanese rock C90 ALUCARD Comiket 90 Marathon 葵
BeatmapID:2773548
BeatmapSetID:1333252

[Difficulty]
HPDrainRate:6
CircleSize:4
OverallDifficulty:8.5
ApproachRate:9.2
SliderMultiplier:1.4
SliderTickRate:1

[Events]
//Background and Video events
0,0,"bg.jpg",0,0
//Break Periods
//Storyboard Layer 0 (Background)
//Storyboard Layer 1 (Fail)
//Storyboard Layer 2 (Pass)
//Storyboard Layer 3 (Foreground)
//Storyboard Layer 4 (Overlay)
//Storyboard Sound Samples

[TimingPoints]
58,413.793103448276,4,2,50,50,1,0
62954,-133.333333333333,4,2,50,50,0,0
79898,333.333333333333,4,2,50,90,1,0
79898,-80,4,2,50,90,0,0
90564,-76.9230769230769,4,2,50,90,0,0
108064,-100,4,2,50,90,0,0
109231,-76.9230769230769,4,2,50,90,0,0
111897,-133.333333333333,4,2,50,90,0,0
112231,-133.333333333333,4,2,50,60,0,0
122565,-76.9230769230769,4,2,50,90,0,0
143898,-76.9230769230769,4,2,50,75,0,0
154564,-100,4,2,50,60,0,0
165231,-80,4,2,50,80,0,0
175898,-80,4,2,50,90,0,0
197231,-80,4,2,50,75,0,0
207898,-76.9230769230769,4,2,50,90,0,0
229231,-80,4,2,50,90,0,0
250564,-80,4,2,50,75,0,0
260564,-76.9230769230769,4,2,50,85,0,0
261231,-57.1428571428571,4,2,50,100,0,1
267064,-66.6666666666667,4,2,50,100,0,1
271898,-57.1428571428571,4,2,50,100,0,1
277231,-66.6666666666667,4,2,50,100,0,1
283897,-100,4,2,50,90,0,0
293564,-76.9230769230769,4,2,50,90,0,0
294564,-76.9230769230769,4,2,50,75,0,0
314564,-76.9230769230769,4,2,50,85,0,0
315898,-200,4,2,50,90,0,0
316148,-133.333333333333,4,2,50,90,0,0
316398,-80,4,2,50,90,0,0
316648,-57.1428571428571,4,2,50,90,0,0
317231,-66.6666666666667,4,2,50,90,0,0
318564,-200,4,2,50,90,0,0
318814,-133.333333333333,4,2,50,90,0,0
319064,-80,4,2,50,90,0,0
319314,-57.1428571428571,4,2,50,90,0,0
319897,-66.6666666666667,4,2,50,90,0,0
321231,-200,4,2,50,90,0,0
321481,-133.333333333333,4,2,50,90,0,0
321731,-80,4,2,50,90,0,0
321981,-57.1428571428571,4,2,50,90,0,0
322564,-66.6666666666667,4,2,50,90,0,0
323898,-200,4,2,50,90,0,0
324148,-133.333333333333,4,2,50,90,0,0
324398,-80,4,2,50,90,0,0
324648,-57.1428571428571,4,2,50,90,0,0
325231,-66.6666666666667,4,2,50,90,0,0
326564,-200,4,2,50,90,0,0
326814,-133.333333333333,4,2,50,90,0,0
327064,-80,4,2,50,90,0,0
327314,-57.1428571428571,4,2,50,90,0,0
327897,-66.6666666666667,4,2,50,90,0,0
329231,-200,4,2,50,90,0,0
329481,-133.333333333333,4,2,50,90,0,0
329731,-80,4,2,50,90,0,0
329981,-57.1428571428571,4,2,50,90,0,0
330564,-66.6666666666667,4,2,50,90,0,0
331898,-200,4,2,50,90,0,0
332148,-133.333333333333,4,2,50,90,0,0
332398,-80,4,2,50,90,0,0
332648,-57.1428571428571,4,2,50,90,0,0
333231,-66.6666666666667,4,2,50,90,0,0
334564,-200,4,2,50,90,0,0
334814,-133.333333333333,4,2,50,90,0,0
335064,-80,4,2,50,90,0,0
335314,-57.1428571428571,4,2,50,90,0,0
335897,-66.6666666666667,4,2,50,90,0,0
337231,-90.9090909090909,4,2,50,75,0,0
341231,-66.6666666666667,4,2,50,90,0,0
346231,-100,4,2,50,90,0,0
346564,-80,4,2,50,90,0,0
346898,-66.6666666666667,4,2,50,90,0,0
347897,-66.6666666666667,4,2,50,100,0,1
369231,-66.6666666666667,4,2,50,90,0,0
369564,-100,4,2,50,85,0,1
370564,-66.6666666666667,4,2,50,90,0,0
370897,-100,4,2,50,85,0,1
371897,-66.6666666666667,4,2,50,90,0,0
372231,-100,4,2,50,85,0,1
373231,-66.6666666666667,4,2,50,85,0,1
374564,-66.6666666666667,4,2,50,90,0,0
374897,-100,4,2,50,85,0,1
375897,-66.6666666666667,4,2,50,90,0,0
376231,-100,4,2,50,85,0,1
377231,-66.6666666666667,4,2,50,90,0,0
377564,-66.6666666666667,4,2,50,85,0,1
379231,-66.6666666666667,4,2,50,85,0,1
379897,-76.9230769230769,4,2,50,85,0,0
390564,-80,4,2,50,90,0,0
411898,-80,4,2,50,85,0,0
421898,-80,4,2,50,85,0,0
422564,-57.1428571428571,4,2,50,100,0,1
428397,-66.6666666666667,4,2,50,100,0,1
433231,-57.1428571428571,4,2,50,100,0,1
438564,-66.6666666666667,4,2,50,100,0,1
445231,-100,4,2,50,90,0,0
457064,-400,4,2,50,75,0,0
458398,-400,4,2,50,50,0,0
467731,-400,4,2,50,35,0,0
478398,-400,4,2,50,5,0,0

[Colours]
Combo1 : 74,134,255
Combo2 : 255,128,128
Combo3 : 241,189,67
Combo4 : 106,207,255

[HitObjects]
6,196,62954,5,2,0:3:0:0:
4,180,63161,1,0,0:0:0:0:
87,183,63368,1,0,0:0:0:0:
85,167,63575,1,0,0:0:0:0:
168,170,63782,1,0,0:0:0:0:
166,154,63989,1,0,0:0:0:0:
234,290,64195,5,2,0:3:0:0:
236,274,64402,1,0,0:0:0:0:
321,250,64609,5,0,0:0:0:0:
309,338,64816,1,0,0:0:0:0:
333,167,65023,5,0,0:0:0:0:
459,265,65230,1,0,0:0:0:0:
268,114,65437,5,2,0:3:0:0:
350,80,65644,1,0,0:0:0:0:
183,144,65851,5,0,0:0:0:0:
185,128,66058,1,0,0:0:0:0:
259,269,66264,5,2,0:3:0:0:
257,253,66471,1,0,0:0:0:0:
174,248,66678,1,0,0:0:0:0:
172,232,66885,1,0,0:0:0:0:
92,231,67092,1,0,0:0:0:0:
90,215,67299,1,0,0:0:0:0:
138,105,67506,5,2,0:3:0:0:
140,89,67713,1,0,0:0:0:0:
227,136,67920,5,0,0:0:0:0:
215,51,68127,1,0,0:0:0:0:
324,17,68333,5,0,0:0:0:0:
303,175,68540,1,0,0:0:0:0:
407,48,68747,5,2,0:3:0:0:
419,133,68954,1,0,0:0:0:0:
488,85,69161,5,0,0:0:0:0:
495,99,69368,1,0,0:0:0:0:
405,231,69575,5,2,0:3:0:0:
407,215,69782,1,0,0:0:0:0:
327,222,69989,1,0,0:0:0:0:
329,206,70196,1,0,0:0:0:0:
249,213,70402,1,0,0:0:0:0:
251,197,70609,1,0,0:0:0:0:
151,91,70816,5,2,0:3:0:0:
153,107,71023,1,0,0:0:0:0:
232,152,71230,5,0,0:0:0:0:
265,73,71437,1,0,0:0:0:0:
407,127,71644,5,0,0:0:0:0:
281,225,71851,1,0,0:0:0:0:
405,293,72058,5,2,0:3:0:0:
321,304,72265,1,0,0:0:0:0:
260,366,72471,5,0,0:0:0:0:
250,353,72678,1,0,0:0:0:0:
168,233,72885,5,2,0:3:0:0:
166,249,73092,1,0,0:0:0:0:
88,222,73299,1,0,0:0:0:0:
86,238,73506,1,0,0:0:0:0:
8,210,73713,1,0,0:0:0:0:
6,226,73920,1,0,0:0:0:0:
187,142,74126,5,2,0:3:0:0:
185,126,74333,1,0,0:0:0:0:
258,78,74540,5,0,0:0:0:0:
271,163,74747,1,0,0:0:0:0:
356,193,74954,5,0,0:0:0:0:
335,35,75161,1,0,0:0:0:0:
417,55,75368,5,2,0:3:0:0:
430,140,75575,1,0,0:0:0:0:
498,79,75782,5,0,0:0:0:0:
500,95,75989,1,0,0:0:0:0:
344,131,76195,5,2,0:3:0:0:
346,115,76402,1,0,0:0:0:0:
421,184,76609,1,0,0:0:0:0:
436,180,76816,1,0,0:0:0:0:
382,262,77023,1,0,0:0:0:0:
390,275,77230,1,0,0:0:0:0:
295,260,77437,5,2,0:3:0:0:
285,271,77644,1,0,0:0:0:0:
244,129,77851,5,0,0:0:0:0:
226,212,78058,1,0,0:0:0:0:
140,205,78264,5,0,0:0:0:0:
93,53,78471,1,0,0:0:0:0:
71,257,78678,5,2,0:3:0:0:
9,200,78885,1,0,0:0:0:0:
62,337,79092,5,0,0:0:0:0:
46,333,79299,1,0,0:0:0:0:
426,99,79898,5,6,0:0:0:0:
305,317,80064,2,0,B|293:273|293:273|315:217,1,87.5,6|0,0:0|0:0,0:0:0:0:
183,77,80398,2,0,L|237:150,1,87.5,6|0,0:0|0:0,0:0:0:0:
395,224,80731,2,0,L|304:234,1,87.5,6|0,0:0|0:0,0:0:0:0:
167,323,81064,2,0,L|203:239,1,87.5,6|0,0:0|0:0,0:0:0:0:
95,148,81397,5,0,0:0:0:0:
172,164,81563,1,2,0:3:0:0:
120,223,81730,1,0,0:0:0:0:
199,77,81897,5,2,0:3:0:0:
25,104,82063,1,0,0:0:0:0:
229,254,82230,1,2,0:3:0:0:
52,282,82397,1,0,0:0:0:0:
199,77,82563,5,6,0:0:0:0:
368,285,82731,2,0,B|373:248|373:248|377:242|377:242|383:199,1,87.5,6|0,0:0|0:0,0:0:0:0:
199,77,83064,2,0,B|153:70|153:70|100:99,1,87.5,6|0,0:0|0:0,0:0:0:0:
384,200,83398,2,0,B|412:164|412:164|413:104,1,87.5,6|0,0:0|0:0,0:0:0:0:
182,300,83731,2,0,B|198:342|198:342|250:373,1,87.5,6|0,0:0|0:0,0:0:0:0:
478,219,84064,5,2,0:3:0:0:
442,359,84231,1,8,0:3:0:0:
362,220,84398,5,10,0:3:0:0:
357,341,84564,1,8,0:3:0:0:
259,250,84731,5,10,0:3:0:0:
270,327,84898,1,8,0:3:0:0:
197,299,85064,1,10,0:3:0:0:
478,219,85230,5,4,0:0:0:0:
255,167,85398,2,0,B|243:211|243:211|265:267,1,87.5,6|0,0:0|0:0,0:0:0:0:
430,112,85731,2,0,B|393:105|393:105|387:101|387:101|344:94,1,87.5,6|0,0:0|0:0,0:0:0:0:
414,323,86064,2,0,B|450:316|450:316|456:312|456:312|499:305,1,87.5,6|0,0:0|0:0,0:0:0:0:
255,167,86398,2,0,B|218:160|218:160|212:156|212:156|169:149,1,87.5,6|0,0:0|0:0,0:0:0:0:
90,79,86730,6,0,P|83:52|83:33,1,43.75,2|0,0:3|0:0,0:0:0:0:
169,149,86898,2,0,P|166:181|159:198,3,43.75,0|0|2|0,0:0|0:0|0:3|0:0,0:0:0:0:
182,287,87231,2,0,P|152:300|134:302,3,43.75,0|0|2|0,0:0|0:0|0:3|0:0,0:0:0:0:
56,350,87564,2,0,P|29:331|18:316,3,43.75,0|0|2|0,0:0|0:0|0:3|0:0,0:0:0:0:
2,241,87896,5,6,0:0:0:0:
258,377,88064,2,0,B|265:340|265:340|269:334|269:334|276:291,1,87.5,6|0,0:0|0:0,0:0:0:0:
203,140,88397,2,0,B|191:184|191:184|213:240,1,87.5,6|0,0:0|0:0,0:0:0:0:
477,142,88731,2,0,B|444:109|444:109|403:103,1,87.5,6|0,0:0|0:0,0:0:0:0:
360,371,89064,2,0,B|404:359|404:359|430:326,1,87.5,6|0,0:0|0:0,0:0:0:0:
290,122,89396,5,2,0:3:0:0:
264,292,89563,1,0,0:0:0:0:
373,138,89730,5,2,0:3:0:0:
394,254,89897,1,0,0:0:0:0:
448,91,90063,5,2,0:0:0:0:
498,174,90230,1,2,0:0:0:0:
499,169,90313,1,2,0:0:0:0:
499,163,90396,1,2,0:0:0:0:
500,158,90480,1,2,0:0:0:0:
501,153,90564,6,0,B|504:202|504:202|474:259,1,90.9999958343508,6|0,0:0|0:0,0:0:0:0:
503,349,90897,2,0,B|461:376|461:376|397:379,1,90.9999958343508,8|0,0:0|0:0,0:0:0:0:
307,320,91231,1,2,0:0:0:0:
387,234,91397,1,0,0:0:0:0:
307,320,91564,2,0,B|269:314|269:314|263:310|263:310|216:305,1,90.9999958343508,8|0,0:0|0:0,0:0:0:0:
143,206,91897,6,0,B|105:211|105:211|99:215|99:215|50:220,2,90.9999958343508,2|0|8,0:0|0:0|0:0,0:0:0:0:
260,182,92396,1,0,0:0:0:0:
307,320,92563,1,2,0:0:0:0:
377,161,92731,1,2,0:3:0:0:
169,291,92896,1,8,0:0:0:0:
158,118,93064,1,2,0:3:0:0:
307,320,93231,6,0,B|357:326|357:326|402:301,1,90.9999958343508,2|0,0:0|0:0,0:0:0:0:
512,241,93564,2,0,B|461:247|461:247|416:222,1,90.9999958343508,8|0,0:0|0:0,0:0:0:0:
345,171,93897,1,2,0:0:0:0:
442,106,94064,1,0,0:0:0:0:
255,30,94231,2,0,B|261:78|261:78|265:84|265:84|270:127,1,90.9999958343508,8|0,0:0|0:0,0:0:0:0:
99,179,94564,6,0,B|137:149|137:149|140:143|140:143|175:117,1,90.9999958343508,2|0,0:0|0:0,0:0:0:0:
305,244,94897,2,0,B|260:225|260:225|253:225|253:225|213:208,1,90.9999958343508,8|0,0:0|0:0,0:0:0:0:
22,134,95230,1,2,0:0:0:0:
70,300,95396,1,2,0:0:0:0:
119,134,95564,1,8,0:0:0:0:
117,147,95646,1,2,0:0:0:0:
157,254,95813,1,2,0:0:0:0:
154,243,95897,6,0,B|205:241|205:241|244:270,1,90.9999958343508,2|0,0:0|0:0,0:0:0:0:
353,100,96231,2,0,B|380:143|380:143|373:194,1,90.9999958343508,8|0,0:0|0:0,0:0:0:0:
355,292,96564,1,2,0:0:0:0:
273,164,96731,1,0,0:0:0:0:
355,292,96897,2,0,B|348:339|348:339|344:345|344:345|338:388,1,90.9999958343508,8|0,0:0|0:0,0:0:0:0:
162,254,97231,6,0,B|155:206|155:206|151:200|151:200|145:157,2,90.9999958343508,2|0|8,0:0|0:0|0:0,0:0:0:0:
183,364,97730,1,0,0:0:0:0:
52,308,97896,1,2,0:0:0:0:
292,243,98063,1,2,0:3:0:0:
54,154,98230,1,8,0:0:0:0:
144,277,98396,1,2,0:3:0:0:
208,116,98564,6,0,B|200:71|200:71|202:66|202:66|194:23,1,90.9999958343508,2|0,0:0|0:0,0:0:0:0:
310,40,98897,2,0,B|306:88|306:88|323:128,1,90.9999958343508,8|0,0:0|0:0,0:0:0:0:
107,155,99231,2,0,B|111:107|111:107|94:67,1,90.9999958343508,2|0,0:0|0:0,0:0:0:0:
307,232,99564,1,8,0:0:0:0:
158,255,99731,1,0,0:0:0:0:
208,116,99897,6,0,B|253:124|253:124|258:122|258:122|301:130,1,90.9999958343508,2|0,0:0|0:0,0:0:0:0:
373,299,100231,2,0,B|418:291|418:291|423:293|423:293|466:285,1,90.9999958343508,8|0,0:0|0:0,0:0:0:0:
506,152,100563,1,2,0:0:0:0:
362,196,100730,1,0,0:0:0:0:
462,285,100897,1,8,0:0:0:0:
464,272,100981,1,2,0:0:0:0:
413,104,101147,1,2,0:0:0:0:
411,116,101231,6,0,B|433:76|433:76|421:15,1,90.9999958343508,6|0,0:0|0:0,0:0:0:0:
251,167,101564,2,0,B|229:207|229:207|241:268,1,90.9999958343508,8|0,0:0|0:0,0:0:0:0:
306,64,101897,1,2,0:0:0:0:
164,117,102064,1,0,0:0:0:0:
347,223,102231,2,0,B|392:215|392:215|397:217|397:217|440:209,1,90.9999958343508,8|0,0:0|0:0,0:0:0:0:
306,64,102564,6,0,B|261:56|261:56|256:58|256:58|213:50,2,90.9999958343508,2|0|8,0:0|0:0|0:0,0:0:0:0:
414,122,103064,1,0,0:0:0:0:
205,149,103231,1,2,0:0:0:0:
394,256,103397,1,2,0:3:0:0:
306,64,103564,1,8,0:0:0:0:
262,269,103731,1,2,0:3:0:0:
414,122,103897,6,0,B|454:100|454:100|515:112,1,90.9999958343508,2|0,0:0|0:0,0:0:0:0:
320,196,104231,2,0,B|280:174|280:174|235:182,1,90.9999958343508,8|0,0:0|0:0,0:0:0:0:
399,361,104563,1,2,0:0:0:0:
262,269,104730,1,0,0:0:0:0:
474,196,104897,2,0,B|466:240|466:240|468:245|468:245|460:288,1,90.9999958343508,8|0,0:0|0:0,0:0:0:0:
275,358,105231,6,0,B|267:313|267:313|269:308|269:308|261:265,1,90.9999958343508,2|0,0:0|0:0,0:0:0:0:
393,126,105564,2,0,B|385:170|385:170|387:175|387:175|379:218,1,90.9999958343508,8|0,0:0|0:0,0:0:0:0:
154,176,105897,1,2,0:0:0:0:
293,126,106064,1,0,0:0:0:0:
133,68,106231,1,8,0:0:0:0:
131,81,106314,1,2,0:0:0:0:
304,230,106481,1,2,0:0:0:0:
302,217,106564,5,2,0:0:0:0:
367,72,106731,1,2,0:3:0:0:
293,126,106896,1,8,0:0:0:0:
450,109,107064,1,2,0:3:0:0:
385,255,107230,5,2,0:0:0:0:
293,126,107397,1,2,0:3:0:0:
311,308,107563,5,8,0:0:0:0:
367,72,107731,1,2,0:3:0:0:
468,293,107896,1,2,0:0:0:0:
416,221,108064,2,0,B|378:215|378:215|348:227,2,70,0|8|0,0:0|0:0|0:0,0:0:0:0:
310,346,108564,2,0,B|272:352|272:352|242:340,1,70,2|0,0:0|0:0,0:0:0:0:
181,168,108897,2,0,B|143:161|143:161|113:173,1,70,8|0,0:0|0:0,0:0:0:0:
30,283,109231,5,6,0:0:0:0:
257,215,109397,2,0,B|249:259|249:259|251:264|251:264|243:307,1,90.9999958343508,6|0,0:0|0:0,0:0:0:0:
337,253,109730,5,6,0:0:0:0:
81,96,109897,2,0,B|89:140|89:140|87:145|87:145|95:188,1,90.9999958343508,6|0,0:0|0:0,0:0:0:0:
0,150,110231,5,6,0:0:0:0:
306,40,110397,2,0,B|298:84|298:84|300:89|300:89|292:132,1,90.9999958343508,6|0,0:0|0:0,0:0:0:0:
349,325,110731,1,8,0:3:0:0:
370,335,110814,1,0,0:0:0:0:
396,341,110897,1,0,0:0:0:0:
423,343,110981,1,0,0:0:0:0:
449,339,111064,1,8,0:3:0:0:
474,330,111147,1,0,0:0:0:0:
492,315,111231,5,0,0:0:0:0:
463,273,111314,1,0,0:0:0:0:
418,251,111397,1,2,0:0:0:0:
367,254,111481,1,0,0:0:0:0:
325,281,111564,1,8,0:0:0:0:
283,308,111647,1,2,0:0:0:0:
234,320,111731,1,2,0:3:0:0:
186,306,111814,1,2,0:0:0:0:
153,266,111897,6,0,P|150:233|161:201,3,52.5000020027161,4|0|0|0,0:0|0:0|0:0|0:0,0:0:0:0:
97,152,112564,2,0,P|124:132|157:126,3,52.5000020027161,2|0|0|0,0:3|0:0|0:0|0:0,0:0:0:0:
162,45,113231,2,0,P|192:58|214:84,3,52.5000020027161,2|0|0|0,0:3|0:0|0:0|0:0,0:0:0:0:
288,53,113897,2,0,P|291:85|280:118,3,52.5000020027161,2|0|0|0,0:3|0:0|0:0|0:0,0:0:0:0:
222,213,114564,6,0,P|249:232|282:238,3,52.5000020027161,2|0|0|0,0:3|0:0|0:0|0:0,0:0:0:0:
292,318,115231,2,0,P|322:304|344:278,3,52.5000020027161,2|0|0|0,0:3|0:0|0:0|0:0,0:0:0:0:
417,315,115897,2,0,P|420:282|409:250,3,52.5000020027161,2|0|0|0,0:3|0:0|0:0|0:0,0:0:0:0:
473,202,116564,2,0,P|445:182|412:176,3,52.5000020027161,2|0|0|0,0:3|0:0|0:0|0:0,0:0:0:0:
354,89,117231,6,0,L|347:143,3,52.5000020027161,2|0|0|0,0:3|0:0|0:0|0:0,0:0:0:0:
270,76,117897,2,0,L|263:130,3,52.5000020027161,2|0|0|0,0:3|0:0|0:0|0:0,0:0:0:0:
191,250,118564,2,0,L|184:196,3,52.5000020027161,2|0|0|0,0:3|0:0|0:0|0:0,0:0:0:0:
107,263,119231,2,0,L|100:209,3,52.5000020027161,2|0|0|0,0:3|0:0|0:0|0:0,0:0:0:0:
21,142,119897,6,0,P|13:116|15:88,3,52.5000020027161,2|0|0|0,0:3|0:0|0:0|0:0,0:0:0:0:
184,197,120564,2,0,P|185:223|177:248,3,52.5000020027161,2|0|0|0,0:3|0:0|0:0|0:0,0:0:0:0:
26,299,121231,2,0,P|18:273|20:245,3,52.5000020027161,2|0|0|0,0:3|0:0|0:0|0:0,0:0:0:0:
135,331,121897,2,0,P|136:357|128:382,3,52.5000020027161,2|0|0|0,0:3|0:0|0:0|0:0,0:0:0:0:
58,244,122564,5,6,0:0:0:0:
58,244,122731,1,2,0:0:0:0:
184,185,122897,1,0,0:0:0:0:
174,185,122981,1,0,0:0:0:0:
164,187,123064,2,0,L|155:236,1,45.4999979171754,2|0,0:3|0:0,0:0:0:0:
250,364,123231,1,0,0:0:0:0:
260,364,123314,1,0,0:0:0:0:
270,362,123397,2,0,L|278:312,1,45.4999979171754,2|0,0:3|0:0,0:0:0:0:
408,249,123564,1,0,0:0:0:0:
398,249,123647,1,0,0:0:0:0:
388,251,123731,2,0,L|379:300,1,45.4999979171754,2|0,0:3|0:0,0:0:0:0:
332,170,123897,5,2,0:0:0:0:
332,170,124064,1,2,0:0:0:0:
236,255,124231,1,0,0:0:0:0:
229,261,124314,1,0,0:0:0:0:
222,266,124397,2,0,B|198:271|198:271|173:261,1,45.4999979171754,2|0,0:3|0:0,0:0:0:0:
149,158,124564,1,0,0:0:0:0:
140,154,124647,1,0,0:0:0:0:
132,151,124731,2,0,B|115:132|115:132|111:106,1,45.4999979171754,2|0,0:3|0:0,0:0:0:0:
196,59,124897,1,0,0:0:0:0:
194,49,124981,1,0,0:0:0:0:
193,40,125065,2,0,B|200:16|200:16|221:0,1,45.4999979171754,2|0,0:3|0:3,0:0:0:0:
355,159,125231,5,2,0:0:0:0:
355,159,125397,1,2,0:0:0:0:
260,255,125564,1,0,0:0:0:0:
255,263,125647,1,0,0:0:0:0:
249,271,125731,2,0,P|237:233|238:220,1,45.4999979171754,2|0,0:3|0:0,0:0:0:0:
355,159,125897,1,0,0:0:0:0:
364,160,125981,1,0,0:0:0:0:
374,161,126065,2,0,P|347:190|335:196,1,45.4999979171754,2|0,0:3|0:0,0:0:0:0:
227,135,126231,1,0,0:0:0:0:
223,127,126314,1,0,0:0:0:0:
219,118,126397,2,0,P|257:126|268:133,1,45.4999979171754,2|0,0:3|0:0,0:0:0:0:
188,345,126564,5,2,0:0:0:0:
188,345,126731,1,2,0:0:0:0:
80,243,126897,1,0,0:0:0:0:
78,251,126981,1,0,0:0:0:0:
76,260,127064,2,0,L|60:193,1,45.4999979171754,2|0,0:3|0:0,0:0:0:0:
212,162,127231,1,0,0:0:0:0:
214,170,127314,1,0,0:0:0:0:
216,179,127397,2,0,L|232:112,1,45.4999979171754,2|0,0:3|0:0,0:0:0:0:
47,93,127564,1,0,0:0:0:0:
45,101,127647,1,0,0:0:0:0:
43,110,127731,2,0,L|27:43,1,45.4999979171754,2|0,0:3|0:0,0:0:0:0:
247,266,127897,5,6,0:0:0:0:
251,270,128064,1,2,0:0:0:0:
324,139,128231,1,0,0:0:0:0:
330,132,128315,1,0,0:0:0:0:
337,127,128398,2,0,B|356:126|356:126|380:135,1,45.4999979171754,2|0,0:3|0:0,0:0:0:0:
470,251,128565,1,0,0:0:0:0:
464,258,128648,1,0,0:0:0:0:
456,263,128731,2,0,B|432:272|432:272|412:271,1,45.4999979171754,2|0,0:3|0:0,0:0:0:0:
456,92,128898,1,0,0:0:0:0:
462,85,128981,1,0,0:0:0:0:
469,80,129065,2,0,B|488:79|488:79|512:88,1,45.4999979171754,2|0,0:3|0:0,0:0:0:0:
277,281,129232,5,2,0:0:0:0:
277,281,129397,1,2,0:0:0:0:
88,332,129564,1,0,0:0:0:0:
78,328,129647,1,0,0:0:0:0:
69,323,129731,2,0,L|78:273,1,45.4999979171754,2|0,0:3|0:0,0:0:0:0:
159,157,129897,1,0,0:0:0:0:
148,160,129981,1,0,0:0:0:0:
139,164,130064,2,0,L|145:214,1,45.4999979171754,2|0,0:3|0:0,0:0:0:0:
186,356,130231,1,0,0:0:0:0:
176,352,130314,1,0,0:0:0:0:
167,347,130397,2,0,L|176:297,1,45.4999979171754,2|0,0:3|0:0,0:0:0:0:
370,208,130564,5,2,0:0:0:0:
370,208,130731,1,2,0:0:0:0:
258,177,130897,1,0,0:0:0:0:
251,183,130981,1,0,0:0:0:0:
244,189,131064,2,0,B|236:213|236:213|243:238,1,45.4999979171754,2|0,0:3|0:0,0:0:0:0:
359,99,131231,1,0,0:0:0:0:
353,92,131314,1,0,0:0:0:0:
347,85,131397,2,0,B|322:77|322:77|297:84,1,45.4999979171754,2|0,0:3|0:0,0:0:0:0:
448,198,131564,1,0,0:0:0:0:
455,192,131647,1,0,0:0:0:0:
462,186,131731,2,0,B|469:161|469:161|462:136,1,45.4999979171754,2|0,0:3|0:0,0:0:0:0:
160,110,131897,6,0,L|201:153,2,45.4999979171754,2|0|2,0:0|0:0|0:3,0:0:0:0:
378,171,132147,2,0,L|320:185,2,45.4999979171754,2|0|0,0:0|0:0|0:0,0:0:0:0:
217,318,132397,2,0,L|233:260,3,45.4999979171754,2|0|0|0,0:0|0:0|0:0|0:0,0:0:0:0:
250,194,132731,2,0,L|199:201,1,45.4999979171754,2|0,0:0|0:0,0:0:0:0:
435,318,132897,1,8,0:0:0:0:
437,304,132981,1,2,0:0:0:0:
439,290,133064,1,8,0:0:0:0:
441,276,133147,1,2,0:0:0:0:
443,265,133231,5,6,0:0:0:0:
291,151,133397,1,2,0:3:0:0:
310,282,133564,1,8,0:0:0:0:
424,133,133731,1,2,0:3:0:0:
280,142,133897,5,2,0:0:0:0:
453,273,134064,1,2,0:3:0:0:
432,122,134231,1,8,0:0:0:0:
301,293,134397,1,2,0:3:0:0:
168,133,134564,5,2,0:0:0:0:
362,59,134731,1,2,0:3:0:0:
211,245,134897,1,8,0:0:0:0:
243,39,135064,1,2,0:3:0:0:
345,281,135231,5,2,0:0:0:0:
151,124,135397,1,2,0:3:0:0:
436,169,135564,1,8,0:0:0:0:
202,258,135731,1,2,0:3:0:0:
362,59,135897,5,2,0:0:0:0:
328,312,136064,1,2,0:3:0:0:
353,135,136231,1,8,0:0:0:0:
505,236,136397,1,2,0:3:0:0:
238,315,136564,5,2,0:0:0:0:
211,106,136731,1,2,0:3:0:0:
229,242,136897,1,8,0:0:0:0:
345,157,137064,1,2,0:3:0:0:
124,137,137231,5,2,0:0:0:0:
107,300,137397,1,2,0:3:0:0:
120,175,137564,1,8,0:0:0:0:
229,241,137731,1,2,0:3:0:0:
371,79,137897,5,2,0:0:0:0:
216,119,138064,1,2,0:0:0:0:
311,174,138231,1,8,0:0:0:0:
313,162,138314,1,2,0:0:0:0:
273,25,138481,1,2,0:0:0:0:
275,36,138564,5,6,0:0:0:0:
148,76,138732,1,2,0:3:0:0:
184,202,138897,1,8,0:0:0:0:
313,162,139064,1,2,0:3:0:0:
425,329,139231,5,2,0:0:0:0:
452,192,139397,1,2,0:3:0:0:
313,162,139564,1,8,0:0:0:0:
285,300,139731,1,2,0:3:0:0:
483,270,139897,5,2,0:0:0:0:
389,129,140064,1,2,0:3:0:0:
226,174,140231,1,8,0:0:0:0:
218,343,140397,1,2,0:3:0:0:
233,92,140564,5,2,0:0:0:0:
78,289,140731,1,2,0:3:0:0:
85,135,140897,1,8,0:0:0:0:
218,343,141064,1,2,0:3:0:0:
321,217,141231,5,2,0:0:0:0:
296,366,141397,1,2,0:3:0:0:
440,323,141564,1,8,0:0:0:0:
318,104,141731,5,2,0:3:0:0:
350,298,141897,1,2,0:0:0:0:
163,242,142064,1,2,0:3:0:0:
163,242,142231,1,8,0:0:0:0:
95,51,142397,5,2,0:3:0:0:
50,282,142564,1,2,0:0:0:0:
273,215,142731,1,2,0:3:0:0:
105,162,142897,1,8,0:0:0:0:
112,126,142981,1,8,0:3:0:0:
137,100,143064,1,2,0:3:0:0:
170,85,143147,1,8,0:3:0:0:
206,86,143231,2,0,L|213:135,1,45.4999979171754,2|0,0:0|0:0,0:0:0:0:
287,76,143397,2,0,L|294:125,1,45.4999979171754,2|0,0:0|0:0,0:0:0:0:
175,262,143564,1,8,0:0:0:0:
175,262,143647,2,0,L|181:216,1,45.4999979171754,2|0,0:0|0:0,0:0:0:0:
94,252,143814,1,2,0:0:0:0:
94,252,143897,6,0,P|89:202|113:152,1,90.9999958343508,6|2,0:0|0:3,0:0:0:0:
222,347,144231,1,8,0:0:0:0:
38,341,144397,1,2,0:3:0:0:
222,347,144564,2,0,P|181:373|125:373,1,90.9999958343508,2|2,0:0|0:3,0:0:0:0:
259,183,144897,1,8,0:0:0:0:
324,336,145064,1,2,0:3:0:0:
259,183,145231,6,0,P|302:199|332:252,1,90.9999958343508,2|2,0:0|0:3,0:0:0:0:
93,303,145565,2,0,L|102:207,1,90.9999958343508,8|2,0:0|0:3,0:0:0:0:
325,109,145898,1,2,0:0:0:0:
167,148,146065,1,2,0:3:0:0:
259,183,146232,1,8,0:0:0:0:
171,49,146397,1,2,0:3:0:0:
269,21,146564,6,0,P|293:66|293:116,1,90.9999958343508,2|2,0:0|0:3,0:0:0:0:
428,133,146897,1,8,0:0:0:0:
259,183,147064,1,2,0:3:0:0:
428,133,147231,2,0,P|401:177|358:202,1,90.9999958343508,2|2,0:0|0:3,0:0:0:0:
396,332,147564,1,8,0:0:0:0:
259,183,147731,1,2,0:3:0:0:
396,332,147897,6,0,P|344:330|301:305,1,90.9999958343508,2|2,0:0|0:3,0:0:0:0:
199,122,148231,2,2,P|147:123|104:148,1,90.9999958343508,10|2,0:2|0:2,0:2:0:0:
16,284,148564,1,2,0:0:0:0:
184,254,148731,1,0,0:3:0:0:
118,380,148897,1,8,0:0:0:0:
120,367,148981,1,2,0:0:0:0:
83,157,149147,1,2,0:0:0:0:
81,170,149231,6,0,P|129:176|172:159,1,90.9999958343508,6|2,0:0|0:3,0:0:0:0:
303,51,149565,1,8,0:0:0:0:
366,194,149732,1,2,0:3:0:0:
303,51,149897,2,0,P|275:86|266:130,1,90.9999958343508,2|2,0:0|0:3,0:0:0:0:
292,295,150231,1,8,0:0:0:0:
126,255,150397,1,2,0:3:0:0:
292,295,150564,6,0,P|275:253|241:223,1,90.9999958343508,2|2,0:0|0:3,0:0:0:0:
466,260,150897,2,0,P|438:295|429:339,1,90.9999958343508,8|2,0:0|0:3,0:0:0:0:
282,87,151231,1,2,0:0:0:0:
430,24,151397,1,2,0:3:0:0:
344,166,151564,1,8,0:0:0:0:
334,3,151731,1,2,0:3:0:0:
440,126,151897,6,0,P|391:141|342:133,1,90.9999958343508,2|2,0:0|0:3,0:0:0:0:
261,255,152231,1,8,0:0:0:0:
254,88,152397,1,2,0:3:0:0:
261,255,152564,2,0,P|223:220|205:173,1,90.9999958343508,2|2,0:0|0:3,0:0:0:0:
67,126,152897,1,8,0:0:0:0:
204,16,153064,1,2,0:3:0:0:
67,126,153231,6,8,P|77:76|109:37,1,90.9999958343508,2|10,0:0|0:3,0:3:0:0:
164,300,153564,1,8,0:0:0:0:
132,318,153647,1,8,0:3:0:0:
96,323,153731,1,2,0:3:0:0:
60,317,153814,1,8,0:3:0:0:
28,298,153897,2,0,L|79:285,1,45.4999979171754,2|0,0:0|0:0,0:0:0:0:
6,219,154064,2,0,L|57:206,1,45.4999979171754,2|0,0:0|0:0,0:0:0:0:
226,120,154231,1,8,0:0:0:0:
226,120,154314,2,0,L|182:109,1,45.4999979171754,2|0,0:0|0:0,0:0:0:0:
204,199,154481,1,2,0:0:0:0:
204,199,154564,6,0,P|166:196|119:175,1,70,6|8,0:0|0:3,0:0:0:0:
284,25,154897,2,0,B|321:21|349:41|349:41|344:42|344:42|365:66|421:62,1,140,2|2,0:0|0:0,0:0:0:0:
493,21,155397,1,8,0:3:0:0:
405,62,155564,1,2,0:0:0:0:
420,158,155731,6,0,P|420:196|407:235,1,70,10|2,0:3|0:0,0:0:0:0:
205,212,156064,2,0,P|205:250|218:289,1,70,10|2,0:3|0:0,0:0:0:0:
342,280,156397,2,0,P|342:318|329:357,1,70,10|2,0:3|0:0,0:0:0:0:
207,377,156731,2,0,B|173:372|173:372|171:370|171:370|137:365,2,70,10|2|10,0:3|0:0|0:3,0:0:0:0:
306,197,157231,5,2,0:0:0:0:
306,197,157398,1,8,0:3:0:0:
176,108,157564,2,0,P|214:108|253:121,1,70,2|8,0:0|0:3,0:0:0:0:
129,239,157898,1,2,0:0:0:0:
74,170,158064,2,0,P|74:132|87:93,1,70,10|2,0:3|0:0,0:0:0:0:
239,214,158398,6,0,P|239:252|226:291,1,70,10|2,0:3|0:0,0:0:0:0:
337,383,158731,2,0,P|337:345|324:306,1,70,10|2,0:3|0:0,0:0:0:0:
438,243,159064,2,0,P|438:281|425:320,1,70,10|2,0:3|0:0,0:0:0:0:
346,178,159398,1,2,0:0:0:0:
453,99,159564,1,8,0:0:0:0:
440,97,159647,1,2,0:0:0:0:
285,28,159815,1,2,0:0:0:0:
296,26,159898,6,0,B|304:61|292:105,1,70,6|8,0:0|0:3,0:0:0:0:
104,157,160231,2,0,B|116:124|156:113|156:113|192:136|193:173,1,140,2|2,0:0|0:0,0:0:0:0:
134,245,160731,1,8,0:3:0:0:
193,168,160898,1,2,0:0:0:0:
276,202,161064,6,0,P|318:207|347:196,1,70,10|2,0:3|0:0,0:0:0:0:
274,353,161398,2,0,P|257:314|233:294,1,70,10|2,0:3|0:0,0:0:0:0:
413,279,161731,2,0,P|387:312|382:343,1,70,10|2,0:3|0:0,0:0:0:0:
507,262,162064,2,0,B|502:227|502:227|500:225|500:225|495:191,2,70,10|2|10,0:3|0:0|0:3,0:0:0:0:
388,121,162564,5,2,0:0:0:0:
388,121,162731,1,8,0:3:0:0:
309,164,162898,2,0,B|274:170|274:170|239:155,1,70,2|8,0:0|0:3,0:0:0:0:
381,11,163231,1,2,0:0:0:0:
457,57,163398,2,0,B|479:84|479:84|484:122,1,70,10|2,0:3|0:0,0:0:0:0:
421,277,163731,6,0,L|408:206,1,70,10|2,0:3|0:0,0:0:0:0:
309,164,164064,1,2,0:3:0:0:
247,252,164231,1,2,0:0:0:0:
227,271,164314,1,8,0:3:0:0:
200,281,164398,1,2,0:3:0:0:
172,281,164481,1,8,0:3:0:0:
146,270,164564,2,0,L|151:233,1,35,2|0,0:0|0:0,0:0:0:0:
75,202,164731,2,0,L|80:165,1,35,2|0,0:0|0:0,0:0:0:0:
185,59,164898,1,8,0:0:0:0:
185,59,164981,2,0,L|190:96,1,35,2|0,0:0|0:0,0:0:0:0:
266,11,165148,1,2,0:0:0:0:
266,11,165231,5,6,0:0:0:0:
294,159,165398,1,2,0:3:0:0:
366,73,165564,2,0,B|411:62|411:62|446:82,1,87.5,8|2,0:0|0:3,0:0:0:0:
508,233,165898,1,2,0:0:0:0:
509,224,165981,1,0,0:0:0:0:
510,215,166064,1,2,0:3:0:0:
511,206,166148,1,0,0:0:0:0:
512,197,166231,2,0,B|467:186|467:186|428:208,1,87.5,8|0,0:0|0:0,0:0:0:0:
294,307,166564,6,0,B|382:326|382:326|385:323|385:323|471:340,1,175,2|8,0:0|0:0,0:0:0:0:
397,224,167064,1,2,0:3:0:0:
470,117,167231,1,2,0:0:0:0:
479,116,167314,1,0,0:0:0:0:
488,115,167397,1,2,0:3:0:0:
497,114,167481,1,0,0:0:0:0:
506,113,167564,2,0,B|517:158|517:158|495:197,1,87.5,8|2,0:0|0:3,0:0:0:0:
262,102,167898,5,2,0:0:0:0:
430,42,168064,1,2,0:3:0:0:
396,223,168231,2,0,B|353:219|353:219|350:216|350:216|298:211,1,87.5,8|2,0:0|0:3,0:0:0:0:
210,365,168564,1,2,0:0:0:0:
219,366,168647,1,0,0:0:0:0:
228,367,168730,1,2,0:3:0:0:
237,368,168814,1,0,0:0:0:0:
245,369,168898,2,0,B|241:329|241:329|238:326|238:326|234:283,1,87.5,8|2,0:0|0:3,0:0:0:0:
105,161,169231,6,0,B|145:173|180:150|180:150|175:149|175:149|215:121|263:139,1,175,2|8,0:0|0:0,0:0:0:0:
231,233,169731,1,2,0:3:0:0:
126,62,169898,1,2,0:0:0:0:
346,120,170064,1,2,0:3:0:0:
123,254,170231,1,8,0:0:0:0:
125,267,170314,1,2,0:0:0:0:
320,339,170481,1,2,0:0:0:0:
322,326,170564,5,6,0:0:0:0:
346,120,170731,1,2,0:3:0:0:
231,233,170898,2,0,B|234:272|234:272|237:275|237:275|241:318,1,87.5,8|2,0:0|0:3,0:0:0:0:
442,274,171231,1,2,0:0:0:0:
443,265,171314,1,0,0:0:0:0:
444,256,171397,1,2,0:3:0:0:
445,247,171481,1,0,0:0:0:0:
446,238,171564,2,0,B|401:227|401:227|362:249,1,87.5,8|2,0:0|0:3,0:0:0:0:
321,365,171898,6,0,B|251:372|251:372|220:349|220:349|146:354,1,175,2|8,0:0|0:0,0:0:0:0:
54,261,172398,1,2,0:3:0:0:
170,181,172564,1,2,0:0:0:0:
179,180,172647,1,0,0:0:0:0:
188,179,172730,1,2,0:3:0:0:
197,178,172814,1,0,0:0:0:0:
205,177,172898,2,0,B|213:220|213:220|193:260,1,87.5,8|2,0:0|0:3,0:0:0:0:
54,261,173231,5,2,0:0:0:0:
201,347,173398,1,2,0:3:0:0:
308,230,173564,2,0,B|314:190|314:190|312:186|312:186|319:144,1,87.5,8|2,0:0|0:3,0:0:0:0:
261,24,173898,1,2,0:0:0:0:
252,23,173981,1,0,0:0:0:0:
243,22,174064,1,2,0:3:0:0:
234,21,174148,1,0,0:0:0:0:
226,20,174231,2,0,B|218:63|218:63|238:103,1,87.5,8|0,0:0|0:0,0:0:0:0:
399,225,174564,6,0,B|440:210|440:210|464:173,1,87.5,2|2,0:0|0:3,0:0:0:0:
237,102,174898,1,8,0:0:0:0:
203,98,174981,1,8,0:3:0:0:
169,106,175065,1,2,0:3:0:0:
142,128,175148,1,8,0:3:0:0:
129,161,175231,2,0,L|125:208,1,43.75,2|0,0:0|0:0,0:0:0:0:
209,186,175398,2,0,L|205:233,1,43.75,2|0,0:0|0:0,0:0:0:0:
280,352,175564,1,8,0:0:0:0:
280,352,175648,2,0,L|276:305,1,43.75,2|0,0:0|0:0,0:0:0:0:
405,262,175814,1,2,0:0:0:0:
405,262,175898,6,0,P|389:195|343:268,1,175,6|8,0:0|0:0,0:0:0:0:
198,153,176398,2,0,P|213:86|259:159,1,175,2|2,0:3|0:3,0:0:0:0:
116,303,176898,1,8,0:0:0:0:
92,257,176981,1,2,0:3:0:0:
128,219,177064,1,2,0:3:0:0:
175,242,177148,1,2,0:3:0:0:
168,294,177231,6,0,P|167:343|187:391,1,87.5,2|2,0:0|0:3,0:0:0:0:
257,197,177564,1,8,0:0:0:0:
136,134,177731,2,0,P|110:92|103:40,1,87.5,2|2,0:3|0:0,0:0:0:0:
315,290,178064,6,0,P|293:289|273:282,1,43.75,2|0,0:3|0:0,0:0:0:0:
244,110,178231,2,0,P|273:89|295:83,1,43.75,8|0,0:0|0:0,0:0:0:0:
409,175,178398,2,0,L|366:182,1,43.75,2|0,0:3|0:0,0:0:0:0:
273,282,178564,6,0,B|230:290|192:264|192:264|198:262|198:262|158:237|110:245,1,175,2|8,0:0|0:0,0:0:0:0:
244,110,179064,2,0,B|286:101|324:127|324:127|318:129|318:129|358:154|406:146,1,175,2|2,0:3|0:3,0:0:0:0:
506,84,179564,1,8,0:0:0:0:
512,32,179647,1,2,0:3:0:0:
465,10,179730,1,2,0:3:0:0:
429,46,179814,1,2,0:3:0:0:
454,93,179897,6,0,P|475:134|469:190,1,87.5,2|2,0:0|0:3,0:0:0:0:
351,315,180231,2,0,P|330:276|330:233,1,87.5,8|2,0:0|0:3,0:0:0:0:
470,267,180564,2,0,L|420:256,1,43.75,2|0,0:0|0:0,0:0:0:0:
327,146,180731,2,0,L|284:154,1,43.75,2|0,0:0|0:0,0:0:0:0:
183,218,180898,1,8,0:0:0:0:
185,205,180981,1,2,0:0:0:0:
102,137,181148,1,2,0:0:0:0:
105,152,181231,6,0,P|91:202|86:325,1,175,6|8,0:0|0:0,0:0:0:0:
271,167,181731,2,0,P|271:254|251:339,1,175,2|2,0:3|0:3,0:0:0:0:
393,279,182231,1,8,0:0:0:0:
443,273,182314,1,2,0:3:0:0:
467,321,182397,1,2,0:3:0:0:
430,356,182481,1,2,0:3:0:0:
383,333,182564,6,0,P|369:289|373:239,1,87.5,2|2,0:0|0:3,0:0:0:0:
453,160,182898,1,8,0:0:0:0:
292,53,183064,2,0,P|305:94|332:128,1,87.5,2|2,0:3|0:0,0:0:0:0:
453,160,183398,2,0,P|433:139|413:127,1,43.75,2|0,0:3|0:0,0:0:0:0:
265,183,183564,2,0,P|257:210|256:233,1,43.75,8|0,0:0|0:0,0:0:0:0:
389,293,183731,2,0,L|376:251,1,43.75,2|0,0:3|0:0,0:0:0:0:
332,128,183898,6,0,B|296:95|295:49|295:49|279:93|228:107,1,175,2|8,0:0|0:0,0:0:0:0:
68,208,184398,2,0,B|103:240|104:286|104:286|121:243|172:229,1,175,2|2,0:3|0:3,0:0:0:0:
120,42,184898,1,8,0:0:0:0:
69,36,184981,1,2,0:3:0:0:
46,84,185064,1,2,0:3:0:0:
83,119,185148,1,2,0:3:0:0:
130,96,185231,6,0,P|144:52|140:2,1,87.5,2|2,0:0|0:3,0:0:0:0:
316,135,185564,2,0,P|271:143|229:173,1,87.5,8|2,0:0|0:3,0:0:0:0:
378,285,185898,2,0,L|385:241,1,43.75,2|0,0:0|0:0,0:0:0:0:
297,272,186064,2,0,L|304:228,1,43.75,2|0,0:0|0:0,0:0:0:0:
494,117,186231,1,8,0:0:0:0:
494,117,186314,2,0,L|501:160,1,43.75,2|0,0:0|0:0,0:0:0:0:
409,85,186481,1,2,0:0:0:0:
409,85,186564,6,0,B|381:10|270:92|376:166,1,175,6|8,0:0|0:0,0:0:0:0:
469,288,187064,2,0,B|441:363|330:281|436:207,1,175,2|2,0:3|0:3,0:0:0:0:
274,125,187564,1,8,0:0:0:0:
239,163,187647,1,2,0:3:0:0:
265,209,187730,1,2,0:3:0:0:
315,198,187814,1,2,0:3:0:0:
323,147,187898,6,0,P|279:133|230:145,1,87.5,2|2,0:0|0:3,0:0:0:0:
150,228,188231,1,8,0:0:0:0:
53,65,188398,2,0,P|96:81|127:120,1,87.5,2|2,0:3|0:0,0:0:0:0:
150,228,188731,6,0,L|136:282,1,43.75,2|0,0:3|0:0,0:0:0:0:
215,370,188898,2,0,P|213:348|207:327,1,43.75,8|0,0:0|0:0,0:0:0:0:
49,278,189064,2,0,P|30:289|15:306,1,43.75,2|0,0:3|0:0,0:0:0:0:
111,370,189231,6,0,P|169:352|285:339,1,175,2|8,0:0|0:0,0:0:0:0:
426,225,189731,2,0,P|365:222|251:194,1,175,2|2,0:3|0:3,0:0:0:0:
114,75,190231,1,8,0:0:0:0:
79,113,190314,1,2,0:3:0:0:
105,159,190397,1,2,0:3:0:0:
155,148,190481,1,2,0:3:0:0:
163,97,190564,6,0,P|153:61|157:12,1,87.5,2|2,0:0|0:3,0:0:0:0:
249,172,190898,2,0,P|259:208|255:257,1,87.5,8|2,0:0|0:3,0:0:0:0:
272,62,191231,2,0,L|317:68,1,43.75,2|0,0:0|0:0,0:0:0:0:
386,128,191398,2,0,L|431:122,1,43.75,2|0,0:0|0:0,0:0:0:0:
512,68,191564,1,8,0:0:0:0:
510,81,191647,1,2,0:0:0:0:
478,255,191814,1,2,0:0:0:0:
480,242,191898,6,0,P|419:215|333:284,1,175,6|8,0:0|0:0,0:0:0:0:
168,124,192398,2,0,P|228:97|314:166,1,175,2|2,0:3|0:3,0:0:0:0:
87,292,192898,1,8,0:0:0:0:
63,246,192981,1,2,0:3:0:0:
99,208,193064,1,2,0:3:0:0:
146,231,193148,1,2,0:3:0:0:
139,283,193231,6,0,P|138:332|158:380,1,87.5,2|2,0:0|0:3,0:0:0:0:
247,210,193564,1,8,0:0:0:0:
307,382,193731,2,0,P|333:347|346:306,1,87.5,2|2,0:3|0:0,0:0:0:0:
247,210,194064,2,0,P|284:229|305:229,1,43.75,2|0,0:3|0:0,0:0:0:0:
385,203,194231,2,0,P|407:167|408:146,1,43.75,8|0,0:0|0:0,0:0:0:0:
302,86,194398,2,0,L|313:133,1,43.75,2|0,0:3|0:0,0:0:0:0:
358,305,194564,6,0,B|401:313|439:287|439:287|433:285|433:285|473:260|521:268,1,175,2|8,0:0|0:0,0:0:0:0:
397,107,195064,2,0,B|354:99|316:125|316:125|322:127|322:127|282:152|234:144,1,175,2|2,0:3|0:3,0:0:0:0:
91,123,195564,1,8,0:0:0:0:
67,76,195647,1,2,0:3:0:0:
104,39,195730,1,2,0:3:0:0:
150,60,195814,1,2,0:3:0:0:
142,113,195897,6,0,P|136:158|161:209,1,87.5,2|2,0:0|0:3,0:0:0:0:
345,211,196231,1,8,0:0:0:0:
330,179,196314,1,0,0:0:0:0:
298,162,196398,1,2,0:3:0:0:
263,161,196481,1,0,0:0:0:0:
232,179,196564,2,0,L|242:232,1,43.75,2|0,0:0|0:0,0:0:0:0:
150,196,196731,2,0,L|160:249,1,43.75,2|0,0:0|0:0,0:0:0:0:
83,366,196898,1,8,0:0:0:0:
83,366,196981,2,0,L|93:312,1,43.75,2|0,0:0|0:0,0:0:0:0:
0,349,197148,1,2,0:0:0:0:
0,349,197231,6,0,P|-5:299|18:250,1,87.5,6|0,0:0|0:0,0:0:0:0:
144,111,197564,1,8,0:0:0:0:
222,260,197731,1,0,0:0:0:0:
144,111,197898,2,0,P|138:155|151:198,1,87.5,2|0,0:0|0:0,0:0:0:0:
215,344,198231,1,8,0:0:0:0:
294,195,198398,1,0,0:0:0:0:
215,344,198565,6,0,P|209:299|222:259,1,87.5,2|0,0:0|0:0,0:0:0:0:
285,111,198898,2,0,P|279:153|294:196,1,87.5,8|0,0:0|0:0,0:0:0:0:
460,300,199231,1,2,0:0:0:0:
378,142,199398,1,0,0:0:0:0:
351,317,199564,1,8,0:0:0:0:
475,191,199731,1,0,0:0:0:0:
285,111,199898,6,0,P|278:155|293:198,1,87.5,2|0,0:0|0:0,0:0:0:0:
456,80,200231,1,8,0:0:0:0:
392,244,200398,1,0,0:0:0:0:
456,80,200565,2,0,P|420:52|376:46,1,87.5,2|0,0:0|0:0,0:0:0:0:
392,244,200898,1,8,0:0:0:0:
283,110,201065,1,0,0:0:0:0:
392,244,201231,6,0,P|433:226|461:194,1,87.5,2|0,0:0|0:0,0:0:0:0:
283,110,201564,2,0,L|267:213,1,87.5,8|0,0:0|0:0,0:0:0:0:
180,309,201898,1,2,0:0:0:0:
153,189,202064,1,2,0:0:0:0:
264,345,202231,1,8,0:0:0:0:
266,332,202314,1,2,0:0:0:0:
124,376,202481,1,2,0:0:0:0:
111,364,202564,6,0,P|92:320|96:278,1,87.5,6|0,0:0|0:0,0:0:0:0:
39,161,202898,1,8,0:0:0:0:
217,142,203064,1,0,0:0:0:0:
39,161,203231,2,0,P|67:122|105:105,1,87.5,2|0,0:0|0:0,0:0:0:0:
213,26,203564,1,8,0:0:0:0:
331,161,203731,1,0,0:0:0:0:
213,26,203898,6,0,P|260:31|294:56,1,87.5,2|0,0:0|0:0,0:0:0:0:
232,224,204231,2,0,P|213:180|217:138,1,87.5,8|0,0:0|0:0,0:0:0:0:
391,93,204564,1,2,0:0:0:0:
357,254,204731,1,0,0:0:0:0:
294,83,204898,1,8,0:0:0:0:
422,185,205064,1,0,0:0:0:0:
232,224,205231,6,0,P|189:214|138:211,1,87.5,2|0,0:0|0:0,0:0:0:0:
328,263,205564,1,8,0:0:0:0:
261,136,205731,1,0,0:0:0:0:
328,263,205898,2,0,P|338:220|341:169,1,87.5,2|0,0:0|0:0,0:0:0:0:
288,359,206231,1,8,0:0:0:0:
442,288,206398,1,0,0:0:0:0:
288,359,206564,6,0,P|331:369|382:372,1,87.5,2|0,0:0|0:0,0:0:0:0:
341,176,206898,1,8,0:0:0:0:
313,154,206982,1,8,0:3:0:0:
278,149,207065,1,2,0:3:0:0:
245,162,207148,1,8,0:3:0:0:
227,192,207232,2,0,L|233:239,1,43.75,2|0,0:0|0:0,0:0:0:0:
148,200,207398,2,0,L|154:247,1,43.75,2|0,0:0|0:0,0:0:0:0:
260,65,207564,1,8,0:0:0:0:
260,65,207648,2,0,L|265:21,1,43.75,2|0,0:0|0:0,0:0:0:0:
346,82,207814,1,2,0:0:0:0:
346,82,207898,5,6,0:0:0:0:
163,56,208064,1,2,0:3:0:0:
409,13,208231,1,8,0:0:0:0:
320,200,208398,2,0,B|274:226|274:226|139:198,1,181.999991668702,2|2,0:3|0:3,0:0:0:0:
0,123,208898,2,0,B|44:103|44:103|96:116,1,90.9999958343508,8|0,0:0|0:0,0:0:0:0:
65,270,209231,5,2,0:0:0:0:
65,270,209564,2,0,B|27:222|27:222|20:219|20:219|27:222|27:222|94:211,1,136.499993751526,8|0,0:0|0:0,0:0:0:0:
233,166,209898,2,0,B|271:214|271:214|278:217|278:217|271:214|271:214|204:225,1,136.499993751526,2|0,0:0|0:0,0:0:0:0:
66,130,210231,2,0,B|28:82|28:82|21:79|21:79|28:82|28:82|95:71,1,136.499993751526,8|0,0:0|0:0,0:0:0:0:
219,45,210564,5,2,0:0:0:0:
256,261,210731,1,2,0:3:0:0:
432,129,210898,1,8,0:0:0:0:
350,10,211064,2,0,B|337:88|337:88|343:115|343:115|331:192,1,181.999991668702,2|2,0:3|0:3,0:0:0:0:
432,312,211564,2,0,L|416:222,1,90.9999958343508,8|2,0:0|0:3,0:0:0:0:
253,129,211898,5,2,0:0:0:0:
253,129,212231,1,8,0:0:0:0:
144,266,212398,2,0,B|128:234|128:234|138:169,1,90.9999958343508,2|2,0:3|0:0,0:0:0:0:
154,50,212731,1,2,0:0:0:0:
265,238,212898,1,8,0:0:0:0:
252,240,212981,1,2,0:0:0:0:
58,107,213148,1,2,0:0:0:0:
71,109,213231,5,6,0:0:0:0:
319,50,213398,1,0,0:0:0:0:
136,177,213564,1,8,0:0:0:0:
341,274,213731,2,0,B|396:264|396:264|424:242|424:242|459:253|459:253|530:240,1,181.999991668702,2|2,0:3|0:3,0:0:0:0:
366,369,214231,2,0,B|322:375|322:375|281:352,1,90.9999958343508,8|0,0:0|0:0,0:0:0:0:
267,168,214564,5,2,0:0:0:0:
352,114,214731,1,2,0:3:0:0:
291,261,214898,1,8,0:0:0:0:
237,79,215064,1,2,0:3:0:0:
432,175,215231,1,2,0:0:0:0:
194,238,215398,1,2,0:3:0:0:
87,43,215564,2,0,B|131:19|131:19|182:28,1,90.9999958343508,8|2,0:0|0:3,0:0:0:0:
147,143,215898,6,0,L|50:131,1,90.9999958343508,2|2,0:0|0:3,0:0:0:0:
194,238,216231,1,8,0:0:0:0:
324,67,216398,2,0,B|330:141|330:141|359:170|359:170|366:249,1,181.999991668702,2|2,0:3|0:3,0:0:0:0:
502,114,216898,2,0,B|464:91|464:91|404:100,1,90.9999958343508,8|2,0:0|0:3,0:0:0:0:
268,216,217231,6,0,B|221:222|221:222|183:199,1,90.9999958343508,2|2,0:0|0:3,0:0:0:0:
364,236,217564,1,8,0:0:0:0:
349,269,217648,1,2,0:3:0:0:
323,294,217731,1,8,0:3:0:0:
290,310,217814,1,2,0:3:0:0:
253,313,217898,2,0,L|261:372,1,45.4999979171754,2|0,0:0|0:0,0:0:0:0:
171,303,218064,2,0,L|179:362,1,45.4999979171754,2|0,0:0|0:0,0:0:0:0:
20,207,218231,1,8,0:0:0:0:
20,207,218314,2,0,L|28:148,1,45.4999979171754,2|0,0:0|0:0,0:0:0:0:
106,191,218481,1,2,0:0:0:0:
106,191,218564,5,6,0:0:0:0:
35,76,218731,1,2,0:3:0:0:
80,312,218898,1,8,0:0:0:0:
277,163,219064,2,0,B|225:138|225:138|236:200|236:200|234:207|234:207|246:280,1,181.999991668702,2|2,0:3|0:3,0:0:0:0:
333,372,219564,2,0,B|338:329|338:329|340:325|340:325|348:275,1,90.9999958343508,8|2,0:0|0:3,0:0:0:0:
376,109,219898,5,2,0:0:0:0:
376,109,220231,2,0,B|323:72|323:72|321:66|321:66|323:72|323:72|292:130,1,136.499993751526,8|0,0:0|0:0,0:0:0:0:
414,255,220564,2,0,B|472:227|472:227|478:228|478:228|472:227|472:227|437:171,1,136.499993751526,2|0,0:0|0:0,0:0:0:0:
268,213,220898,2,0,B|262:277|262:277|258:282|258:282|262:277|262:277|328:275,1,136.499993751526,8|0,0:0|0:0,0:0:0:0:
351,194,221231,5,2,0:0:0:0:
260,111,221398,1,2,0:3:0:0:
179,255,221564,1,8,0:0:0:0:
57,45,221731,2,0,B|102:14|102:14|232:30,1,181.999991668702,2|2,0:3|0:3,0:0:0:0:
263,209,222231,2,0,B|310:203|310:203|313:198|313:198|351:194,1,90.9999958343508,8|2,0:0|0:3,0:0:0:0:
487,116,222564,5,2,0:0:0:0:
487,116,222898,1,8,0:0:0:0:
298,22,223064,2,2,B|292:69|292:69|287:72|287:72|282:109,1,90.9999958343508,2|0,0:3|0:0,0:0:0:0:
366,235,223398,1,2,0:0:0:0:
189,145,223564,1,8,0:0:0:0:
187,158,223647,1,2,0:0:0:0:
78,304,223814,1,2,0:0:0:0:
76,291,223897,5,6,0:0:0:0:
50,118,224064,1,2,0:3:0:0:
276,197,224231,1,8,0:0:0:0:
76,291,224398,2,0,B|120:275|120:275|160:291|160:291|156:295|156:295|200:311|200:311|247:292,1,181.999991668702,2|2,0:3|0:3,0:0:0:0:
226,108,224898,2,0,B|182:97|182:97|139:116,1,90.9999958343508,8|2,0:0|0:3,0:0:0:0:
343,287,225231,5,2,0:0:0:0:
365,129,225398,1,2,0:3:0:0:
434,220,225564,1,8,0:0:0:0:
276,197,225731,1,2,0:3:0:0:
471,119,225898,1,2,0:0:0:0:
238,297,226065,1,2,0:3:0:0:
176,81,226231,2,0,B|224:74|224:74|270:96,1,90.9999958343508,8|2,0:0|0:3,0:0:0:0:
434,220,226564,6,0,B|393:226|393:226|390:230|390:230|343:236,1,90.9999958343508,2|2,0:0|0:3,0:0:0:0:
180,170,226898,1,8,0:0:0:0:
321,3,227064,2,0,B|312:74|312:74|283:103|283:103|276:182,1,181.999991668702,2|2,0:3|0:2,0:0:0:0:
365,320,227564,2,0,B|368:274|368:274|343:232,1,90.9999958343508,8|0,0:0|0:0,0:0:0:0:
216,29,227898,6,0,B|174:49|174:49|150:92,1,90.9999958343508,2|2,0:0|0:3,0:0:0:0:
104,271,228231,1,8,0:0:0:0:
135,288,228314,1,8,0:3:0:0:
171,294,228398,1,2,0:3:0:0:
206,288,228481,1,8,0:3:0:0:
236,268,228564,2,0,L|249:213,1,45.4999979171754,2|0,0:0|0:0,0:0:0:0:
168,214,228731,2,0,L|180:160,1,45.4999979171754,2|0,0:0|0:0,0:0:0:0:
323,86,228898,1,8,0:0:0:0:
323,86,228981,2,0,L|335:140,1,45.4999979171754,2|0,0:0|0:0,0:0:0:0:
400,55,229148,1,2,0:0:0:0:
400,55,229231,6,0,B|448:48|466:3|466:3|462:52|505:95,1,175,6|8,0:0|0:0,0:0:0:0:
318,260,229731,2,0,B|285:224|237:231|237:231|282:210|298:152,1,175,2|2,0:3|0:3,0:0:0:0:
472,244,230231,1,8,0:0:0:0:
496,198,230314,1,2,0:3:0:0:
460,160,230397,1,2,0:3:0:0:
413,183,230481,1,2,0:3:0:0:
420,235,230564,6,0,P|421:284|401:332,1,87.5,2|2,0:0|0:3,0:0:0:0:
150,274,230898,1,8,0:0:0:0:
250,207,231064,2,0,P|292:230|324:271,1,87.5,2|2,0:3|0:0,0:0:0:0:
333,97,231398,2,0,P|326:125|314:145,1,43.75,2|0,0:3|0:0,0:0:0:0:
159,172,231564,2,0,P|138:152|126:133,1,43.75,8|0,0:0|0:0,0:0:0:0:
211,14,231731,2,0,L|220:58,1,43.75,2|0,0:3|0:0,0:0:0:0:
250,207,231898,6,0,B|202:194|164:220|164:220|168:223|168:223|129:247|75:232,1,175,2|8,0:0|0:0,0:0:0:0:
227,370,232398,2,0,B|275:383|313:357|313:357|309:354|309:354|348:330|402:345,1,175,2|2,0:3|0:3,0:0:0:0:
403,134,232898,1,8,0:0:0:0:
357,110,232981,1,2,0:3:0:0:
319,146,233064,1,2,0:3:0:0:
342,193,233148,1,2,0:3:0:0:
394,186,233231,6,0,P|414:137|409:82,1,87.5,2|2,0:0|0:3,0:0:0:0:
466,276,233564,2,0,P|413:283|368:315,1,87.5,8|2,0:0|0:3,0:0:0:0:
219,212,233898,2,0,L|269:201,1,43.75,2|0,0:0|0:0,0:0:0:0:
321,374,234064,2,0,L|271:363,1,43.75,2|0,0:0|0:0,0:0:0:0:
346,260,234231,1,8,0:0:0:0:
348,273,234314,1,2,0:0:0:0:
164,325,234481,1,2,0:0:0:0:
162,315,234564,6,0,P|178:248|224:321,1,175,6|8,0:0|0:0,0:0:0:0:
403,194,235064,2,0,P|387:127|341:200,1,175,2|2,0:3|0:3,0:0:0:0:
135,140,235564,1,8,0:0:0:0:
111,94,235647,1,2,0:3:0:0:
147,56,235730,1,2,0:3:0:0:
194,79,235814,1,2,0:3:0:0:
187,131,235897,6,0,P|138:151|83:146,1,87.5,2|2,0:0|0:3,0:0:0:0:
290,73,236231,1,8,0:0:0:0:
373,144,236398,2,0,P|415:176|469:185,1,87.5,2|2,0:3|0:0,0:0:0:0:
156,265,236731,2,0,P|168:246|183:231,1,43.75,2|0,0:3|0:0,0:0:0:0:
346,250,236897,2,0,P|356:269|363:290,1,43.75,8|0,0:0|0:0,0:0:0:0:
248,383,237064,2,0,L|253:338,1,43.75,2|0,0:3|0:0,0:0:0:0:
231,126,237231,6,0,B|224:173|267:200|267:200|310:176|317:129,1,175,2|8,0:0|0:0,0:0:0:0:
70,272,237731,2,0,B|63:224|106:197|106:197|149:221|156:268,1,175,2|2,0:3|0:3,0:0:0:0:
30,40,238231,1,8,0:0:0:0:
6,86,238314,1,2,0:3:0:0:
42,124,238397,1,2,0:3:0:0:
89,101,238481,1,2,0:3:0:0:
82,49,238564,6,0,P|36:29|-22:34,1,87.5,2|2,0:0|0:3,0:0:0:0:
107,199,238898,2,0,P|150:197|189:178,1,87.5,8|2,0:0|0:3,0:0:0:0:
357,55,239231,2,0,L|350:99,1,43.75,2|0,0:0|0:0,0:0:0:0:
276,42,239397,2,0,L|269:86,1,43.75,2|0,0:0|0:0,0:0:0:0:
443,240,239564,1,8,0:0:0:0:
443,240,239648,2,0,L|435:196,1,43.75,2|0,0:0|0:0,0:0:0:0:
353,251,239814,1,2,0:0:0:0:
353,251,239898,6,0,B|385:203|331:133|263:186|281:247,1,175,6|8,0:0|0:0,0:0:0:0:
141,344,240398,2,0,B|108:296|162:226|230:279|212:340,1,175,2|2,0:3|0:3,0:0:0:0:
67,130,240898,1,8,0:0:0:0:
43,176,240981,1,2,0:3:0:0:
79,214,241064,1,2,0:3:0:0:
126,191,241148,1,2,0:3:0:0:
119,139,241231,6,0,P|109:101|117:48,1,87.5,2|2,0:0|0:3,0:0:0:0:
216,205,241564,1,8,0:0:0:0:
325,167,241731,2,0,P|347:134|358:82,1,87.5,2|2,0:3|0:0,0:0:0:0:
216,205,242064,2,0,P|217:245|221:253,1,43.75,2|0,0:3|0:0,0:0:0:0:
353,320,242231,2,0,P|362:300|363:279,1,43.75,8|0,0:0|0:0,0:0:0:0:
174,321,242398,2,0,P|175:361|179:369,1,43.75,2|0,0:3|0:0,0:0:0:0:
325,167,242564,6,0,B|292:149|246:164|246:164|252:168|252:168|199:178|159:163,1,175,2|8,0:0|0:0,0:0:0:0:
352,49,243064,2,0,B|378:30|410:28|410:28|448:70|427:137,1,175,2|2,0:3|0:3,0:0:0:0:
290,260,243564,1,8,0:0:0:0:
266,214,243647,1,2,0:3:0:0:
302,176,243730,1,2,0:3:0:0:
349,199,243814,1,2,0:3:0:0:
342,251,243897,6,0,P|332:289|340:342,1,87.5,2|2,0:0|0:3,0:0:0:0:
512,247,244231,2,0,P|484:219|434:199,1,87.5,8|2,0:0|0:3,0:0:0:0:
258,156,244564,2,0,L|264:200,1,43.75,2|0,0:0|0:0,0:0:0:0:
428,295,244731,2,0,L|422:339,1,43.75,2|0,0:0|0:0,0:0:0:0:
243,368,244898,1,8,0:0:0:0:
241,355,244981,1,2,0:0:0:0:
344,238,245148,1,2,0:0:0:0:
347,225,245231,6,0,B|360:190|346:143|346:143|290:132|250:159,1,175,6|8,0:0|0:0,0:0:0:0:
127,308,245731,2,0,B|90:291|72:236|72:236|105:201|142:195,1,175,2|2,0:3|0:3,0:0:0:0:
277,286,246231,1,8,0:0:0:0:
309,327,246314,1,0,0:0:0:0:
280,371,246397,1,2,0:3:0:0:
230,357,246481,1,2,0:3:0:0:
227,303,246564,6,0,P|256:276|313:271,1,87.5,2|2,0:0|0:3,0:0:0:0:
408,323,246898,1,8,0:0:0:0:
339,157,247064,2,0,P|376:168|409:215,1,87.5,2|2,0:3|0:0,0:0:0:0:
227,303,247398,2,0,P|220:273|226:251,1,43.75,2|0,0:3|0:0,0:0:0:0:
408,323,247564,2,0,P|385:344|363:349,1,43.75,8|0,0:0|0:0,0:0:0:0:
339,157,247731,2,0,P|368:165|384:182,1,43.75,2|0,0:3|0:0,0:0:0:0:
320,263,247898,6,0,P|264:236|146:209,1,175,2|8,0:0|0:0,0:0:0:0:
429,160,248398,2,0,P|434:220|468:337,1,175,2|2,0:3|0:3,0:0:0:0:
287,125,248898,1,8,0:0:0:0:
336,109,248981,1,2,0:3:0:0:
337,56,249064,1,2,0:3:0:0:
289,39,249148,1,2,0:3:0:0:
255,81,249231,6,0,P|263:119|303:163,1,87.5,2|2,0:0|0:3,0:0:0:0:
446,22,249564,1,8,0:0:0:0:
453,56,249648,1,10,0:3:0:0:
460,90,249731,1,0,0:3:0:0:
467,124,249814,1,10,0:3:0:0:
472,158,249898,2,0,P|442:171|430:171,1,43.75,2|0,0:0|0:0,0:0:0:0:
428,251,250064,2,0,P|395:247|385:241,1,43.75,2|0,0:0|0:0,0:0:0:0:
211,174,250231,1,8,0:0:0:0:
211,174,250314,2,0,P|241:161|253:161,1,43.75,2|0,0:0|0:0,0:0:0:0:
255,81,250481,1,2,0:0:0:0:
255,81,250564,6,0,B|295:87|295:87|305:84|305:84|348:90,1,87.5,6|8,0:0|0:3,0:0:0:0:
247,286,250898,1,8,0:0:0:0:
126,230,251064,2,0,B|120:190|120:190|123:180|123:180|117:137,1,87.5,8|2,0:3|0:0,0:0:0:0:
247,286,251398,2,0,B|215:311|215:311|205:313|205:313|170:340,1,87.5,8|8,0:3|0:0,0:0:0:0:
230,151,251731,6,0,B|267:165|267:165|274:173|274:173|315:189,2,87.5,8|2|8,0:3|0:0|0:3,0:0:0:0:
382,89,252231,1,8,0:0:0:0:
471,222,252398,2,0,B|496:182|496:182|489:136,1,87.5,8|2,0:3|0:0,0:0:0:0:
308,187,252731,2,0,B|283:227|283:227|290:273,1,87.5,8|8,0:3|0:0,0:0:0:0:
494,373,253064,6,0,B|519:333|519:333|512:287,1,87.5,8|2,0:3|0:0,0:0:0:0:
268,360,253398,1,8,0:3:0:0:
471,222,253565,1,8,0:0:0:0:
308,187,253731,2,0,B|314:227|314:227|311:237|311:237|317:280,1,87.5,8|2,0:3|0:0,0:0:0:0:
215,177,254064,2,0,B|221:217|221:217|218:227|218:227|224:270,1,87.5,8|8,0:3|0:0,0:0:0:0:
380,126,254398,1,8,0:3:0:0:
274,58,254564,6,0,B|232:32|232:32|173:39|173:39|167:36|167:36|98:45,1,175,2|8,0:0|0:0,0:0:0:0:
37,183,255064,1,8,0:3:0:0:
18,93,255231,1,2,0:0:0:0:
129,193,255398,1,10,0:3:0:0:
166,108,255564,1,8,0:0:0:0:
163,92,255648,1,2,0:0:0:0:
279,234,255814,1,2,0:0:0:0:
282,220,255898,6,0,B|238:212|238:212|200:235,1,87.5,6|8,0:0|0:3,0:0:0:0:
103,310,256231,1,8,0:0:0:0:
268,334,256398,2,0,B|308:340|308:340|318:337|318:337|361:343,1,87.5,8|2,0:3|0:0,0:0:0:0:
455,226,256731,2,0,B|415:232|415:232|405:229|405:229|362:235,1,87.5,8|8,0:3|0:0,0:0:0:0:
278,125,257064,6,0,B|318:131|318:131|328:128|328:128|371:134,2,87.5,8|2|8,0:3|0:0|0:3,0:0:0:0:
166,283,257564,1,8,0:0:0:0:
138,162,257731,2,0,B|132:116|132:116|151:79,1,87.5,8|2,0:3|0:0,0:0:0:0:
244,253,258064,2,0,B|207:281|207:281|165:283,1,87.5,8|8,0:3|0:0,0:0:0:0:
278,125,258398,6,0,B|320:142|320:142|343:177,1,87.5,8|2,0:3|0:0,0:0:0:0:
348,350,258731,1,8,0:3:0:0:
481,252,258898,1,8,0:0:0:0:
252,221,259064,2,0,B|246:261|246:261|249:271|249:271|243:314,1,87.5,8|2,0:3|0:0,0:0:0:0:
472,165,259398,2,0,B|478:205|478:205|475:215|475:215|481:258,1,87.5,8|8,0:3|0:0,0:0:0:0:
266,113,259731,1,8,0:3:0:0:
348,350,259898,6,0,B|358:293|358:293|356:289|356:289|369:219|369:219|351:238|326:248,1,175,2|8,0:0|0:0,0:0:0:0:
148,272,260398,1,8,0:3:0:0:
238,173,260564,2,0,P|265:152|298:143,1,45.4999979171754,2|0,0:0|0:0,0:0:0:0:
61,115,260731,2,0,P|81:142|90:175,1,45.4999979171754,2|0,0:0|0:0,0:0:0:0:
182,33,260898,1,8,0:0:0:0:
182,33,260981,2,0,L|169:103,1,45.4999979171754,2|0,0:0|0:0,0:0:0:0:
148,272,261148,1,2,0:0:0:0:
148,272,261231,6,0,B|190:254|233:283|233:283|228:287|228:287|275:320|329:297,1,183.750001752377,6|0,0:0|0:0,0:0:0:0:
386,261,261564,1,8,0:0:0:0:
254,67,261731,2,0,B|272:-10|387:40|312:130,1,183.750001752377,2|0,0:3|0:0,0:0:0:0:
148,272,262064,2,0,B|72:294|58:170|173:190,1,183.750001752377,2|0,0:3|0:0,0:0:0:0:
310,223,262398,2,0,P|270:212|253:198,1,61.2500005841255,2|0,0:3|0:0,0:0:0:0:
254,67,262564,5,2,0:0:0:0:
507,99,262731,1,2,0:3:0:0:
324,141,262898,1,8,0:0:0:0:
461,290,263064,6,0,B|419:312|404:362|404:362|402:308|371:267,1,183.750001752377,2|0,0:3|0:0,0:0:0:0:
324,141,263398,2,0,B|366:119|381:69|381:69|383:123|414:164,1,183.750001752377,2|0,0:3|0:0,0:0:0:0:
281,303,263731,1,2,0:3:0:0:
91,166,263898,6,0,B|133:148|176:177|176:177|171:181|171:181|218:214|272:191,1,183.750001752377,2|0,0:0|0:0,0:0:0:0:
324,141,264231,1,8,0:0:0:0:
135,77,264398,2,0,B|106:29|148:-44|237:9|204:76,1,183.750001752377,2|0,0:3|0:0,0:0:0:0:
46,245,264731,2,0,B|17:292|59:366|148:312|115:245,1,183.750001752377,2|0,0:3|0:0,0:0:0:0:
30,138,265064,2,0,P|95:155|99:155,1,61.2500005841255,2|0,0:3|0:0,0:0:0:0:
285,154,265231,5,2,0:0:0:0:
201,294,265398,1,2,0:3:0:0:
135,77,265564,1,8,0:0:0:0:
305,271,265731,2,0,P|364:271|425:233,1,122.500001168251,2|2,0:3|0:0,0:0:0:0:
304,42,266064,1,2,0:0:0:0:
197,160,266231,1,8,0:0:0:0:
195,173,266314,1,2,0:0:0:0:
418,241,266481,1,2,0:0:0:0:
421,229,266564,6,0,B|412:146|269:172|323:299|391:311,1,245.000002336502,6|8,0:0|0:0,0:0:0:0:
451,102,267064,2,0,P|404:101|308:62,2,105.000004005432,2|2|2,0:3|0:0|0:3,0:0:0:0:
291,312,267564,5,8,0:0:0:0:
287,171,267731,1,2,0:3:0:0:
441,329,267898,5,2,0:0:0:0:
492,198,268064,1,2,0:3:0:0:
291,312,268231,1,8,0:0:0:0:
451,102,268398,2,0,P|460:54|395:117,1,210.000008010865,2|2,0:3|0:3,0:0:0:0:
389,212,268898,2,0,P|450:198|496:199,1,105.000004005432,8|2,0:0|0:3,0:0:0:0:
340,357,269231,6,0,B|279:367|279:367|216:300|255:214,1,210.000008010865,2|8,0:0|0:0,0:0:0:0:
143,97,269731,2,0,P|142:157|174:218,2,105.000004005432,2|2|2,0:3|0:0|0:3,0:0:0:0:
381,18,270231,1,8,0:0:0:0:
329,261,270398,1,2,0:3:0:0:
278,132,270564,5,2,0:0:0:0:
269,168,270648,1,8,0:3:0:0:
261,203,270731,1,2,0:3:0:0:
499,250,270898,1,8,0:0:0:0:
493,213,270981,1,8,0:3:0:0:
487,176,271064,1,2,0:3:0:0:
482,139,271148,1,8,0:3:0:0:
476,102,271231,6,0,P|447:103|420:112,1,52.5000020027161,2|0,0:0|0:0,0:0:0:0:
371,286,271398,2,0,P|386:309|408:328,1,52.5000020027161,2|0,0:0|0:0,0:0:0:0:
269,168,271564,1,8,0:0:0:0:
269,168,271648,2,0,L|214:153,1,52.5000020027161,2|0,0:0|0:0,0:0:0:0:
67,185,271814,1,2,0:0:0:0:
67,185,271898,6,0,B|98:165|112:133|112:133|117:203|169:251,1,183.750001752377,6|0,0:0|0:0,0:0:0:0:
71,280,272231,1,8,0:0:0:0:
298,359,272398,2,0,B|350:367|392:328|392:328|332:314|292:352,1,183.750001752377,2|0,0:3|0:0,0:0:0:0:
154,236,272731,2,0,B|100:239|61:196|61:196|122:187|158:229,1,183.750001752377,2|0,0:3|0:0,0:0:0:0:
281,124,273064,2,0,P|292:160|292:186,1,61.2500005841255,2|0,0:3|0:0,0:0:0:0:
159,352,273231,5,2,0:0:0:0:
92,108,273398,1,2,0:3:0:0:
266,287,273564,1,8,0:0:0:0:
455,142,273731,2,0,P|466:81|388:120,1,183.750001752377,2|0,0:3|0:0,0:0:0:0:
402,281,274064,2,0,P|448:320|453:234,1,183.750001752377,2|0,0:3|0:0,0:0:0:0:
307,206,274398,1,2,0:3:0:0:
182,49,274564,6,0,P|183:137|154:248,1,183.750001752377,2|0,0:0|0:0,0:0:0:0:
100,295,274898,1,8,0:0:0:0:
374,239,275064,2,0,B|396:227|430:223|430:223|366:222|305:205,1,183.750001752377,2|0,0:3|0:0,0:0:0:0:
100,295,275398,2,0,B|78:307|44:311|44:311|108:312|169:329,1,183.750001752377,2|0,0:3|0:0,0:0:0:0:
284,378,275731,2,0,P|281:330|274:308,1,61.2500005841255,2|0,0:3|0:0,0:0:0:0:
203,139,275898,5,2,0:0:0:0:
374,239,276064,1,2,0:3:0:0:
100,295,276231,1,8,0:0:0:0:
292,188,276398,2,0,P|302:125|278:68,1,122.500001168251,2|2,0:3|0:0,0:0:0:0:
91,46,276731,1,2,0:0:0:0:
197,249,276898,1,8,0:0:0:0:
199,236,276981,1,2,0:0:0:0:
17,134,277148,1,2,0:0:0:0:
19,145,277231,6,0,B|76:166|123:150|123:150|119:144|119:144|178:125|234:164,1,210.000008010865,6|8,0:0|0:0,0:0:0:0:
105,344,277731,2,0,P|72:303|55:246,2,105.000004005432,2|2|2,0:3|0:0|0:3,0:0:0:0:
378,209,278231,5,8,0:0:0:0:
202,332,278398,1,2,0:3:0:0:
279,196,278564,5,2,0:0:0:0:
406,362,278731,1,2,0:3:0:0:
482,168,278898,1,8,0:0:0:0:
310,321,279064,6,0,B|261:330|218:300|218:300|226:297|226:297|177:261|107:278,1,210.000008010865,2|2,0:3|0:3,0:0:0:0:
56,361,279564,2,0,P|110:380|158:376,1,105.000004005432,8|2,0:0|0:3,0:0:0:0:
218,148,279898,6,0,B|157:138|157:138|94:205|133:291,1,210.000008010865,2|8,0:0|0:0,0:0:0:0:
310,321,280398,2,0,P|311:257|294:206,2,105.000004005432,2|2|2,0:3|0:0|0:3,0:0:0:0:
163,41,280898,1,8,0:0:0:0:
216,278,281064,1,2,0:3:0:0:
392,55,281231,5,2,0:0:0:0:
428,46,281315,1,8,0:3:0:0:
463,38,281398,1,2,0:3:0:0:
390,203,281564,1,8,0:0:0:0:
353,197,281648,1,8,0:3:0:0:
316,191,281731,1,2,0:3:0:0:
279,185,281814,1,8,0:3:0:0:
242,178,281898,2,0,P|218:178|185:192,1,52.5000020027161,2|0,0:0|0:0,0:0:0:0:
0,355,282064,6,0,P|26:354|50:344,1,52.5000020027161,2|0,0:0|0:0,0:0:0:0:
85,145,282231,2,0,P|73:169|69:195,1,52.5000020027161,8|2,0:0|0:0,0:0:0:0:
214,342,282398,2,0,P|199:320|178:304,1,52.5000020027161,2|2,0:3|0:0,0:0:0:0:
96,272,282564,6,0,B|152:268|152:268|157:273|157:273|204:270,1,105.000004005432,2|0,0:0|0:0,0:0:0:0:
308,119,282814,2,0,B|293:171|293:171|318:222,1,105.000004005432,2|0,0:0|0:0,0:0:0:0:
402,309,283064,2,0,L|416:248,1,52.5000020027161,2|0,0:0|0:0,0:0:0:0:
448,42,283231,6,0,B|452:98|452:98|447:103|447:103|450:150,1,105.000004005432,2|0,0:0|0:0,0:0:0:0:
511,250,283481,2,0,B|458:235|458:235|407:260,1,105.000004005432,2|0,0:0|0:0,0:0:0:0:
324,327,283731,2,0,L|385:341,1,52.5000020027161,2|0,0:0|0:0,0:0:0:0:
465,337,283898,5,6,0:0:0:0:
275,252,284064,1,2,0:3:0:0:
409,236,284231,1,8,0:0:0:0:
250,354,284398,1,2,0:3:0:0:
143,202,284564,5,2,0:0:0:0:
275,252,284731,1,2,0:3:0:0:
247,133,284898,1,8,0:0:0:0:
169,322,285064,1,2,0:3:0:0:
409,236,285231,5,2,0:0:0:0:
319,71,285398,1,2,0:3:0:0:
275,252,285564,1,8,0:0:0:0:
461,113,285731,1,2,0:3:0:0:
234,36,285898,5,2,0:0:0:0:
275,252,286064,1,2,0:3:0:0:
461,113,286231,1,8,0:0:0:0:
199,158,286398,1,2,0:3:0:0:
355,304,286564,5,2,0:0:0:0:
405,49,286731,1,2,0:3:0:0:
430,261,286898,1,8,0:0:0:0:
461,113,287065,1,2,0:3:0:0:
277,277,287231,5,2,0:0:0:0:
200,61,287398,1,2,0:3:0:0:
320,202,287565,1,8,0:0:0:0:
280,88,287732,1,2,0:3:0:0:
202,325,287898,5,2,0:0:0:0:
45,195,288065,1,2,0:3:0:0:
201,238,288232,1,8,0:0:0:0:
127,178,288397,1,2,0:3:0:0:
68,322,288564,5,2,0:0:0:0:
215,146,288731,1,2,0:3:0:0:
98,47,288897,1,8,0:0:0:0:
96,59,288981,1,2,0:0:0:0:
201,238,289148,1,2,0:0:0:0:
197,227,289232,5,6,0:0:0:0:
365,124,289398,1,2,0:3:0:0:
197,45,289564,1,8,0:0:0:0:
307,215,289731,1,2,0:3:0:0:
467,119,289898,5,2,0:0:0:0:
301,60,290064,1,2,0:3:0:0:
415,250,290231,1,8,0:0:0:0:
445,32,290398,1,2,0:3:0:0:
236,143,290564,5,2,0:0:0:0:
375,326,290731,1,2,0:3:0:0:
467,119,290898,1,8,0:0:0:0:
261,264,291064,1,2,0:3:0:0:
466,319,291231,5,2,0:0:0:0:
372,123,291398,1,2,0:3:0:0:
212,357,291564,1,8,0:0:0:0:
236,143,291731,1,2,0:3:0:0:
446,232,291898,5,2,0:0:0:0:
221,265,292064,1,2,0:3:0:0:
377,301,292231,1,8,0:0:0:0:
100,125,292398,5,2,0:3:0:0:
354,161,292564,1,2,0:0:0:0:
169,194,292731,1,2,0:3:0:0:
169,194,292898,1,8,0:0:0:0:
473,25,293064,5,2,0:3:0:0:
149,46,293230,1,2,0:0:0:0:
404,94,293397,1,2,0:3:0:0:
231,288,293564,1,8,0:0:0:0:
193,287,293648,1,0,0:0:0:0:
163,266,293731,1,0,0:0:0:0:
143,236,293815,1,0,0:0:0:0:
138,201,293898,2,0,L|196:192,1,45.4999979171754,2|0,0:0|0:0,0:0:0:0:
123,120,294064,2,0,L|181:111,1,45.4999979171754,2|0,0:0|0:0,0:0:0:0:
322,133,294231,1,8,0:0:0:0:
322,133,294314,2,0,L|264:124,1,45.4999979171754,2|0,0:0|0:0,0:0:0:0:
333,51,294481,1,2,0:0:0:0:
333,51,294564,6,0,B|289:45|289:45|287:41|287:41|236:34,1,90.9999958343508,6|8,0:0|0:3,0:0:0:0:
381,193,294898,2,0,B|425:187|425:187|427:183|427:183|478:176,1,90.9999958343508,8|8,0:0|0:3,0:0:0:0:
245,251,295231,2,0,B|222:211|222:211|230:163,1,90.9999958343508,2|8,0:0|0:3,0:0:0:0:
333,51,295564,1,8,0:0:0:0:
468,177,295731,6,0,B|454:247|454:247|455:251|455:251|443:311|443:311|442:283|418:251,1,181.999991668702,8|8,0:3|0:3,0:0:0:0:
407,87,296231,2,0,B|449:62|449:62|504:71,1,90.9999958343508,8|8,0:0|0:3,0:0:0:0:
328,269,296564,2,0,B|286:275|286:275|244:250,1,90.9999958343508,2|8,0:0|0:3,0:0:0:0:
182,124,296898,1,8,0:0:0:0:
371,175,297064,1,8,0:3:0:0:
161,317,297231,6,0,B|155:273|155:273|151:271|151:271|144:220,1,90.9999958343508,2|8,0:0|0:3,0:0:0:0:
295,65,297564,2,0,B|289:109|289:109|285:111|285:111|278:162,1,90.9999958343508,8|8,0:0|0:3,0:0:0:0:
78,332,297898,2,0,B|72:288|72:288|68:286|68:286|61:235,1,90.9999958343508,2|8,0:0|0:3,0:0:0:0:
150,46,298231,1,8,0:0:0:0:
366,263,298398,6,0,B|297:269|297:269|258:242|258:242|186:248,1,181.999991668702,8|8,0:3|0:3,0:0:0:0:
336,366,298898,2,0,B|380:376|380:376|422:357,1,90.9999958343508,8|8,0:0|0:3,0:0:0:0:
327,176,299231,1,2,0:0:0:0:
224,337,299398,1,2,0:0:0:0:
462,280,299564,1,8,0:0:0:0:
449,278,299647,1,2,0:0:0:0:
211,96,299814,1,2,0:0:0:0:
225,93,299898,6,0,B|246:134|246:134|236:177,1,90.9999958343508,6|0,0:0|0:0,0:0:0:0:
68,257,300148,2,0,B|93:218|93:218|135:204,1,90.9999958343508,2|0,0:3|0:0,0:0:0:0:
283,310,300398,2,0,B|236:307|236:307|203:277,1,90.9999958343508,2|2,0:3|0:0,0:0:0:0:
236,177,300648,2,0,L|342:168,1,90.9999958343508,2|0,0:3|0:0,0:0:0:0:
421,76,300898,2,0,L|395:127,1,45.4999979171754,8|0,0:0|0:0,0:0:0:0:
431,245,301064,2,0,L|399:197,1,45.4999979171754,2|0,0:3|0:0,0:0:0:0:
136,61,301231,6,0,B|129:108|129:108|146:152,1,90.9999958343508,2|0,0:0|0:0,0:0:0:0:
301,39,301481,2,0,B|263:9|263:9|217:2,1,90.9999958343508,2|0,0:3|0:0,0:0:0:0:
236,177,301731,2,0,B|280:183|280:183|287:180|287:180|339:191,1,90.9999958343508,2|2,0:3|0:0,0:0:0:0:
389,27,301981,2,0,B|344:33|344:33|337:30|337:30|285:41,1,90.9999958343508,2|0,0:3|0:0,0:0:0:0:
144,148,302231,2,0,L|138:100,1,45.4999979171754,8|0,0:0|0:0,0:0:0:0:
45,55,302398,2,0,L|39:103,1,45.4999979171754,2|0,0:3|0:0,0:0:0:0:
300,38,302564,6,0,B|256:29|256:29|205:51,1,90.9999958343508,2|0,0:0|0:0,0:0:0:0:
180,236,302814,2,0,B|136:245|136:245|85:223,1,90.9999958343508,2|0,0:3|0:0,0:0:0:0:
271,134,303064,2,0,B|277:178|277:178|274:185|274:185|285:237,1,90.9999958343508,2|2,0:3|0:0,0:0:0:0:
369,285,303314,2,0,B|375:240|375:240|372:233|372:233|383:181,1,90.9999958343508,2|0,0:3|0:0,0:0:0:0:
475,111,303564,2,0,L|429:116,1,45.4999979171754,8|0,0:0|0:0,0:0:0:0:
282,222,303731,2,0,L|328:227,1,45.4999979171754,2|0,0:3|0:0,0:0:0:0:
400,371,303898,6,0,B|356:380|356:380|305:358,1,90.9999958343508,2|0,0:0|0:0,0:0:0:0:
180,236,304148,2,0,B|173:280|173:280|176:287|176:287|165:339,1,90.9999958343508,2|0,0:3|0:0,0:0:0:0:
327,226,304398,2,0,L|319:178,1,45.4999979171754,2|0,0:3|0:0,0:0:0:0:
203,121,304564,2,0,P|240:137|248:145,1,45.4999979171754,2|0,0:0|0:0,0:0:0:0:
411,87,304731,2,0,P|381:114|376:124,1,45.4999979171754,2|0,0:0|0:0,0:0:0:0:
288,18,304898,1,8,0:0:0:0:
288,18,304981,2,0,L|296:66,1,45.4999979171754,2|0,0:0|0:0,0:0:0:0:
327,226,305148,1,2,0:0:0:0:
327,226,305231,6,0,B|371:232|371:232|373:236|373:236|424:243,1,90.9999958343508,6|0,0:0|0:0,0:0:0:0:
512,113,305564,2,0,B|468:119|468:119|466:123|466:123|415:130,1,90.9999958343508,8|0,0:0|0:0,0:0:0:0:
288,18,305898,2,0,B|332:24|332:24|334:28|334:28|385:35,1,90.9999958343508,2|0,0:0|0:0,0:0:0:0:
327,226,306231,1,8,0:0:0:0:
172,127,306398,2,0,B|200:81|200:81|210:140|210:140|216:147|216:147|213:156|213:156|224:215,1,181.999991668702
64,159,306898,2,0,B|57:114|57:114|81:67,1,90.9999958343508,8|0,0:0|0:0,0:0:0:0:
231,297,307231,2,0,B|195:325|195:325|142:328,1,90.9999958343508,2|0,0:0|0:0,0:0:0:0:
278,100,307564,1,8,0:0:0:0:
187,188,307731,1,0,0:0:0:0:
382,282,307898,6,0,B|376:239|376:239|378:237|378:237|371:184,1,90.9999958343508,2|0,0:0|0:0,0:0:0:0:
196,98,308231,2,0,B|190:141|190:141|192:143|192:143|185:196,1,90.9999958343508,8|0,0:0|0:0,0:0:0:0:
468,240,308564,2,0,B|462:197|462:197|464:195|464:195|457:142,1,90.9999958343508,2|0,0:0|0:0,0:0:0:0:
265,29,308898,1,8,0:0:0:0:
96,258,309064,6,0,B|146:221|146:221|281:234,1,181.999991668702
139,351,309564,2,0,B|92:361|92:361|43:345,1,90.9999958343508,8|0,0:0|0:0,0:0:0:0:
156,112,309898,1,2,0:0:0:0:
265,232,310064,1,2,0:0:0:0:
96,258,310231,1,8,0:0:0:0:
112,261,310315,1,2,0:0:0:0:
305,94,310481,1,2,0:0:0:0:
289,99,310564,6,0,B|266:138|266:138|276:189,1,90.9999958343508,6|0,0:0|0:0,0:0:0:0:
328,343,310898,1,8,0:0:0:0:
478,206,311064,2,0,B|464:143|464:143|466:114|466:114|453:92|453:92|440:29,1,181.999991668702
275,182,311564,2,0,B|317:206|317:206|371:200,1,90.9999958343508,8|0,0:0|0:0,0:0:0:0:
440,30,311898,6,0,B|397:25|397:25|355:49,1,90.9999958343508,2|0,0:0|0:0,0:0:0:0:
418,270,312231,2,0,B|460:294|460:294|514:288,1,90.9999958343508,8|0,0:0|0:0,0:0:0:0:
282,93,312564,2,0,B|239:88|239:88|197:112,1,90.9999958343508,2|0,0:0|0:0,0:0:0:0:
232,323,312898,1,8,0:0:0:0:
345,179,313064,1,0,0:0:0:0:
96,100,313231,6,0,B|106:165|106:165|109:166|109:166|117:230|117:230|123:202|139:184,1,181.999991668702,2|8,0:0|0:0,0:0:0:0:
282,93,313731,1,0,0:0:0:0:
316,303,313898,2,0,B|274:327|274:327|231:322,1,90.9999958343508,2|0,0:0|0:0,0:0:0:0:
395,172,314231,2,0,B|436:196|436:196|453:235,1,90.9999958343508,8|0,0:0|0:0,0:0:0:0:
160,206,314564,5,2,0:0:0:0:
158,192,314648,1,0,0:0:0:0:
156,178,314731,1,0,0:0:0:0:
154,164,314814,1,0,0:0:0:0:
152,150,314898,5,8,0:0:0:0:
195,135,314981,1,0,0:0:0:0:
240,139,315064,1,0,0:0:0:0:
276,167,315148,1,0,0:0:0:0:
290,209,315231,2,0,L|279:257,1,45.4999979171754,2|0,0:0|0:0,0:0:0:0:
373,229,315398,2,0,L|362:277,1,45.4999979171754,2|0,0:0|0:0,0:0:0:0:
492,62,315564,1,8,0:0:0:0:
492,62,315648,2,0,L|503:110,1,45.4999979171754,2|0,0:0|0:0,0:0:0:0:
409,81,315814,1,2,0:0:0:0:
409,81,315898,6,0,P|408:106|398:128,1,35,6|0,0:0|0:0,0:0:0:0:
380,148,316148,6,0,P|400:145|430:123,1,52.5000020027161,2|0,0:3|0:0,0:0:0:0:
373,229,316398,6,0,P|335:219|298:168,1,87.5,2|2,0:3|0:0,0:0:0:0:
210,116,316648,6,0,P|181:189|192:231,1,122.500001168251,2|0,0:3|0:0,0:0:0:0:
311,34,316898,2,0,P|280:30|247:20,1,61.2500005841255,8|0,0:0|0:0,0:0:0:0:
380,148,317064,2,0,P|409:139|439:135,1,61.2500005841255,2|0,0:3|0:0,0:0:0:0:
191,229,317231,5,2,0:0:0:0:
261,131,317398,1,2,0:3:0:0:
261,131,317481,1,0,0:0:0:0:
261,131,317564,2,0,B|270:157|270:157|263:207,1,52.5000020027161,8|0,0:0|0:0,0:0:0:0:
132,299,317731,2,0,B|128:322|128:322|138:349,1,52.5000020027161,2|0,0:3|0:0,0:0:0:0:
191,229,317898,2,0,B|249:223|249:223|253:219|253:219|305:213,1,105.000004005432,2|2,0:0|0:3,0:0:0:0:
408,287,318148,1,0,0:0:0:0:
408,287,318231,2,0,L|361:229,1,52.5000020027161,8|0,0:0|0:0,0:0:0:0:
382,108,318398,2,0,L|355:176,1,52.5000020027161,2|0,0:3|0:0,0:0:0:0:
220,296,318564,6,0,P|219:271|209:249,1,35,2|0,0:0|0:0,0:0:0:0:
191,229,318814,6,0,P|211:232|241:254,1,52.5000020027161,2|0,0:3|0:0,0:0:0:0:
184,148,319064,6,0,P|146:158|109:209,1,87.5,2|2,0:3|0:0,0:0:0:0:
21,261,319314,6,0,P|-8:188|3:146,1,122.500001168251,2|0,0:3|0:0,0:0:0:0:
128,348,319564,2,0,P|97:341|59:340,1,61.2500005841255,8|0,0:0|0:0,0:0:0:0:
184,148,319731,2,0,P|214:146|244:139,1,61.2500005841255,2|0,0:3|0:0,0:0:0:0:
339,243,319898,5,2,0:0:0:0:
478,130,320064,1,2,0:3:0:0:
478,130,320148,1,0,0:0:0:0:
478,130,320231,2,0,B|473:99|473:99|447:66,1,52.5000020027161,8|0,0:0|0:0,0:0:0:0:
437,232,320398,2,0,B|463:243|463:243|507:237,1,52.5000020027161,2|0,0:3|0:0,0:0:0:0:
367,146,320564,2,0,L|310:154,1,52.5000020027161,2|0,0:0|0:0,0:0:0:0:
195,287,320731,2,0,L|251:295,1,52.5000020027161,2|0,0:3|0:0,0:0:0:0:
374,329,320898,1,8,0:0:0:0:
372,316,320981,1,2,0:0:0:0:
211,136,321148,1,2,0:0:0:0:
207,149,321231,6,0,P|211:171|224:190,1,35,6|0,0:0|0:0,0:0:0:0:
267,188,321481,6,0,P|245:180|214:182,1,52.5000020027161,2|0,0:3|0:0,0:0:0:0:
168,252,321731,6,0,P|185:237|216:178,1,87.5,2|2,0:3|0:0,0:0:0:0:
88,56,321981,6,0,P|82:111|118:167,1,122.500001168251,2|0,0:3|0:0,0:0:0:0:
350,112,322231,2,0,P|313:102|265:113,1,61.2500005841255,8|0,0:0|0:0,0:0:0:0:
216,330,322398,2,0,P|243:302|257:255,1,61.2500005841255,2|0,0:3|0:0,0:0:0:0:
215,180,322564,5,2,0:0:0:0:
343,225,322731,1,2,0:3:0:0:
343,225,322814,1,0,0:0:0:0:
343,225,322898,2,0,B|368:221|368:221|371:217|371:217|404:213,1,52.5000020027161,8|0,0:0|0:0,0:0:0:0:
443,334,323064,2,0,B|417:330|417:330|414:326|414:326|381:322,1,52.5000020027161,2|0,0:3|0:0,0:0:0:0:
350,112,323231,2,0,B|400:86|400:86|455:100,1,105.000004005432,2|2,0:0|0:3,0:0:0:0:
507,171,323481,1,0,0:0:0:0:
507,171,323564,2,0,L|495:223,1,52.5000020027161,8|0,0:0|0:0,0:0:0:0:
392,323,323731,2,0,L|380:271,1,52.5000020027161,2|0,0:3|0:0,0:0:0:0:
237,234,323898,6,0,P|241:212|254:192,1,35,2|0,0:0|0:0,0:0:0:0:
297,195,324148,6,0,P|275:202|244:201,1,52.5000020027161,2|0,0:3|0:0,0:0:0:0:
198,131,324398,6,0,P|215:145|246:205,1,87.5,2|2,0:3|0:0,0:0:0:0:
118,327,324648,6,0,P|112:271|148:215,1,122.500001168251,2|0,0:3|0:0,0:0:0:0:
380,271,324898,2,0,P|343:281|295:270,1,61.2500005841255,8|0,0:0|0:0,0:0:0:0:
246,53,325065,2,0,P|273:80|287:127,1,61.2500005841255,2|0,0:3|0:0,0:0:0:0:
245,203,325231,5,2,0:0:0:0:
418,152,325398,1,2,0:3:0:0:
336,365,325564,1,8,0:0:0:0:
299,359,325648,1,0,0:0:0:0:
262,352,325730,1,2,0:3:0:0:
225,348,325814,1,0,0:0:0:0:
188,342,325897,6,0,L|175:290,1,52.5000020027161,2|0,0:0|0:0,0:0:0:0:
270,324,326064,2,0,L|257:272,1,52.5000020027161,2|0,0:0|0:0,0:0:0:0:
103,136,326231,1,8,0:0:0:0:
103,136,326314,2,0,L|92:190,1,52.5000020027161,2|0,0:0|0:0,0:0:0:0:
186,155,326480,1,2,0:0:0:0:
186,155,326564,6,0,P|187:180|197:202,1,35,6|0,0:0|0:0,0:0:0:0:
215,222,326814,6,0,P|195:219|165:197,1,52.5000020027161,2|0,0:3|0:0,0:0:0:0:
222,303,327064,6,0,P|260:293|297:242,1,87.5,2|2,0:3|0:0,0:0:0:0:
385,190,327314,6,0,P|414:263|403:305,1,122.500001168251,2|0,0:3|0:0,0:0:0:0:
284,108,327564,2,0,P|315:104|348:94,1,61.2500005841255,8|0,0:0|0:0,0:0:0:0:
222,303,327730,2,0,P|193:294|163:290,1,61.2500005841255,2|0,0:3|0:0,0:0:0:0:
57,196,327898,6,0,P|57:141|47:111,1,52.5000020027161,2|0,0:0|0:0,0:0:0:0:
144,150,328064,1,2,0:3:0:0:
144,150,328148,2,0,P|125:98|105:73,1,52.5000020027161,0|8,0:0|0:0,0:0:0:0:
239,253,328314,1,2,0:3:0:0:
239,253,328398,2,0,P|220:304|200:329,1,52.5000020027161
325,222,328564,1,2,0:0:0:0:
325,222,328648,2,0,P|325:277|315:307,1,52.5000020027161
408,146,328814,1,2,0:3:0:0:
408,146,328898,6,0,L|466:153,1,52.5000020027161,8|0,0:0|0:0,0:0:0:0:
459,327,329064,2,0,L|401:334,1,52.5000020027161
239,253,329231,6,0,P|240:228|250:206,1,35,2|0,0:0|0:0,0:0:0:0:
268,186,329481,6,0,P|248:189|218:211,1,52.5000020027161,2|0,0:3|0:0,0:0:0:0:
275,105,329731,6,0,P|313:115|350:166,1,87.5,2|2,0:3|0:0,0:0:0:0:
438,218,329981,6,0,P|467:145|456:103,1,122.500001168251,2|0,0:3|0:0,0:0:0:0:
331,305,330231,2,0,P|362:298|400:297,1,61.2500005841255,8|0,0:0|0:0,0:0:0:0:
275,105,330398,2,0,P|245:103|215:96,1,61.2500005841255,2|0,0:3|0:0,0:0:0:0:
149,196,330564,6,0,P|117:198|76:210,1,52.5000020027161,2|0,0:0|0:0,0:0:0:0:
230,252,330731,1,2,0:3:0:0:
230,252,330814,2,0,P|244:223|253:182,1,52.5000020027161,0|8,0:0|0:0,0:0:0:0:
144,291,330981,1,2,0:3:0:0:
144,291,331064,2,0,P|161:317|192:346,1,52.5000020027161
208,122,331231,6,0,L|227:67,1,52.5000020027161,2|0,0:0|0:0,0:0:0:0:
260,332,331398,2,0,L|297:376,1,52.5000020027161,2|0,0:0|0:0,0:0:0:0:
51,283,331564,1,8,0:0:0:0:
51,283,331648,2,0,L|-5:293,1,52.5000020027161,2|0,0:0|0:0,0:0:0:0:
175,259,331814,1,2,0:3:0:0:
175,259,331898,6,0,P|202:261|219:267,1,35,6|0,0:0|0:0,0:0:0:0:
184,208,332148,6,0,P|175:232|174:258,1,52.5000020027161,2|0,0:3|0:0,0:0:0:0:
84,166,332398,6,0,P|132:164|171:181,1,87.5,2|2,0:3|0:0,0:0:0:0:
23,2,332648,6,0,P|-5:63|5:131,1,122.500001168251,2|0,0:3|0:0,0:0:0:0:
173,88,332898,2,0,P|144:78|111:77,1,61.2500005841255,8|0,0:0|0:0,0:0:0:0:
174,258,333064,2,0,P|204:256|233:246,1,61.2500005841255,2|0,0:3|0:0,0:0:0:0:
347,164,333231,6,0,P|354:192|356:230,1,52.5000020027161,2|0,0:0|0:0,0:0:0:0:
445,219,333398,1,2,0:3:0:0:
445,219,333481,2,0,P|436:247|419:280,1,52.5000020027161,0|8,0:0|0:0,0:0:0:0:
313,350,333648,1,2,0:3:0:0:
313,350,333731,2,0,P|305:321|304:284,1,52.5000020027161
215,295,333898,1,2,0:0:0:0:
215,295,333981,2,0,P|223:266|240:233,1,52.5000020027161
347,164,334148,1,2,0:3:0:0:
347,164,334231,2,0,L|290:157,1,52.5000020027161,8|0,0:0|0:0,0:0:0:0:
125,113,334398,2,0,L|182:106,1,52.5000020027161,2|0,0:3|0:0,0:0:0:0:
254,73,334564,6,0,P|252:46|246:29,1,35,2|0,0:0|0:0,0:0:0:0:
305,64,334814,6,0,P|280:72|254:73,1,52.5000020027161,2|0,0:3|0:0,0:0:0:0:
347,164,335064,6,0,P|349:116|332:77,1,87.5,2|2,0:3|0:0,0:0:0:0:
510,225,335314,6,0,P|449:253|381:243,1,122.500001168251,2|0,0:3|0:0,0:0:0:0:
432,85,335564,2,0,P|443:133|439:161,1,61.2500005841255,8|0,0:0|0:0,0:0:0:0:
280,242,335731,2,0,P|269:290|273:318,1,61.2500005841255,2|0,0:3|0:0,0:0:0:0:
403,361,335898,5,2,0:0:0:0:
334,139,336064,1,2,0:3:0:0:
177,259,336231,1,8,0:0:0:0:
185,293,336314,1,0,0:0:0:0:
210,318,336397,1,2,0:3:0:0:
245,330,336481,1,0,0:0:0:0:
280,326,336564,6,0,L|286:379,1,52.5000020027161,2|0,0:0|0:0,0:0:0:0:
364,314,336731,2,0,L|370:367,1,52.5000020027161,2|0,0:0|0:0,0:0:0:0:
495,222,336898,1,8,0:0:0:0:
495,222,336981,2,0,L|506:168,1,52.5000020027161,2|0,0:0|0:0,0:0:0:0:
411,214,337147,1,2,0:0:0:0:
411,214,337231,6,0,B|423:169|469:139|469:139|420:159|361:135|361:135|244:78|335:-61|459:45|361:135|361:135|322:156|322:156|288:178|268:204|268:204|268:204|268:204|207:251|207:251|254:345|254:345|319:261|319:261|268:204|268:204|210:137|210:137|125:169,1,1155.0000352478,6|8,0:0|0:3,0:0:0:0:
31,156,339898,6,0,B|36:176|36:176|34:199|34:199|55:225|55:225|52:249|52:249|59:281,1,115.50000352478,2|0,0:0|0:0,0:0:0:0:
152,353,340231,1,8,0:0:0:0:
152,353,340314,1,2,0:3:0:0:
152,353,340398,6,0,P|176:354|190:352,1,38.5000011749268,2|0,0:3|0:0,0:0:0:0:
356,185,340564,2,0,P|342:198|331:214,1,38.5000011749268,2|0,0:0|0:0,0:0:0:0:
412,309,340731,6,0,P|394:317|375:321,1,38.5000011749268,2|0,0:3|0:0,0:0:0:0:
174,215,340898,2,0,P|191:222|206:234,1,38.5000011749268,8|0,0:0|0:0,0:0:0:0:
285,367,341064,2,0,L|278:320,1,38.5000011749268,2|0,0:3|0:0,0:0:0:0:
200,124,341231,6,0,B|252:97|252:97|317:112,1,105.000004005432,2|2,0:0|0:3,0:0:0:0:
266,243,341564,2,0,B|189:236|189:236|187:232|187:232|101:227,1,157.500006008148,8|0,0:0|0:0,0:0:0:0:
78,227,341898,2,0,L|92:287,1,52.5000020027161,2|0,0:0|0:0,0:0:0:0:
166,207,342064,2,0,L|180:267,1,52.5000020027161,2|0,0:0|0:0,0:0:0:0:
297,107,342231,1,8,0:0:0:0:
297,107,342314,2,0,L|308:55,1,52.5000020027161,2|0,0:0|0:0,0:0:0:0:
209,87,342481,1,2,0:0:0:0:
209,87,342564,6,0,L|226:13,2,70.0000026702882,6|2|8,0:0|0:3|0:3,0:0:0:0:
97,293,342897,1,8,0:0:0:0:
83,238,343009,1,2,0:3:0:0:
69,183,343120,1,8,0:3:0:0:
54,129,343231,6,0,B|101:117|101:117|146:152|146:152|140:158|140:158|185:186|185:186|237:175,1,210.000008010865,2|8,0:0|0:0,0:0:0:0:
396,73,343731,1,2,0:3:0:0:
396,73,343814,1,2,0:3:0:0:
396,73,343898,6,0,B|350:50|350:50|285:65,1,105.000004005432,2|0,0:0|0:0,0:0:0:0:
322,270,344231,1,8,0:0:0:0:
437,203,344398,1,2,0:3:0:0:
439,218,344481,1,0,0:0:0:0:
441,233,344564,5,2,0:0:0:0:
476,209,344648,1,0,0:0:0:0:
487,168,344731,1,2,0:3:0:0:
473,128,344814,1,0,0:0:0:0:
438,103,344898,1,8,0:0:0:0:
396,101,344981,1,0,0:0:0:0:
359,121,345064,1,2,0:3:0:0:
317,127,345148,1,0,0:0:0:0:
277,113,345231,6,0,P|246:65|249:10,1,105.000004005432,2|0,0:0|0:0,0:0:0:0:
338,228,345564,5,8,0:0:0:0:
284,246,345676,1,2,0:3:0:0:
231,227,345787,1,8,0:3:0:0:
221,171,345898,5,2,0:0:0:0:
256,214,346010,1,2,0:3:0:0:
244,268,346121,1,8,0:3:0:0:
199,301,346231,6,0,P|162:303|151:300,3,35,8|0|2|0,0:0|0:0|0:3|0:0,0:0:0:0:
93,335,346564,6,0,P|72:303|69:286,3,43.75,2|0|2|0,0:0|0:0|0:3|0:0,0:0:0:0:
0,235,346898,6,0,P|16:201|39:184,3,52.5000020027161,8|0|2|0,0:0|0:0|0:3|0:0,0:0:0:0:
83,109,347231,6,0,B|111:113|111:113|114:111|114:111|150:116,1,52.5000020027161,2|0,0:0|0:0,0:0:0:0:
226,237,347398,2,0,B|205:239|205:239|202:237|202:237|174:241,1,52.5000020027161,2|0,0:0|0:0,0:0:0:0:
230,95,347564,1,8,0:0:0:0:
230,95,347648,2,0,B|233:124|233:124|225:146,1,52.5000020027161,2|0,0:0|0:0,0:0:0:0:
79,252,347814,1,2,0:0:0:0:
71,244,347898,5,6,0:0:0:0:
71,291,347981,1,0,0:0:0:0:
99,328,348064,1,2,0:3:0:0:
145,336,348148,1,0,0:0:0:0:
185,311,348231,1,8,0:0:0:0:
198,265,348314,1,0,0:0:0:0:
174,223,348398,5,2,0:3:0:0:
149,182,348481,1,0,0:0:0:0:
159,135,348565,1,2,0:0:0:0:
197,108,348648,1,0,0:0:0:0:
244,110,348731,1,2,0:3:0:0:
276,144,348815,1,0,0:0:0:0:
274,191,348898,6,0,P|254:167|248:137,3,52.5000020027161,8|0|2|0,0:0|0:0|0:3|0:0,0:0:0:0:
314,53,349231,5,2,0:0:0:0:
359,40,349314,1,0,0:0:0:0:
404,52,349398,1,2,0:3:0:0:
431,90,349481,1,0,0:0:0:0:
429,137,349564,1,8,0:0:0:0:
399,174,349648,1,0,0:0:0:0:
352,183,349731,5,2,0:3:0:0:
375,223,349814,1,0,0:0:0:0:
362,268,349898,1,2,0:0:0:0:
325,297,349981,1,0,0:0:0:0:
277,298,350064,1,2,0:3:0:0:
238,270,350148,1,0,0:0:0:0:
234,223,350231,6,0,P|226:179|215:163,3,52.5000020027161,8|0|0|0,0:0|0:0|0:0|0:0,0:0:0:0:
299,71,350564,5,2,0:0:0:0:
253,86,350648,1,0,0:0:0:0:
205,85,350731,1,2,0:3:0:0:
166,57,350814,5,0,0:0:0:0:
168,77,350898,1,8,0:0:0:0:
171,97,350981,1,0,0:0:0:0:
174,117,351064,5,2,0:3:0:0:
128,104,351148,1,0,0:0:0:0:
81,113,351231,1,2,0:0:0:0:
49,148,351314,1,0,0:0:0:0:
37,194,351398,1,2,0:3:0:0:
55,237,351481,1,0,0:0:0:0:
92,264,351564,6,0,P|130:269|153:266,1,52.5000020027161,8|0,0:0|0:0,0:0:0:0:
271,106,351731,2,0,P|256:70|242:52,1,52.5000020027161
438,288,351898,5,2,0:0:0:0:
463,248,351981,1,0,0:0:0:0:
469,201,352064,1,2,0:3:0:0:
455,155,352148,1,0,0:0:0:0:
419,123,352231,5,8,0:0:0:0:
373,135,352314,1,0,0:0:0:0:
338,167,352398,1,2,0:3:0:0:
323,211,352481,1,0,0:0:0:0:
321,258,352564,2,0,L|333:316,1,52.5000020027161,2|0,0:0|0:0,0:0:0:0:
231,275,352731,2,0,L|243:333,1,52.5000020027161,2|0,0:0|0:0,0:0:0:0:
92,127,352898,1,8,0:0:0:0:
92,127,352981,2,0,L|80:185,1,52.5000020027161,2|0,0:0|0:0,0:0:0:0:
182,144,353148,1,2,0:0:0:0:
193,154,353231,5,6,0:0:0:0:
180,199,353314,1,0,0:0:0:0:
194,244,353398,1,2,0:3:0:0:
231,275,353481,1,0,0:0:0:0:
277,283,353564,1,8,0:0:0:0:
323,272,353648,1,0,0:0:0:0:
351,234,353731,5,2,0:3:0:0:
356,187,353814,1,0,0:0:0:0:
332,145,353898,1,2,0:0:0:0:
290,123,353981,1,0,0:0:0:0:
264,83,354064,1,2,0:3:0:0:
267,35,354148,1,0,0:0:0:0:
299,0,354231,6,0,P|337:12|356:12,3,52.5000020027161,8|0|0|0,0:0|0:0|0:0|0:0,0:0:0:0:
478,199,354564,5,2,0:0:0:0:
498,156,354647,1,0,0:0:0:0:
494,110,354731,1,2,0:3:0:0:
461,77,354814,1,0,0:0:0:0:
415,71,354897,1,8,0:0:0:0:
373,94,354981,1,0,0:0:0:0:
356,139,355064,5,2,0:3:0:0:
321,109,355147,1,0,0:0:0:0:
274,114,355231,1,2,0:0:0:0:
239,145,355314,1,0,0:0:0:0:
230,192,355397,1,2,0:3:0:0:
251,236,355481,1,0,0:0:0:0:
296,248,355564,6,0,P|337:263|351:277,3,52.5000020027161,8|0|0|0,0:0|0:0|0:0|0:0,0:0:0:0:
239,145,355898,5,2,0:0:0:0:
200,117,355981,1,0,0:0:0:0:
182,72,356064,1,2,0:3:0:0:
185,24,356148,5,0,0:0:0:0:
169,38,356231,1,8,0:0:0:0:
150,48,356314,1,0,0:0:0:0:
129,53,356398,5,2,0:3:0:0:
82,44,356481,1,0,0:0:0:0:
37,53,356564,1,2,0:0:0:0:
8,93,356648,1,0,0:0:0:0:
2,138,356731,1,2,0:3:0:0:
19,182,356814,1,0,0:0:0:0:
59,205,356898,2,0,P|97:211|118:204,1,52.5000020027161,8|0,0:0|0:0,0:0:0:0:
208,69,357064,2,0,P|194:33|177:17,1,52.5000020027161
170,277,357231,5,2,0:0:0:0:
206,246,357314,1,0,0:0:0:0:
251,232,357398,1,2,0:3:0:0:
297,236,357481,1,0,0:0:0:0:
338,259,357564,5,8,0:0:0:0:
306,222,357648,1,0,0:0:0:0:
290,178,357731,1,2,0:3:0:0:
287,130,357814,1,0,0:0:0:0:
304,85,357898,6,0,L|315:147,1,52.5000020027161,2|0,0:0|0:0,0:0:0:0:
395,72,358064,2,0,L|406:134,1,52.5000020027161,2|0,0:0|0:0,0:0:0:0:
237,297,358231,1,8,0:0:0:0:
237,297,358314,2,0,L|248:235,1,52.5000020027161,2|0,0:0|0:0,0:0:0:0:
328,310,358481,1,2,0:0:0:0:
328,310,358564,6,0,B|338:258|338:258|342:253|342:253|352:197,1,105.000004005432,6|0,0:0|0:0,0:0:0:0:
224,143,358814,2,0,B|234:195|234:195|238:200|238:200|248:256,1,105.000004005432,2|0,0:3|0:0,0:0:0:0:
450,182,359064,2,0,B|424:62|424:62|425:53|425:53|423:62|423:62|377:114,1,210.000008010865,2|2,0:3|0:3,0:0:0:0:
328,310,359564,1,8,0:0:0:0:
374,319,359648,1,0,0:0:0:0:
397,278,359731,1,2,0:3:0:0:
365,243,359814,1,0,0:0:0:0:
322,263,359898,6,0,B|275:285|275:285|207:271,1,105.000004005432,2|0,0:0|0:0,0:0:0:0:
163,194,360148,2,0,B|205:223|205:223|227:289,1,105.000004005432,2|0,0:3|0:0,0:0:0:0:
74,311,360398,2,0,L|85:249,1,52.5000020027161,2|0,0:3|0:0,0:0:0:0:
0,111,360564,6,0,B|47:133|47:133|115:119,1,105.000004005432,2|0,0:0|0:0,0:0:0:0:
159,42,360814,2,0,B|116:71|116:71|94:137,1,105.000004005432,2|0,0:3|0:0,0:0:0:0:
244,148,361064,2,0,L|233:86,1,52.5000020027161,2|0,0:3|0:0,0:0:0:0:
358,22,361231,6,0,B|341:118|341:118|348:131|348:131|327:231,1,210.000008010865,2|8,0:0|0:0,0:0:0:0:
436,357,361731,2,0,B|446:305|446:305|419:258,1,105.000004005432,2|2,0:3|0:0,0:0:0:0:
245,281,362064,1,2,0:3:0:0:
229,277,362148,1,8,0:3:0:0:
214,274,362231,1,8,0:0:0:0:
225,228,362314,1,0,0:3:0:0:
266,204,362398,1,2,0:3:0:0:
312,208,362481,1,0,0:3:0:0:
347,238,362564,6,0,B|336:288|336:288|339:293|339:293|326:350,1,105.000004005432,2|2,0:0|0:3,0:0:0:0:
132,229,362898,2,0,B|121:179|121:179|124:174|124:174|111:117,1,105.000004005432,8|2,0:0|0:3,0:0:0:0:
304,29,363231,1,2,0:0:0:0:
266,204,363398,1,2,0:0:0:0:
177,50,363564,1,8,0:0:0:0:
190,48,363647,1,2,0:0:0:0:
351,131,363814,1,2,0:0:0:0:
338,126,363898,6,0,B|394:116|394:116|437:146,1,105.000004005432,6|0,0:0|0:0,0:0:0:0:
408,315,364148,2,0,B|351:324|351:324|308:294,1,105.000004005432,2|0,0:3|0:0,0:0:0:0:
175,182,364398,2,0,B|226:191|226:191|263:185|263:185|303:212|303:212|340:211|340:211|383:218,1,210.000008010865,2|0,0:3|0:0,0:0:0:0:
489,65,364898,1,8,0:0:0:0:
489,18,364982,1,0,0:0:0:0:
445,3,365065,1,0,0:0:0:0:
416,40,365148,1,0,0:0:0:0:
443,79,365231,6,0,B|470:125|470:125|462:182,1,105.000004005432,2|0,0:0|0:0,0:0:0:0:
290,213,365481,2,0,B|263:167|263:167|271:110,1,105.000004005432,2|0,0:3|0:0,0:0:0:0:
384,245,365731,2,0,L|396:310,1,52.5000020027161,2|0,0:3|0:0,0:0:0:0:
270,310,365898,6,0,B|297:264|297:264|289:207,1,105.000004005432,2|0,0:0|0:0,0:0:0:0:
117,176,366148,2,0,B|90:222|90:222|98:279,1,105.000004005432,2|0,0:3|0:0,0:0:0:0:
168,356,366398,2,0,L|182:291,1,52.5000020027161,2|0,0:3|0:0,0:0:0:0:
391,190,366564,6,0,B|339:200|339:200|334:204|334:204|278:214,1,105.000004005432,2|0,0:0|0:0,0:0:0:0:
34,112,366814,2,0,B|75:145|75:145|81:146|81:146|125:183,1,105.000004005432,2|0,0:3|0:0,0:0:0:0:
256,110,367064,2,0,B|279:78|279:78|237:27|237:27|177:62|177:62|187:100,1,210.000008010865,2|0,0:3|0:0,0:0:0:0:
111,220,367564,5,8,0:0:0:0:
152,195,367648,1,0,0:0:0:0:
198,194,367731,1,2,0:3:0:0:
238,217,367814,1,0,0:0:0:0:
259,259,367898,5,2,0:0:0:0:
231,242,367981,1,0,0:0:0:0:
199,240,368064,1,2,0:3:0:0:
170,253,368148,1,0,0:0:0:0:
150,277,368231,5,8,0:0:0:0:
165,274,368314,1,0,0:0:0:0:
180,277,368398,1,2,0:3:0:0:
192,286,368481,1,0,0:0:0:0:
202,297,368564,6,0,P|206:331|203:349,1,52.5000020027161,2|0,0:0|0:0,0:0:0:0:
296,333,368731,2,0,P|287:366|279:382,1,52.5000020027161,2|0,0:0|0:0,0:0:0:0:
456,272,368898,1,8,0:0:0:0:
456,272,368981,2,0,P|451:237|454:219,1,52.5000020027161,2|0,0:0|0:0,0:0:0:0:
362,236,369148,1,2,0:0:0:0:
362,236,369231,6,0,B|364:207|364:207|368:201|368:201|371:168,1,52.5000020027161,6|0,0:0|0:0,0:0:0:0:
198,32,369398,2,0,B|200:61|200:61|204:67|204:67|206:102,1,52.5000020027161,2|0,0:3|0:0,0:0:0:0:
417,92,369564,5,8,0:0:0:0:
401,84,369648,1,0,0:0:0:0:
376,79,369731,1,2,0:3:0:0:
344,82,369814,1,0,0:0:0:0:
310,101,369898,1,2,0:0:0:0:
279,143,369981,1,0,0:0:0:0:
241,168,370064,1,2,0:3:0:0:
204,181,370148,1,0,0:0:0:0:
172,179,370231,1,8,0:0:0:0:
149,168,370314,1,0,0:0:0:0:
135,156,370398,1,2,0:3:0:0:
129,147,370481,1,0,0:0:0:0:
127,137,370564,6,0,B|129:162|129:162|133:168|133:168|136:201,1,52.5000020027161
305,322,370731,2,0,B|307:297|307:297|311:291|311:291|314:258,1,52.5000020027161,2|0,0:3|0:0,0:0:0:0:
57,285,370898,5,8,0:0:0:0:
64,308,370981,1,0,0:0:0:0:
82,333,371064,1,2,0:3:0:0:
116,349,371148,1,0,0:0:0:0:
161,347,371231,1,2,0:0:0:0:
209,313,371314,1,0,0:0:0:0:
219,261,371398,1,2,0:3:0:0:
202,218,371481,1,0,0:0:0:0:
170,196,371564,1,8,0:0:0:0:
144,176,371648,1,0,0:0:0:0:
137,152,371731,1,2,0:3:0:0:
138,134,371814,1,0,0:0:0:0:
142,117,371898,6,0,B|170:115|170:115|175:117|175:117|207:115,1,52.5000020027161,2|0,0:0|0:0,0:0:0:0:
57,285,372064,2,0,B|29:283|29:283|24:285|24:285|-8:283,1,52.5000020027161,2|0,0:3|0:0,0:0:0:0:
209,313,372231,5,8,0:0:0:0:
226,315,372314,1,0,0:0:0:0:
249,307,372398,1,2,0:3:0:0:
266,280,372481,1,0,0:0:0:0:
258,242,372564,1,2,0:0:0:0:
208,222,372648,1,0,0:0:0:0:
163,232,372731,1,2,0:3:0:0:
134,257,372814,1,0,0:0:0:0:
124,287,372898,1,8,0:0:0:0:
122,311,372981,1,0,0:0:0:0:
126,327,373064,1,2,0:3:0:0:
131,340,373148,1,0,0:0:0:0:
136,350,373231,6,0,B|191:344|191:344|195:340|195:340|259:333,1,105.000004005432
360,256,373481,2,0,B|305:250|305:250|301:246|301:246|237:239,1,105.000004005432,2|0,0:3|0:0,0:0:0:0:
163,119,373731,2,0,B|160:147|160:147|172:171,1,52.5000020027161,2|0,0:3|0:0,0:0:0:0:
388,61,373898,6,0,L|379:119,1,52.5000020027161,2|0,0:0|0:0,0:0:0:0:
304,47,374064,2,0,L|295:105,1,52.5000020027161,2|0,0:0|0:0,0:0:0:0:
451,293,374231,1,8,0:0:0:0:
451,293,374314,2,0,L|442:234,1,52.5000020027161,2|0,0:0|0:0,0:0:0:0:
367,307,374481,1,2,0:0:0:0:
367,307,374564,6,0,L|358:248,1,52.5000020027161,6|0,0:0|0:0,0:0:0:0:
511,81,374731,2,0,L|502:139,1,52.5000020027161,2|0,0:3|0:0,0:0:0:0:
236,135,374898,1,8,0:0:0:0:
242,151,374981,1,0,0:0:0:0:
245,175,375064,1,2,0:3:0:0:
235,205,375148,1,0,0:0:0:0:
205,229,375231,1,2,0:0:0:0:
180,275,375314,1,0,0:0:0:0:
188,320,375398,1,2,0:3:0:0:
215,347,375481,1,0,0:0:0:0:
244,358,375564,1,8,0:0:0:0:
268,357,375648,1,0,0:0:0:0:
284,352,375731,1,2,0:3:0:0:
297,346,375814,1,0,0:0:0:0:
306,338,375898,6,0,P|327:285|320:254,1,52.5000020027161,2|0,0:0|0:0,0:0:0:0:
85,165,376064,2,0,P|120:209|150:219,1,52.5000020027161,2|0,0:3|0:0,0:0:0:0:
429,101,376231,5,8,0:0:0:0:
406,90,376314,1,0,0:0:0:0:
374,92,376398,1,2,0:3:0:0:
339,107,376481,1,0,0:0:0:0:
308,140,376564,1,2,0:0:0:0:
254,167,376648,1,0,0:0:0:0:
201,160,376731,1,2,0:3:0:0:
164,135,376814,1,0,0:0:0:0:
138,104,376898,1,8,0:0:0:0:
125,83,376981,1,0,0:0:0:0:
111,71,377064,1,2,0:3:0:0:
98,66,377148,1,0,0:0:0:0:
84,63,377231,6,0,P|54:61|26:69,1,52.5000020027161,2|0,0:0|0:0,0:0:0:0:
202,304,377398,2,0,P|218:278|224:250,1,52.5000020027161,2|0,0:3|0:0,0:0:0:0:
310,92,377564,5,8,0:0:0:0:
312,75,377647,1,0,0:0:0:0:
304,52,377731,1,2,0:3:0:0:
277,35,377814,1,0,0:0:0:0:
238,43,377897,1,2,0:0:0:0:
219,93,377981,1,0,0:0:0:0:
229,138,378064,1,2,0:3:0:0:
254,167,378147,1,0,0:0:0:0:
284,177,378231,1,8,0:0:0:0:
308,179,378314,1,0,0:0:0:0:
324,175,378397,1,2,0:3:0:0:
337,170,378481,1,0,0:0:0:0:
347,164,378564,6,0,B|341:109|341:109|337:105|337:105|330:41,1,105.000004005432,2|0,0:0|0:0,0:0:0:0:
456,168,378814,2,0,B|450:223|450:223|446:227|446:227|439:291,1,105.000004005432,2|0,0:3|0:0,0:0:0:0:
496,67,379064,2,0,B|474:58|474:58|445:59,1,52.5000020027161,2|0,0:3|0:0,0:0:0:0:
170,181,379231,6,0,L|161:129,1,52.5000020027161,2|0,0:0|0:0,0:0:0:0:
254,167,379397,2,0,L|245:115,1,52.5000020027161,2|0,0:0|0:0,0:0:0:0:
398,311,379564,1,8,0:0:0:0:
398,311,379648,2,0,L|406:259,1,52.5000020027161,2|0,0:0|0:0,0:0:0:0:
314,297,379814,1,2,0:0:0:0:
314,297,379898,6,0,P|318:238|336:197,1,90.9999958343508,6|2,0:0|0:3,0:0:0:0:
512,149,380231,1,8,0:0:0:0:
350,116,380398,1,2,0:3:0:0:
512,149,380564,2,0,P|458:175|414:179,1,90.9999958343508,2|2,0:0|0:3,0:0:0:0:
281,58,380898,1,8,0:0:0:0:
329,208,381065,1,2,0:3:0:0:
281,58,381231,6,0,P|330:90|356:127,1,90.9999958343508,2|2,0:0|0:3,0:0:0:0:
314,297,381564,2,0,P|318:238|336:197,1,90.9999958343508,8|2,0:0|0:3,0:0:0:0:
440,80,381898,1,2,0:0:0:0:
415,270,382064,1,2,0:3:0:0:
349,115,382231,1,8,0:0:0:0:
487,196,382398,1,2,0:3:0:0:
314,297,382564,6,0,P|255:293|214:275,1,90.9999958343508,2|2,0:0|0:3,0:0:0:0:
131,151,382898,1,8,0:0:0:0:
285,205,383064,1,2,0:3:0:0:
131,151,383231,2,0,P|173:136|219:135,1,90.9999958343508,2|2,0:0|0:3,0:0:0:0:
403,106,383564,1,8,0:0:0:0:
242,35,383730,1,2,0:3:0:0:
403,106,383897,6,0,P|357:104|314:90,1,90.9999958343508,2|2,0:0|0:3,0:0:0:0:
314,297,384231,2,0,P|337:258|371:228,1,90.9999958343508,8|2,0:0|0:3,0:0:0:0:
179,137,384564,1,2,0:0:0:0:
211,265,384731,1,2,0:0:0:0:
314,90,384898,1,8,0:0:0:0:
301,88,384981,1,2,0:0:0:0:
102,215,385148,1,2,0:0:0:0:
115,217,385231,6,0,P|128:282|125:313,1,90.9999958343508,6|2,0:0|0:3,0:0:0:0:
304,178,385564,1,8,0:0:0:0:
212,45,385731,1,2,0:3:0:0:
304,178,385898,2,0,P|241:156|215:138,1,90.9999958343508,2|2,0:0|0:3,0:0:0:0:
253,358,386231,1,8,0:0:0:0:
421,324,386398,1,2,0:3:0:0:
253,358,386564,6,0,P|302:314|331:301,1,90.9999958343508,2|2,0:0|0:3,0:0:0:0:
115,217,386898,2,0,P|128:282|125:313,1,90.9999958343508,8|2,0:0|0:3,0:0:0:0:
259,162,387231,1,2,0:0:0:0:
220,4,387397,1,2,0:3:0:0:
185,96,387564,1,8,0:0:0:0:
319,8,387731,1,2,0:3:0:0:
347,106,387898,6,0,P|302:130|252:130,1,90.9999958343508,2|2,0:0|0:3,0:0:0:0:
212,256,388231,1,8,0:0:0:0:
185,96,388398,1,2,0:3:0:0:
212,256,388564,2,0,P|168:229|143:185,1,90.9999958343508,2|2,0:0|0:3,0:0:0:0:
4,232,388898,1,8,0:0:0:0:
73,54,389064,1,2,0:3:0:0:
4,232,389231,6,0,P|5:181|30:137,1,90.9999958343508,2|2,0:0|0:3,0:0:0:0:
264,18,389564,1,8,0:0:0:0:
250,46,389648,1,2,0:3:0:0:
225,66,389731,1,8,0:3:0:0:
194,75,389814,1,2,0:3:0:0:
161,75,389898,6,0,L|171:25,1,45.4999979171754,2|0,0:0|0:0,0:0:0:0:
81,61,390064,2,0,L|91:11,1,45.4999979171754,2|0,0:0|0:0,0:0:0:0:
240,210,390231,1,8,0:0:0:0:
240,210,390314,2,0,L|250:260,1,45.4999979171754,2|0,0:0|0:0,0:0:0:0:
160,224,390481,1,2,0:0:0:0:
160,224,390564,6,0,B|113:208|104:161|104:161|99:210|49:245,1,175,6|8,0:0|0:0,0:0:0:0:
176,360,391064,2,0,B|222:344|231:297|231:297|236:346|286:381,1,175,2|2,0:3|0:3,0:0:0:0:
469,277,391564,1,8,0:0:0:0:
493,231,391648,1,2,0:3:0:0:
457,193,391730,1,2,0:3:0:0:
410,216,391814,1,2,0:3:0:0:
417,268,391897,6,0,P|418:317|398:365,1,87.5,2|2,0:0|0:3,0:0:0:0:
337,156,392231,1,8,0:0:0:0:
465,104,392398,2,0,P|493:64|505:13,1,87.5,2|2,0:3|0:0,0:0:0:0:
219,278,392731,2,0,P|227:258|240:241,1,43.75,2|0,0:3|0:0,0:0:0:0:
417,268,392898,2,0,P|424:288|425:310,1,43.75,8|0,0:0|0:0,0:0:0:0:
309,375,393064,2,0,L|318:321,1,43.75,2|0,0:3|0:0,0:0:0:0:
337,156,393231,6,0,P|259:152|164:128,1,175,2|8,0:0|0:0,0:0:0:0:
316,331,393731,2,0,P|400:308|487:303,1,175,2|2,0:3|0:3,0:0:0:0:
438,109,394231,1,8,0:0:0:0:
414,155,394314,1,2,0:3:0:0:
450,193,394397,1,2,0:3:0:0:
497,170,394481,1,2,0:3:0:0:
490,118,394564,6,0,P|451:117|378:146,1,87.5,2|2,0:0|0:3,0:0:0:0:
316,331,394898,2,0,P|277:332|204:303,1,87.5,8|2,0:0|0:3,0:0:0:0:
200,156,395231,2,0,P|174:150|149:152,1,43.75,2|0,0:0|0:0,0:0:0:0:
55,287,395398,2,0,P|76:287|97:281,1,43.75,2|0,0:0|0:0,0:0:0:0:
9,179,395564,1,8,0:0:0:0:
7,192,395647,1,2,0:0:0:0:
259,85,395814,1,2,0:0:0:0:
261,72,395898,6,0,P|262:28|185:68,1,175,6|8,0:0|0:0,0:0:0:0:
261,227,396398,2,0,P|298:249|302:163,1,175,2|2,0:3|0:3,0:0:0:0:
107,224,396898,1,8,0:0:0:0:
83,178,396981,1,2,0:3:0:0:
119,140,397064,1,2,0:3:0:0:
166,163,397148,1,2,0:3:0:0:
159,215,397231,6,0,P|149:253|157:306,1,87.5,2|2,0:0|0:3,0:0:0:0:
253,145,397564,1,8,0:0:0:0:
340,227,397731,2,0,P|346:270|335:312,1,87.5,2|2,0:3|0:0,0:0:0:0:
159,215,398064,6,0,L|145:161,1,43.75,2|0,0:3|0:0,0:0:0:0:
224,73,398231,2,0,P|222:95|216:116,1,43.75,8|0,0:0|0:0,0:0:0:0:
58,165,398398,2,0,P|39:154|24:137,1,43.75,2|0,0:3|0:0,0:0:0:0:
120,73,398564,6,0,P|178:91|294:104,1,175,2|8,0:0|0:0,0:0:0:0:
422,231,399064,2,0,P|334:238|250:262,1,175,2|2,0:3|0:3,0:0:0:0:
80,200,399564,1,8,0:0:0:0:
126,177,399647,1,2,0:3:0:0:
164,212,399730,1,2,0:3:0:0:
141,259,399814,1,2,0:3:0:0:
89,252,399897,6,0,P|84:303|99:352,1,87.5,2|2,0:0|0:3,0:0:0:0:
319,208,400231,2,0,P|277:178|227:166,1,87.5,8|2,0:0|0:3,0:0:0:0:
240,356,400564,2,0,L|247:303,1,43.75,2|0,0:0|0:0,0:0:0:0:
324,369,400731,2,0,L|331:316,1,43.75,2|0,0:0|0:0,0:0:0:0:
417,139,400898,1,8,0:0:0:0:
417,139,400981,2,0,L|422:182,1,43.75,2|0,0:0|0:0,0:0:0:0:
442,299,401148,1,2,0:0:0:0:
442,299,401231,6,0,B|459:283|490:276|490:276|427:277|362:253,1,175,6|8,0:0|0:0,0:0:0:0:
169,313,401731,2,0,B|152:329|121:336|121:336|184:335|249:359,1,175,2|2,0:3|0:3,0:0:0:0:
287,173,402231,1,8,0:0:0:0:
241,149,402314,1,2,0:3:0:0:
203,185,402397,1,2,0:3:0:0:
226,232,402481,1,2,0:3:0:0:
278,225,402564,6,0,P|280:184|252:131,1,87.5,2|2,0:0|0:3,0:0:0:0:
106,211,402898,1,8,0:0:0:0:
206,325,403064,2,0,P|240:347|300:349,1,87.5,2|2,0:3|0:0,0:0:0:0:
432,233,403398,2,0,P|431:193|427:185,1,43.75,2|0,0:3|0:0,0:0:0:0:
295,118,403565,2,0,P|286:138|285:159,1,43.75,8|0,0:0|0:0,0:0:0:0:
474,117,403732,2,0,P|473:77|469:69,1,43.75,2|0,0:3|0:0,0:0:0:0:
323,271,403898,6,0,B|356:289|402:274|402:274|396:270|396:270|449:260|489:275,1,175,2|8,0:0|0:0,0:0:0:0:
295,118,404398,2,0,B|262:100|216:115|216:115|222:119|222:119|169:129|129:114,1,175,2|2,0:3|0:3,0:0:0:0:
151,276,404898,1,8,0:0:0:0:
197,300,404981,1,2,0:3:0:0:
235,264,405064,1,2,0:3:0:0:
212,217,405148,1,2,0:3:0:0:
160,224,405231,6,0,P|158:265|186:318,1,87.5,2|2,0:0|0:3,0:0:0:0:
349,355,405564,2,0,P|385:336|417:285,1,87.5,8|2,0:0|0:3,0:0:0:0:
291,152,405898,2,0,L|297:196,1,43.75,2|0,0:0|0:0,0:0:0:0:
492,139,406064,2,0,L|498:95,1,43.75,2|0,0:0|0:0,0:0:0:0:
349,53,406231,1,8,0:0:0:0:
351,66,406314,1,2,0:0:0:0:
445,234,406481,1,2,0:0:0:0:
448,221,406564,6,0,B|429:149|338:197|361:263|420:291,1,175,6|8,0:0|0:0,0:0:0:0:
243,93,407064,2,0,B|262:21|353:69|330:135|271:163,1,175,2|2,0:3|0:3,0:0:0:0:
125,249,407564,1,8,0:0:0:0:
171,273,407647,1,2,0:3:0:0:
209,237,407730,1,2,0:3:0:0:
186,190,407814,1,2,0:3:0:0:
134,197,407897,6,0,P|132:238|160:291,1,87.5,2|2,0:0|0:3,0:0:0:0:
257,354,408231,1,8,0:0:0:0:
429,238,408398,2,0,P|416:277|372:317,1,87.5,2|2,0:3|0:0,0:0:0:0:
277,198,408731,2,0,L|324:188,1,43.75,2|0,0:3|0:0,0:0:0:0:
234,320,408898,2,0,P|212:316|191:311,1,43.75,8|0,0:0|0:0,0:0:0:0:
162,117,409064,2,0,P|179:104|199:93,1,43.75,2|0,0:3|0:0,0:0:0:0:
89,242,409231,6,0,B|52:266|2:250|2:250|-4:197|30:166,1,175,2|8,0:0|0:0,0:0:0:0:
206,261,409731,2,0,B|232:291|285:284|285:284|301:234|277:198,1,175,2|2,0:3|0:3,0:0:0:0:
136,86,410231,1,8,0:0:0:0:
182,110,410314,1,2,0:3:0:0:
220,74,410397,1,2,0:3:0:0:
197,27,410481,1,2,0:3:0:0:
145,34,410564,6,0,P|143:75|171:128,1,87.5,2|2,0:0|0:3,0:0:0:0:
308,257,410898,1,8,0:0:0:0:
315,227,410981,1,0,0:0:0:0:
331,201,411064,1,0,0:0:0:0:
357,185,411148,1,0,0:0:0:0:
387,181,411231,2,0,L|394:236,1,43.75,2|0,0:0|0:0,0:0:0:0:
470,172,411398,2,0,L|477:227,1,43.75,2|0,0:0|0:0,0:0:0:0:
320,95,411564,1,8,0:0:0:0:
320,95,411648,2,0,L|327:40,1,43.75,2|0,0:0|0:0,0:0:0:0:
230,86,411814,1,2,0:0:0:0:
230,86,411898,6,0,B|234:44|234:44|236:41|236:41|241:-4,1,87.5,6|8,0:0|0:3,0:0:0:0:
206,230,412231,1,8,0:0:0:0:
90,135,412398,2,0,B|85:93|85:93|83:90|83:90|78:44,1,87.5,8|2,0:3|0:0,0:0:0:0:
320,95,412731,2,0,B|315:136|315:136|313:139|313:139|308:185,1,87.5,8|8,0:3|0:0,0:0:0:0:
118,307,413064,6,0,B|113:265|113:265|111:262|111:262|106:216,2,87.5,8|2|8,0:3|0:0|0:3,0:0:0:0:
267,357,413564,1,8,0:0:0:0:
366,236,413731,2,0,B|391:224|391:224|471:244,1,87.5,8|2,0:3|0:0,0:0:0:0:
216,188,414064,2,0,B|191:176|191:176|111:196,1,87.5,8|8,0:3|0:0,0:0:0:0:
320,95,414398,6,0,B|308:95|345:83|345:83|425:103,1,87.5,8|2,0:3|0:0,0:0:0:0:
284,268,414731,1,8,0:3:0:0:
217,86,414898,1,8,0:0:0:0:
442,180,415064,2,0,B|433:228|433:228|436:233|436:233|426:283,1,87.5,8|2,0:3|0:0,0:0:0:0:
322,89,415398,2,0,B|368:72|368:72|370:67|370:67|419:51,1,87.5,8|8,0:3|0:0,0:0:0:0:
284,268,415731,1,8,0:3:0:0:
182,185,415898,6,0,B|154:132|154:132|174:6,1,175,2|8,0:0|0:0,0:0:0:0:
402,57,416398,1,8,0:3:0:0:
297,87,416564,1,2,0:0:0:0:
392,238,416731,1,2,0:0:0:0:
285,186,416898,1,8,0:0:0:0:
283,199,416981,1,2,0:0:0:0:
463,156,417148,1,2,0:0:0:0:
463,144,417231,6,0,B|425:122|425:122|366:124,1,87.5,2|8,0:0|0:3,0:0:0:0:
213,262,417564,1,8,0:0:0:0:
289,361,417731,2,0,B|334:357|334:357|339:354|339:354|381:350,1,87.5,8|2,0:3|0:0,0:0:0:0:
213,262,418064,2,0,B|168:258|168:258|163:255|163:255|121:251,1,87.5,8|8,0:3|0:0,0:0:0:0:
273,94,418398,6,0,B|295:132|295:132|293:191,2,87.5,8|2|8,0:3|0:0|0:3,0:0:0:0:
160,55,418898,1,8,0:0:0:0:
93,220,419064,2,0,B|71:178|71:178|76:137,1,87.5,8|2,0:3|0:0,0:0:0:0:
219,284,419398,2,0,B|193:322|193:322|155:339,1,87.5,8|8,0:3|0:0,0:0:0:0:
214,148,419731,6,0,B|259:149|259:149|292:174,1,87.5,8|2,0:3|0:0,0:0:0:0:
393,306,420064,1,8,0:3:0:0:
512,214,420231,1,8,0:0:0:0:
393,306,420398,2,0,B|348:302|348:302|343:299|343:299|301:295,1,87.5,8|2,0:3|0:0,0:0:0:0:
214,148,420731,2,0,B|259:144|259:144|264:141|264:141|306:137,1,87.5,8|8,0:3|0:0,0:0:0:0:
470,111,421064,1,8,0:3:0:0:
285,337,421231,6,0,B|275:340|264:354|264:354|271:297|271:297|268:293|268:293|272:290|272:290|280:235|280:235|287:248|298:257,1,175,2|8,0:0|0:0,0:0:0:0:
393,306,421731,1,8,0:3:0:0:
161,280,421898,2,0,P|150:251|150:233,1,43.75,2|0,0:0|0:0,0:0:0:0:
333,121,422064,2,0,P|343:149|343:167,1,43.75,2|0,0:0|0:0,0:0:0:0:
207,65,422231,1,8,0:0:0:0:
207,65,422314,2,0,L|216:118,1,43.75,2|0,0:0|0:0,0:0:0:0:
259,286,422481,1,2,0:0:0:0:
259,286,422564,6,0,B|288:275|309:239|309:239|317:307|375:353,1,183.750001752377,6|0,0:0|0:0,0:0:0:0:
266,377,422898,1,8,0:0:0:0:
423,164,423064,2,0,B|467:161|493:211|493:211|459:256|409:247,1,183.750001752377,2|0,0:3|0:0,0:0:0:0:
243,148,423398,2,0,B|218:110|249:62|249:62|304:69|322:117,1,183.750001752377,2|0,0:3|0:0,0:0:0:0:
318,298,423731,2,0,P|269:277|254:262,1,61.2500005841255,2|0,0:3|0:0,0:0:0:0:
406,72,423898,5,2,0:0:0:0:
420,346,424064,1,2,0:3:0:0:
243,148,424231,1,8,0:0:0:0:
448,226,424398,6,0,B|406:208|363:237|363:237|368:241|368:241|321:274|267:251,1,183.750001752377,2|0,0:3|0:0,0:0:0:0:
93,333,424731,2,0,B|135:315|178:344|178:344|173:348|173:348|220:381|274:358,1,183.750001752377,2|0,0:3|0:0,0:0:0:0:
173,213,425064,1,2,0:3:0:0:
295,34,425231,6,0,B|321:26|352:23|352:23|401:81|356:181,1,183.750001752377,2|0,0:0|0:0,0:0:0:0:
307,228,425564,1,8,0:0:0:0:
92,113,425731,2,0,B|68:122|41:114|41:114|115:75|179:137,1,183.750001752377,2|0,0:3|0:0,0:0:0:0:
307,228,426064,2,0,B|331:237|358:229|358:229|284:190|220:252,1,183.750001752377,2|0,0:3|0:0,0:0:0:0:
162,364,426398,2,0,P|155:313|147:298,1,61.2500005841255,2|0,0:3|0:0,0:0:0:0:
84,221,426564,5,2,0:0:0:0:
312,325,426731,1,2,0:3:0:0:
264,76,426898,1,8,0:0:0:0:
189,214,427064,2,0,P|249:234|308:227,1,122.500001168251,2|2,0:3|0:0,0:0:0:0:
499,109,427398,1,2,0:0:0:0:
453,281,427564,1,8,0:0:0:0:
455,268,427647,1,2,0:0:0:0:
343,32,427814,1,2,0:0:0:0:
347,45,427898,6,0,B|390:30|421:41|421:41|374:3|307:3|255:32,1,245.000002336502,6|8,0:0|0:0,0:0:0:0:
153,142,428398,2,0,P|97:130|47:92,2,105.000004005432,2|2|2,0:3|0:0|0:3,0:0:0:0:
310,260,428898,5,8,0:0:0:0:
343,114,429064,1,2,0:3:0:0:
140,49,429231,5,2,0:0:0:0:
249,150,429397,1,2,0:3:0:0:
404,17,429564,5,8,0:0:0:0:
334,227,429731,2,0,P|325:275|390:212,1,210.000008010865,2|2,0:3|0:3,0:0:0:0:
249,150,430231,2,0,P|196:173|142:173,1,105.000004005432,8|2,0:0|0:3,0:0:0:0:
291,50,430564,6,0,B|341:36|390:72|390:72|382:75|382:75|425:105|474:96,1,210.000008010865,2|8,0:0|0:0,0:0:0:0:
334,227,431064,2,0,P|318:289|317:343,2,105.000004005432,2|2|2,0:3|0:0|0:3,0:0:0:0:
153,81,431564,1,8,0:0:0:0:
209,260,431731,1,2,0:3:0:0:
385,109,431898,5,2,0:0:0:0:
348,116,431981,1,8,0:3:0:0:
312,124,432064,1,2,0:3:0:0:
209,260,432231,1,8,0:0:0:0:
240,242,432314,1,2,0:3:0:0:
277,242,432398,1,8,0:3:0:0:
309,258,432481,1,2,0:3:0:0:
324,290,432564,2,0,P|332:324|332:358,1,52.5000020027161,2|0,0:0|0:0,0:0:0:0:
153,161,432731,2,0,P|158:131|170:107,1,52.5000020027161,2|0,0:0|0:0,0:0:0:0:
298,24,432898,1,8,0:0:0:0:
298,24,432981,2,0,L|288:80,1,52.5000020027161,2|0,0:0|0:0,0:0:0:0:
462,113,433148,1,2,0:0:0:0:
462,113,433231,6,0,B|402:98|402:98|355:143|365:218,1,183.750001752377,6|0,0:0|0:0,0:0:0:0:
426,283,433564,1,8,0:0:0:0:
204,128,433731,6,0,P|227:61|276:131,1,183.750001752377,2|0,0:3|0:0,0:0:0:0:
199,282,434064,2,0,P|129:294|165:217,1,183.750001752377,2|0,0:3|0:0,0:0:0:0:
327,213,434398,2,0,P|318:242|301:267,1,61.2500005841255,2|0,0:3|0:0,0:0:0:0:
80,132,434564,5,2,0:0:0:0:
325,76,434731,1,2,0:3:0:0:
31,55,434898,1,8,0:0:0:0:
199,282,435064,2,0,P|203:194|181:101,1,183.750001752377,2|0,0:3|0:0,0:0:0:0:
325,76,435398,2,0,P|250:123|159:150,1,183.750001752377,2|0,0:3|0:0,0:0:0:0:
31,55,435731,1,2,0:3:0:0:
199,282,435898,6,0,B|240:300|286:267|286:267|326:234|380:256,1,183.750001752377,2|0,0:0|0:0,0:0:0:0:
446,307,436231,1,8,0:0:0:0:
257,126,436398,2,0,B|245:100|238:69|238:69|242:131|224:199,1,183.750001752377,2|0,0:3|0:0,0:0:0:0:
340,319,436731,2,0,B|352:345|359:376|359:376|355:314|373:246,1,183.750001752377,2|0,0:3|0:0,0:0:0:0:
174,288,437064,2,0,P|212:298|238:298,1,61.2500005841255,2|0,0:3|0:0,0:0:0:0:
380,126,437231,5,2,0:0:0:0:
102,154,437398,1,2,0:3:0:0:
314,235,437564,1,8,0:0:0:0:
235,32,437731,2,0,P|223:111|220:204,1,122.500001168251,2|2,0:3|0:0,0:0:0:0:
340,319,438064,1,2,0:0:0:0:
482,189,438231,1,8,0:0:0:0:
469,191,438314,1,2,0:0:0:0:
235,32,438481,1,2,0:0:0:0:
246,30,438564,6,0,B|311:-13|372:97|260:138|198:98,1,210.000008010865,6|8,0:0|0:0,0:0:0:0:
100,191,439064,2,0,P|49:165|-15:151,2,105.000004005432,2|2|2,0:3|0:0|0:3,0:0:0:0:
180,311,439564,5,8,0:0:0:0:
214,99,439731,1,2,0:3:0:0:
317,276,439898,5,2,0:0:0:0:
100,191,440064,1,2,0:3:0:0:
285,38,440231,1,8,0:0:0:0:
317,276,440398,6,0,B|284:262|254:272|254:272|286:242|357:232|407:255,1,210.000008010865,2|2,0:3|0:3,0:0:0:0:
274,374,440898,2,0,P|218:372|175:347,1,105.000004005432,8|2,0:0|0:3,0:0:0:0:
204,163,441231,6,0,B|271:149|271:149|331:190|314:293,1,210.000008010865,2|8,0:0|0:0,0:0:0:0:
442,367,441731,2,0,P|440:306|418:262,2,105.000004005432,2|2|2,0:3|0:0|0:3,0:0:0:0:
142,263,442231,1,8,0:0:0:0:
338,334,442398,1,2,0:3:0:0:
479,157,442564,5,2,0:0:0:0:
483,193,442648,1,8,0:3:0:0:
489,229,442731,1,2,0:3:0:0:
272,141,442898,1,8,0:0:0:0:
281,105,442981,1,2,0:3:0:0:
307,79,443064,1,8,0:3:0:0:
343,70,443148,1,2,0:3:0:0:
379,75,443231,2,0,L|371:135,1,52.5000020027161,2|0,0:0|0:0,0:0:0:0:
227,262,443398,6,0,P|226:236|216:212,1,52.5000020027161,2|0,0:0|0:0,0:0:0:0:
17,177,443565,2,0,P|41:189|67:193,1,52.5000020027161,8|2,0:0|0:0,0:0:0:0:
214,48,443732,2,0,P|192:63|176:84,1,52.5000020027161,2|2,0:3|0:0,0:0:0:0:
144,166,443898,6,0,B|140:110|140:110|145:105|145:105|142:58,1,105.000004005432,2|0,0:0|0:0,0:0:0:0:
332,133,444148,2,0,B|284:158|284:158|233:144,1,105.000004005432,2|0,0:0|0:0,0:0:0:0:
50,31,444398,2,0,L|53:84,1,52.5000020027161,2|0,0:0|0:0,0:0:0:0:
226,242,444564,6,0,B|249:191|249:191|231:135,1,105.000004005432,2|0,0:0|0:0,0:0:0:0:
126,295,444814,2,0,B|158:340|158:340|216:353,1,105.000004005432,2|0,0:0|0:0,0:0:0:0:
130,188,445064,2,0,L|66:180,1,52.5000020027161,2|0,0:0|0:0,0:0:0:0:
293,81,445231,5,6,0:0:0:0:
399,238,445398,1,2,0:3:0:0:
424,106,445564,1,8,0:0:0:0:
268,212,445731,1,2,0:3:0:0:
448,298,445898,5,2,0:0:0:0:
424,106,446064,1,2,0:3:0:0:
268,212,446231,1,8,0:0:0:0:
399,238,446398,1,2,0:3:0:0:
293,81,446564,5,2,0:0:0:0:
308,316,446731,1,2,0:3:0:0:
485,169,446898,1,8,0:0:0:0:
226,137,447064,1,2,0:3:0:0:
128,355,447231,5,2,0:0:0:0:
286,212,447398,1,2,0:3:0:0:
60,134,447564,1,8,0:0:0:0:
237,324,447731,1,2,0:3:0:0:
308,83,447898,5,2,0:0:0:0:
121,238,448064,1,2,0:3:0:0:
298,89,448231,1,8,0:0:0:0:
136,148,448398,1,2,0:3:0:0:
362,139,448564,5,2,0:0:0:0:
294,320,448730,1,2,0:3:0:0:
355,150,448897,1,8,0:0:0:0:
252,249,449064,1,2,0:3:0:0:
444,150,449231,5,2,0:0:0:0:
469,303,449397,1,2,0:3:0:0:
446,163,449564,1,8,0:0:0:0:
399,265,449731,1,2,0:3:0:0:
212,158,449898,5,2,0:0:0:0:
395,57,450064,1,2,0:3:0:0:
264,36,450231,1,8,0:0:0:0:
268,47,450314,1,2,0:0:0:0:
308,248,450481,1,2,0:0:0:0:
304,238,450564,5,6,0:0:0:0:
317,106,450731,1,2,0:3:0:0:
187,92,450898,1,8,0:0:0:0:
172,223,451064,1,2,0:3:0:0:
411,304,451231,5,2,0:0:0:0:
395,153,451398,1,2,0:3:0:0:
261,321,451565,1,8,0:0:0:0:
244,170,451731,1,2,0:3:0:0:
459,222,451898,5,2,0:0:0:0:
332,49,452064,1,2,0:3:0:0:
332,266,452231,1,8,0:0:0:0:
429,88,452398,1,2,0:3:0:0:
169,54,452564,5,2,0:0:0:0:
254,305,452731,1,2,0:3:0:0:
429,88,452898,1,8,0:0:0:0:
155,187,453064,1,2,0:3:0:0:
375,332,453231,5,2,0:0:0:0:
349,164,453398,1,2,0:3:0:0:
254,305,453564,1,8,0:0:0:0:
152,137,453731,5,2,0:3:0:0:
254,305,453898,1,2,0:0:0:0:
285,111,454064,1,2,0:3:0:0:
285,111,454231,1,8,0:0:0:0:
438,256,454398,5,2,0:3:0:0:
381,34,454564,1,2,0:0:0:0:
261,226,454731,1,2,0:3:0:0:
476,92,454898,1,8,0:0:0:0:
441,92,454981,1,0,0:0:0:0:
408,105,455064,1,2,0:3:0:0:
384,131,455148,1,0,0:0:0:0:
374,164,455231,2,0,L|382:218,1,35,2|0,0:0|0:0,0:0:0:0:
291,177,455398,2,0,L|299:231,1,35,2|0,0:0|0:0,0:0:0:0:
141,74,455564,1,8,0:0:0:0:
141,74,455648,2,0,L|133:128,1,35,2|0,0:0|0:0,0:0:0:0:
224,87,455814,1,2,0:0:0:0:
224,87,455898,6,0,L|216:141,1,35,6|0,0:0|0:0,0:0:0:0:
193,375,456064,1,6,0:0:0:0:
193,375,457064,6,0,B|131:212|-6:323|95:444|204:328|204:328|252:296|252:296|381:201|477:360|322:421|252:296|252:296|190:209|122:200|58:220|58:220|167:200|263:21|13:-23|29:136|29:136|158:93|278:169|278:169|367:229|491:226|588:48|460:-53|368:-91|238:-30|249:113|361:195|431:83|362:54,1,2240,4|0,0:0|0:0,0:0:0:0:
