osu file format v14

[General]
AudioFilename: Rose Bud.mp3
AudioLeadIn: 0
PreviewTime: 397343
Countdown: 0
SampleSet: Soft
StackLeniency: 0.5
Mode: 0
LetterboxInBreaks: 1
EpilepsyWarning: 1
WidescreenStoryboard: 1

[Editor]
Bookmarks: 3039,45039,84039,108039,118417,128795,149552,170309,180687,201444,222201,224795,242957,253336,271498,289660,300039,310255,320633,337043,348014,358986,380929,391900,397386,416586,427557,438529,460472,471443,489272,500243,502986,512586,528357,539328,550299,555785,574985,585957,594185,605157,624357,635328,646299,668242,679691,692491,734091
DistanceSpacing: 1.4
BeatDivisor: 6
GridSize: 4
TimelineZoom: 2.899999

[Metadata]
Title:Rose Bud -I. into the sorrow- / -II. into the fear of desire-
TitleUnicode:Rose Bud -Ⅰ. into the sorrow- / -Ⅱ. into the fear of desire-
Artist:Eternal Melody
ArtistUnicode:Eternal Melody
Creator:Plaudible
Version:The Blossoms of Redemption
Source:
Tags:黒崎朔夜 sakuya kurosaki japanese rock C90 ALUCARD Comiket 90 Marathon 葵 kibbleru
BeatmapID:2496130
BeatmapSetID:1198525

[Difficulty]
HPDrainRate:6
CircleSize:4
OverallDifficulty:8.5
ApproachRate:9.2
SliderMultiplier:2
SliderTickRate:1

[Events]
//Background and Video events
0,0,"thumb-1920-654377.jpg",0,0
//Break Periods
//Storyboard Layer 0 (Background)
//Storyboard Layer 1 (Fail)
//Storyboard Layer 2 (Pass)
//Storyboard Layer 3 (Foreground)
//Storyboard Layer 4 (Overlay)
//Storyboard Sound Samples

[TimingPoints]
3039,750,4,2,90,50,1,0
3039,-90.9090909090909,4,2,90,50,0,0
10789,-100,4,2,91,50,0,0
11289,-100,4,2,90,50,0,0
11539,-100,4,2,91,50,0,0
12039,-100,4,2,90,50,0,0
12289,-100,4,2,91,50,0,0
12789,-100,4,2,90,50,0,0
14039,-100,4,2,91,50,0,0
14289,-100,4,2,92,50,0,0
14539,-100,4,2,91,50,0,0
15039,-100,4,2,92,50,0,0
15289,-100,4,2,90,50,0,0
17289,-333.333333333334,4,2,90,50,0,0
18039,-83.3333333333333,4,2,90,50,0,0
18289,-83.3333333333333,4,2,91,50,0,0
18789,-100,4,2,90,50,0,0
19039,-100,4,2,91,50,0,0
19539,-125,4,2,90,50,0,0
19789,-125,4,2,91,50,0,0
20289,-166.666666666667,4,2,90,50,0,0
20539,-166.666666666667,4,2,91,50,0,0
21039,-100,4,2,90,50,0,0
22539,-83.3333333333333,4,2,90,50,0,0
23039,-83.3333333333333,4,2,91,50,0,0
23289,-83.3333333333333,4,2,90,50,0,0
23789,-83.3333333333333,4,2,91,50,0,0
24039,-125,4,2,90,50,0,0
24289,-125,4,2,92,50,0,0
24539,-125,4,2,90,50,0,0
25039,-125,4,2,92,50,0,0
25289,-125,4,2,90,50,0,0
25789,-125,4,2,92,50,0,0
26039,-125,4,2,91,50,0,0
26289,-90.9090909090909,4,2,90,50,0,0
26539,-90.9090909090909,4,2,92,50,0,0
26789,-90.9090909090909,4,2,91,50,0,0
27039,-333.333333333333,4,2,90,50,0,0
27289,-333.333333333333,4,2,92,50,0,0
27539,-333.333333333333,4,2,90,50,0,0
28039,-333.333333333333,4,2,92,50,0,0
28289,-333.333333333333,4,2,90,50,0,0
28789,-333.333333333333,4,2,92,50,0,0
29039,-333.333333333333,4,2,90,50,0,0
29539,-333.333333333333,4,2,92,50,0,0
29789,-333.333333333333,4,2,90,50,0,0
30039,-333.333333333333,4,2,92,50,0,0
30539,-333.333333333333,4,2,90,50,0,0
30789,-333.333333333333,4,2,92,50,0,0
31289,-333.333333333333,4,2,90,50,0,0
31539,-333.333333333333,4,2,92,50,0,0
32039,-333.333333333333,4,2,90,50,0,0
32289,-166.666666666667,4,2,92,50,0,0
32789,-166.666666666667,4,2,90,50,0,0
33039,-83.3333333333333,4,2,92,50,0,0
33539,-83.3333333333333,4,2,93,50,0,0
33789,-100,4,2,92,50,0,0
34289,-100,4,2,93,50,0,0
34539,-125,4,2,92,50,0,0
35039,-125,4,2,93,50,0,0
35289,-111.111111111111,4,2,92,50,0,0
35789,-111.111111111111,4,2,93,50,0,0
36039,-142.857142857143,4,2,70,50,0,0
36289,-142.857142857143,4,2,93,50,0,0
36539,-142.857142857143,4,2,90,50,0,0
36789,-125,4,2,70,75,0,0
37039,-125,4,2,92,50,0,0
37289,-125,4,2,90,50,0,0
37539,-83.3333333333333,4,2,70,75,0,0
37789,-83.3333333333333,4,2,90,75,0,0
38289,-100,4,2,92,50,0,0
38539,-100,4,2,90,50,0,0
39039,-142.857142857143,4,2,92,50,0,0
39539,-142.857142857143,4,2,91,50,0,0
39789,-142.857142857143,4,2,92,50,0,0
40289,-142.857142857143,4,2,91,50,0,0
40539,-100,4,2,92,50,0,0
41039,-100,4,2,90,50,0,0
41289,-125,4,2,92,50,0,0
41789,-125,4,2,90,50,0,0
42039,-500,4,2,92,50,0,0
42539,-500,4,2,91,50,0,0
42789,-500,4,2,92,50,0,0
43289,-500,4,2,91,50,0,0
43539,-370.37037037037,4,2,92,50,0,0
43789,-370.37037037037,4,2,93,50,0,0
44039,-370.37037037037,4,2,90,50,0,0
44289,-370.37037037037,4,2,92,50,0,0
44539,-370.37037037037,4,2,93,50,0,0
44789,-370.37037037037,4,2,90,50,0,0
45039,-100,4,2,10,75,0,0
45414,-100,4,2,10,50,0,0
45789,-100,4,2,10,75,0,0
45976,-100,4,2,10,50,0,0
46164,-100,4,2,10,75,0,0
46351,-100,4,2,10,50,0,0
46539,-166.666666666667,4,2,10,50,0,0
47289,-111.111111111111,4,2,10,75,0,0
47476,-111.111111111111,4,2,10,50,0,0
47664,-111.111111111111,4,2,10,75,0,0
47851,-111.111111111111,4,2,10,50,0,0
48039,-100,4,2,10,75,0,0
48226,-100,4,2,10,50,0,0
48789,-100,4,2,10,75,0,0
48976,-100,4,2,10,50,0,0
49164,-100,4,2,10,75,0,0
49351,-100,4,2,10,50,0,0
49539,-66.6666666666667,4,2,10,50,0,0
50289,-100,4,2,10,75,0,0
50476,-100,4,2,10,50,0,0
50664,-100,4,2,10,75,0,0
50851,-100,4,2,10,50,0,0
52539,-166.666666666667,4,2,10,50,0,0
53289,-111.111111111111,4,2,10,75,0,0
53476,-111.111111111111,4,2,10,50,0,0
53664,-111.111111111111,4,2,10,75,0,0
53851,-111.111111111111,4,2,10,50,0,0
54039,-100,4,2,10,75,0,0
54226,-100,4,2,10,50,0,0
54414,-100,4,2,10,75,0,0
54601,-100,4,2,10,50,0,0
54789,-100,4,2,10,75,0,0
54976,-100,4,2,10,50,0,0
55539,-66.6666666666667,4,2,10,75,0,0
55726,-66.6666666666667,4,2,10,50,0,0
55914,-66.6666666666667,4,2,10,75,0,0
56101,-66.6666666666667,4,2,10,50,0,0
56289,-111.111111111111,4,2,10,50,0,0
57039,-100,4,2,10,75,0,0
57226,-100,4,2,10,50,0,0
57414,-100,4,2,10,75,0,0
57601,-100,4,2,10,50,0,0
57789,-100,4,2,10,75,0,0
57976,-100,4,2,10,50,0,0
58539,-100,4,2,10,75,0,0
58726,-100,4,2,10,50,0,0
58914,-100,4,2,10,75,0,0
59101,-100,4,2,10,50,0,0
59289,-100,4,2,10,75,0,0
59476,-100,4,2,10,50,0,0
60039,-100,4,2,10,75,0,0
60226,-100,4,2,10,50,0,0
60414,-100,4,2,10,75,0,0
60601,-100,4,2,10,50,0,0
60789,-100,4,2,10,75,0,0
60976,-100,4,2,10,50,0,0
61914,-100,4,2,10,75,0,0
62101,-100,4,2,10,50,0,0
62289,-100,4,2,10,75,0,0
62476,-100,4,2,10,50,0,0
63039,-100,4,2,10,75,0,0
63226,-100,4,2,10,50,0,0
63414,-100,4,2,10,75,0,0
63601,-100,4,2,10,50,0,0
64164,-100,4,2,10,75,0,0
64351,-100,4,2,10,50,0,0
64539,-100,4,2,10,75,0,0
64726,-100,4,2,10,50,0,0
65289,-100,4,2,10,75,0,0
65476,-100,4,2,10,50,0,0
65664,-100,4,2,10,75,0,0
65851,-100,4,2,10,50,0,0
66039,-111.111111111111,4,2,10,50,0,0
67164,-111.111111111111,4,2,10,75,0,0
67351,-111.111111111111,4,2,10,50,0,0
67539,-166.666666666667,4,2,10,75,0,0
67726,-166.666666666667,4,2,10,50,0,0
68289,-111.111111111111,4,2,10,75,0,0
68476,-111.111111111111,4,2,10,50,0,0
68664,-111.111111111111,4,2,10,75,0,0
68851,-111.111111111111,4,2,10,50,0,0
69039,-166.666666666667,4,2,10,75,0,0
69226,-166.666666666667,4,2,10,50,0,0
69789,-133.333333333333,4,2,10,75,0,0
69976,-133.333333333333,4,2,10,50,0,0
70164,-133.333333333333,4,2,10,75,0,0
70351,-133.333333333333,4,2,10,50,0,0
70539,-111.111111111111,4,2,10,50,0,0
71289,-100,4,2,10,50,0,0
71664,-100,4,2,10,75,0,0
71851,-100,4,2,10,50,0,0
72039,-100,4,2,10,75,0,0
72226,-100,4,2,10,50,0,0
72789,-100,4,2,10,75,0,0
72976,-100,4,2,10,50,0,0
73164,-100,4,2,10,75,0,0
73351,-100,4,2,10,50,0,0
73539,-166.666666666667,4,2,10,50,0,0
73914,-166.666666666667,4,2,10,75,0,0
74101,-166.666666666667,4,2,10,50,0,0
74289,-100,4,2,10,75,0,0
74476,-100,4,2,10,50,0,0
75039,-100,4,2,10,75,0,0
75226,-100,4,2,10,50,0,0
75414,-100,4,2,10,75,0,0
75601,-100,4,2,10,50,0,0
76539,-166.666666666667,4,2,10,50,0,0
76914,-166.666666666667,4,2,10,75,0,0
77101,-166.666666666667,4,2,10,50,0,0
77289,-100,4,2,10,75,0,0
77476,-100,4,2,10,50,0,0
78039,-100,4,2,10,75,0,0
78226,-100,4,2,10,50,0,0
78414,-100,4,2,10,75,0,0
78601,-100,4,2,10,50,0,0
79539,-166.666666666667,4,2,10,75,0,0
79726,-166.666666666667,4,2,10,50,0,0
79914,-166.666666666667,4,2,10,75,0,0
80101,-166.666666666667,4,2,10,50,0,0
80289,-111.111111111111,4,2,10,50,0,0
81039,-100,4,2,10,50,0,0
81414,-100,4,2,10,75,0,0
81601,-100,4,2,10,50,0,0
81789,-100,4,2,10,75,0,0
81976,-100,4,2,10,50,0,0
82539,-100,4,2,10,75,0,0
82726,-100,4,2,10,50,0,0
82914,-100,4,2,10,75,0,0
83101,-100,4,2,10,50,0,0
83664,-100,4,2,10,75,0,0
83851,-100,4,2,10,50,0,0
84039,-100,4,2,10,75,0,0
84289,-100,4,2,91,75,0,0
84789,-83.3333333333333,4,2,93,100,0,0
85039,-83.3333333333333,4,2,91,75,0,0
85539,-83.3333333333333,4,2,94,100,0,0
85789,-83.3333333333333,4,2,91,75,0,0
86289,-83.3333333333333,4,2,91,100,0,0
86539,-83.3333333333333,4,2,91,75,0,0
87039,-100,4,2,70,100,0,0
87289,-100,4,2,91,75,0,0
87789,-100,4,2,90,100,0,0
88039,-100,4,2,91,75,0,0
88539,-125,4,2,90,100,0,0
88789,-125,4,2,91,75,0,0
89289,-125,4,2,92,100,0,0
89539,-125,4,2,91,75,0,0
90039,-125,4,2,94,100,0,0
90289,-125,4,2,90,75,0,0
90539,-125,4,2,93,75,0,0
90789,-125,4,2,94,100,0,0
91039,-125,4,2,90,75,0,0
91289,-125,4,2,93,75,0,0
91539,-125,4,2,94,100,0,0
91789,-125,4,2,90,75,0,0
92039,-125,4,2,93,75,0,0
92289,-125,4,2,94,100,0,0
92539,-125,4,2,90,75,0,0
92789,-125,4,2,93,75,0,0
93039,-125,4,2,70,100,0,0
93289,-125,4,2,94,75,0,0
93539,-125,4,2,90,75,0,0
93789,-125,4,2,90,100,0,0
94039,-125,4,2,94,75,0,0
94289,-125,4,2,90,75,0,0
94539,-125,4,2,90,100,0,0
94789,-125,4,2,94,75,0,0
95039,-125,4,2,90,75,0,0
95289,-125,4,2,90,100,0,0
95539,-125,4,2,94,75,0,0
95789,-125,4,2,90,75,0,0
96039,-125,4,2,70,100,0,0
96289,-125,4,2,90,100,0,0
96539,-125,4,2,92,100,0,0
96789,-125,4,2,91,100,0,0
97039,-125,4,2,90,100,0,0
97289,-125,4,2,91,100,0,0
98289,-125,4,2,94,100,0,0
98539,-125,4,2,91,100,0,0
98789,-125,4,2,95,100,0,0
99039,-125,4,2,70,100,0,0
99289,-125,4,2,92,100,0,0
99539,-125,4,2,90,100,0,0
100289,-125,4,2,93,100,0,0
100539,-125,4,2,90,100,0,0
100789,-125,4,2,94,100,0,0
101039,-125,4,2,93,100,0,0
101289,-125,4,2,94,100,0,0
101789,-125,4,2,93,100,0,0
102039,-125,4,2,70,100,0,0
102289,-125,4,2,95,100,0,0
102539,-125,4,2,90,100,0,0
102789,-125,4,2,95,100,0,0
103289,-125,4,2,94,100,0,0
103539,-125,4,2,95,100,0,0
103789,-125,4,2,94,100,0,0
104289,-125,4,2,95,100,0,0
104539,-125,4,2,94,100,0,0
104789,-125,4,2,96,100,0,0
105039,-125,4,2,70,100,0,0
105289,-125,4,2,95,100,0,0
105539,-125,4,2,94,100,0,0
105789,-125,4,2,96,100,0,0
106039,-125,4,2,95,100,0,0
106289,-125,4,2,96,100,0,0
107289,-125,4,2,97,100,0,0
107539,-125,4,2,96,100,0,0
107789,-125,4,2,97,100,0,0
108039,324.324324324324,4,2,50,100,1,0
108039,-111.111111111111,4,2,50,90,0,0
110633,-133.333333333333,4,2,50,80,0,0
113228,-111.111111111111,4,2,50,90,0,0
128795,-90.9090909090909,4,2,50,75,0,0
129282,-142.857142857143,4,2,50,75,0,0
131390,-90.9090909090909,4,2,50,75,0,0
131876,-142.857142857143,4,2,50,75,0,0
133984,-90.9090909090909,4,2,50,75,0,0
134470,-142.857142857143,4,2,50,75,0,0
135282,-100,4,2,50,75,0,0
135768,-142.857142857143,4,2,50,75,0,0
136579,-100,4,2,50,75,0,0
137065,-142.857142857143,4,2,50,75,0,0
139174,-90.9090909090909,4,2,50,75,0,0
139660,-142.857142857143,4,2,50,75,0,0
141768,-90.9090909090909,4,2,50,75,0,0
142254,-142.857142857143,4,2,50,75,0,0
144363,-90.9090909090909,4,2,50,75,0,0
144849,-142.857142857143,4,2,50,75,0,0
145660,-100,4,2,50,75,0,0
146146,-142.857142857143,4,2,50,75,0,0
146957,-100,4,2,50,75,0,0
147443,-142.857142857143,4,2,50,75,0,0
149228,-90.909090909091,4,2,50,75,0,0
149552,-111.111111111111,4,2,50,90,0,0
170147,-133.333333333333,4,2,50,90,0,0
180687,-90.9090909090909,4,2,50,75,0,0
181174,-142.857142857143,4,2,50,75,0,0
183282,-90.9090909090909,4,2,50,75,0,0
183768,-142.857142857143,4,2,50,75,0,0
185876,-90.9090909090909,4,2,50,75,0,0
186362,-142.857142857143,4,2,50,75,0,0
187174,-100,4,2,50,75,0,0
187660,-142.857142857143,4,2,50,75,0,0
188471,-100,4,2,50,75,0,0
188957,-142.857142857143,4,2,50,75,0,0
191066,-90.9090909090909,4,2,50,75,0,0
191552,-142.857142857143,4,2,50,75,0,0
193660,-90.9090909090909,4,2,50,75,0,0
194146,-142.857142857143,4,2,50,75,0,0
196255,-90.9090909090909,4,2,50,75,0,0
196741,-142.857142857143,4,2,50,75,0,0
197552,-100,4,2,50,75,0,0
198038,-142.857142857143,4,2,50,75,0,0
198849,-100,4,2,50,75,0,0
199335,-142.857142857143,4,2,50,75,0,0
201120,-90.909090909091,4,2,50,75,0,0
201444,-111.111111111111,4,2,50,90,0,0
224795,-83.3333333333333,4,2,50,100,0,1
230471,-111.111111111111,4,2,50,100,0,1
231930,-83.3333333333333,4,2,50,100,0,1
233714,-111.111111111111,4,2,50,100,0,1
235174,-83.3333333333333,4,2,50,100,0,1
236957,-100,4,2,50,100,0,1
237444,-125,4,2,50,100,0,1
237930,-111.111111111111,4,2,50,100,0,1
240363,-83.3333333333333,4,2,50,100,0,1
242957,-133.333333333333,4,2,50,90,0,0
253336,-100,4,2,50,90,0,0
266309,-83.3333333333333,4,2,50,90,0,0
268903,-100,4,2,50,90,0,0
271011,-71.4285714285714,4,2,50,90,0,0
271498,-83.3333333333333,4,2,50,100,0,1
277174,-111.111111111111,4,2,50,100,0,1
278795,-83.3333333333333,4,2,50,100,0,1
280579,-111.111111111111,4,2,50,100,0,1
281390,-83.3333333333333,4,2,50,100,0,1
281876,-83.3333333333333,4,2,50,100,0,1
283660,-100,4,2,50,100,0,1
284147,-125,4,2,50,100,0,1
284633,-111.111111111111,4,2,50,100,0,1
287390,-83.3333333333333,4,2,50,100,0,1
289660,-111.111111111111,4,2,50,90,0,0
300038,-83.3333333333333,4,2,50,90,0,0
310255,324.324324324324,4,2,50,90,1,0
310255,-200,4,2,50,90,0,0
310579,-133.333333333333,4,2,50,90,0,0
311227,-100,4,2,50,90,0,0
311876,-80,4,2,50,90,0,0
314795,-100,4,2,50,90,0,0
315444,-200,4,2,50,90,0,0
315768,-133.333333333333,4,2,50,90,0,0
316416,-100,4,2,50,90,0,0
317065,-80,4,2,50,90,0,0
319984,-100,4,2,50,90,0,0
320633,335.195530726257,4,2,50,90,1,0
320633,-133.333333333333,4,2,50,75,0,0
321973,337.078651685393,4,2,50,75,1,0
321973,-133.333333333333,4,2,50,75,0,0
323321,338.983050847458,4,2,50,75,1,0
323321,-133.333333333333,4,2,50,75,0,0
324676,348.837209302326,4,2,50,75,1,0
324676,-133.333333333333,4,2,50,75,0,0
326072,342.857142857143,4,2,50,90,1,0
326072,-100,4,2,50,90,0,0
341672,-80,4,2,50,90,0,0
342014,-100,4,2,50,90,0,0
358986,-133.333333333333,4,2,50,75,0,0
380929,-100,4,2,50,90,0,0
397386,-133.333333333333,4,2,50,100,0,1
397729,-80,4,2,50,100,0,1
398072,-57.1428571428571,4,2,50,100,0,1
398586,-80,4,2,50,100,0,1
408357,-133.333333333333,4,2,50,100,0,1
408700,-80,4,2,50,100,0,1
409043,-57.1428571428571,4,2,50,100,0,1
409557,-80,4,2,50,100,0,1
416586,-100,4,2,50,90,0,0
421214,-80,4,2,50,90,0,0
421557,-100,4,2,50,90,0,0
460472,-90.9090909090909,4,2,50,90,0,0
462357,-80,4,2,50,90,0,0
462872,-90.9090909090909,4,2,50,90,0,0
464586,-80,4,2,50,90,0,0
465272,-90.9090909090909,4,2,50,90,0,0
465957,-90.9090909090909,4,2,50,90,0,1
471443,-166.666666666667,4,2,50,90,0,0
472129,-125,4,2,50,90,0,0
472814,-100,4,2,50,90,0,0
473500,-125,4,2,50,90,0,0
474186,-166.666666666667,4,2,50,90,0,0
477614,-125,4,2,50,90,0,0
478299,-100,4,2,50,90,0,0
478985,-125,4,2,50,90,0,0
479329,-100,4,2,50,90,0,0
479671,-200,4,2,50,90,0,0
482414,-100,4,2,50,90,0,0
483786,-166.666666666667,4,2,50,90,0,0
484472,-125,4,2,50,90,0,0
485157,-100,4,2,50,90,0,0
485843,-125,4,2,50,90,0,0
486529,-166.666666666667,4,2,50,90,0,0
489272,-125,4,2,50,90,0,0
502986,257.510729613734,4,2,50,100,1,1
504187,257.510729613734,4,2,50,100,1,1
505388,257.510729613734,4,2,50,100,1,1
506589,257.510729613734,4,2,50,100,1,1
507790,257.510729613734,4,2,50,100,1,1
508991,257.510729613734,4,2,50,100,1,1
510192,257.510729613734,4,2,50,100,1,1
511393,257.510729613734,4,2,50,100,1,1
512586,342.857142857143,4,2,50,100,1,0
513614,-166.666666666667,4,2,50,100,0,0
526471,-125,4,2,50,100,0,0
528357,342.857142857143,4,2,50,100,1,0
528357,-100,4,2,50,100,0,0
555785,-133.333333333333,4,2,50,100,0,1
556128,-80,4,2,50,100,0,1
556471,-57.1428571428571,4,2,50,100,0,1
556985,-80,4,2,50,100,0,1
566757,-133.333333333333,4,2,50,100,0,1
567099,-80,4,2,50,100,0,1
567442,-57.1428571428571,4,2,50,100,0,1
567785,-80,4,2,50,100,0,1
574985,-90.909090909091,4,2,50,100,0,0
585957,-133.333333333333,4,2,50,100,0,1
586300,-80,4,2,50,100,0,1
586643,-57.1428571428571,4,2,50,100,0,1
587157,-80,4,2,50,100,0,1
594185,-100,4,2,50,100,0,0
598814,-80,4,2,50,90,0,0
599157,-100,4,2,50,90,0,0
605157,-100,4,2,30,100,0,0
605499,-100,4,2,31,100,0,0
605585,-100,4,2,30,100,0,0
605757,-100,4,2,31,100,0,0
605928,-100,4,2,30,100,0,0
606014,-100,4,2,31,100,0,0
606871,-100,4,2,32,100,0,0
606957,-100,4,2,31,100,0,0
607128,-100,4,2,32,100,0,0
607299,-100,4,2,31,100,0,0
607385,-100,4,2,32,100,0,0
607557,-80,4,2,70,100,0,1
607899,-100,4,2,32,100,0,0
607985,-100,4,2,30,100,0,0
608071,-100,4,2,33,100,0,0
608242,-100,4,2,31,100,0,0
608328,-100,4,2,33,100,0,0
608499,-100,4,2,31,100,0,0
608585,-100,4,2,33,100,0,0
608757,-100,4,2,31,100,0,0
608842,-100,4,2,33,100,0,0
608928,-100,4,2,34,100,0,0
609014,-100,4,2,31,100,0,0
609099,-100,4,2,33,100,0,0
609185,-100,4,2,34,100,0,0
609271,-100,4,2,31,100,0,0
609357,-100,4,2,33,100,0,0
609443,-100,4,2,34,100,0,0
609528,-100,4,2,31,100,0,0
609614,-100,4,2,33,100,0,0
609699,-100,4,2,34,100,0,0
609785,-100,4,2,31,100,0,0
609871,-100,4,2,33,100,0,0
609957,-100,4,2,34,100,0,0
610042,-100,4,2,31,100,0,0
610128,-100,4,2,33,100,0,0
610214,-100,4,2,34,100,0,0
610299,-80,4,2,70,100,0,1
610385,-80,4,2,30,100,0,1
610471,-80,4,2,70,100,0,1
610557,-80,4,2,30,100,0,1
610642,-100,4,2,34,100,0,0
610728,-100,4,2,30,100,0,0
610814,-100,4,2,34,100,0,0
610899,-100,4,2,31,100,0,0
611071,-100,4,2,34,100,0,0
611157,-100,4,2,31,100,0,0
611328,-100,4,2,35,100,0,0
611414,-100,4,2,31,100,0,0
611585,-100,4,2,35,100,0,0
611671,-100,4,2,31,100,0,0
611842,-100,4,2,35,100,0,0
611928,-100,4,2,31,100,0,0
612014,-100,4,2,32,100,0,0
612099,-100,4,2,35,100,0,0
612185,-100,4,2,31,100,0,0
612271,-100,4,2,32,100,0,0
612357,-100,4,2,35,100,0,0
612442,-100,4,2,31,100,0,0
612528,-100,4,2,32,100,0,0
612614,-100,4,2,35,100,0,0
612699,-100,4,2,32,100,0,0
612871,-100,4,2,35,100,0,0
612957,-100,4,2,32,100,0,0
613042,-80,4,2,35,100,0,1
613385,-100,4,2,35,100,0,0
613471,-100,4,2,30,100,0,0
613557,-100,4,2,36,100,0,0
613728,-100,4,2,31,100,0,0
613899,-100,4,2,36,100,0,0
614071,-100,4,2,32,100,0,0
614242,-100,4,2,37,100,0,0
614414,-80,4,2,35,100,0,1
614757,-100,4,2,35,100,0,0
614842,-100,4,2,30,100,0,0
615014,-100,4,2,37,100,0,0
615099,-100,4,2,31,100,0,0
615357,-100,4,2,37,100,0,0
615442,-100,4,2,32,100,0,0
615699,-100,4,2,38,100,0,0
615785,-80,4,2,35,100,0,1
615871,-80,4,2,30,100,0,1
615957,-80,4,2,35,100,0,1
616042,-80,4,2,30,100,0,1
616128,-100,4,2,31,100,0,0
616214,-100,4,2,32,100,0,0
616299,-100,4,2,38,100,0,0
616385,-100,4,2,32,100,0,0
616471,-100,4,2,38,100,0,0
616557,-100,4,2,32,100,0,0
616814,-100,4,2,38,100,0,0
616899,-100,4,2,32,100,0,0
617157,-100,4,2,34,100,0,0
617242,-100,4,2,32,100,0,0
617328,-100,4,2,38,100,0,0
617414,-100,4,2,32,100,0,0
617499,-100,4,2,34,100,0,0
617585,-100,4,2,32,100,0,0
617842,-100,4,2,37,100,0,0
617928,-100,4,2,32,100,0,0
618185,-100,4,2,34,100,0,0
618271,-100,4,2,32,100,0,0
618528,-100,4,2,33,100,0,0
618614,-100,4,2,32,100,0,0
618699,-100,4,2,36,100,0,0
618785,-100,4,2,32,100,0,0
618871,-100,4,2,31,100,0,0
618957,-100,4,2,32,100,0,0
619042,-100,4,2,38,100,0,0
619128,-100,4,2,32,100,0,0
619214,-100,4,2,38,100,0,0
619299,-100,4,2,32,100,0,0
619557,-100,4,2,38,100,0,0
619642,-100,4,2,32,100,0,0
619900,-100,4,2,34,100,0,0
619985,-100,4,2,32,100,0,0
620071,-100,4,2,38,100,0,0
620157,-100,4,2,32,100,0,0
620242,-100,4,2,34,100,0,0
620328,-100,4,2,32,100,0,0
620585,-100,4,2,37,100,0,0
620671,-100,4,2,32,100,0,0
620928,-100,4,2,34,100,0,0
621014,-100,4,2,32,100,0,0
621271,-100,4,2,33,100,0,0
621357,-100,4,2,32,100,0,0
621442,-100,4,2,36,100,0,0
621528,-100,4,2,32,100,0,0
621614,-100,4,2,31,100,0,0
621699,-100,4,2,32,100,0,0
621785,-100,4,2,36,100,0,0
621871,-100,4,2,38,100,0,0
621957,-100,4,2,31,100,0,0
622042,-100,4,2,32,100,0,0
622128,-100,4,2,36,100,0,0
622214,-100,4,2,38,100,0,0
622299,-100,4,2,31,100,0,0
622384,-100,4,2,32,100,0,0
622470,-100,4,2,36,100,0,0
622556,-100,4,2,38,100,0,0
622642,-100,4,2,31,100,0,0
622727,-100,4,2,32,100,0,0
622813,-100,4,2,36,100,0,0
622899,-100,4,2,38,100,0,0
622985,-100,4,2,31,100,0,0
623671,-100,4,2,50,100,0,0
624357,-100,4,2,31,100,0,0
625728,-100,4,2,33,100,0,0
626071,-100,4,2,31,100,0,0
628128,-100,4,2,32,100,0,0
628471,-100,4,2,33,100,0,0
628814,-100,4,2,32,100,0,0
629842,-100,4,2,32,100,0,0
630185,-133.333333333333,4,2,32,100,0,0
630528,-100,4,2,38,100,0,0
630871,-133.333333333333,4,2,38,100,0,0
631214,-100,4,2,32,100,0,0
631557,-133.333333333333,4,2,32,100,0,0
631899,-100,4,2,32,100,0,0
631900,-100,4,2,38,100,0,0
632242,-133.333333333333,4,2,38,100,0,0
632585,-133.333333333333,4,2,30,100,0,0
632671,-133.333333333333,4,2,31,100,0,0
632928,-133.333333333333,4,2,30,100,0,0
633014,-133.333333333333,4,2,31,100,0,0
633271,-133.333333333333,4,2,30,100,0,0
633357,-133.333333333333,4,2,31,100,0,0
633614,-133.333333333333,4,2,30,100,0,0
633699,-133.333333333333,4,2,31,100,0,0
633957,-100,4,2,34,100,0,0
634042,-100,4,2,31,100,0,0
634299,-100,4,2,34,100,0,0
634385,-100,4,2,31,100,0,0
634642,-100,4,2,34,100,0,0
634728,-100,4,2,31,100,0,0
634985,-100,4,2,34,100,0,0
635071,-100,4,2,31,100,0,0
635328,-100,4,2,36,100,0,0
635414,-100,4,2,30,100,0,0
635499,-100,4,2,36,100,0,0
635671,-100,4,2,31,100,0,0
635757,-100,4,2,36,100,0,0
635928,-100,4,2,31,100,0,0
636014,-100,4,2,36,100,0,0
636185,-100,4,2,31,100,0,0
636271,-100,4,2,36,100,0,0
636442,-100,4,2,31,100,0,0
636528,-100,4,2,36,100,0,0
636699,-100,4,2,32,100,0,0
636785,-100,4,2,36,100,0,0
636957,-100,4,2,32,100,0,0
637042,-100,4,2,37,100,0,0
637128,-100,4,2,36,100,0,0
637214,-100,4,2,32,100,0,0
637299,-100,4,2,37,100,0,0
637471,-100,4,2,32,100,0,0
637556,-100,4,2,37,100,0,0
637728,-80,4,2,35,100,0,1
638071,-90.909090909091,4,2,30,100,0,0
638328,-90.909090909091,4,2,31,100,0,0
638499,-90.909090909091,4,2,30,100,0,0
638585,-90.909090909091,4,2,31,100,0,0
639442,-90.909090909091,4,2,32,100,0,0
639528,-90.909090909091,4,2,31,100,0,0
639699,-90.909090909091,4,2,32,100,0,0
639871,-90.909090909091,4,2,31,100,0,0
639957,-90.909090909091,4,2,32,100,0,0
640471,-80,4,2,35,100,0,1
640814,-90.909090909091,4,2,38,100,0,0
640899,-90.909090909091,4,2,34,100,0,0
640985,-90.909090909091,4,2,31,100,0,0
641071,-90.909090909091,4,2,38,100,0,0
641157,-90.909090909091,4,2,34,100,0,0
641242,-90.909090909091,4,2,31,100,0,0
641328,-90.909090909091,4,2,38,100,0,0
641414,-90.909090909091,4,2,34,100,0,0
641499,-90.909090909091,4,2,32,100,0,0
641585,-90.909090909091,4,2,38,100,0,0
641671,-90.909090909091,4,2,34,100,0,0
641757,-90.909090909091,4,2,32,100,0,0
641842,-90.909090909091,4,2,34,100,0,0
642014,-90.909090909091,4,2,32,100,0,0
642099,-90.909090909091,4,2,38,100,0,0
642357,-90.909090909091,4,2,32,100,0,0
642442,-90.909090909091,4,2,34,100,0,0
642528,-90.909090909091,4,2,38,100,0,0
642614,-90.909090909091,4,2,32,100,0,0
642699,-90.909090909091,4,2,34,100,0,0
642785,-90.909090909091,4,2,38,100,0,0
642871,-90.909090909091,4,2,32,100,0,0
642956,-90.909090909091,4,2,34,100,0,0
643042,-90.909090909091,4,2,38,100,0,0
643128,-90.909090909091,4,2,31,100,0,0
643214,-90.909090909091,4,2,34,100,0,0
643300,-90.909090909091,4,2,38,100,0,0
643386,-90.909090909091,4,2,31,100,0,0
643471,-90.909090909091,4,2,34,100,0,0
643557,-90.909090909091,4,2,38,100,0,0
643643,-90.909090909091,4,2,31,100,0,0
643728,-90.909090909091,4,2,34,100,0,0
643814,-90.909090909091,4,2,33,100,0,0
643899,-90.909090909091,4,2,31,100,0,0
643984,-90.909090909091,4,2,34,100,0,0
644070,-90.909090909091,4,2,33,100,0,0
644157,-90.909090909091,4,2,31,100,0,0
644242,-90.909090909091,4,2,34,100,0,0
644328,-90.909090909091,4,2,33,100,0,0
644415,-90.909090909091,4,2,31,100,0,0
644499,-90.909090909091,4,2,33,100,0,0
644672,-90.909090909091,4,2,31,100,0,0
644756,-90.909090909091,4,2,33,100,0,0
644842,-90.909090909091,4,2,30,100,0,0
644928,-66.6666666666667,4,2,31,100,0,0
645271,-66.6666666666667,4,2,33,100,0,0
645785,-66.6666666666667,4,2,38,100,0,0
646299,-111.111111111111,4,2,50,90,0,0
668242,-200,4,2,50,90,0,0
676471,352.941176470588,4,2,50,90,1,0
676471,-200,4,2,50,90,0,0
677176,400,4,2,50,90,1,0
677176,-200,4,2,50,90,0,0
677976,413.793103448276,4,2,50,90,1,0
677976,-200,4,2,50,90,0,0
678803,444.444444444444,4,2,50,90,1,0
678803,-200,4,2,50,90,0,0
679691,800,4,2,50,90,1,0
679691,-133.333333333333,4,2,50,90,0,0
679957,-100,4,2,50,5,0,0
692491,-100,4,2,95,60,0,0
692757,-100,4,2,93,60,0,0
693024,-100,4,2,95,60,0,0
693291,-100,4,2,93,60,0,0
693557,-100,4,2,95,60,0,0
693824,-100,4,2,94,60,0,0
694091,-100,4,2,93,55,0,0
694357,-100,4,2,95,55,0,0
694624,-100,4,2,94,55,0,0
694891,-100,4,2,97,55,0,0
695157,-100,4,2,95,55,0,0
695424,-100,4,2,94,55,0,0
695491,-100,4,2,97,50,0,0
695691,-100,4,2,97,60,0,0
695957,-100,4,2,95,50,0,0
696224,-100,4,2,96,50,0,0
696491,-100,4,2,93,50,0,0
696757,-100,4,2,95,50,0,0
697024,-100,4,2,96,50,0,0
697291,-100,4,2,93,50,0,0
697557,-100,4,2,95,50,0,0
697824,-100,4,2,96,50,0,0
698091,-100,4,2,97,50,0,0
698357,-100,4,2,95,50,0,0
698624,-100,4,2,96,50,0,0
698691,-100,4,2,97,50,0,0
698891,-100,4,2,97,60,0,0
699157,-100,4,2,95,50,0,0
699424,-100,4,2,94,50,0,0
699691,-100,4,2,93,50,0,0
699957,-100,4,2,95,50,0,0
700224,-100,4,2,94,50,0,0
700491,-100,4,2,96,60,0,0
700757,-100,4,2,95,50,0,0
701024,-100,4,2,96,50,0,0
701291,-100,4,2,91,50,0,0
701557,-100,4,2,95,50,0,0
701824,-100,4,2,96,50,0,0
702091,-100,4,2,97,60,0,0
702357,-100,4,2,93,50,0,0
702624,-100,4,2,94,50,0,0
702891,-100,4,2,93,50,0,0
703424,-100,4,2,94,50,0,0
703691,-100,4,2,96,60,0,0
703957,-100,4,2,93,50,0,0
704224,-100,4,2,95,50,0,0
704491,-100,4,2,97,50,0,0
704757,-100,4,2,93,50,0,0
705024,-100,4,2,95,50,0,0
705291,-100,4,2,94,60,0,0
705557,-100,4,2,93,50,0,0
705824,-100,4,2,94,50,0,0
706089,-100,4,2,93,50,0,0
706624,-100,4,2,94,50,0,0
706891,-100,4,2,93,50,0,0
707426,-100,4,2,94,50,0,0
707691,-100,4,2,93,50,0,0
708226,-100,4,2,94,50,0,0
708491,-100,4,2,94,60,0,0
708757,-100,4,2,93,50,0,0
709024,-100,4,2,94,50,0,0
709291,-100,4,2,90,50,0,0
709557,-100,4,2,93,50,0,0
709824,-100,4,2,94,50,0,0
710091,-100,4,2,90,50,0,0
710357,-100,4,2,93,50,0,0
710624,-100,4,2,94,50,0,0
711157,-100,4,2,93,50,0,0
711424,-100,4,2,94,50,0,0
711957,-100,4,2,93,50,0,0
712224,-100,4,2,98,50,0,0
712491,-100,4,2,90,50,0,0
712757,-100,4,2,93,50,0,0
713024,-100,4,2,98,50,0,0
713291,-100,4,2,90,50,0,0
713557,-100,4,2,93,50,0,0
713824,-100,4,2,98,50,0,0
714091,-100,4,2,94,50,0,0
714357,-100,4,2,93,50,0,0
714624,-100,4,2,98,50,0,0
714691,-100,4,2,94,50,0,0
714891,-100,4,2,90,50,0,0
715157,-100,4,2,94,50,0,0
715691,-100,4,2,90,60,0,0
715957,-100,4,2,93,50,0,0
716224,-100,4,2,94,50,0,0
716491,-100,4,2,92,75,0,0
716757,-100,4,2,95,50,0,0
717024,-100,4,2,94,50,0,0
717291,-100,4,2,96,50,0,0
717557,-100,4,2,95,50,0,0
717824,-100,4,2,94,50,0,0
718091,-100,4,2,96,60,0,0
718357,-100,4,2,93,50,0,0
718624,-100,4,2,98,50,0,0
718891,-100,4,2,91,50,0,0
719157,-100,4,2,93,50,0,0
719424,-100,4,2,98,50,0,0
719691,-100,4,2,94,60,0,0
719957,-100,4,2,93,50,0,0
720224,-100,4,2,95,50,0,0
720491,-100,4,2,94,60,0,0
720757,-100,4,2,93,50,0,0
721024,-100,4,2,95,50,0,0
721291,-100,4,2,96,60,0,0
721557,-100,4,2,93,50,0,0
721824,-100,4,2,98,50,0,0
722091,-100,4,2,91,50,0,0
722357,-100,4,2,93,50,0,0
722624,-100,4,2,98,50,0,0
722891,-100,4,2,96,60,0,0
723157,-100,4,2,95,50,0,0
723691,-100,4,2,91,50,0,0
723957,-100,4,2,95,50,0,0
724491,-100,4,2,93,50,0,0
724757,-100,4,2,93,5,0,0

[Colours]
Combo1 : 173,91,255
Combo2 : 206,0,103
Combo3 : 255,158,62
Combo4 : 0,172,255

[HitObjects]
372,304,3039,5,2,0:3:0:0:
416,220,3289,1,8,0:3:0:0:
412,200,3539,1,2,0:1:0:0:
420,240,3789,5,2,0:3:0:0:
416,220,4039,1,8,0:3:0:0:
412,200,4289,1,2,0:1:0:0:
420,240,4539,5,2,0:3:0:0:
416,220,4789,1,8,0:3:0:0:
412,200,5039,1,2,0:1:0:0:
420,240,5289,5,2,0:3:0:0:
416,220,5539,1,8,0:3:0:0:
412,200,5789,1,2,0:1:0:0:
474,331,6039,5,2,0:3:0:0:
416,220,6289,1,8,0:3:0:0:
412,200,6539,1,2,0:1:0:0:
420,240,6789,5,2,0:3:0:0:
416,220,7039,1,8,0:3:0:0:
412,200,7289,1,2,0:1:0:0:
420,240,7539,5,2,0:3:0:0:
416,220,7789,1,8,0:3:0:0:
412,200,8039,1,2,0:1:0:0:
420,240,8289,5,2,0:3:0:0:
416,220,8539,1,8,0:3:0:0:
412,200,8789,1,2,0:1:0:0:
341,337,9039,5,8,0:1:0:0:
416,220,9289,1,8,0:3:0:0:
412,200,9539,1,2,0:1:0:0:
420,240,9789,5,8,0:1:0:0:
416,220,10039,1,8,0:3:0:0:
412,200,10289,1,2,0:1:0:0:
259,371,10539,5,8,0:1:0:0:
416,220,10789,1,2,0:3:0:0:
412,200,11039,1,8,0:3:0:0:
416,220,11289,5,8,0:1:0:0:
412,200,11539,1,2,0:3:0:0:
408,180,11789,1,8,0:3:0:0:
227,123,12039,5,2,0:3:0:0:
408,180,12289,1,2,0:1:0:0:
404,160,12539,1,8,0:3:0:0:
290,301,12789,5,2,0:3:0:0:
307,220,13039,1,8,0:3:0:0:
312,194,13289,1,2,0:1:0:0:
169,319,13539,5,2,0:3:0:0:
156,267,13789,1,8,0:3:0:0:
151,246,14039,1,8,0:1:0:0:
40,348,14289,5,2,0:3:0:0:
44,332,14539,1,2,0:1:0:0:
48,316,14789,1,8,0:1:0:0:
237,265,15039,5,8,0:3:0:0:
81,182,15289,1,2,0:3:0:0:
85,162,15539,1,8,0:3:0:0:
81,182,15789,5,2,0:3:0:0:
85,162,16039,1,8,0:3:0:0:
89,142,16289,1,2,0:1:0:0:
85,162,16539,5,2,0:3:0:0:
89,142,16789,1,8,0:3:0:0:
93,122,17039,1,2,0:1:0:0:
382,261,17289,6,0,L|393:305,1,44.999998626709,2|0,0:3|0:0,0:0:0:0:
449,209,18039,6,0,P|432:173|406:144,1,79.9999975585938,2|8,0:3|0:1,0:0:0:0:
325,117,18539,1,8,0:3:0:0:
287,298,18789,6,0,P|297:266|299:233,1,66.6666666666667,2|8,0:3|0:1,0:0:0:0:
250,168,19289,1,8,0:3:0:0:
127,231,19539,6,0,P|149:217|169:199,1,53.3333333333333,2|8,0:3|0:1,0:0:0:0:
180,117,20039,1,8,0:3:0:0:
18,128,20289,6,0,P|63:124|105:159,1,89.9999972534181,2|0,0:3|0:0,0:0:0:0:
127,231,21039,6,0,L|118:310,1,66.6666666666667,2|8,0:3|0:3,0:0:0:0:
107,376,21539,1,2,0:1:0:0:
211,322,21789,1,2,0:3:0:0:
210,303,22039,1,8,0:3:0:0:
209,284,22289,1,2,0:1:0:0:
220,163,22539,6,0,L|226:72,1,79.9999975585938,8|8,0:1|0:3,0:0:0:0:
230,6,23039,1,8,0:3:0:0:
308,66,23289,1,8,0:1:0:0:
310,89,23539,1,8,0:3:0:0:
312,112,23789,1,8,0:3:0:0:
348,244,24039,6,0,L|354:296,1,53.3333333333333,2|2,0:3|0:1,0:0:0:0:
362,374,24539,1,2,0:1:0:0:
442,323,24789,1,2,0:3:0:0:
441,306,25039,1,2,0:1:0:0:
441,290,25289,1,2,0:1:0:0:
268,316,25539,6,0,P|245:330|221:341,1,53.3333333333333,8|2,0:1|0:1,0:0:0:0:
143,340,26039,1,8,0:1:0:0:
200,247,26289,6,0,P|164:240|131:224,1,73.3333355712891,8|2,0:1|0:1,0:0:0:0:
117,89,26789,1,8,0:1:0:0:
321,0,27039,6,0,P|342:44|225:157,1,239.999992675781,2|8,0:3|0:1,0:0:0:0:
116,334,32289,6,0,P|132:294|129:242,1,89.9999972534181,8|0,0:1|0:0,0:0:0:0:
103,134,33039,6,0,P|77:163|60:199,1,79.9999975585938,8|2,0:1|0:1,0:0:0:0:
184,107,33539,1,2,0:3:0:0:
210,223,33789,6,0,P|213:262|225:297,1,66.6666666666667,8|2,0:1|0:1,0:0:0:0:
259,158,34289,1,2,0:3:0:0:
340,189,34539,6,0,P|370:215|401:229,1,53.3333333333333,8|2,0:1|0:1,0:0:0:0:
329,107,35039,1,2,0:3:0:0:
498,159,35289,6,0,B|477:102|419:109|419:109|406:145,1,134.999995880127,8|0,0:1|0:0,0:0:0:0:
381,221,36039,6,0,L|323:246,1,46.6666652425131,2|8,0:3|0:3,0:0:0:0:
274,287,36539,1,2,0:1:0:0:
274,179,36789,6,0,L|191:172,1,53.3333333333333,8|2,0:3|0:1,0:0:0:0:
141,165,37289,1,2,0:1:0:0:
233,69,37539,6,0,L|136:42,1,79.9999975585938,4|8,0:3|0:3,0:0:0:0:
66,21,38039,1,2,0:1:0:0:
274,179,38289,6,0,B|326:169|326:169|344:157|344:157|401:146,1,133.333333333333,2|2,0:3|0:1,0:0:0:0:
396,65,39039,2,0,B|334:77|334:77|286:150|332:240,1,233.333326212565,2|2,0:3|0:3,0:0:0:0:
488,273,40539,6,0,P|470:224|365:206,1,133.333333333333,8|8,0:1|0:3,0:0:0:0:
312,317,41289,2,0,P|276:355|222:356,1,106.666666666667,8|8,0:1|0:3,0:0:0:0:
152,315,42039,6,0,L|138:250,1,66.6666666666667,2|2,0:3|0:3,0:0:0:0:
226,191,43539,6,0,L|236:100,1,90.0000021972657,2|8,0:3|0:3,0:0:0:0:
132,49,45039,6,0,P|88:43|35:73,1,100,8|2,0:3|0:0,0:0:0:0:
39,67,45601,1,2,0:0:0:0:
213,180,45789,2,0,L|217:130,1,50,8|2,0:3|0:0,0:0:0:0:
323,56,46164,2,0,L|327:105,1,50,8|0,0:3|0:0,0:0:0:0:
371,193,46539,6,0,P|391:192|411:188,2,39.9999987792969,8|0|0,0:0|0:0|0:0,0:0:0:0:
442,268,47289,2,0,P|394:280|338:274,1,89.9999972534181,8|8,0:3|0:3,0:0:0:0:
354,278,47851,1,0,0:0:0:0:
205,115,48039,6,0,P|254:112|301:128,1,100,8|2,0:3|0:0,0:0:0:0:
301,128,48601,1,2,0:0:0:0:
155,246,48789,2,0,L|148:192,1,50,8|0,0:3|0:0,0:0:0:0:
27,132,49164,2,0,L|20:190,1,50,8|0,0:3|0:0,0:0:0:0:
120,339,49539,6,0,P|198:333|222:317,2,100.000003814697,8|0|0,0:0|0:0|0:0,0:0:0:0:
157,119,50289,2,0,P|150:153|152:173,1,50,8|0,0:3|0:0,0:0:0:0:
77,221,50664,2,0,P|102:244|121:252,1,50,8|0,0:3|0:0,0:0:0:0:
243,138,51039,6,0,L|362:152,1,100,8|2,0:0|0:0,0:0:0:0:
342,149,51601,1,2,0:0:0:0:
407,71,51789,2,0,P|438:97|446:114,1,50,8|0,0:0|0:0,0:0:0:0:
424,222,52164,2,0,P|393:248|374:252,1,50,8|0,0:3|0:0,0:0:0:0:
335,339,52539,6,0,P|346:363|350:394,2,39.9999987792969,8|0|0,0:3|0:0|0:0,0:0:0:0:
437,372,53289,2,0,P|428:334|405:284,1,89.9999972534181,8|8,0:3|0:3,0:0:0:0:
407,287,53851,1,0,0:0:0:0:
242,180,54039,6,0,P|249:128|272:66,1,100,8|8,0:3|0:3,0:0:0:0:
263,83,54601,1,0,0:0:0:0:
150,216,54789,2,0,P|142:183|139:154,1,50,8|0,0:3|0:0,0:0:0:0:
313,266,55164,2,0,P|311:295|302:328,1,50,0|2,0:0|0:0,0:0:0:0:
267,88,55539,6,0,P|330:78|384:92,2,100.000003814697,8|0|0,0:3|0:0|0:0,0:0:0:0:
150,217,56289,2,0,B|98:248|46:201|46:201|58:152,1,134.999995880127,8|0,0:0|0:0,0:0:0:0:
49,99,57039,6,0,P|89:106|106:118,1,50,8|0,0:3|0:0,0:0:0:0:
197,41,57414,2,0,P|217:76|218:97,1,50,8|0,0:3|0:0,0:0:0:0:
317,106,57789,2,0,P|302:145|287:159,1,50,8|0,0:3|0:0,0:0:0:0:
220,224,58164,1,0,0:0:0:0:
220,224,58539,6,0,P|260:231|280:225,1,50,8|0,0:3|0:0,0:0:0:0:
338,328,58914,2,0,P|369:301|377:282,1,50,8|0,0:3|0:0,0:0:0:0:
473,308,59289,2,0,P|473:266|463:248,1,50,8|0,0:3|0:0,0:0:0:0:
417,183,59664,1,0,0:0:0:0:
417,183,60039,6,0,P|376:162|364:148,1,50,8|0,0:3|0:0,0:0:0:0:
202,159,60414,2,0,P|246:145|260:133,1,50,8|0,0:3|0:0,0:0:0:0:
318,91,60789,2,0,L|325:34,1,50,8|0,0:3|0:0,0:0:0:0:
184,21,61164,1,2,0:0:0:0:
202,159,61351,1,2,0:0:0:0:
202,159,61539,6,0,L|210:220,1,50,8|0,0:0|0:0,0:0:0:0:
111,304,61914,2,0,P|152:283|164:269,1,50,8|0,0:3|0:0,0:0:0:0:
326,280,62289,2,0,P|281:266|267:254,1,50,8|2,0:3|0:0,0:0:0:0:
202,159,62664,1,0,0:0:0:0:
37,87,63039,6,0,P|29:114|30:136,1,50,8|2,0:3|0:0,0:0:0:0:
202,159,63414,2,0,P|210:132|209:110,1,50,8|0,0:3|0:0,0:0:0:0:
109,200,63789,1,8,0:0:0:0:
314,251,64164,6,0,P|322:278|321:300,1,50,8|0,0:3|0:0,0:0:0:0:
149,323,64539,2,0,P|141:296|142:274,1,50,8|0,0:3|0:0,0:0:0:0:
243,361,64914,1,0,0:0:0:0:
493,225,65289,6,0,P|493:253|487:274,1,50,8|0,0:3|0:0,0:0:0:0:
314,251,65664,2,0,P|313:222|319:201,1,50,8|0,0:3|0:0,0:0:0:0:
394,315,66039,6,0,B|327:326|327:326|324:330|324:330|248:342,1,134.999995880127,8|0,0:0|0:0,0:0:0:0:
183,305,66789,2,0,P|197:280|211:269,1,44.999998626709,2|2,0:0|0:0,0:0:0:0:
319,202,67164,2,0,L|267:195,1,44.999998626709,8|0,0:3|0:0,0:0:0:0:
230,102,67539,6,0,P|223:67|230:42,2,39.9999987792969,8|0|0,0:3|0:0|0:0,0:0:0:0:
347,11,68289,2,0,L|339:55,1,44.999998626709,8|0,0:3|0:0,0:0:0:0:
426,182,68664,2,0,L|418:137,1,44.999998626709,8|0,0:3|0:0,0:0:0:0:
501,59,69039,6,0,P|511:91|510:108,2,39.9999987792969,8|0|0,0:3|0:0|0:0,0:0:0:0:
426,182,69789,6,0,P|403:206|380:214,2,50.0000019073487,8|0|0,0:3|0:0|0:0,0:0:0:0:
251,170,70539,6,0,P|218:162|192:141,2,59.9999981689454,8|0|0,0:0|0:0|0:0,0:0:0:0:
403,90,71289,6,0,P|427:127|422:188,1,100,8|8,0:0|0:3,0:0:0:0:
425,181,71851,1,0,0:0:0:0:
231,218,72039,6,0,P|206:180|211:119,1,100,8|0,0:3|0:0,0:0:0:0:
209,127,72601,1,0,0:0:0:0:
288,11,72789,2,0,L|238:7,1,50,8|2,0:3|0:0,0:0:0:0:
301,156,73164,2,0,L|350:152,1,50,8|0,0:3|0:0,0:0:0:0:
427,93,73539,6,0,P|436:62|435:43,2,39.9999987792969,8|0|0,0:0|0:0|0:0,0:0:0:0:
301,156,74289,2,0,L|193:167,1,100,8|0,0:3|0:0,0:0:0:0:
201,166,74851,1,2,0:0:0:0:
329,296,75039,6,0,L|435:304,1,100,8|8,0:3|0:3,0:0:0:0:
428,303,75601,1,0,0:0:0:0:
347,202,75789,2,0,L|295:207,1,50,8|2,0:0|0:0,0:0:0:0:
211,359,76164,2,0,L|264:365,1,50,0|0,0:0|0:0,0:0:0:0:
170,232,76539,6,0,P|136:244|109:269,2,39.9999987792969,8|0|0,0:0|0:0|0:0,0:0:0:0:
296,205,77289,2,0,P|306:173|305:140,1,50,8|0,0:3|0:0,0:0:0:0:
385,112,77664,2,0,P|362:87|333:71,1,50,2|2,0:0|0:0,0:0:0:0:
213,172,78039,6,0,B|183:176|163:163|163:163|140:151|115:154,1,100,8|8,0:3|0:3,0:0:0:0:
116,153,78601,1,0,0:0:0:0:
18,103,78789,2,0,L|27:166,1,50,8|2,0:0|0:0,0:0:0:0:
117,291,79164,2,0,L|126:228,1,50,0|0,0:0|0:0,0:0:0:0:
205,93,79539,6,0,P|246:87|274:96,2,39.9999987792969,8|0|0,0:3|0:0|0:0,0:0:0:0:
330,239,80289,6,0,B|379:273|423:234|423:234|406:207,1,134.999995880127,8|2,0:0|0:0,0:0:0:0:
387,117,81039,6,0,P|348:129|338:139,1,50,8|0,0:0|0:0,0:0:0:0:
499,253,81414,2,0,P|508:213|504:199,1,50,8|0,0:3|0:0,0:0:0:0:
328,281,81789,2,0,P|357:308|371:312,1,50,8|2,0:3|0:0,0:0:0:0:
402,215,82164,1,0,0:0:0:0:
402,215,82539,6,0,L|397:160,1,50,8|2,0:3|0:0,0:0:0:0:
298,69,82914,2,0,L|293:124,1,50,8|0,0:3|0:0,0:0:0:0:
195,227,83289,1,8,0:0:0:0:
195,227,83664,2,0,L|188:165,1,50,8|2,0:3|0:0,0:0:0:0:
127,113,84039,6,0,P|113:143|94:170,1,66.6666666666667,8|2,0:3|0:1,0:0:0:0:
19,194,84539,1,8,0:1:0:0:
239,71,84789,6,0,P|262:103|277:151,1,79.9999975585938,8|2,0:1|0:1,0:0:0:0:
238,231,85289,1,8,0:1:0:0:
382,313,85539,6,0,P|401:272|405:221,1,79.9999975585938,2|2,0:3|0:1,0:0:0:0:
363,159,86039,1,8,0:1:0:0:
442,107,86289,5,8,0:3:0:0:
512,171,86539,1,2,0:1:0:0:
490,267,86789,1,8,0:1:0:0:
321,245,87039,6,0,L|234:234,1,66.6666666666667,2|2,0:1|0:1,0:0:0:0:
176,273,87539,1,8,0:1:0:0:
115,189,87789,2,0,L|202:178,2,66.6666666666667,2|2|8,0:3|0:1|0:1,0:0:0:0:
299,129,88539,6,0,L|242:122,2,53.3333333333333,8|2|8,0:1|0:1|0:1,0:0:0:0:
130,67,89289,2,0,L|187:60,2,53.3333333333333,2|2|8,0:3|0:1|0:1,0:0:0:0:
61,153,90039,5,8,0:3:0:0:
89,274,90289,1,2,0:1:0:0:
171,293,90539,1,8,0:1:0:0:
211,205,90789,5,2,0:1:0:0:
317,178,91039,1,2,0:1:0:0:
356,283,91289,1,8,0:1:0:0:
276,351,91539,6,0,L|258:269,1,53.3333333333333,8|2,0:1|0:1,0:0:0:0:
330,169,92039,1,8,0:1:0:0:
355,257,92289,5,2,0:1:0:0:
265,219,92539,1,2,0:1:0:0:
342,163,92789,1,8,0:1:0:0:
201,271,93039,6,0,P|186:248|179:223,2,53.3333333333333,2|8|2,0:1|0:3|0:3,0:0:0:0:
361,276,93789,2,0,P|349:299|330:318,2,53.3333333333333,8|8|2,0:3|0:3|0:3,0:0:0:0:
275,138,94539,2,0,P|301:136|327:143,2,53.3333333333333,2|8|2,0:1|0:3|0:3,0:0:0:0:
192,246,95289,1,8,0:3:0:0:
123,294,95539,1,8,0:3:0:0:
50,259,95789,1,2,0:3:0:0:
108,146,96039,6,0,L|121:212,1,53.3333333333333,2|8,0:1|0:1,0:0:0:0:
283,226,96539,1,2,0:3:0:0:
217,273,96789,2,0,L|204:339,1,53.3333333333333,2|8,0:1|0:1,0:0:0:0:
282,370,97289,1,8,0:1:0:0:
111,262,97539,5,2,0:1:0:0:
226,189,97789,1,8,0:3:0:0:
141,157,98039,1,8,0:1:0:0:
97,79,98289,5,2,0:3:0:0:
209,208,98539,1,8,0:3:0:0:
263,117,98789,1,2,0:3:0:0:
51,189,99039,5,2,0:1:0:0:
132,154,99289,1,8,0:3:0:0:
195,212,99539,1,2,0:3:0:0:
230,296,99789,1,2,0:1:0:0:
308,335,100039,1,8,0:3:0:0:
422,226,100289,1,8,0:1:0:0:
393,304,100539,5,2,0:1:0:0:
246,280,100789,1,2,0:1:0:0:
223,195,101039,1,8,0:1:0:0:
319,87,101289,5,8,0:1:0:0:
309,216,101539,1,2,0:1:0:0:
159,261,101789,1,8,0:1:0:0:
81,196,102039,5,2,0:1:0:0:
197,166,102289,1,8,0:3:0:0:
252,297,102539,1,2,0:1:0:0:
346,182,102789,5,2,0:1:0:0:
179,246,103039,1,8,0:3:0:0:
267,110,103289,1,2,0:1:0:0:
263,213,103539,5,2,0:1:0:0:
133,109,103789,1,8,0:1:0:0:
175,262,104039,1,2,0:1:0:0:
244,30,104289,5,8,0:1:0:0:
171,278,104539,1,8,0:1:0:0:
59,118,104789,1,2,0:3:0:0:
192,177,105039,5,2,0:1:0:0:
283,155,105289,1,2,0:3:0:0:
337,226,105539,1,2,0:3:0:0:
440,246,105789,5,8,0:3:0:0:
357,340,106039,1,2,0:3:0:0:
273,170,106289,1,2,0:1:0:0:
186,266,106539,5,8,0:3:0:0:
250,56,106789,1,8,0:1:0:0:
280,189,107039,1,2,0:1:0:0:
63,118,107289,5,2,0:3:0:0:
102,248,107539,1,8,0:1:0:0:
146,36,107789,1,8,0:3:0:0:
0,59,108039,6,0,B|65:68|65:68|92:113|92:113|164:125,1,179.999994506836,6|0,0:0|0:3,0:0:0:0:
146,36,108525,2,0,B|186:15|186:15|246:32,1,89.9999972534181,2|0,0:3|0:3,0:0:0:0:
12,218,108849,2,0,B|55:230|55:230|95:209,1,89.9999972534181,2|0,0:3|0:3,0:0:0:0:
107,203,109093,1,0,0:3:0:0:
119,197,109174,2,0,L|231:232,1,89.9999972534181,2|0,0:3|0:3,0:0:0:0:
129,368,109498,6,0,B|105:324|105:324|131:275,1,89.9999972534181,2|0,0:3|0:3,0:0:0:0:
192,115,109822,2,0,L|286:97,1,89.9999972534181,2|0,0:3|0:3,0:0:0:0:
204,324,110147,2,0,L|298:342,1,89.9999972534181,2|0,0:3|0:3,0:0:0:0:
305,342,110390,1,0,0:3:0:0:
318,344,110471,1,2,0:3:0:0:
444,234,110633,6,0,B|401:206|401:206|300:219,1,150.000005722046,2|0,0:0|0:3,0:0:0:0:
459,127,111120,2,0,B|426:107|426:107|379:110,1,75.0000028610231,2|0,0:3|0:3,0:0:0:0:
473,345,111444,2,0,B|436:348|436:348|403:328,1,75.0000028610231,2|0,0:3|0:3,0:0:0:0:
390,317,111687,1,0,0:3:0:0:
381,309,111768,2,0,B|341:316|341:316|336:313|336:313|295:321,1,75.0000028610231,2|0,0:3|0:3,0:0:0:0:
459,127,112093,6,0,B|451:87|451:87|453:82|453:82|446:41,1,75.0000028610231,2|0,0:3|0:3,0:0:0:0:
509,217,112417,2,0,B|474:234|474:234|428:225,1,75.0000028610231,2|0,0:3|0:3,0:0:0:0:
358,77,112741,2,0,B|317:64|317:64|277:83,1,75.0000028610231,2|0,0:3|0:3,0:0:0:0:
277,82,112984,1,0,0:3:0:0:
266,86,113066,1,2,0:3:0:0:
42,171,113228,6,0,B|102:159|102:159|137:204|137:204|204:214,1,179.999994506836,6|0,0:0|0:3,0:0:0:0:
178,43,113714,2,0,B|164:86|164:86|182:126,1,89.9999972534181,2|0,0:3|0:3,0:0:0:0:
153,384,114039,1,2,0:3:0:0:
153,384,114120,1,0,0:0:0:0:
153,384,114201,2,0,B|167:341|167:341|149:300,1,89.9999972534181,2|2,0:0|0:3,0:0:0:0:
108,224,114525,6,0,L|200:212,1,89.9999972534181,2|2,0:0|0:3,0:0:0:0:
210,210,114768,1,0,0:0:0:0:
223,208,114849,1,0,0:3:0:0:
47,141,115011,2,0,L|81:57,1,89.9999972534181,2|0,0:3|0:3,0:0:0:0:
185,34,115336,2,0,L|239:105,1,89.9999972534181,2|0,0:3|0:3,0:0:0:0:
247,115,115579,1,0,0:3:0:0:
254,126,115660,1,2,0:3:0:0:
465,46,115822,6,0,B|416:41|416:41|368:69,1,89.9999972534181,2|2,0:0|0:3,0:0:0:0:
462,230,116147,1,0,0:3:0:0:
462,230,116228,1,0,0:3:0:0:
462,230,116309,2,0,L|438:133,1,89.9999972534181,2|0,0:3|0:3,0:0:0:0:
341,254,116633,2,0,L|317:351,1,89.9999972534181,2|0,0:3|0:3,0:0:0:0:
440,142,116957,6,0,B|393:135|393:135|390:130|390:130|339:123,1,89.9999972534181,2|0,0:3|0:3,0:0:0:0:
510,311,117282,2,0,B|463:318|463:318|460:323|460:323|409:330,1,89.9999972534181,2|0,0:3|0:3,0:0:0:0:
353,125,117606,1,2,0:3:0:0:
313,121,117687,1,0,0:3:0:0:
276,136,117768,1,0,0:3:0:0:
253,168,117849,1,0,0:3:0:0:
251,208,117930,1,0,0:3:0:0:
270,243,118011,1,0,0:3:0:0:
308,259,118093,1,0,0:3:0:0:
349,253,118174,1,0,0:3:0:0:
385,269,118255,1,0,0:3:0:0:
403,305,118336,1,0,0:3:0:0:
395,344,118417,6,0,B|354:351|354:351|346:347|346:347|299:355,1,89.9999972534181,6|2,0:0|0:3,0:0:0:0:
182,233,118741,2,0,B|223:240|223:240|231:236|231:236|278:244,1,89.9999972534181,8|2,0:0|0:3,0:0:0:0:
378,103,119066,1,2,0:0:0:0:
378,103,119147,1,0,0:0:0:0:
378,103,119228,2,0,B|387:147|387:147|359:205,1,89.9999972534181,2|8,0:3|0:0,0:0:0:0:
182,233,119552,1,2,0:3:0:0:
271,356,119714,6,0,L|284:260,1,89.9999972534181,2|2,0:0|0:3,0:0:0:0:
72,149,120038,2,0,L|168:136,1,89.9999972534181,8|2,0:0|0:3,0:0:0:0:
290,275,120363,1,2,0:0:0:0:
290,275,120444,1,0,0:0:0:0:
290,275,120525,5,2,0:3:0:0:
161,136,120687,1,10,0:0:0:0:
153,268,120849,1,2,0:3:0:0:
298,144,121011,6,0,B|321:102|321:102|311:36,1,89.9999972534181,2|2,0:0|0:3,0:0:0:0:
389,255,121336,2,0,B|341:256|341:256|288:297,1,89.9999972534181,8|2,0:0|0:3,0:0:0:0:
445,117,121660,1,2,0:0:0:0:
445,117,121741,1,0,0:0:0:0:
445,117,121822,2,0,B|469:157|469:157|532:182,1,89.9999972534181,2|8,0:3|0:0,0:0:0:0:
378,170,122147,1,2,0:3:0:0:
314,60,122309,5,2,0:0:0:0:
492,43,122471,1,2,0:3:0:0:
378,170,122633,2,0,P|333:172|293:153,1,89.9999972534181,8|2,0:0|0:3,0:0:0:0:
183,61,122957,1,2,0:0:0:0:
193,218,123120,1,2,0:0:0:0:
293,153,123282,1,2,0:0:0:0:
308,156,123363,1,2,0:0:0:0:
114,113,123525,1,2,0:0:0:0:
99,110,123606,6,0,B|80:138|80:138|88:212,1,89.9999972534181,6|2,0:0|0:3,0:0:0:0:
183,305,123930,2,0,B|190:264|190:264|186:256|186:256|194:209,1,89.9999972534181,8|2,0:0|0:3,0:0:0:0:
293,153,124255,1,2,0:0:0:0:
293,153,124336,1,0,0:0:0:0:
293,153,124417,2,0,B|300:194|300:194|296:202|296:202|304:249,1,89.9999972534181,2|8,0:3|0:0,0:0:0:0:
358,347,124741,1,2,0:3:0:0:
428,253,124903,6,0,B|472:244|472:244|530:272,1,89.9999972534181,2|2,0:0|0:3,0:0:0:0:
358,347,125228,2,0,B|314:356|314:356|273:336,1,89.9999972534181,8|2,0:0|0:3,0:0:0:0:
339,167,125552,1,2,0:0:0:0:
327,266,125714,1,2,0:3:0:0:
177,183,125876,1,8,0:0:0:0:
203,278,126038,1,2,0:3:0:0:
251,112,126201,6,0,L|237:20,1,89.9999972534181,2|2,0:0|0:3,0:0:0:0:
203,278,126525,2,0,B|246:304|246:304|302:307,1,89.9999972534181,8|2,0:0|0:3,0:0:0:0:
89,156,126849,1,2,0:0:0:0:
89,156,126930,1,0,0:0:0:0:
89,156,127011,2,0,B|44:180|44:180|14:227,1,89.9999972534181,2|8,0:3|0:0,0:0:0:0:
179,177,127336,1,2,0:3:0:0:
155,85,127498,5,2,0:0:0:0:
107,256,127660,1,2,0:3:0:0:
267,185,127822,1,8,0:0:0:0:
306,191,127903,1,0,0:0:0:0:
340,211,127984,1,2,0:3:0:0:
356,248,128066,1,0,0:0:0:0:
351,287,128147,6,0,L|340:339,1,44.999998626709,2|0,0:0|0:0,0:0:0:0:
269,269,128309,2,0,L|256:320,1,44.999998626709,2|0,0:0|0:0,0:0:0:0:
434,203,128471,1,2,0:0:0:0:
434,203,128552,2,0,L|445:255,1,44.999998626709,2|0,0:0|0:0,0:0:0:0:
504,150,128714,1,2,0:0:0:0:
504,150,128795,6,0,L|515:83,1,55.0000016784668,6|0,0:0|0:0,0:0:0:0:
389,6,128957,2,0,L|404:84,1,55.0000016784668,2|0,0:0|0:0,0:0:0:0:
500,76,129120,1,8,0:0:0:0:
332,124,129282,6,0,P|293:113|250:91,2,69.9999978637696,2|0|2,0:0|0:0|0:0,0:0:0:0:
414,173,129768,1,8,0:0:0:0:
302,210,129930,2,0,P|239:228|179:297,1,139.999995727539,2|2,0:0|0:0,0:0:0:0:
363,301,130417,1,8,0:0:0:0:
281,308,130579,2,0,P|264:349|259:389,1,69.9999978637696,2|0,0:0|0:0,0:0:0:0:
475,181,130903,5,2,0:0:0:0:
392,221,131066,1,8,0:0:0:0:
311,179,131228,1,2,0:0:0:0:
392,133,131390,6,0,P|411:113|427:82,1,55.0000016784668,2|0,0:0|0:0,0:0:0:0:
412,3,131552,1,2,0:0:0:0:
266,53,131714,1,8,0:0:0:0:
311,179,131876,2,0,P|252:141|178:138,1,139.999995727539,2|2,0:0|0:0,0:0:0:0:
133,202,132363,1,8,0:0:0:0:
305,264,132525,2,0,B|375:261|362:230|439:229,1,139.999995727539,2|2,0:0|0:0,0:0:0:0:
510,292,133011,1,8,0:0:0:0:
418,315,133174,2,0,P|402:346|396:380,1,69.9999978637696,2|0,0:0|0:0,0:0:0:0:
228,305,133498,5,2,0:0:0:0:
223,288,133579,1,2,0:0:0:0:
218,271,133660,1,8,0:0:0:0:
295,211,133822,1,2,0:0:0:0:
134,309,133984,6,0,L|120:363,1,55.0000016784668,6|0,0:0|0:0,0:0:0:0:
132,192,134147,2,0,L|146:138,1,55.0000016784668,2|0,0:0|0:0,0:0:0:0:
53,248,134309,1,8,0:0:0:0:
227,227,134471,6,0,P|267:220|312:202,2,69.9999978637696,2|0|2,0:0|0:0|0:0,0:0:0:0:
132,192,134957,2,0,P|126:142|116:104,1,69.9999978637696,8|2,0:0|0:0,0:0:0:0:
257,49,135282,6,0,P|238:95|233:144,1,100,2|2,0:0|0:0,0:0:0:0:
360,253,135606,1,8,0:0:0:0:
132,192,135768,6,0,P|152:260|196:312,1,139.999995727539,2|2,0:0|0:0,0:0:0:0:
54,384,136255,2,0,P|100:368|141:361,1,69.9999978637696,8|2,0:0|0:0,0:0:0:0:
436,207,136579,5,2,0:0:0:0:
360,253,136741,2,0,P|311:241|267:218,1,100,2|8,0:0|0:0,0:0:0:0:
454,340,137066,6,0,P|384:349|322:379,1,139.999995727539,2|2,0:0|0:0,0:0:0:0:
231,377,137552,1,8,0:0:0:0:
97,247,137714,2,0,B|173:250|158:284|228:290,1,139.999995727539,2|2,0:0|0:0,0:0:0:0:
311,249,138201,1,8,0:0:0:0:
226,203,138363,2,0,P|213:157|209:109,1,69.9999978637696,2|0,0:0|0:0,0:0:0:0:
373,90,138687,5,2,0:0:0:0:
370,110,138768,1,2,0:0:0:0:
367,130,138849,1,8,0:0:0:0:
319,7,139011,1,2,0:0:0:0:
459,130,139174,6,0,L|478:200,1,55.0000016784668,6|0,0:0|0:0,0:0:0:0:
369,294,139336,2,0,L|383:240,1,55.0000016784668,2|0,0:0|0:0,0:0:0:0:
494,192,139498,1,8,0:0:0:0:
293,205,139660,6,0,P|248:190|213:167,2,69.9999978637696,2|0|2,0:0|0:0|0:0,0:0:0:0:
466,280,140147,1,8,0:0:0:0:
369,294,140309,2,0,B|299:297|306:321|227:325,1,139.999995727539,2|2,0:0|0:0,0:0:0:0:
94,355,140795,1,8,0:0:0:0:
140,286,140957,2,0,P|133:246|124:210,1,69.9999978637696,2|0,0:0|0:0,0:0:0:0:
99,113,141282,5,2,0:0:0:0:
185,140,141444,1,8,0:0:0:0:
251,72,141606,1,2,0:0:0:0:
163,42,141768,6,0,P|132:36|97:26,1,55.0000016784668,2|0,0:0|0:0,0:0:0:0:
4,83,141930,1,2,0:0:0:0:
79,206,142093,1,8,0:0:0:0:
185,140,142255,2,0,P|211:195|215:289,1,139.999995727539,2|2,0:0|0:0,0:0:0:0:
138,309,142741,1,8,0:0:0:0:
228,366,142903,2,0,P|282:334|323:236,1,139.999995727539,2|2,0:0|0:0,0:0:0:0:
317,153,143390,1,8,0:0:0:0:
387,209,143552,2,0,P|404:251|411:289,1,69.9999978637696,2|0,0:0|0:0,0:0:0:0:
217,257,143876,5,2,0:0:0:0:
200,252,143957,1,2,0:0:0:0:
183,247,144038,1,8,0:0:0:0:
312,349,144201,1,2,0:0:0:0:
175,339,144363,6,0,L|109:353,1,55.0000016784668,6|0,0:0|0:0,0:0:0:0:
75,260,144525,2,0,L|21:248,1,55.0000016784668,2|0,0:0|0:0,0:0:0:0:
2,353,144687,1,8,0:0:0:0:
168,178,144849,6,0,P|180:224|183:271,2,69.9999978637696,2|0|2,0:0|0:0|0:0,0:0:0:0:
260,61,145336,2,0,P|248:107|245:154,1,69.9999978637696,8|2,0:0|0:0,0:0:0:0:
77,155,145660,6,0,P|109:116|165:87,1,100,2|2,0:0|0:0,0:0:0:0:
331,111,145984,1,8,0:0:0:0:
266,214,146147,6,0,B|339:227|317:260|390:277,1,139.999995727539,2|2,0:0|0:0,0:0:0:0:
457,224,146633,1,8,0:0:0:0:
457,224,146795,1,2,0:0:0:0:
275,326,146957,5,2,0:0:0:0:
195,284,147120,2,0,P|174:237|169:176,1,100,2|8,0:0|0:0,0:0:0:0:
349,196,147444,6,0,P|358:126|396:68,1,139.999995727539,2|2,0:0|0:0,0:0:0:0:
476,81,147930,1,8,0:0:0:0:
311,35,148093,2,0,P|245:68|176:70,1,139.999995727539,2|2,0:0|0:0,0:0:0:0:
99,119,148579,2,0,P|83:86|77:44,1,69.9999978637696,8|2,0:0|0:0,0:0:0:0:
196,154,148903,5,8,0:3:0:0:
221,165,148984,1,8,0:3:0:0:
242,183,149066,1,2,0:0:0:0:
259,205,149147,1,2,0:0:0:0:
272,233,149228,2,0,P|268:268|262:303,1,55.0000016784668,8|8,0:0|0:3,0:0:0:0:
160,347,149390,1,2,0:0:0:0:
64,196,149552,5,6,0:0:0:0:
169,243,149714,1,2,0:0:0:0:
116,101,149876,2,0,P|70:85|11:100,1,89.9999972534181,2|2,0:3|0:0,0:0:0:0:
222,143,150201,2,0,L|243:40,1,89.9999972534181,2|2,0:3|0:0,0:0:0:0:
64,196,150525,1,2,0:3:0:0:
169,243,150687,6,0,B|264:237|264:237|269:243|269:243|364:237,1,179.999994506836,2|2,0:0|0:0,0:0:0:0:
374,96,151174,2,0,P|333:115|305:181,1,89.9999972534181,2|2,0:3|0:0,0:0:0:0:
318,329,151498,2,0,P|355:356|426:348,1,89.9999972534181,2|2,0:3|0:0,0:0:0:0:
397,185,151822,1,2,0:3:0:0:
298,244,151984,1,2,0:0:0:0:
453,267,152147,5,2,0:0:0:0:
298,244,152309,1,2,0:0:0:0:
397,183,152471,1,2,0:3:0:0:
255,136,152633,5,2,0:0:0:0:
298,244,152795,1,2,0:3:0:0:
346,90,152957,1,2,0:0:0:0:
154,172,153120,5,2,0:3:0:0:
298,244,153282,1,2,0:0:0:0:
185,267,153444,1,2,0:3:0:0:
301,360,153606,5,2,0:0:0:0:
298,244,153768,1,2,0:3:0:0:
204,364,153930,1,2,0:0:0:0:
298,244,154093,1,2,0:3:0:0:
136,121,154255,5,2,0:0:0:0:
139,141,154336,1,2,0:0:0:0:
142,161,154417,1,2,0:0:0:0:
222,88,154579,1,2,0:0:0:0:
43,184,154741,5,6,0:0:0:0:
113,259,154903,1,2,0:0:0:0:
222,88,155066,2,0,P|192:43|142:30,1,89.9999972534181,2|2,0:3|0:0,0:0:0:0:
142,161,155390,2,0,L|251:176,1,89.9999972534181,2|2,0:3|0:0,0:0:0:0:
346,327,155714,1,2,0:3:0:0:
383,243,155876,6,0,B|344:221|334:170|334:170|332:221|277:265,1,179.999994506836,2|2,0:0|0:0,0:0:0:0:
346,327,156363,2,0,B|394:334|394:334|401:339|401:339|456:348,1,89.9999972534181,2|2,0:3|0:0,0:0:0:0:
334,170,156687,2,0,B|285:177|285:177|279:182|279:182|224:192,1,89.9999972534181,2|2,0:3|0:0,0:0:0:0:
159,278,157011,1,2,0:3:0:0:
246,187,157174,1,2,0:0:0:0:
128,103,157336,5,2,0:0:0:0:
159,278,157498,1,2,0:0:0:0:
58,191,157661,1,2,0:3:0:0:
151,94,157822,5,2,0:0:0:0:
159,278,157984,1,2,0:3:0:0:
38,175,158147,1,2,0:0:0:0:
171,85,158309,5,2,0:3:0:0:
159,278,158471,1,2,0:0:0:0:
18,159,158633,1,2,0:3:0:0:
194,76,158795,5,2,0:0:0:0:
159,278,158957,1,2,0:3:0:0:
1,146,159120,1,2,0:0:0:0:
220,70,159282,5,2,0:3:0:0:
159,278,159444,5,2,0:0:0:0:
153,258,159525,1,2,0:0:0:0:
148,239,159606,1,2,0:0:0:0:
246,179,159768,1,2,0:0:0:0:
188,367,159930,5,6,0:0:0:0:
64,279,160093,1,2,0:0:0:0:
246,179,160255,2,0,P|282:218|286:266,1,89.9999972534181,2|2,0:3|0:0,0:0:0:0:
188,367,160579,2,0,B|146:360|146:360|140:364|140:364|81:355,1,89.9999972534181,2|2,0:3|0:0,0:0:0:0:
144,117,160903,1,2,0:3:0:0:
246,179,161066,6,0,B|316:189|316:189|360:170|360:170|437:178,1,179.999994506836,2|2,0:0|0:0,0:0:0:0:
397,71,161552,2,0,P|341:69|299:96,1,89.9999972534181,2|2,0:3|0:0,0:0:0:0:
418,268,161876,2,0,P|476:269|518:242,1,89.9999972534181,2|2,0:3|0:0,0:0:0:0:
372,158,162201,1,2,0:3:0:0:
326,295,162363,1,2,0:0:0:0:
286,212,162525,5,2,0:0:0:0:
326,295,162687,1,2,0:0:0:0:
372,158,162849,1,2,0:3:0:0:
200,158,163011,5,2,0:0:0:0:
240,77,163173,1,2,0:3:0:0:
286,212,163335,1,2,0:0:0:0:
114,212,163498,5,2,0:3:0:0:
153,292,163660,1,2,0:0:0:0:
200,158,163822,1,2,0:3:0:0:
28,158,163984,5,2,0:0:0:0:
67,84,164146,1,2,0:3:0:0:
114,212,164308,1,2,0:0:0:0:
68,56,164471,1,2,0:3:0:0:
210,124,164633,5,2,0:0:0:0:
205,141,164714,1,2,0:0:0:0:
200,158,164795,1,2,0:0:0:0:
158,51,164957,1,2,0:0:0:0:
297,151,165120,5,6,0:0:0:0:
114,212,165282,1,2,0:0:0:0:
230,332,165444,2,0,B|235:292|235:292|240:286|240:286|249:228,1,89.9999972534181,2|2,0:3|0:0,0:0:0:0:
97,124,165768,2,0,B|102:164|102:164|107:170|107:170|116:228,1,89.9999972534181,2|2,0:3|0:0,0:0:0:0:
297,151,166093,1,2,0:3:0:0:
174,65,166255,6,0,P|184:17|238:80,1,179.999994506836,2|2,0:0|0:0,0:0:0:0:
113,211,166741,2,0,L|12:198,1,89.9999972534181,2|2,0:3|0:0,0:0:0:0:
209,300,167066,2,0,L|309:288,1,89.9999972534181,2|0,0:3|0:0,0:0:0:0:
405,185,167390,1,2,0:3:0:0:
279,145,167552,1,2,0:0:0:0:
405,185,167714,5,2,0:0:0:0:
299,290,167876,1,2,0:0:0:0:
161,268,168038,1,2,0:3:0:0:
405,185,168201,5,2,0:0:0:0:
305,315,168363,1,2,0:3:0:0:
170,244,168525,1,2,0:0:0:0:
405,185,168687,5,2,0:3:0:0:
312,342,168849,1,2,0:0:0:0:
176,221,169011,1,2,0:3:0:0:
405,185,169174,5,2,0:0:0:0:
319,366,169336,1,2,0:3:0:0:
184,200,169498,1,2,0:0:0:0:
369,277,169660,5,2,0:3:0:0:
394,284,169741,1,0,0:0:0:0:
420,284,169822,1,2,0:0:0:0:
445,275,169903,1,2,0:0:0:0:
469,263,169984,2,0,L|482:213,1,44.999998626709,2|0,0:0|0:0,0:0:0:0:
399,39,170147,1,2,0:0:0:0:
399,61,170228,1,0,0:0:0:0:
393,82,170309,5,6,0:0:0:0:
288,156,170471,1,2,0:3:0:0:
191,88,170633,1,8,0:0:0:0:
239,10,170795,6,0,L|275:0,2,37.5000014305115,2|0|2,0:3|0:0|0:0,0:0:0:0:
197,178,171120,2,0,L|186:214,2,37.5000014305115,2|0|8,0:3|0:0|0:0,0:0:0:0:
99,63,171444,2,0,L|72:36,2,37.5000014305115,2|0|2,0:3|0:0|0:0,0:0:0:0:
191,88,171768,1,2,0:3:0:0:
191,88,171849,1,0,0:0:0:0:
191,88,171930,1,8,0:0:0:0:
102,159,172093,1,2,0:3:0:0:
288,104,172255,5,2,0:0:0:0:
319,188,172417,1,2,0:3:0:0:
273,265,172579,1,8,0:0:0:0:
183,276,172741,1,2,0:3:0:0:
211,184,172903,5,2,0:0:0:0:
354,285,173066,1,2,0:3:0:0:
202,359,173228,1,8,0:0:0:0:
301,185,173390,6,0,L|332:146,2,37.5000014305115,2|0|2,0:3|0:0|0:0,0:0:0:0:
167,281,173714,2,0,L|117:273,2,37.5000014305115,2|0|8,0:3|0:0|0:0,0:0:0:0:
305,350,174038,2,0,L|323:396,2,37.5000014305115,2|0|2,0:3|0:0|0:0,0:0:0:0:
257,269,174363,1,2,0:3:0:0:
257,269,174444,1,0,0:0:0:0:
257,269,174525,1,8,0:0:0:0:
211,358,174687,1,2,0:3:0:0:
372,269,174849,5,2,0:0:0:0:
270,85,175011,1,2,0:0:0:0:
436,25,175174,5,2,0:0:0:0:
432,43,175255,1,2,0:0:0:0:
378,179,175417,1,2,0:0:0:0:
374,161,175498,5,6,0:0:0:0:
287,89,175660,1,2,0:3:0:0:
187,147,175822,1,8,0:0:0:0:
273,215,175984,6,0,P|281:198|287:180,2,37.5000014305115,2|0|2,0:3|0:0|0:0,0:0:0:0:
185,283,176309,2,0,P|166:284|147:287,2,37.5000014305115,2|0|8,0:3|0:0|0:0,0:0:0:0:
281,322,176633,2,0,P|291:337|303:351,2,37.5000014305115,2|0|2,0:3|0:0|0:0,0:0:0:0:
183,197,176957,1,2,0:3:0:0:
183,197,177038,1,0,0:0:0:0:
183,197,177120,1,8,0:0:0:0:
345,266,177282,1,2,0:3:0:0:
145,374,177444,5,2,0:0:0:0:
61,341,177606,1,2,0:3:0:0:
36,254,177768,1,8,0:0:0:0:
82,176,177930,1,2,0:3:0:0:
260,170,178093,5,2,0:0:0:0:
124,254,178255,1,2,0:3:0:0:
20,108,178417,1,8,0:0:0:0:
179,143,178579,6,0,L|166:178,2,37.5000014305115,2|0|2,0:3|0:0|0:0,0:0:0:0:
259,83,178903,2,0,L|295:76,2,37.5000014305115,2|0|8,0:3|0:0|0:0,0:0:0:0:
168,52,179228,2,0,L|143:23,2,37.5000014305115,2|0|2,0:3|0:0|0:0,0:0:0:0:
267,178,179552,1,2,0:3:0:0:
267,178,179633,1,0,0:0:0:0:
267,178,179714,1,8,0:0:0:0:
103,110,179876,1,2,0:3:0:0:
136,301,180038,5,2,0:0:0:0:
347,238,180201,1,2,0:0:0:0:
432,363,180363,5,2,0:0:0:0:
451,369,180444,1,2,0:0:0:0:
244,329,180606,1,2,0:0:0:0:
224,324,180687,6,0,P|210:289|209:267,1,55.0000016784668,6|0,0:0|0:0,0:0:0:0:
347,238,180849,2,0,P|370:208|388:196,1,55.0000016784668,2|0,0:0|0:0,0:0:0:0:
469,262,181011,1,8,0:0:0:0:
456,132,181174,2,0,L|449:52,2,69.9999978637696,2|0|2,0:0|0:0|0:0,0:0:0:0:
469,262,181660,1,8,0:0:0:0:
251,223,181822,6,0,P|288:163|368:150,1,139.999995727539,2|2,0:0|0:0,0:0:0:0:
427,339,182309,1,8,0:0:0:0:
342,313,182471,2,0,P|336:273|351:229,1,69.9999978637696,2|0,0:0|0:0,0:0:0:0:
454,126,182795,1,2,0:0:0:0:
440,225,182957,1,8,0:0:0:0:
342,244,183120,1,2,0:0:0:0:
352,146,183282,6,0,P|319:148|296:159,1,55.0000016784668,2|0,0:0|0:0,0:0:0:0:
249,236,183444,1,2,0:0:0:0:
135,106,183606,1,8,0:0:0:0:
80,284,183768,2,0,P|134:315|230:312,1,139.999995727539,2|2,0:0|0:0,0:0:0:0:
352,146,184255,1,8,0:0:0:0:
270,93,184417,2,0,B|225:81|197:97|197:97|167:115|121:102,1,139.999995727539,2|2,0:0|0:0,0:0:0:0:
83,25,184903,5,8,0:0:0:0:
134,105,185066,2,0,P|136:124|122:191,1,69.9999978637696,2|0,0:0|0:0,0:0:0:0:
203,292,185390,5,2,0:0:0:0:
198,275,185471,1,2,0:0:0:0:
193,258,185552,1,8,0:0:0:0:
270,198,185714,1,2,0:0:0:0:
320,368,185876,6,0,P|279:370|246:360,1,55.0000016784668,6|0,0:0|0:0,0:0:0:0:
386,215,186038,2,0,P|427:213|460:223,1,55.0000016784668,2|0,0:0|0:0,0:0:0:0:
356,294,186201,1,8,0:0:0:0:
270,198,186363,2,0,L|261:114,2,69.9999978637696,2|0|2,0:0|0:0|0:0,0:0:0:0:
193,258,186849,2,0,P|156:264|107:253,1,69.9999978637696,8|2,0:0|0:0,0:0:0:0:
27,111,187174,6,0,B|81:108|81:108|86:105|86:105|146:102,1,100,2|2,0:0|0:0,0:0:0:0:
234,64,187498,1,8,0:0:0:0:
193,258,187660,6,0,B|118:249|118:249|113:251|113:251|53:244,1,139.999995727539,2|2,0:0|0:0,0:0:0:0:
196,353,188147,2,0,P|240:346|268:324,1,69.9999978637696,8|2,0:0|0:0,0:0:0:0:
340,144,188471,5,2,0:0:0:0:
410,203,188633,2,0,B|429:227|429:227|421:296,1,100,2|8,0:0|0:0,0:0:0:0:
254,187,188957,2,0,B|235:163|235:163|244:45,1,139.999995727539,2|2,0:0|0:0,0:0:0:0:
328,32,189444,1,8,0:0:0:0:
154,116,189606,6,0,B|109:119|84:92|84:92|60:67|23:73,1,139.999995727539,2|2,0:0|0:0,0:0:0:0:
97,221,190093,1,8,0:0:0:0:
26,162,190255,2,0,P|2:190|4:229,1,69.9999978637696,2|0,0:0|0:0,0:0:0:0:
145,343,190579,5,2,0:0:0:0:
148,323,190660,1,2,0:0:0:0:
151,303,190741,1,8,0:0:0:0:
97,220,190903,1,2,0:0:0:0:
251,280,191066,6,0,P|283:288|307:284,1,55.0000016784668,6|0,0:0|0:0,0:0:0:0:
316,165,191228,2,0,P|338:141|347:118,1,55.0000016784668,2|0,0:0|0:0,0:0:0:0:
268,50,191390,1,8,0:0:0:0:
177,101,191552,2,0,L|92:91,2,69.9999978637696,2|0|2,0:0|0:0|0:0,0:0:0:0:
346,121,192038,1,8,0:0:0:0:
257,161,192201,6,0,P|225:205|231:299,1,139.999995727539,2|2,0:0|0:0,0:0:0:0:
452,285,192687,1,8,0:0:0:0:
378,223,192849,2,0,P|336:227|306:244,1,69.9999978637696,2|0,0:0|0:0,0:0:0:0:
253,363,193174,1,2,0:0:0:0:
163,378,193336,1,8,0:0:0:0:
100,311,193498,1,2,0:0:0:0:
191,286,193660,6,0,P|205:254|205:219,1,55.0000016784668,2|0,0:0|0:0,0:0:0:0:
161,160,193822,1,2,0:0:0:0:
100,311,193984,1,8,0:0:0:0:
2,119,194147,2,0,B|31:86|31:86|146:81,1,139.999995727539,2|2,0:0|0:0,0:0:0:0:
206,234,194633,1,8,0:0:0:0:
288,170,194795,6,0,P|350:185|382:266,1,139.999995727539,2|2,0:0|0:0,0:0:0:0:
480,270,195282,1,8,0:0:0:0:
345,345,195444,2,0,L|263:334,1,69.9999978637696,2|0,0:0|0:0,0:0:0:0:
207,215,195768,5,2,0:0:0:0:
210,235,195849,1,2,0:0:0:0:
213,255,195930,1,8,0:0:0:0:
288,170,196092,1,2,0:0:0:0:
135,101,196255,6,0,P|93:87|69:89,1,55.0000016784668,6|0,0:0|0:0,0:0:0:0:
213,255,196417,2,0,P|240:257|266:250,1,55.0000016784668,2|0,0:0|0:0,0:0:0:0:
176,176,196579,1,8,0:0:0:0:
65,239,196741,2,0,P|50:281|54:332,2,69.9999978637696,2|0|2,0:0|0:0|0:0,0:0:0:0:
176,176,197228,2,0,P|173:141|160:108,1,69.9999978637696,8|2,0:0|0:0,0:0:0:0:
16,33,197552,6,0,B|19:87|19:87|22:92|22:92|25:152,1,100,2|2,0:0|0:0,0:0:0:0:
65,240,197876,1,8,0:0:0:0:
275,138,198038,2,0,B|266:213|266:213|268:218|268:218|261:278,1,139.999995727539,2|2,0:0|0:0,0:0:0:0:
199,349,198525,1,8,0:0:0:0:
199,349,198687,1,2,0:0:0:0:
65,240,198849,5,2,0:0:0:0:
146,208,199011,2,0,B|197:192|197:192|243:212,1,100,2|8,0:0|0:0,0:0:0:0:
307,341,199336,2,0,B|380:364|380:364|456:328,1,139.999995727539,2|2,0:0|0:0,0:0:0:0:
512,300,199822,1,8,0:0:0:0:
399,152,199984,2,0,B|383:130|378:103|378:103|371:155|340:197,1,139.999995727539,2|2,0:0|0:0,0:0:0:0:
421,236,200471,2,0,L|505:227,1,69.9999978637696,8|2,0:0|0:0,0:0:0:0:
277,125,200795,5,8,0:0:0:0:
250,135,200876,1,2,0:0:0:0:
229,155,200957,1,2,0:0:0:0:
220,181,201039,1,2,0:0:0:0:
221,217,201120,2,0,L|227:290,1,55.0000016784668,8|8,0:0|0:3,0:0:0:0:
352,92,201282,1,2,0:0:0:0:
352,92,201363,1,0,0:0:0:0:
351,92,201444,6,0,P|302:78|260:61,1,89.9999972534181,6|2,0:0|0:0,0:0:0:0:
164,80,201768,1,2,0:3:0:0:
133,237,201930,2,0,P|193:158|290:164,1,179.999994506836,2|2,0:0|0:0,0:0:0:0:
300,316,202417,1,2,0:3:0:0:
444,297,202579,6,0,B|380:284|380:284|351:238|351:238|275:227,1,179.999994506836,2|2,0:0|0:0,0:0:0:0:
415,124,203066,2,0,P|430:171|426:221,1,89.9999972534181,2|2,0:3|0:0,0:0:0:0:
216,280,203390,2,0,P|200:232|205:183,1,89.9999972534181,2|2,0:3|0:0,0:0:0:0:
296,73,203714,1,2,0:3:0:0:
310,159,203876,1,2,0:0:0:0:
196,174,204038,5,2,0:0:0:0:
137,114,204201,2,0,L|26:93,1,89.9999972534181,2|2,0:0|0:3,0:0:0:0:
106,324,204525,5,2,0:0:0:0:
161,257,204687,1,2,0:3:0:0:
196,336,204849,1,2,0:0:0:0:
103,315,205011,5,2,0:3:0:0:
169,258,205173,1,2,0:0:0:0:
190,342,205335,1,2,0:3:0:0:
102,306,205498,5,2,0:0:0:0:
177,262,205660,1,2,0:3:0:0:
183,348,205822,1,2,0:0:0:0:
103,297,205984,5,2,0:3:0:0:
266,233,206147,1,2,0:0:0:0:
266,233,206228,1,2,0:0:0:0:
266,233,206309,1,2,0:0:0:0:
426,302,206471,1,2,0:0:0:0:
336,330,206633,6,0,P|343:280|358:234,1,89.9999972534181,6|2,0:0|0:0,0:0:0:0:
428,193,206957,1,2,0:3:0:0:
171,137,207120,2,0,B|225:121|225:121|279:165|262:250,1,179.999994506836,2|2,0:0|0:0,0:0:0:0:
235,347,207606,1,2,0:3:0:0:
52,350,207768,6,0,P|94:278|193:276,1,179.999994506836,2|2,0:0|0:0,0:0:0:0:
317,306,208255,2,0,P|355:343|401:359,1,89.9999972534181,2|2,0:3|0:0,0:0:0:0:
416,154,208579,2,0,P|383:184|341:199,1,89.9999972534181,2|2,0:3|0:0,0:0:0:0:
242,155,208903,2,0,P|246:105|232:58,1,89.9999972534181,2|2,0:3|0:0,0:0:0:0:
36,63,209228,5,2,0:0:0:0:
156,115,209390,1,2,0:0:0:0:
58,214,209552,1,2,0:3:0:0:
36,63,209714,5,2,0:0:0:0:
161,131,209876,1,2,0:3:0:0:
54,231,210038,1,2,0:0:0:0:
36,63,210201,5,2,0:3:0:0:
166,147,210363,1,2,0:0:0:0:
50,248,210525,1,2,0:3:0:0:
36,63,210687,5,2,0:0:0:0:
138,228,210849,1,2,0:3:0:0:
301,209,211011,1,2,0:0:0:0:
254,136,211174,5,2,0:3:0:0:
232,292,211336,1,2,0:0:0:0:
232,292,211417,1,2,0:0:0:0:
232,292,211498,1,2,0:0:0:0:
387,353,211660,1,2,0:0:0:0:
345,189,211822,6,0,B|325:230|325:230|340:282,1,89.9999972534181,6|2,0:0|0:0,0:0:0:0:
126,287,212147,1,2,0:3:0:0:
176,363,212309,2,0,B|219:305|219:305|192:200,1,179.999994506836,2|2,0:0|0:0,0:0:0:0:
240,41,212795,1,2,0:3:0:0:
97,66,212957,6,0,B|163:77|163:77|189:120|189:120|264:134,1,179.999994506836,2|2,0:0|0:0,0:0:0:0:
330,83,213444,2,0,P|352:128|352:184,1,89.9999972534181,2|2,0:3|0:0,0:0:0:0:
170,197,213768,2,0,P|148:242|149:297,1,89.9999972534181,2|2,0:3|0:0,0:0:0:0:
295,349,214093,1,2,0:3:0:0:
263,271,214255,1,2,0:0:0:0:
383,292,214417,5,2,0:0:0:0:
163,303,214579,2,0,L|57:319,1,89.9999972534181,2|2,0:0|0:3,0:0:0:0:
147,102,214903,5,2,0:0:0:0:
179,187,215066,1,2,0:3:0:0:
87,175,215228,1,2,0:0:0:0:
148,91,215390,5,2,0:3:0:0:
187,193,215553,1,2,0:0:0:0:
76,179,215715,1,2,0:3:0:0:
151,78,215876,5,2,0:0:0:0:
197,201,216039,1,2,0:3:0:0:
64,183,216201,1,2,0:0:0:0:
153,63,216363,5,2,0:3:0:0:
124,256,216525,1,2,0:0:0:0:
124,256,216606,1,2,0:0:0:0:
124,256,216687,1,2,0:0:0:0:
102,348,216849,1,2,0:0:0:0:
286,331,217011,6,0,P|247:298|195:283,1,89.9999972534181,6|2,0:0|0:0,0:0:0:0:
18,321,217336,1,2,0:3:0:0:
48,200,217498,2,0,P|104:133|192:131,1,179.999994506836,2|2,0:0|0:0,0:0:0:0:
389,184,217984,1,2,0:3:0:0:
327,42,218147,6,0,B|338:137|289:113|294:216,1,179.999994506836,2|2,0:0|0:0,0:0:0:0:
211,155,218633,2,0,P|215:103|230:51,1,89.9999972534181,2|2,0:3|0:0,0:0:0:0:
430,66,218957,2,0,P|426:118|411:170,1,89.9999972534181,2|2,0:3|0:0,0:0:0:0:
321,210,219282,2,0,P|310:166|307:121,1,89.9999972534181,2|2,0:3|0:0,0:0:0:0:
348,301,219606,5,2,0:0:0:0:
257,280,219768,1,2,0:0:0:0:
170,257,219930,1,2,0:3:0:0:
406,235,220093,5,2,0:0:0:0:
257,280,220255,1,2,0:3:0:0:
113,317,220417,1,2,0:0:0:0:
370,338,220579,5,2,0:3:0:0:
253,198,220741,1,2,0:0:0:0:
113,317,220903,1,2,0:3:0:0:
65,234,221066,5,2,0:0:0:0:
147,194,221228,1,2,0:3:0:0:
192,276,221390,1,2,0:0:0:0:
106,330,221552,5,2,0:3:0:0:
236,202,221714,1,2,0:0:0:0:
253,198,221795,1,2,0:0:0:0:
270,194,221876,2,0,L|321:182,1,44.999998626709,2|0,0:0|0:0,0:0:0:0:
63,146,222038,2,0,L|27:107,1,44.999998626709,2|0,0:0|0:0,0:0:0:0:
99,342,222201,6,0,L|125:240,1,89.9999972534181,6|2,0:0|0:0,0:0:0:0:
159,91,222525,1,0,0:0:0:0:
270,194,222687,2,0,B|261:131|169:158|172:236|245:273,1,179.999994506836,2|2,0:0|0:0,0:0:0:0:
302,321,223174,2,0,P|357:305|397:316,1,89.9999972534181,0|2,0:0|0:0,0:0:0:0:
270,194,223498,6,0,P|225:200|184:184,1,89.9999972534181,2|2,0:3|0:0,0:0:0:0:
69,88,223822,1,0,0:0:0:0:
52,205,223984,1,2,0:0:0:0:
52,227,224066,1,0,0:0:0:0:
61,257,224147,1,8,0:3:0:0:
91,283,224228,1,8,0:3:0:0:
139,291,224309,6,0,P|162:291|187:286,1,44.999998626709,2|8,0:0|0:3,0:0:0:0:
328,156,224471,2,0,P|315:178|308:200,1,44.999998626709,8|8,0:3|0:3,0:0:0:0:
357,379,224633,2,0,P|347:355|328:339,1,44.999998626709,2|0,0:0|0:0,0:0:0:0:
274,277,224795,6,0,L|408:264,1,119.999996337891,6|2,0:0|0:0,0:0:0:0:
459,31,225120,1,8,0:0:0:0:
459,31,225282,2,0,P|344:22|277:115,1,239.999992675781,2|2,0:0|0:0,0:0:0:0:
433,237,225768,2,0,B|398:187|397:127|397:127|394:163|365:195,1,179.999994506836,8|0,0:0|0:0,0:0:0:0:
331,319,226093,5,0,0:0:0:0:
511,262,226255,1,2,0:0:0:0:
331,319,226417,2,0,B|394:328|394:328|399:326|399:326|453:334,1,119.999996337891,8|2,0:0|0:0,0:0:0:0:
348,110,226741,1,2,0:3:0:0:
348,110,226903,2,0,P|299:143|282:202,1,119.999996337891,2|8,0:0|0:0,0:0:0:0:
449,333,227228,1,2,0:0:0:0:
475,123,227390,5,2,0:0:0:0:
382,201,227552,2,0,L|353:334,1,119.999996337891,2|8,0:0|0:0,0:0:0:0:
475,123,227876,2,0,B|405:52|318:101|318:101|300:168,1,239.999992675781,2|2,0:0|0:0,0:0:0:0:
356,318,228363,2,0,P|415:315|466:284,1,119.999996337891,8|2,0:0|0:0,0:0:0:0:
389,61,228687,5,0,0:0:0:0:
361,215,228849,1,2,0:0:0:0:
256,108,229011,1,8,0:0:0:0:
392,43,229174,2,0,L|518:32,1,119.999996337891,2|0,0:0|0:0,0:0:0:0:
361,215,229498,5,2,0:0:0:0:
358,195,229579,1,2,0:0:0:0:
355,175,229660,1,8,0:0:0:0:
511,32,229822,1,2,0:0:0:0:
427,282,229984,6,0,P|373:307|300:285,1,119.999996337891,6|2,0:0|0:0,0:0:0:0:
428,120,230309,1,8,0:0:0:0:
428,120,230471,6,0,P|475:122|523:150,1,89.9999972534181,2|0,0:0|0:0,0:0:0:0:
283,195,230795,2,0,P|261:153|261:97,1,89.9999972534181,2|8,0:0|0:0,0:0:0:0:
427,282,231120,2,0,P|401:321|353:349,1,89.9999972534181,2|0,0:0|0:0,0:0:0:0:
373,202,231444,1,2,0:0:0:0:
507,57,231606,2,0,B|471:26|471:26|373:37,1,134.999995880127,8|0,0:0|0:0,0:0:0:0:
297,46,231930,5,2,0:3:0:0:
490,270,232093,2,0,B|498:209|498:209|494:205|494:205|501:147,1,119.999996337891,2|8,0:0|0:0,0:0:0:0:
384,35,232417,1,2,0:0:0:0:
289,299,232579,6,0,P|346:319|407:313,1,119.999996337891,2|2,0:0|0:0,0:0:0:0:
502,139,232903,1,8,0:0:0:0:
315,182,233066,2,0,B|320:270|440:254|432:138|342:93,1,239.999992675781,2|2,0:0|0:0,0:0:0:0:
266,44,233552,1,8,0:0:0:0:
266,44,233714,6,0,L|364:33,1,89.9999972534181,2|0,0:0|0:0,0:0:0:0:
501,134,234038,6,0,B|512:168|503:197|503:197|508:198|508:198|503:198|503:198|493:232|462:255,1,134.999995880127,2|0,0:0|0:0,0:0:0:0:
393,229,234363,2,0,B|381:194|390:165|390:165|385:164|385:164|390:164|390:164|400:130|431:107,1,134.999995880127,2|0,0:0|0:0,0:0:0:0:
482,14,234687,5,2,0:0:0:0:
479,34,234768,1,2,0:0:0:0:
476,54,234849,1,8,0:0:0:0:
393,229,235011,1,2,0:0:0:0:
437,136,235174,5,6,0:0:0:0:
460,371,235336,1,2,0:0:0:0:
289,204,235498,1,8,0:0:0:0:
460,371,235660,6,0,B|385:380|385:380|330:302|398:221,1,239.999992675781,2|2,0:0|0:0,0:0:0:0:
512,124,236147,1,8,0:0:0:0:
291,48,236309,1,2,0:0:0:0:
291,48,236471,6,0,P|285:116|309:182,1,119.999996337891,2|2,0:3|0:0,0:0:0:0:
501,221,236795,1,8,0:0:0:0:
248,246,236957,6,0,P|300:292|363:303,1,100,2|0,0:0|0:0,0:0:0:0:
501,221,237282,1,2,0:0:0:0:
414,375,237444,6,0,P|475:346|500:315,1,80,8|2,0:0|0:0,0:0:0:0:
512,124,237768,5,2,0:0:0:0:
338,190,237930,2,0,P|323:138|330:91,1,89.9999972534181,2|8,0:0|0:0,0:0:0:0:
444,29,238255,2,0,B|364:21|364:21|356:27|356:27|249:15,1,179.999994506836,2|2,0:0|0:0,0:0:0:0:
338,190,238741,1,8,0:0:0:0:
470,112,238903,6,0,B|390:104|390:104|382:110|382:110|275:98,1,179.999994506836,2|2,0:0|0:0,0:0:0:0:
265,315,239390,1,8,0:0:0:0:
427,278,239552,2,0,P|432:212|402:176,1,89.9999972534181,2|0,0:0|0:0,0:0:0:0:
265,315,239876,5,2,0:0:0:0:
268,335,239957,1,2,0:0:0:0:
271,355,240038,1,8,0:0:0:0:
348,245,240201,1,2,0:0:0:0:
359,372,240363,5,6,0:0:0:0:
340,122,240525,1,2,0:0:0:0:
512,239,240687,1,8,0:0:0:0:
257,181,240849,2,0,P|243:111|371:18,1,239.999992675781,2|2,0:0|0:0,0:0:0:0:
512,239,241336,1,8,0:0:0:0:
361,16,241498,6,0,B|350:134|350:134|356:142|356:142|342:261,1,239.999992675781,2|2,0:0|0:0,0:0:0:0:
500,359,241984,2,0,P|446:381|377:357,1,119.999996337891,8|2,0:0|0:0,0:0:0:0:
257,181,242309,1,8,0:3:0:0:
450,94,242471,1,2,0:0:0:0:
450,94,242552,1,2,0:0:0:0:
450,94,242633,2,0,L|438:155,1,59.9999981689454,8|8,0:0|0:3,0:0:0:0:
360,218,242795,2,0,L|369:277,1,59.9999981689454,2|0,0:0|0:0,0:0:0:0:
388,365,242957,5,6,0:0:0:0:
282,323,243120,1,2,0:3:0:0:
208,363,243282,1,8,0:0:0:0:
100,330,243444,2,0,L|68:350,2,37.5000014305115,2|0|2,0:3|0:0|0:0,0:0:0:0:
74,230,243768,2,0,L|10:219,2,37.5000014305115,2|0|8,0:3|0:0|0:0,0:0:0:0:
134,140,244093,2,0,L|104:88,2,37.5000014305115,2|0|2,0:3|0:0|0:0,0:0:0:0:
172,247,244417,2,0,P|208:240|256:235,1,75.0000028610231,2|8,0:3|0:0,0:0:0:0:
361,202,244741,1,2,0:3:0:0:
425,298,244903,5,2,0:0:0:0:
350,185,245066,1,2,0:3:0:0:
449,203,245228,1,8,0:0:0:0:
330,285,245390,1,2,0:3:0:0:
172,149,245552,5,2,0:0:0:0:
260,122,245714,1,2,0:3:0:0:
235,39,245876,1,8,0:0:0:0:
138,64,246038,2,0,L|94:49,2,37.5000014305115,2|0|2,0:3|0:0|0:0,0:0:0:0:
271,137,246363,2,0,L|315:152,2,37.5000014305115,2|0|8,0:3|0:0|0:0,0:0:0:0:
88,184,246687,2,0,L|63:228,2,37.5000014305115,2|0|2,0:3|0:0|0:0,0:0:0:0:
201,231,247011,2,0,L|221:318,1,75.0000028610231,2|8,0:3|0:0,0:0:0:0:
172,149,247336,1,2,0:3:0:0:
209,323,247498,5,2,0:0:0:0:
392,248,247660,1,2,0:0:0:0:
446,347,247822,5,2,0:0:0:0:
427,342,247903,1,2,0:0:0:0:
144,238,248066,1,2,0:0:0:0:
163,233,248147,5,6,0:0:0:0:
289,165,248309,1,2,0:3:0:0:
363,226,248471,1,8,0:0:0:0:
476,170,248633,2,0,L|491:135,2,37.5000014305115,2|0|2,0:3|0:0|0:0,0:0:0:0:
478,278,248957,2,0,L|513:293,2,37.5000014305115,2|0|8,0:3|0:0|0:0,0:0:0:0:
371,324,249282,2,0,L|356:359,2,37.5000014305115,2|0|2,0:3|0:0|0:0,0:0:0:0:
369,143,249606,2,0,P|325:149|287:181,1,75.0000028610231,2|8,0:3|0:0,0:0:0:0:
158,306,249930,1,2,0:3:0:0:
212,191,250093,5,2,0:0:0:0:
143,229,250255,1,2,0:3:0:0:
237,317,250417,1,8,0:0:0:0:
268,245,250579,1,2,0:3:0:0:
147,318,250741,5,2,0:0:0:0:
286,242,250903,1,2,0:3:0:0:
206,101,251066,1,8,0:0:0:0:
62,177,251228,2,0,L|16:164,2,37.5000014305115,2|0|2,0:3|0:0|0:0,0:0:0:0:
137,281,251552,2,0,L|148:327,2,37.5000014305115,2|0|8,0:3|0:0|0:0,0:0:0:0:
188,171,251876,2,0,L|222:137,2,37.5000014305115,2|0|2,0:3|0:0|0:0,0:0:0:0:
222,254,252201,2,0,P|270:270|306:296,1,75.0000028610231,2|8,0:3|0:0,0:0:0:0:
74,197,252525,1,2,0:3:0:0:
301,307,252687,5,2,0:0:0:0:
356,155,252849,1,2,0:0:0:0:
249,95,253011,5,2,0:0:0:0:
254,113,253093,1,2,0:0:0:0:
410,342,253255,1,2,0:0:0:0:
406,324,253336,6,0,B|321:313|321:313|305:306|305:306|205:295,1,200,6|8,0:0|0:0,0:0:0:0:
347,231,253822,1,2,0:3:0:0:
133,337,253984,2,0,P|126:274|158:226,1,100,2|2,0:0|0:3,0:0:0:0:
249,95,254309,1,8,0:0:0:0:
347,231,254471,6,0,B|344:256|344:256|346:260|346:260|339:305|339:305|336:309|336:309|333:333,1,100,2|2,0:3|0:0,0:0:0:0:
159,280,254795,2,0,B|184:277|184:277|188:279|188:279|233:272|233:272|237:269|237:269|261:266,1,100,2|8,0:3|0:0,0:0:0:0:
431,341,255120,2,0,B|405:338|405:338|401:340|401:340|356:333|356:333|352:330|352:330|328:327,1,100,2|2,0:3|0:0,0:0:0:0:
196,190,255444,1,2,0:3:0:0:
365,109,255606,1,8,0:0:0:0:
362,129,255687,1,0,0:0:0:0:
359,149,255768,1,2,0:3:0:0:
469,217,255930,6,0,B|417:178|417:178|365:182|365:182|358:180|358:180|271:187,1,200,2|8,0:0|0:0,0:0:0:0:
224,280,256417,1,2,0:3:0:0:
139,97,256579,2,0,B|187:103|187:103|196:101|196:101|245:109,1,100,2|2,0:0|0:3,0:0:0:0:
297,185,256822,1,0,0:0:0:0:
297,185,256903,2,0,B|345:179|345:179|354:181|354:181|403:173,1,100,8|2,0:0|0:3,0:0:0:0:
411,335,257228,6,0,P|354:296|340:271,1,100,2|2,0:0|0:3,0:0:0:0:
492,143,257552,2,0,P|486:211|472:236,1,100,8|2,0:0|0:3,0:0:0:0:
297,185,257876,1,2,0:0:0:0:
288,69,258038,1,2,0:0:0:0:
312,64,258120,1,0,0:0:0:0:
336,60,258201,5,8,0:0:0:0:
357,93,258282,1,2,0:0:0:0:
354,132,258363,1,2,0:3:0:0:
335,167,258444,1,2,0:0:0:0:
297,185,258525,6,0,L|192:171,1,100,6|2,0:0|0:3,0:0:0:0:
231,334,258849,1,8,0:0:0:0:
353,268,259011,1,2,0:3:0:0:
183,168,259174,1,2,0:0:0:0:
234,357,259336,1,2,0:3:0:0:
297,185,259498,1,8,0:0:0:0:
294,165,259579,1,0,0:0:0:0:
289,145,259660,6,0,B|223:139|223:139|216:132|216:132|139:125,1,150,2|0,0:3|0:0,0:0:0:0:
83,245,259984,2,0,B|149:239|149:239|156:232|156:232|233:225,1,150,2|0,0:3|0:0,0:0:0:0:
300,343,260309,2,0,B|234:337|234:337|227:330|227:330|150:323,1,150,2|0,0:3|0:0,0:0:0:0:
92,120,260633,6,0,L|172:128,1,50,2|0,0:3|0:0,0:0:0:0:
279,220,260795,2,0,L|199:228,1,50,8|0,0:0|0:0,0:0:0:0:
103,318,260957,2,0,L|183:326,1,50,2|0,0:3|0:0,0:0:0:0:
436,268,261120,5,2,0:0:0:0:
370,64,261282,1,2,0:3:0:0:
229,224,261444,1,8,0:0:0:0:
417,251,261606,5,2,0:3:0:0:
365,88,261768,1,2,0:0:0:0:
252,215,261930,1,2,0:3:0:0:
403,238,262093,5,8,0:0:0:0:
361,107,262255,1,2,0:3:0:0:
270,210,262417,1,2,0:0:0:0:
391,227,262579,5,2,0:3:0:0:
357,123,262741,1,8,0:0:0:0:
285,205,262903,1,2,0:3:0:0:
442,144,263066,6,0,L|452:94,1,50,2|0,0:0|0:0,0:0:0:0:
357,123,263228,2,0,L|371:69,1,50,2|8,0:0|0:3,0:0:0:0:
205,223,263390,1,8,0:0:0:0:
205,223,263471,2,0,L|215:278,1,50,2|2,0:0|0:3,0:0:0:0:
285,205,263633,1,2,0:0:0:0:
285,205,263714,6,0,B|300:278|300:278|296:286|296:286|314:360,1,150,2|0,0:0|0:0,0:0:0:0:
397,265,264038,6,0,B|434:276|434:276|448:308,2,66.6666666666667,8|2|0,0:0|0:3|0:3,0:0:0:0:
285,205,264363,2,0,B|313:178|313:178|377:185,2,66.6666666666667,2|2|0,0:0|0:3|0:3,0:0:0:0:
182,285,264687,2,0,B|173:247|173:247|211:194,2,66.6666666666667,8|2|0,0:0|0:3|0:3,0:0:0:0:
284,328,265011,5,2,0:0:0:0:
297,275,265120,1,2,0:3:0:0:
310,223,265228,1,0,0:3:0:0:
325,213,265336,5,8,0:0:0:0:
285,175,265445,1,2,0:3:0:0:
247,137,265553,1,0,0:3:0:0:
252,119,265660,5,2,0:0:0:0:
199,134,265769,1,2,0:3:0:0:
147,148,265877,1,0,0:3:0:0:
80,196,265984,6,0,B|64:167|64:167|65:128,2,66.6666666666667,8|2|2,0:0|0:3|0:3,0:0:0:0:
209,300,266309,6,0,B|201:404|23:443|-35:256|96:205|96:205|189:160|169:56|89:20|5:84|37:144|37:144|61:128|93:132,1,719.999978027344,2|8,0:0|0:0,0:0:0:0:
120,288,267444,1,2,0:3:0:0:
116,304,267525,1,2,0:3:0:0:
112,316,267606,5,2,0:0:0:0:
91,272,267687,1,2,0:3:0:0:
98,224,267768,1,2,0:3:0:0:
131,189,267849,1,2,0:3:0:0:
178,184,267930,1,8,0:0:0:0:
222,202,268011,1,2,0:3:0:0:
262,228,268093,1,2,0:3:0:0:
309,233,268174,1,2,0:3:0:0:
353,215,268255,6,0,P|380:177|382:147,1,59.9999981689454,2|2,0:0|0:3,0:0:0:0:
294,155,268417,2,0,P|302:109|291:81,1,59.9999981689454,2|2,0:0|0:3,0:0:0:0:
173,267,268579,1,8,0:0:0:0:
173,267,268660,2,0,P|168:312|175:340,1,59.9999981689454,2|2,0:0|0:3,0:0:0:0:
105,208,268822,1,2,0:0:0:0:
105,208,268903,6,0,P|81:260|77:327,1,100,6|0,0:0|0:3,0:0:0:0:
210,113,269228,1,8,0:0:0:0:
210,113,269309,1,2,0:3:0:0:
210,113,269390,2,0,B|158:106|158:106|153:99|153:99|92:92,1,100,0|2,0:3|0:0,0:0:0:0:
292,270,269714,1,0,0:3:0:0:
292,270,269795,1,2,0:3:0:0:
292,270,269876,2,0,B|344:263|344:263|349:256|349:256|410:249,1,100,8|0,0:0|0:3,0:0:0:0:
210,113,270201,6,0,B|186:154|186:154|189:220,1,100,2|0,0:0|0:3,0:0:0:0:
301,88,270444,2,0,B|277:46|277:46|218:16,1,100,2|0,0:3|0:0,0:0:0:0:
280,177,270687,2,0,L|342:189,1,50,2|0,0:3|0:0,0:0:0:0:
210,113,270849,2,0,L|148:125,1,50,2|0,0:0|0:0,0:0:0:0:
45,212,271011,6,0,B|80:211|80:211|117:234,1,69.9999978637696,2|0,0:0|0:0,0:0:0:0:
210,312,271174,2,0,B|191:282|191:282|193:238,1,69.9999978637696,8|2,0:0|0:0,0:0:0:0:
210,113,271336,2,0,B|193:143|193:143|154:164,1,69.9999978637696,8|2,0:3|0:0,0:0:0:0:
16,346,271498,6,0,B|61:297|61:297|126:333,1,119.999996337891,6|2,0:0|0:3,0:0:0:0:
229,111,271822,1,8,0:0:0:0:
253,214,271984,2,0,B|168:187|168:187|140:125|140:125|59:102,1,239.999992675781,2|2,0:3|0:3,0:0:0:0:
107,322,272471,2,0,L|83:204,1,119.999996337891,8|2,0:0|0:3,0:0:0:0:
243,24,272795,5,2,0:0:0:0:
174,169,272957,1,2,0:3:0:0:
42,89,273120,2,0,B|93:81|93:81|115:67|115:67|164:61,1,119.999996337891,8|0,0:0|0:0,0:0:0:0:
63,332,273444,1,2,0:0:0:0:
247,302,273606,2,0,B|196:294|196:294|174:280|174:280|125:274,1,119.999996337891,2|8,0:3|0:0,0:0:0:0:
217,126,273930,1,2,0:3:0:0:
0,174,274093,6,0,P|44:69|157:62,1,239.999992675781,2|8,0:0|0:0,0:0:0:0:
221,282,274579,1,2,0:3:0:0:
166,194,274741,1,2,0:0:0:0:
72,216,274903,1,2,0:3:0:0:
89,384,275066,2,0,P|128:340|130:273,1,119.999996337891,8|2,0:0|0:3,0:0:0:0:
163,29,275390,5,2,0:0:0:0:
101,93,275552,1,2,0:3:0:0:
136,177,275714,1,8,0:0:0:0:
195,113,275876,1,2,0:3:0:0:
28,30,276038,5,2,0:0:0:0:
256,183,276201,1,2,0:0:0:0:
47,191,276363,5,8,0:0:0:0:
42,208,276444,1,2,0:0:0:0:
178,20,276606,1,2,0:0:0:0:
175,37,276687,6,0,B|172:107|155:88|151:159,1,119.999996337891,6|2,0:0|0:3,0:0:0:0:
72,303,277011,1,8,0:0:0:0:
193,367,277174,2,0,P|180:306|146:271,1,89.9999972534181,2|2,0:3|0:0,0:0:0:0:
3,193,277498,2,0,P|62:212|109:200,1,89.9999972534181,2|8,0:3|0:0,0:0:0:0:
245,105,277822,2,0,P|198:146|185:193,1,89.9999972534181,2|2,0:3|0:0,0:0:0:0:
242,244,278147,1,2,0:3:0:0:
29,369,278309,6,0,P|67:303|186:294,1,179.999994506836,8|2,0:0|0:0,0:0:0:0:
245,105,278795,2,0,P|200:68|129:67,1,119.999996337891,2|8,0:3|0:0,0:0:0:0:
9,176,279120,1,2,0:3:0:0:
4,88,279282,6,0,B|65:100|65:100|100:140|91:211,1,179.999994506836,2|0,0:0|0:0,0:0:0:0:
47,278,279606,1,8,0:0:0:0:
242,244,279768,2,0,B|203:254|203:254|185:283|186:334,1,119.999996337891,2|2,0:3|0:0,0:0:0:0:
9,176,280093,5,2,0:3:0:0:
179,148,280255,1,8,0:0:0:0:
206,327,280417,1,2,0:3:0:0:
39,351,280579,1,2,0:0:0:0:
118,299,280741,6,0,L|95:211,1,89.9999972534181,2|8,0:3|0:0,0:0:0:0:
195,139,281066,2,0,L|217:51,1,89.9999972534181,2|2,0:3|0:0,0:0:0:0:
26,136,281390,1,2,0:0:0:0:
244,229,281552,5,8,0:0:0:0:
240,246,281633,1,2,0:0:0:0:
18,316,281795,1,2,0:0:0:0:
26,331,281876,6,0,B|68:295|68:295|130:320,1,119.999996337891,6|2,0:0|0:3,0:0:0:0:
159,206,282201,1,8,0:0:0:0:
91,98,282363,2,0,B|31:48|31:48|71:217,1,239.999992675781,2|2,0:3|0:3,0:0:0:0:
210,297,282849,1,8,0:0:0:0:
146,373,283011,1,2,0:3:0:0:
11,325,283174,6,0,P|50:261|160:246,1,179.999994506836,2|0,0:0|0:0,0:0:0:0:
210,297,283498,1,8,0:0:0:0:
260,151,283660,2,0,P|208:112|135:112,1,100,2|2,0:3|0:0,0:0:0:0:
21,147,283984,1,2,0:3:0:0:
21,51,284147,2,0,P|46:29|96:16,1,80,8|0,0:0|0:0,0:0:0:0:
174,105,284471,1,2,0:0:0:0:
86,217,284633,6,0,P|69:258|67:303,1,89.9999972534181,2|8,0:3|0:0,0:0:0:0:
250,143,284957,2,0,P|210:68|113:51,1,179.999994506836,2|2,0:3|0:3,0:0:0:0:
176,234,285444,1,8,0:0:0:0:
0,212,285606,2,0,B|99:203|59:146|159:139,1,179.999994506836,2|2,0:3|0:3,0:0:0:0:
206,355,286093,1,8,0:0:0:0:
101,272,286255,1,2,0:3:0:0:
27,317,286417,5,2,0:0:0:0:
197,228,286579,1,2,0:3:0:0:
32,171,286741,5,8,0:0:0:0:
49,165,286822,1,2,0:0:0:0:
148,100,286984,1,2,0:0:0:0:
131,94,287065,1,6,0:0:0:0:
69,294,287390,5,8,0:0:0:0:
137,361,287552,2,0,B|181:351|181:351|201:316|188:260,1,119.999996337891,2|2,0:3|0:0,0:0:0:0:
69,294,287876,1,2,0:3:0:0:
251,147,288038,1,8,0:0:0:0:
137,18,288201,2,0,B|64:27|64:27|14:81|35:186,1,239.999992675781,2|2,0:3|0:3,0:0:0:0:
0,327,288687,2,0,P|37:281|104:280,1,119.999996337891,8|2,0:0|0:3,0:0:0:0:
256,233,289011,5,2,0:0:0:0:
178,96,289174,1,2,0:0:0:0:
3,148,289336,5,8,0:0:0:0:
7,165,289417,1,2,0:0:0:0:
94,276,289579,1,2,0:0:0:0:
100,259,289660,6,0,P|157:229|231:248,1,134.999995880127,6|0,0:0|0:0,0:0:0:0:
235,257,289984,1,8,0:0:0:0:
387,134,290147,2,0,P|330:104|256:123,1,134.999995880127,2|0,0:3|0:0,0:0:0:0:
252,132,290471,1,2,0:3:0:0:
365,265,290633,2,0,L|466:249,1,89.9999972534181,8|2,0:0|0:3,0:0:0:0:
318,348,290957,6,0,B|283:312|283:312|272:214,1,134.999995880127,2|0,0:0|0:0,0:0:0:0:
271,209,291282,1,8,0:0:0:0:
174,98,291444,2,0,B|139:134|139:134|128:232,1,134.999995880127,2|0,0:3|0:0,0:0:0:0:
127,237,291769,1,2,0:3:0:0:
244,346,291930,1,8,0:0:0:0:
135,349,292093,1,2,0:3:0:0:
271,209,292255,6,0,B|302:190|344:197|344:197|375:226|422:221,1,134.999995880127,2|0,0:0|0:0,0:0:0:0:
415,219,292579,1,8,0:0:0:0:
308,40,292741,2,0,B|277:21|235:28|235:28|204:57|157:52,1,134.999995880127,2|0,0:3|0:0,0:0:0:0:
164,50,293065,1,2,0:3:0:0:
261,120,293228,2,0,P|273:172|268:219,1,89.9999972534181,8|0,0:0|0:0,0:0:0:0:
462,170,293552,6,0,P|410:154|372:126,1,89.9999972534181,2|2,0:0|0:3,0:0:0:0:
312,328,293876,2,0,P|351:291|394:272,1,89.9999972534181,8|2,0:0|0:3,0:0:0:0:
261,120,294201,5,2,0:0:0:0:
193,307,294363,1,2,0:0:0:0:
383,275,294525,1,8,0:0:0:0:
388,259,294606,1,2,0:0:0:0:
169,181,294768,1,2,0:0:0:0:
172,196,294849,6,0,B|243:202|243:202|248:207|248:207|337:215,1,134.999995880127,6|0,0:0|0:0,0:0:0:0:
322,212,295174,1,8,0:0:0:0:
240,33,295336,2,0,B|169:39|169:39|164:44|164:44|75:52,1,134.999995880127,2|0,0:3|0:0,0:0:0:0:
90,49,295661,1,2,0:3:0:0:
291,120,295822,2,0,P|330:81|342:41,1,89.9999972534181,8|2,0:0|0:3,0:0:0:0:
172,196,296147,6,0,P|163:264|186:349,1,134.999995880127,2|0,0:0|0:0,0:0:0:0:
184,344,296471,1,8,0:0:0:0:
338,359,296633,2,0,P|375:303|393:236,1,134.999995880127,2|0,0:3|0:0,0:0:0:0:
393,219,296957,1,2,0:3:0:0:
308,124,297120,1,8,0:0:0:0:
269,263,297282,1,2,0:3:0:0:
435,112,297444,6,0,B|404:93|362:100|362:100|331:129|284:124,1,134.999995880127,2|0,0:0|0:0,0:0:0:0:
291,122,297768,1,8,0:0:0:0:
125,253,297930,2,0,B|156:234|198:241|198:241|229:270|276:265,1,134.999995880127,2|0,0:3|0:0,0:0:0:0:
269,263,298254,1,2,0:3:0:0:
208,57,298417,2,0,P|185:110|192:157,1,89.9999972534181,8|0,0:0|0:0,0:0:0:0:
269,263,298741,5,2,0:0:0:0:
352,122,298903,1,2,0:3:0:0:
190,149,299066,1,8,0:0:0:0:
151,143,299147,1,0,0:0:0:0:
117,123,299228,1,2,0:3:0:0:
101,86,299310,1,0,0:0:0:0:
106,47,299391,6,0,L|117:-5,1,44.999998626709,2|0,0:0|0:0,0:0:0:0:
188,65,299553,2,0,L|201:14,1,44.999998626709,2|0,0:0|0:0,0:0:0:0:
259,218,299715,1,8,0:0:0:0:
259,218,299796,2,0,L|270:270,1,44.999998626709,2|0,0:0|0:0,0:0:0:0:
349,201,299957,1,2,0:0:0:0:
349,201,300038,5,6,0:0:0:0:
77,318,300201,1,2,0:0:0:0:
105,238,300363,5,2,0:3:0:0:
162,303,300525,1,2,0:3:0:0:
69,303,300687,1,2,0:3:0:0:
121,237,300849,1,2,0:3:0:0:
153,318,301011,5,2,0:0:0:0:
407,167,301174,1,2,0:0:0:0:
346,87,301336,5,2,0:3:0:0:
383,176,301498,1,2,0:3:0:0:
371,92,301660,5,2,0:0:0:0:
79,87,301822,1,2,0:0:0:0:
299,160,301984,6,0,B|252:136|215:156|215:156|176:175|117:149,1,179.999994506836,6|0,0:0|0:0,0:0:0:0:
79,87,302309,5,2,0:0:0:0:
377,317,302471,1,2,0:0:0:0:
392,241,302633,5,2,0:3:0:0:
316,265,302795,1,2,0:3:0:0:
455,293,302957,1,2,0:3:0:0:
395,223,303120,1,2,0:3:0:0:
373,333,303282,5,2,0:0:0:0:
72,219,303444,1,2,0:0:0:0:
122,150,303606,5,2,0:3:0:0:
81,240,303768,1,2,0:3:0:0:
21,162,303930,5,2,0:0:0:0:
308,94,304093,1,2,0:0:0:0:
128,65,304255,6,0,B|161:61|183:36|183:36|184:100|216:148,1,179.999994506836,6|0,0:0|0:0,0:0:0:0:
286,267,304579,2,0,B|310:286|321:321|321:321|328:260|375:221,1,179.999994506836,6|0,0:0|0:0,0:0:0:0:
401,147,304903,2,0,P|426:162|444:186,1,59.9999981689454,2|0,0:0|0:0,0:0:0:0:
415,300,305066,5,6,0:0:0:0:
120,149,305228,1,2,0:0:0:0:
138,232,305390,5,2,0:3:0:0:
57,207,305552,1,2,0:3:0:0:
135,156,305714,1,2,0:3:0:0:
124,240,305876,1,2,0:3:0:0:
54,189,306038,5,2,0:0:0:0:
425,162,306201,1,2,0:0:0:0:
370,98,306363,5,2,0:3:0:0:
338,180,306525,1,2,0:3:0:0:
372,78,306687,5,2,0:0:0:0:
61,106,306849,1,2,0:0:0:0:
282,114,307011,6,0,B|248:127|221:126|221:126|191:165|191:165|157:166|124:178,1,179.999994506836,6|0,0:0|0:0,0:0:0:0:
61,106,307336,5,2,0:0:0:0:
401,290,307498,1,2,0:0:0:0:
336,220,307660,5,2,0:3:0:0:
307,309,307822,1,2,0:3:0:0:
405,305,307984,1,2,0:3:0:0:
340,235,308146,1,2,0:3:0:0:
311,324,308308,5,2,0:0:0:0:
56,226,308471,1,2,0:0:0:0:
122,170,308633,5,2,0:3:0:0:
136,257,308795,1,2,0:3:0:0:
40,229,308957,5,2,0:0:0:0:
315,187,309120,1,2,0:0:0:0:
449,195,309282,6,0,B|458:131|408:87|408:87|341:113,1,179.999994506836,6|0,0:0|0:0,0:0:0:0:
315,187,309606,1,6,0:0:0:0:
300,211,309687,1,0,0:0:0:0:
283,234,309768,2,0,P|256:245|226:247,1,59.9999981689454,2|0,0:3|0:0,0:0:0:0:
176,105,309930,5,2,0:0:0:0:
150,71,310011,1,2,0:0:0:0:
108,59,310093,1,2,0:0:0:0:
67,62,310174,1,2,0:0:0:0:
37,86,310255,6,0,L|25:151,1,50,6|2,0:0|0:3,0:0:0:0:
137,62,310579,1,8,0:0:0:0:
120,145,310741,1,2,0:3:0:0:
137,62,310903,2,0,L|122:141,1,75.0000028610231,2|2,0:0|0:3,0:0:0:0:
248,49,311227,1,8,0:0:0:0:
228,158,311390,1,2,0:3:0:0:
248,49,311552,6,0,L|230:152,1,100,2|2,0:0|0:3,0:0:0:0:
386,36,311876,1,8,0:0:0:0:
365,175,312039,1,2,0:3:0:0:
386,36,312201,2,0,L|365:166,1,125,2|2,0:0|0:3,0:0:0:0:
252,185,312525,2,0,P|228:148|211:136,1,62.5,8|0,0:0|0:0,0:0:0:0:
57,165,312687,2,0,P|87:170|117:164,1,62.5,2|0,0:3|0:0,0:0:0:0:
294,40,312849,5,2,0:0:0:0:
510,27,313011,1,2,0:3:0:0:
386,36,313173,1,8,0:0:0:0:
411,140,313336,5,2,0:3:0:0:
218,94,313498,1,2,0:0:0:0:
331,123,313660,1,2,0:3:0:0:
96,90,313822,5,8,0:0:0:0:
208,187,313984,1,2,0:3:0:0:
133,128,314146,1,2,0:0:0:0:
43,183,314309,5,2,0:3:0:0:
6,76,314471,1,8,0:0:0:0:
32,156,314633,1,2,0:3:0:0:
111,29,314795,2,0,L|172:38,1,50,2|0,0:0|0:0,0:0:0:0:
235,107,314957,2,0,L|296:98,1,50,2|0,0:0|0:0,0:0:0:0:
365,64,315119,1,8,0:0:0:0:
381,67,315200,1,2,0:0:0:0:
478,197,315363,1,2,0:0:0:0:
462,200,315444,6,0,L|450:257,1,50,6|2,0:0|0:3,0:0:0:0:
390,370,315768,1,8,0:0:0:0:
367,273,315930,1,2,0:3:0:0:
383,347,316092,2,0,L|367:273,1,75.0000028610231,2|2,0:0|0:3,0:0:0:0:
282,362,316417,1,8,0:0:0:0:
255,241,316579,1,2,0:3:0:0:
276,339,316741,6,0,L|255:241,1,100,2|2,0:0|0:3,0:0:0:0:
174,359,317065,1,8,0:0:0:0:
140,214,317227,1,2,0:3:0:0:
166,336,317389,2,0,L|138:208,1,125,2|2,0:0|0:3,0:0:0:0:
48,384,317714,6,0,B|69:359|69:359|77:326,1,62.5,8|0,0:0|0:0,0:0:0:0:
283,294,317876,2,0,B|261:269|261:269|253:236,1,62.5,2|0,0:3|0:0,0:0:0:0:
22,190,318038,5,2,0:0:0:0:
234,224,318200,1,2,0:3:0:0:
124,255,318363,1,8,0:0:0:0:
340,231,318525,5,2,0:3:0:0:
192,312,318687,1,2,0:0:0:0:
303,324,318849,1,2,0:3:0:0:
241,244,319011,5,8,0:0:0:0:
400,295,319173,1,2,0:3:0:0:
308,342,319336,1,2,0:0:0:0:
485,257,319498,5,2,0:3:0:0:
391,384,319660,1,8,0:0:0:0:
512,359,319822,1,2,0:3:0:0:
512,359,319903,1,0,0:0:0:0:
512,359,319984,6,0,L|453:338,1,50,2|0,0:0|0:0,0:0:0:0:
379,216,320146,2,0,L|320:237,1,50,2|0,0:0|0:0,0:0:0:0:
290,347,320309,1,8,0:0:0:0:
278,356,320390,2,0,L|227:327,1,50,2|8,0:0|0:3,0:0:0:0:
164,261,320552,1,2,0:0:0:0:
156,247,320633,6,0,B|169:180|169:180|164:172|164:172|175:99,1,150.000005722046,6|0,0:0|0:0,0:0:0:0:
342,49,321135,2,0,P|317:119|252:151,1,150.000005722046,2|0,0:0|0:0,0:0:0:0:
174,19,321638,2,0,P|214:27|244:56,1,75.0000028610231
177,215,321973,5,2,0:0:0:0:
252,151,322141,2,0,B|292:141|325:161|325:161|359:184|410:173,1,150.000005722046,2|2,0:0|0:0,0:0:0:0:
396,175,322562,1,2,0:0:0:0:
396,175,322647,1,2,0:0:0:0:
276,235,322815,1,2,0:0:0:0:
376,93,322984,2,0,P|388:50|379:5,1,75.0000028610231,0|2,0:0|0:0,0:0:0:0:
302,49,323237,1,2,0:0:0:0:
302,49,323321,6,0,B|378:59|378:59|382:56|382:56|455:66,1,150.000005722046,2|0,0:0|0:0,0:0:0:0:
316,160,323829,2,0,B|240:170|240:170|236:167|236:167|163:177,1,150.000005722046,2|0,0:0|0:0,0:0:0:0:
380,242,324337,2,0,P|414:210|424:175,1,75.0000028610231
302,49,324676,5,2,0:0:0:0:
423,184,324850,2,0,L|502:179,1,75.0000028610231,2|0,0:0|0:0,0:0:0:0:
280,283,325199,1,2,0:0:0:0:
280,283,325286,1,2,0:0:0:0:
280,283,325373,2,0,L|276:230,1,37.5000014305115,2|0,0:0|0:0,0:0:0:0:
202,336,325548,2,0,P|190:308|176:294,1,37.5000014305115,2|0,0:0|0:0,0:0:0:0:
369,290,325722,2,0,P|361:307|358:325,1,37.5000014305115
273,156,325896,1,2,0:0:0:0:
273,156,325984,1,2,0:0:0:0:
273,156,326072,6,0,B|320:179|320:179|383:172,1,100,6|2,0:0|0:3,0:0:0:0:
450,66,326414,1,8,0:0:0:0:
273,156,326586,2,0,L|259:259,1,100,2|2,0:3|0:0,0:0:0:0:
456,335,326929,2,0,L|442:232,1,100,2|8,0:3|0:0,0:0:0:0:
335,72,327272,6,0,B|256:64|256:64|216:77|216:77|126:66,1,200,2|2,0:3|0:3,0:0:0:0:
273,156,327786,1,8,0:0:0:0:
426,35,327957,2,0,B|436:83|436:83|411:137,1,100,2|2,0:3|0:0,0:0:0:0:
354,227,328300,1,2,0:3:0:0:
273,156,328472,1,8,0:0:0:0:
270,141,328557,1,0,0:0:0:0:
267,126,328643,1,2,0:3:0:0:
181,56,328814,6,0,B|128:44|128:44|86:63,1,100,2|2,0:0|0:3,0:0:0:0:
243,240,329157,1,8,0:0:0:0:
267,126,329329,2,0,L|287:23,1,100,2|2,0:3|0:0,0:0:0:0:
93,151,329672,2,0,L|113:254,1,100,2|8,0:3|0:0,0:0:0:0:
286,27,330014,6,0,B|195:18|195:18|189:21|189:21|67:8,1,200,2|2,0:3|0:3,0:0:0:0:
205,197,330529,2,0,B|230:154|230:154|220:95,1,100,8|2,0:0|0:3,0:0:0:0:
87,10,330872,1,2,0:0:0:0:
109,156,331043,1,2,0:3:0:0:
221,104,331214,1,8,0:0:0:0:
223,87,331300,1,2,0:0:0:0:
121,258,331471,1,2,0:0:0:0:
121,276,331557,6,0,B|125:324|125:324|164:367,1,100,6|2,0:0|0:3,0:0:0:0:
310,213,331900,1,8,0:0:0:0:
203,165,332072,2,0,B|159:144|159:144|101:156,1,100,2|2,0:3|0:0,0:0:0:0:
255,290,332414,2,0,B|294:262|294:262|312:206,1,100,2|8,0:3|0:0,0:0:0:0:
249,66,332757,6,0,B|326:63|326:63|373:28|373:28|444:25,1,200,2|2,0:3|0:3,0:0:0:0:
398,195,333272,1,8,0:0:0:0:
231,163,333443,2,0,B|236:122|236:122|240:118|240:118|248:64,1,100,2|2,0:3|0:0,0:0:0:0:
398,195,333786,1,2,0:3:0:0:
303,274,333957,1,8,0:0:0:0:
300,259,334042,1,0,0:0:0:0:
297,244,334128,1,2,0:3:0:0:
231,163,334300,6,0,B|280:138|280:138|335:152,1,100,2|2,0:0|0:3,0:0:0:0:
274,358,334643,1,8,0:0:0:0:
162,331,334814,2,0,L|47:306,1,100,2|2,0:3|0:0,0:0:0:0:
297,244,335157,2,0,L|412:219,1,100,2|8,0:3|0:0,0:0:0:0:
281,64,335500,6,0,B|252:18|252:18|230:165,1,200,2|2,0:3|0:3,0:0:0:0:
212,327,336014,1,8,0:0:0:0:
206,288,336100,1,0,0:0:0:0:
186,254,336186,1,2,0:3:0:0:
149,238,336272,1,0,0:0:0:0:
110,243,336357,6,0,L|56:254,1,50,2|0,0:0|0:0,0:0:0:0:
128,325,336529,2,0,L|75:338,1,50,2|0,0:0|0:0,0:0:0:0:
265,138,336700,1,8,0:0:0:0:
265,138,336786,2,0,L|319:145,1,50,2|8,0:0|0:3,0:0:0:0:
268,225,336957,1,2,0:0:0:0:
268,225,337043,6,0,B|343:234|343:234|348:229|348:229|420:240,1,150,6|0,0:0|0:0,0:0:0:0:
433,242,337386,1,8,0:0:0:0:
314,144,337557,2,0,B|301:90|301:90|324:40,1,100,2|2,0:3|0:0,0:0:0:0:
512,197,337900,2,0,B|526:250|526:250|502:301,1,100,2|8,0:3|0:0,0:0:0:0:
413,103,338243,6,0,B|463:99|463:99|469:95|469:95|512:91,1,100,2|2,0:3|0:0,0:0:0:0:
373,230,338586,2,0,B|344:188|344:188|338:185|338:185|313:150,1,100,2|8,0:3|0:0,0:0:0:0:
512,197,338929,2,0,B|490:242|490:242|490:249|490:249|472:288,1,100,2|2,0:3|0:0,0:0:0:0:
463,85,339272,6,0,L|516:79,1,50,2|0,0:3|0:0,0:0:0:0:
333,198,339443,2,0,L|301:155,1,50,8|0,0:0|0:0,0:0:0:0:
501,251,339614,2,0,L|479:299,1,50,2|0,0:3|0:0,0:0:0:0:
427,178,339786,5,2,0:0:0:0:
324,47,339957,1,2,0:3:0:0:
324,47,340043,1,0,0:0:0:0:
324,47,340129,2,0,B|270:31|270:31|218:56,1,100,8|2,0:0|0:3,0:0:0:0:
268,226,340472,1,2,0:0:0:0:
140,90,340643,1,2,0:3:0:0:
268,226,340814,2,0,B|276:181|276:181|275:174|275:174|284:123,1,100,8|2,0:0|0:3,0:0:0:0:
173,289,341157,6,0,B|230:257|230:257|298:270|298:270|304:267|304:267|363:279,1,200,2|8,0:0|0:0,0:0:0:0:
431,362,341586,1,0,0:0:0:0:
431,362,341672,2,0,B|392:359|392:359|373:373|373:373|351:364|351:364|303:381,1,125,2|0,0:3|0:0,0:0:0:0:
296,185,342014,1,2,0:0:0:0:
364,264,342186,1,8,0:0:0:0:
361,278,342272,1,2,0:0:0:0:
215,102,342443,1,2,0:0:0:0:
212,87,342529,6,0,B|278:97|278:97|283:92|283:92|358:101,1,150,6|0,0:0|0:0,0:0:0:0:
370,104,342872,1,8,0:0:0:0:
361,278,343043,2,0,B|322:237|322:237|320:189,1,100,2|2,0:3|0:0,0:0:0:0:
467,116,343386,2,0,B|505:153|505:153|513:204,1,100,2|8,0:3|0:0,0:0:0:0:
370,104,343729,6,0,B|375:60|375:60|380:54|380:54|385:2,1,100,2|2,0:3|0:0,0:0:0:0:
261,144,344072,2,0,B|266:187|266:187|271:194|271:194|276:246,1,100,2|8,0:3|0:0,0:0:0:0:
159,104,344414,2,0,B|164:60|164:60|169:54|169:54|174:2,1,100,2|2,0:3|0:0,0:0:0:0:
366,63,344757,6,0,L|374:11,1,50,2|0,0:3|0:0,0:0:0:0:
258,195,344929,2,0,L|266:247,1,50,8|0,0:0|0:0,0:0:0:0:
153,57,345100,2,0,L|161:5,1,50,2|0,0:3|0:0,0:0:0:0:
174,183,345272,5,2,0:0:0:0:
85,162,345443,1,2,0:3:0:0:
320,133,345614,1,8,0:0:0:0:
232,113,345786,1,2,0:3:0:0:
202,265,345957,5,2,0:0:0:0:
85,162,346129,1,2,0:3:0:0:
51,321,346300,1,8,0:0:0:0:
174,183,346472,1,2,0:3:0:0:
202,265,346643,5,2,0:0:0:0:
24,231,346814,1,2,0:3:0:0:
167,350,346986,1,8,0:0:0:0:
206,354,347072,1,0,0:0:0:0:
244,345,347157,1,2,0:3:0:0:
274,319,347243,1,0,0:0:0:0:
289,283,347329,6,0,L|300:218,1,50,2|0,0:0|0:0,0:0:0:0:
202,265,347500,2,0,L|213:202,1,50,2|0,0:0|0:0,0:0:0:0:
411,124,347672,1,8,0:0:0:0:
411,124,347757,2,0,L|422:187,1,50,2|8,0:0|0:3,0:0:0:0:
378,280,347929,1,2,0:0:0:0:
378,280,348014,6,0,B|353:288|353:288|312:283,1,50,6|0,0:0|0:0,0:0:0:0:
411,124,348186,1,0,0:0:0:0:
411,124,348271,2,0,B|435:115|435:115|459:118,1,50,2|8,0:3|0:0,0:0:0:0:
313,188,348443,1,0,0:0:0:0:
313,188,348529,2,0,B|304:163|304:163|307:139,1,50,2|0,0:3|0:0,0:0:0:0:
474,219,348700,1,2,0:0:0:0:
474,219,348786,2,0,B|482:243|482:243|479:267,1,50,2|0,0:3|0:0,0:0:0:0:
406,370,348957,1,0,0:0:0:0:
406,370,349043,6,0,L|342:359,1,50,8|0,0:0|0:0,0:0:0:0:
267,300,349214,2,0,L|203:311,1,50,2|0,0:3|0:0,0:0:0:0:
80,309,349386,6,0,L|87:254,2,50,2|0|0,0:0|0:0|0:0,0:0:0:0:
228,214,349643,2,0,L|221:159,2,50,2|8|0,0:3|0:0|0:0,0:0:0:0:
98,142,349900,2,0,L|105:87,2,50,2|0|2,0:3|0:0|0:0,0:0:0:0:
201,61,350157,2,0,L|194:6,2,50,2|0|0,0:3|0:0|0:0,0:0:0:0:
319,124,350414,6,0,B|344:134|344:134|379:131,1,50,8|0,0:0|0:0,0:0:0:0:
470,21,350586,2,0,B|447:19|447:19|422:29,1,50,2|0,0:3|0:0,0:0:0:0:
319,124,350757,6,0,B|321:151|321:151|324:157|324:157|327:187,1,50,2|0,0:0|0:0,0:0:0:0:
224,215,350929,1,0,0:0:0:0:
224,215,351014,2,0,B|201:230|201:230|197:235|197:235|173:253,1,50,2|8,0:3|0:0,0:0:0:0:
117,156,351186,1,0,0:0:0:0:
117,156,351271,2,0,B|92:144|92:144|85:143|85:143|58:131,1,50,2|0,0:3|0:0,0:0:0:0:
137,55,351443,1,2,0:0:0:0:
137,55,351528,2,0,B|134:28|134:28|132:22|132:22|129:-8,1,50,2|0,0:3|0:0,0:0:0:0:
236,39,351700,1,0,0:0:0:0:
236,39,351786,6,0,B|247:67|247:67|238:115,1,50,8|0,0:0|0:0,0:0:0:0:
117,156,351957,2,0,B|113:177|113:177|123:203,1,50,2|0,0:3|0:0,0:0:0:0:
200,280,352129,6,0,L|252:276,2,50,2|0|0,0:0|0:0|0:0,0:0:0:0:
349,180,352386,2,0,L|326:227,2,50,2|8|0,0:3|0:0|0:0,0:0:0:0:
359,360,352643,2,0,L|329:316,2,50,2|0|2,0:3|0:0|0:0,0:0:0:0:
200,280,352900,2,0,L|252:276,2,50,2|2|0,0:3|0:0|0:0,0:0:0:0:
116,201,353157,1,8,0:0:0:0:
112,215,353243,2,0,B|102:245|102:245|107:276,1,50,2|2,0:0|0:3,0:0:0:0:
230,149,353414,1,2,0:0:0:0:
232,133,353500,6,0,B|234:111|234:111|224:84,1,50,6|0,0:0|0:0,0:0:0:0:
344,254,353672,1,0,0:0:0:0:
344,254,353758,2,0,B|326:260|326:260|305:284,1,50,2|8,0:3|0:0,0:0:0:0:
385,102,353929,1,0,0:0:0:0:
385,102,354014,2,0,B|399:113|399:113|430:119,1,50,2|0,0:3|0:0,0:0:0:0:
317,164,354186,1,2,0:0:0:0:
317,164,354272,2,0,L|261:157,1,50,2|0,0:3|0:0,0:0:0:0:
432,255,354443,1,0,0:0:0:0:
432,255,354529,6,0,L|488:248,1,50,8|0,0:0|0:0,0:0:0:0:
310,335,354700,2,0,L|254:328,1,50,2|0,0:3|0:0,0:0:0:0:
188,263,354872,6,0,B|185:234|185:234|192:205,2,50,2|0|0,0:0|0:0|0:0,0:0:0:0:
103,218,355129,2,0,B|105:188|105:188|117:161,2,50,2|8|0,0:3|0:0|0:0,0:0:0:0:
284,169,355386,2,0,B|287:140|287:140|280:111,2,50,2|0|2,0:3|0:0|0:0,0:0:0:0:
369,124,355643,2,0,B|366:94|366:94|354:67,2,50,2|0|0,0:3|0:0|0:0,0:0:0:0:
167,70,355900,6,0,L|104:62,1,50,8|0,0:0|0:0,0:0:0:0:
188,263,356072,2,0,L|251:255,1,50,2|0,0:3|0:0,0:0:0:0:
113,169,356243,6,0,B|93:194|93:194|90:222,1,50,2|0,0:0|0:0,0:0:0:0:
228,342,356414,1,0,0:0:0:0:
228,342,356500,2,0,B|240:371|240:371|262:388,1,50,2|8,0:3|0:0,0:0:0:0:
363,297,356672,1,0,0:0:0:0:
363,297,356758,2,0,B|394:300|394:300|420:290,1,50,2|0,0:3|0:0,0:0:0:0:
399,189,356929,1,2,0:0:0:0:
399,189,357015,2,0,B|418:163|418:163|421:135,1,50,2|0,0:3|0:0,0:0:0:0:
338,84,357186,1,0,0:0:0:0:
338,84,357272,6,0,L|263:74,1,50,8|0,0:0|0:0,0:0:0:0:
171,199,357443,2,0,L|246:189,1,50,2|0,0:3|0:0,0:0:0:0:
194,47,357614,6,0,B|189:76|189:76|198:108,2,50,2|0|0,0:0|0:0|0:0,0:0:0:0:
312,212,357872,2,0,B|317:183|317:183|308:151,2,50,2|8|0,0:3|0:0|0:0,0:0:0:0:
367,45,358129,2,0,B|362:74|362:74|371:106,2,50,2|0|2,0:3|0:0|0:0,0:0:0:0:
460,187,358386,2,0,B|465:158|465:158|456:126,2,50,2|2|0,0:3|0:0|0:0,0:0:0:0:
392,294,358643,1,8,0:0:0:0:
379,292,358729,2,0,L|316:286,1,50,2|8,0:0|0:3,0:0:0:0:
492,349,358900,1,2,0:0:0:0:
504,343,358986,6,0,P|515:299|501:247,1,75.0000028610231,4|2,0:0|0:3,0:0:0:0:
371,170,359329,2,0,P|325:174|281:202,1,75.0000028610231,8|2,0:0|0:3,0:0:0:0:
478,170,359672,1,2,0:0:0:0:
379,292,359843,2,0,L|247:280,1,112.500004291535,2|0,0:3|0:0,0:0:0:0:
248,279,360186,1,2,0:3:0:0:
122,178,360357,6,0,P|162:164|200:170,1,75.0000028610231,2|2,0:0|0:3,0:0:0:0:
237,249,360700,1,8,0:0:0:0:
363,203,360872,6,0,P|355:244|330:274,1,75.0000028610231,2|0,0:3|0:0,0:0:0:0:
244,266,361215,1,0,0:0:0:0:
213,377,361386,6,0,P|180:349|167:313,1,75.0000028610231,8|2,0:0|0:3,0:0:0:0:
363,203,361729,6,0,B|409:204|409:204|414:199|414:199|473:203,1,112.500004291535,2|0,0:0|0:0,0:0:0:0:
492,203,362072,6,0,P|495:151|484:123,1,75.0000028610231,8|2,0:0|0:3,0:0:0:0:
420,74,362414,1,2,0:0:0:0:
326,160,362586,6,0,P|282:131|252:126,1,75.0000028610231,2|8,0:3|0:0,0:0:0:0:
176,156,362928,1,2,0:3:0:0:
219,255,363100,6,0,P|172:278|153:301,1,75.0000028610231,2|2,0:0|0:3,0:0:0:0:
142,381,363442,1,8,0:0:0:0:
360,339,363614,5,2,0:3:0:0:
326,160,363786,1,2,0:0:0:0:
219,255,363957,1,2,0:3:0:0:
388,224,364129,1,8,0:0:0:0:
406,221,364214,1,2,0:0:0:0:
263,89,364386,1,2,0:0:0:0:
246,84,364472,6,0,P|205:91|172:119,1,75.0000028610231,6|2,0:0|0:3,0:0:0:0:
297,301,364814,2,0,P|311:261|303:219,1,75.0000028610231,8|2,0:0|0:3,0:0:0:0:
178,110,365157,1,2,0:0:0:0:
95,247,365329,2,0,B|126:280|178:271|178:271|185:248,1,112.500004291535,2|0,0:3|0:0,0:0:0:0:
188,237,365672,1,2,0:3:0:0:
60,39,365843,6,0,P|44:80|48:117,1,75.0000028610231,2|2,0:0|0:3,0:0:0:0:
110,162,366186,1,8,0:0:0:0:
225,56,366357,6,0,P|181:62|151:84,1,75.0000028610231,2|2,0:3|0:0,0:0:0:0:
127,170,366700,1,2,0:3:0:0:
295,207,366872,6,0,P|267:171|233:156,1,75.0000028610231,8|2,0:0|0:3,0:0:0:0:
60,39,367214,6,0,B|116:35|116:35|122:39|122:39|193:34,1,112.500004291535,2|0,0:0|0:0,0:0:0:0:
185,35,367557,6,0,P|193:78|186:114,1,75.0000028610231,8|2,0:0|0:3,0:0:0:0:
127,170,367900,1,2,0:0:0:0:
304,102,368072,6,0,P|296:145|303:181,1,75.0000028610231,2|8,0:3|0:0,0:0:0:0:
362,237,368415,1,2,0:3:0:0:
195,232,368586,6,0,P|203:275|196:311,1,75.0000028610231,2|2,0:0|0:3,0:0:0:0:
137,367,368929,1,8,0:0:0:0:
111,372,369014,1,0,0:0:0:0:
84,368,369100,1,2,0:3:0:0:
62,353,369186,1,0,0:0:0:0:
44,333,369272,6,0,P|39:306|43:279,1,37.5000014305115,2|0,0:0|0:0,0:0:0:0:
116,277,369443,2,0,P|120:249|133:225,1,37.5000014305115,2|0,0:0|0:0,0:0:0:0:
298,206,369614,1,8,0:0:0:0:
298,206,369700,2,0,P|303:179|299:152,1,37.5000014305115,2|8,0:0|0:3,0:0:0:0:
221,166,369872,1,2,0:0:0:0:
221,166,369957,6,0,P|216:126|196:92,1,75.0000028610231,6|2,0:0|0:3,0:0:0:0:
372,263,370300,2,0,P|341:285|322:316,1,75.0000028610231,8|2,0:0|0:3,0:0:0:0:
221,166,370643,1,2,0:0:0:0:
362,96,370814,2,0,B|397:118|445:109|445:109|422:104|407:93,1,112.500004291535,2|0,0:3|0:0,0:0:0:0:
405,92,371157,1,2,0:3:0:0:
221,166,371329,6,0,P|214:211|227:249,1,75.0000028610231,2|2,0:0|0:3,0:0:0:0:
307,261,371672,1,8,0:0:0:0:
280,381,371843,6,0,P|322:364|348:334,1,75.0000028610231,2|2,0:3|0:0,0:0:0:0:
325,257,372186,1,2,0:3:0:0:
447,233,372357,6,0,P|411:204|372:196,1,75.0000028610231,8|2,0:0|0:3,0:0:0:0:
221,166,372700,6,0,B|211:217|211:217|215:223|215:223|201:284,1,112.500004291535,2|0,0:0|0:0,0:0:0:0:
197,294,373043,6,0,P|150:292|121:275,1,75.0000028610231,8|2,0:0|0:3,0:0:0:0:
92,207,373386,1,2,0:0:0:0:
221,166,373557,6,0,P|268:164|297:147,1,75.0000028610231,2|8,0:3|0:0,0:0:0:0:
329,78,373900,1,2,0:3:0:0:
150,96,374072,6,0,P|103:94|74:77,1,75.0000028610231,2|0,0:0|0:0,0:0:0:0:
42,8,374415,1,8,0:0:0:0:
92,207,374586,5,2,0:3:0:0:
150,96,374757,1,2,0:0:0:0:
198,252,374929,1,2,0:0:0:0:
271,98,375100,1,8,0:0:0:0:
269,81,375186,1,2,0:0:0:0:
198,252,375357,1,2,0:0:0:0:
196,269,375443,6,0,P|232:284|285:278,1,75.0000028610231,6|2,0:0|0:3,0:0:0:0:
139,153,375786,2,0,P|108:176|86:225,1,75.0000028610231,8|2,0:0|0:3,0:0:0:0:
259,163,376129,1,2,0:0:0:0:
139,153,376300,2,0,B|133:103|133:103|129:98|129:98|122:39,1,112.500004291535,2|0,0:3|0:0,0:0:0:0:
120,30,376643,1,2,0:3:0:0:
263,16,376814,6,0,P|286:56|290:95,1,75.0000028610231,2|2,0:0|0:3,0:0:0:0:
259,163,377157,1,8,0:0:0:0:
393,130,377329,6,0,P|369:169|338:192,1,75.0000028610231,2|0,0:3|0:0,0:0:0:0:
255,183,377672,1,2,0:3:0:0:
367,296,377843,6,0,P|320:295|285:279,1,75.0000028610231,8|2,0:0|0:3,0:0:0:0:
290,84,378186,6,0,B|322:57|322:57|401:48,1,112.500004291535,2|0,0:0|0:0,0:0:0:0:
407,47,378529,6,0,P|424:96|417:129,1,75.0000028610231,8|2,0:0|0:3,0:0:0:0:
359,179,378872,1,2,0:0:0:0:
263,51,379043,6,0,P|280:100|273:133,1,75.0000028610231,2|8,0:3|0:0,0:0:0:0:
215,183,379386,1,2,0:3:0:0:
122,65,379557,6,0,P|139:114|132:147,1,75.0000028610231,2|2,0:0|0:3,0:0:0:0:
74,197,379900,1,8,0:0:0:0:
76,223,379986,1,0,0:0:0:0:
78,249,380072,1,2,0:3:0:0:
79,274,380157,1,0,0:0:0:0:
81,300,380243,6,0,P|80:332|77:340,1,37.5000014305115,2|0,0:0|0:0,0:0:0:0:
165,277,380414,2,0,P|169:308|168:317,1,37.5000014305115,2|0,0:0|0:0,0:0:0:0:
305,178,380586,1,8,0:0:0:0:
305,178,380672,2,0,P|306:146|309:138,1,37.5000014305115,2|8,0:0|0:3,0:0:0:0:
222,162,380843,1,2,0:0:0:0:
222,162,380929,5,6,0:0:0:0:
278,301,381100,1,0,0:0:0:0:
222,162,381272,2,0,P|222:103|249:55,1,100,8|8,0:0|0:3,0:0:0:0:
450,160,381614,1,0,0:0:0:0:
313,138,381786,1,2,0:0:0:0:
384,61,381957,1,8,0:0:0:0:
423,247,382129,1,2,0:0:0:0:
222,162,382300,6,0,B|154:165|154:165|148:160|148:160|47:164,1,150,2|0,0:0|0:0,0:0:0:0:
57,164,382643,1,8,0:0:0:0:
263,258,382814,2,0,P|306:223|323:176,1,100,2|0,0:0|0:0,0:0:0:0:
164,245,383157,2,0,P|172:299|204:337,1,100,2|8,0:0|0:0,0:0:0:0:
222,162,383500,1,2,0:0:0:0:
221,147,383586,1,0,0:0:0:0:
220,132,383672,5,2,0:0:0:0:
322,183,383843,1,8,0:3:0:0:
164,245,384014,1,8,0:0:0:0:
318,336,384186,1,8,0:3:0:0:
86,286,384357,2,0,P|78:230|103:188,1,100,0|2,0:0|0:0,0:0:0:0:
220,132,384700,1,8,0:0:0:0:
230,340,384872,1,2,0:0:0:0:
158,67,385043,6,0,B|197:42|197:42|334:55,1,150,2|0,0:0|0:0,0:0:0:0:
316,55,385386,1,8,0:0:0:0:
433,123,385557,2,0,B|439:78|439:78|435:73|435:73|442:25,1,100,2|0,0:0|0:0,0:0:0:0:
220,132,385900,2,0,B|226:177|226:177|222:182|222:182|229:230,1,100,2|8,0:0|0:0,0:0:0:0:
327,345,386243,1,2,0:0:0:0:
328,328,386329,1,0,0:0:0:0:
330,313,386414,5,6,0:0:0:0:
220,132,386586,1,8,0:3:0:0:
295,210,386757,2,0,B|343:236|343:236|397:225,1,100,8|8,0:0|0:3,0:0:0:0:
498,119,387100,1,0,0:0:0:0:
356,145,387272,1,2,0:0:0:0:
457,297,387443,1,8,0:0:0:0:
413,58,387614,6,0,B|345:55|345:55|339:60|339:60|238:56,1,150,2|0,0:0|0:0,0:0:0:0:
247,56,387957,1,8,0:3:0:0:
93,137,388129,1,8,0:0:0:0:
310,227,388300,2,0,P|345:193|356:145,1,100,2|0,0:0|0:0,0:0:0:0:
166,54,388643,1,2,0:0:0:0:
181,264,388814,1,8,0:0:0:0:
355,144,388986,1,2,0:0:0:0:
181,264,389157,6,0,B|137:260|137:260|132:263|132:263|78:259,1,100,2|8,0:0|0:3,0:0:0:0:
166,54,389500,1,8,0:0:0:0:
268,172,389672,6,0,B|336:169|336:169|342:174|342:174|443:170,1,150,8|0,0:3|0:0,0:0:0:0:
430,171,390014,1,2,0:0:0:0:
367,344,390186,2,0,P|329:307|315:251,1,100,8|2,0:0|0:0,0:0:0:0:
475,85,390529,6,0,P|462:133|430:171,1,100,2|8,0:0|0:3,0:0:0:0:
210,102,390872,1,8,0:0:0:0:
298,20,391043,1,2,0:0:0:0:
303,62,391129,1,0,0:0:0:0:
308,103,391214,1,0,0:0:0:0:
314,145,391300,1,0,0:0:0:0:
307,187,391386,1,2,0:0:0:0:
278,218,391472,1,0,0:0:0:0:
236,226,391557,1,8,0:0:0:0:
196,209,391643,1,2,0:3:0:0:
173,172,391729,1,2,0:0:0:0:
178,130,391814,1,2,0:3:0:0:
210,102,391900,5,6,0:0:0:0:
397,155,392072,1,2,0:3:0:0:
327,38,392243,1,8,0:0:0:0:
278,218,392414,1,8,0:3:0:0:
415,160,392586,5,2,0:3:0:0:
191,96,392758,1,2,0:0:0:0:
273,236,392929,1,8,0:0:0:0:
331,22,393100,1,2,0:0:0:0:
163,286,393272,5,2,0:0:0:0:
189,203,393443,1,8,0:3:0:0:
221,362,393615,1,8,0:0:0:0:
68,309,393786,1,2,0:0:0:0:
194,185,393957,5,2,0:3:0:0:
50,313,394128,1,2,0:0:0:0:
233,377,394300,1,8,0:0:0:0:
163,286,394471,1,2,0:0:0:0:
399,203,394643,5,2,0:0:0:0:
184,134,394814,1,8,0:3:0:0:
317,90,394986,1,8,0:0:0:0:
317,316,395157,1,8,0:3:0:0:
172,125,395329,5,2,0:3:0:0:
322,332,395500,1,2,0:0:0:0:
322,74,395672,1,8,0:0:0:0:
163,286,395843,1,2,0:0:0:0:
413,202,396014,5,2,0:0:0:0:
413,202,396357,5,8,0:0:0:0:
171,33,396529,1,2,0:0:0:0:
171,33,396872,5,2,0:0:0:0:
473,89,397043,1,8,0:0:0:0:
453,86,397129,1,0,0:0:0:0:
433,83,397214,1,2,0:0:0:0:
413,80,397300,1,0,0:0:0:0:
397,78,397386,6,0,P|398:33|426:66,1,112.500004291535,4|0,0:0|0:0,0:0:0:0:
386,146,397729,6,0,P|325:100|397:77,1,187.5,8|0,0:0|0:0,0:0:0:0:
458,182,398072,6,0,P|379:248|385:145,1,262.500002503395,2|0,0:0|0:0,0:0:0:0:
500,111,398414,1,8,0:0:0:0:
261,18,398586,2,0,B|192:8|146:51|146:51|96:100|16:88,1,250,2|2,0:3|0:3,0:0:0:0:
164,241,399100,2,0,B|227:250|227:250|270:194|227:117,1,187.5,8|0,0:0|0:0,0:0:0:0:
225,116,399443,2,0,P|285:95|367:109,1,125,2|0,0:0|0:0,0:0:0:0:
308,362,399786,1,8,0:0:0:0:
293,193,399957,1,2,0:3:0:0:
149,334,400129,6,0,B|129:402|56:376|33:316|127:248,1,187.5,2|0,0:0|0:0,0:0:0:0:
112,261,400472,1,8,0:0:0:0:
250,90,400643,2,0,B|230:22|157:48|134:108|228:176,1,187.5,2|0,0:3|0:0,0:0:0:0:
213,164,400986,1,2,0:3:0:0:
87,146,401157,1,8,0:0:0:0:
87,146,401243,1,0,0:0:0:0:
87,146,401329,1,2,0:3:0:0:
231,274,401500,6,0,B|263:285|290:267|290:267|322:250|360:265,1,125,2|2,0:0|0:3,0:0:0:0:
428,169,401843,2,0,P|437:134|457:103,1,62.5,8|0,0:0|0:0,0:0:0:0:
229,124,402014,2,0,P|249:157|261:197,1,62.5,2|0,0:3|0:0,0:0:0:0:
338,109,402186,1,2,0:0:0:0:
351,261,402357,2,0,L|344:178,1,62.5,2|0,0:3|0:0,0:0:0:0:
330,4,402529,1,8,0:0:0:0:
332,24,402614,1,2,0:0:0:0:
160,234,402786,1,2,0:0:0:0:
160,216,402872,6,0,B|246:210|246:210|260:202|260:202|359:197,1,187.5,6|0,0:0|0:0,0:0:0:0:
363,198,403214,1,8,0:0:0:0:
288,302,403386,1,2,0:3:0:0:
211,120,403557,2,0,B|160:87|160:87|72:107,1,125,2|2,0:0|0:3,0:0:0:0:
54,310,403900,2,0,B|111:347|111:347|187:329,1,125,8|2,0:0|0:3,0:0:0:0:
139,201,404243,5,2,0:0:0:0:
135,220,404329,1,0,0:0:0:0:
132,240,404414,1,2,0:3:0:0:
360,140,404586,2,0,B|371:86|324:56|324:56|267:64|249:130,1,187.5,8|0,0:0|0:0,0:0:0:0:
306,300,404929,2,0,B|347:336|396:310|396:310|418:257|370:208,1,187.5,2|0,0:0|0:0,0:0:0:0:
284,208,405272,1,8,0:0:0:0:
472,26,405443,1,2,0:3:0:0:
284,208,405614,6,0,B|249:210|228:187|228:187|194:177|154:194,1,125,2|2,0:0|0:3,0:0:0:0:
53,268,405957,2,0,B|32:307|40:342|40:342|76:306|70:214|21:163,1,250,8|2,0:0|0:0,0:0:0:0:
188,53,406472,1,2,0:3:0:0:
147,337,406643,1,8,0:0:0:0:
284,208,406814,2,0,B|305:169|297:134|297:134|261:170|267:262|316:313,1,250,2|2,0:3|0:3,0:0:0:0:
512,223,407329,2,0,P|449:196|389:205,1,125,8|2,0:0|0:3,0:0:0:0:
207,339,407672,6,0,P|244:321|270:289,1,83.3333333333333,2|0,0:0|0:0,0:0:0:0:
260,210,407900,6,0,P|257:259|274:294,1,83.3333333333333,0|8,0:0|0:0,0:0:0:0:
345,321,408129,6,0,P|311:297|270:289,1,83.3333333333333,0|0,0:0|0:0,0:0:0:0:
97,211,408357,6,0,B|119:195|133:167|133:167|152:191|193:203,1,112.500004291535,6|0,0:0|0:0,0:0:0:0:
271,290,408700,6,0,B|229:311|199:356|199:356|185:305|139:271,1,187.5,8|0,0:0|0:0,0:0:0:0:
200,109,409043,6,0,B|264:82|285:13|285:13|316:79|389:105,1,262.500002503395,2|0,0:0|0:0,0:0:0:0:
480,78,409386,1,8,0:0:0:0:
297,180,409557,2,0,B|237:207|183:169|183:169|193:163|193:163|141:133|67:150,1,250,2|2,0:3|0:3,0:0:0:0:
80,354,410072,2,0,B|152:324|171:262|171:262|172:293|190:333,1,187.5,8|0,0:0|0:0,0:0:0:0:
191,331,410414,2,0,B|250:335|250:335|255:339|255:339|315:345,1,125,2|2,0:0|0:3,0:0:0:0:
474,123,410757,1,8,0:0:0:0:
451,321,410929,1,2,0:3:0:0:
338,67,411100,6,0,B|326:5|387:0|407:57|326:141,1,187.5,2|0,0:0|0:0,0:0:0:0:
320,146,411443,1,8,0:0:0:0:
216,311,411614,6,0,B|204:372|265:377|285:320|204:236,1,187.5,2|0,0:3|0:0,0:0:0:0:
198,232,411957,1,2,0:3:0:0:
112,177,412128,1,8,0:0:0:0:
112,177,412214,1,0,0:0:0:0:
112,177,412300,1,2,0:3:0:0:
252,25,412471,6,0,B|284:14|311:32|311:32|343:49|381:34,1,125,2|2,0:0|0:3,0:0:0:0:
112,177,412814,2,0,P|103:138|111:105,1,62.5,8|0,0:0|0:0,0:0:0:0:
270,113,412986,2,0,P|278:151|270:184,1,62.5,2|0,0:3|0:0,0:0:0:0:
191,146,413157,1,2,0:0:0:0:
205,295,413329,2,0,L|198:228,1,62.5,2|0,0:0|0:0,0:0:0:0:
183,38,413500,1,8,0:0:0:0:
184,56,413586,1,2,0:0:0:0:
403,158,413757,1,2,0:0:0:0:
406,143,413843,6,0,B|356:127|356:127|289:168|316:282,1,187.5,6|0,0:0|0:0,0:0:0:0:
309,261,414186,1,8,0:0:0:0:
355,27,414357,1,2,0:3:0:0:
496,102,414529,2,0,P|497:177|463:218,1,125,2|0,0:0|0:0,0:0:0:0:
217,144,414872,2,0,P|281:105|333:114,1,125,8|2,0:0|0:3,0:0:0:0:
384,342,415214,5,2,0:0:0:0:
384,342,415300,1,0,0:0:0:0:
384,342,415386,1,2,0:3:0:0:
261,245,415557,2,0,B|225:219|173:237|173:237|133:273|61:256,1,187.5,8|0,0:0|0:0,0:0:0:0:
68,249,415900,6,0,P|67:206|76:159,1,62.5,2|0,0:0|0:0,0:0:0:0:
218,325,416072,2,0,P|181:347|136:363,1,62.5,2|0,0:0|0:0,0:0:0:0:
209,155,416243,1,8,0:0:0:0:
227,153,416329,1,2,0:0:0:0:
245,151,416414,1,8,0:0:0:0:
263,149,416500,1,2,0:0:0:0:
279,148,416586,6,0,B|334:154|334:154|340:152|340:152|400:160,1,100,6|2,0:0|0:3,0:0:0:0:
477,210,416929,1,8,0:0:0:0:
502,53,417100,2,0,B|454:58|454:58|448:56|448:56|388:64,1,100,2|2,0:3|0:0,0:0:0:0:
387,256,417443,2,0,B|382:218|382:218|384:212|384:212|378:157,1,100,2|8,0:3|0:0,0:0:0:0:
160,179,417786,6,0,B|117:205|117:205|104:253,1,100,2|2,0:3|0:0,0:0:0:0:
273,199,418129,2,0,B|271:148|271:148|236:113,1,100,2|8,0:3|0:0,0:0:0:0:
194,285,418472,2,0,B|244:309|244:309|286:296,1,100,2|2,0:3|0:0,0:0:0:0:
106,202,418814,6,0,L|92:257,1,50,2|0,0:3|0:0,0:0:0:0:
277,138,418986,2,0,L|236:98,1,50,8|0,0:0|0:0,0:0:0:0:
247,323,419157,2,0,L|301:307,1,50,2|0,0:3|0:0,0:0:0:0:
208,218,419329,5,2,0:0:0:0:
372,182,419500,1,2,0:3:0:0:
372,182,419586,1,0,0:0:0:0:
372,182,419672,2,0,B|395:228|395:228|375:299,1,100,8|2,0:0|0:3,0:0:0:0:
277,138,420014,1,2,0:0:0:0:
416,73,420186,1,2,0:3:0:0:
277,138,420357,2,0,B|271:99|271:99|273:93|273:93|267:38,1,100,8|2,0:0|0:3,0:0:0:0:
228,218,420700,6,0,B|294:227|294:227|299:223|299:223|361:232|361:232|323:235|294:269,1,200,2|8,0:0|0:0,0:0:0:0:
372,328,421129,1,0,0:0:0:0:
372,328,421215,2,0,B|413:308|413:308|432:315|432:315|452:303|452:303|493:312,1,125,2|0,0:3|0:0,0:0:0:0:
391,127,421557,1,2,0:0:0:0:
311,208,421729,1,8,0:0:0:0:
313,222,421814,1,2,0:0:0:0:
466,318,421986,1,2,0:0:0:0:
468,304,422072,6,0,B|479:236|479:236|475:231|475:231|487:152,1,150,6|0,0:0|0:0,0:0:0:0:
488,142,422414,1,8,0:0:0:0:
353,47,422586,2,0,B|302:40|302:40|242:76,1,100,2|2,0:3|0:0,0:0:0:0:
210,207,422929,2,0,B|159:213|159:213|99:177,1,100,2|8,0:3|0:0,0:0:0:0:
309,250,423272,6,0,L|329:149,1,100,2|2,0:3|0:0,0:0:0:0:
221,308,423614,2,0,L|298:375,1,100,2|8,0:3|0:0,0:0:0:0:
210,207,423957,2,0,L|112:240,1,100,2|2,0:3|0:0,0:0:0:0:
308,197,424300,6,0,L|326:109,1,50,2|0,0:3|0:0,0:0:0:0:
269,332,424472,2,0,L|336:391,1,50,8|0,0:0|0:0,0:0:0:0:
173,237,424643,2,0,L|87:265,1,50,2|0,0:3|0:0,0:0:0:0:
432,264,424814,5,2,0:0:0:0:
352,283,424986,1,2,0:3:0:0:
228,172,425157,1,8,0:0:0:0:
308,197,425329,1,2,0:3:0:0:
416,83,425500,5,2,0:0:0:0:
292,112,425672,1,2,0:3:0:0:
471,159,425843,1,8,0:0:0:0:
507,37,426015,1,2,0:3:0:0:
381,173,426186,5,2,0:0:0:0:
469,265,426358,1,2,0:3:0:0:
416,83,426528,1,8,0:0:0:0:
376,75,426614,1,0,0:0:0:0:
336,82,426700,1,2,0:3:0:0:
305,107,426785,1,0,0:0:0:0:
295,146,426872,6,0,L|285:205,1,50,2|0,0:0|0:0,0:0:0:0:
381,173,427043,2,0,L|371:232,1,50,2|0,0:0|0:0,0:0:0:0:
127,298,427214,1,8,0:0:0:0:
127,298,427300,2,0,L|118:239,1,50,2|8,0:0|0:3,0:0:0:0:
216,276,427472,1,2,0:0:0:0:
216,276,427557,6,0,L|209:223,3,50,6|0|8|0,0:0|0:0|0:3|0:0,0:0:0:0:
247,152,427900,2,0,B|275:142|275:142|318:150,1,50,8|0,0:0|0:0,0:0:0:0:
383,262,428072,1,8,0:3:0:0:
383,262,428157,1,0,0:0:0:0:
383,262,428243,1,2,0:0:0:0:
383,262,428329,1,0,0:0:0:0:
383,262,428414,2,0,B|360:242|360:242|345:201,1,50,10|0,0:3|0:0,0:0:0:0:
405,93,428586,1,8,0:0:0:0:
405,93,428671,1,0,0:0:0:0:
405,93,428757,1,8,0:3:0:0:
405,93,428843,1,0,0:0:0:0:
405,93,428928,6,0,B|399:122|399:122|371:155,1,50,2|0,0:0|0:0,0:0:0:0:
235,78,429100,1,8,0:3:0:0:
235,78,429186,1,0,0:0:0:0:
235,78,429272,1,8,0:0:0:0:
235,78,429357,1,0,0:0:0:0:
235,78,429443,2,0,L|288:71,1,50,10|0,0:3|0:0,0:0:0:0:
220,221,429614,1,2,0:0:0:0:
220,221,429699,1,0,0:0:0:0:
220,221,429786,2,0,L|167:214,1,50,10|0,0:3|0:0,0:0:0:0:
86,46,429957,6,0,L|139:39,1,50,8|0,0:0|0:0,0:0:0:0:
76,241,430129,2,0,L|23:234,1,50,10|0,0:3|0:0,0:0:0:0:
235,78,430300,6,0,L|288:73,3,50,2|0|8|0,0:0|0:0|0:3|0:0,0:0:0:0:
347,190,430643,2,0,B|351:171|351:171|350:166|350:166|356:139,1,50,8|0,0:0|0:0,0:0:0:0:
247,224,430814,1,8,0:3:0:0:
247,224,430900,1,0,0:0:0:0:
247,224,430986,1,2,0:0:0:0:
247,224,431072,1,0,0:0:0:0:
247,224,431157,2,0,B|249:204|249:204|252:200|252:200|255:173,1,50,10|0,0:3|0:0,0:0:0:0:
148,247,431329,1,8,0:0:0:0:
148,247,431415,1,0,0:0:0:0:
148,247,431501,1,8,0:3:0:0:
148,247,431587,1,0,0:0:0:0:
148,247,431672,6,0,B|150:227|150:227|153:223|153:223|156:196,1,50,2|0,0:0|0:0,0:0:0:0:
267,318,431844,1,8,0:3:0:0:
267,318,431929,2,0,B|269:337|269:337|272:341|272:341|275:368,1,50,2|8,0:3|0:0,0:0:0:0:
347,190,432100,1,0,0:0:0:0:
347,190,432186,2,0,B|349:170|349:170|352:166|352:166|355:139,1,50,2|0,0:3|0:0,0:0:0:0:
419,299,432357,6,0,B|390:303|390:303|359:288,1,50,2|0,0:0|0:0,0:0:0:0:
254,157,432529,2,0,B|225:153|225:153|194:168,1,50,2|0,0:0|0:0,0:0:0:0:
145,247,432700,1,8,0:0:0:0:
144,261,432786,2,0,L|138:318,1,50,2|2,0:0|0:3,0:0:0:0:
355,141,432957,1,2,0:0:0:0:
353,127,433043,6,0,L|347:70,3,50,6|0|8|0,0:0|0:0|0:3|0:0,0:0:0:0:
440,204,433386,2,0,B|446:173|446:173|457:156,1,50,8|0,0:0|0:0,0:0:0:0:
295,226,433557,1,8,0:3:0:0:
295,226,433643,1,0,0:0:0:0:
295,226,433729,1,2,0:0:0:0:
295,226,433814,1,0,0:0:0:0:
295,226,433900,2,0,B|284:200|284:200|269:182,1,50,10|0,0:3|0:0,0:0:0:0:
265,337,434072,1,8,0:0:0:0:
265,337,434158,1,0,0:0:0:0:
265,337,434244,1,0,0:0:0:0:
265,337,434329,1,0,0:0:0:0:
265,337,434415,6,0,B|293:340|293:340|316:336,1,50,2|0,0:0|0:0,0:0:0:0:
187,257,434586,1,8,0:3:0:0:
187,257,434672,1,0,0:0:0:0:
187,257,434758,1,8,0:0:0:0:
187,257,434843,1,0,0:0:0:0:
187,257,434929,2,0,B|169:279|169:279|161:301,1,50,10|0,0:3|0:0,0:0:0:0:
403,292,435100,1,2,0:0:0:0:
403,292,435186,1,0,0:0:0:0:
403,292,435272,2,0,L|395:234,1,50,10|0,0:3|0:0,0:0:0:0:
301,174,435443,6,0,L|293:226,1,50,8|0,0:0|0:0,0:0:0:0:
477,165,435614,2,0,L|469:113,1,50,10|0,0:3|0:0,0:0:0:0:
234,61,435786,6,0,L|226:113,3,50,2|0|8|0,0:0|0:0|0:3|0:0,0:0:0:0:
140,165,436129,2,0,B|115:167|115:167|81:154,1,50,8|0,0:0|0:0,0:0:0:0:
225,262,436300,1,8,0:3:0:0:
225,262,436386,1,0,0:0:0:0:
225,262,436472,1,2,0:0:0:0:
225,262,436557,1,0,0:0:0:0:
225,262,436643,2,0,B|250:264|250:264|284:251,1,50,10|0,0:3|0:0,0:0:0:0:
123,320,436814,1,8,0:0:0:0:
123,320,436900,1,0,0:0:0:0:
123,320,436986,1,8,0:3:0:0:
123,320,437071,1,0,0:0:0:0:
123,320,437157,6,0,B|98:322|98:322|64:309,1,50,2|0,0:0|0:0,0:0:0:0:
86,170,437329,1,8,0:3:0:0:
86,170,437414,2,0,B|71:149|71:149|66:113,1,50,2|8,0:3|0:0,0:0:0:0:
176,70,437586,1,0,0:0:0:0:
176,70,437671,2,0,B|186:47|186:47|215:24,1,50,2|0,0:3|0:0,0:0:0:0:
327,164,437843,6,0,L|260:173,1,50,2|0,0:0|0:0,0:0:0:0:
405,57,438014,2,0,L|472:66,1,50,2|0,0:0|0:0,0:0:0:0:
304,80,438186,1,8,0:0:0:0:
302,67,438272,2,0,B|298:37|298:37|309:9,1,50,2|2,0:0|0:3,0:0:0:0:
422,143,438443,1,2,0:0:0:0:
427,156,438529,6,0,B|434:195|434:195|414:267,1,100,6|2,0:0|0:3,0:0:0:0:
249,327,438872,1,8,0:0:0:0:
245,287,438957,1,2,0:3:0:0:
241,246,439043,1,2,0:3:0:0:
237,205,439129,1,2,0:3:0:0:
234,165,439214,2,0,L|345:185,1,100,2|2,0:0|0:3,0:0:0:0:
417,253,439557,1,8,0:0:0:0:
386,74,439729,1,2,0:3:0:0:
386,74,440072,5,2,0:3:0:0:
357,45,440157,1,2,0:3:0:0:
318,34,440243,1,8,0:0:0:0:
281,50,440329,1,2,0:3:0:0:
258,82,440414,1,2,0:3:0:0:
186,266,440586,6,0,P|185:241|191:217,1,50,2|0,0:0|0:0,0:0:0:0:
339,169,440757,2,0,P|355:187|366:210,1,50,2|0,0:3|0:0,0:0:0:0:
124,170,440929,2,0,P|139:150|159:136,1,50,8|0,0:0|0:0,0:0:0:0:
279,231,441100,2,0,P|279:255|273:279,1,50,2|0,0:3|0:0,0:0:0:0:
217,372,441272,6,0,B|274:369|274:369|279:363|279:363|343:360,1,100,2|2,0:0|0:3,0:0:0:0:
446,272,441614,1,8,0:0:0:0:
407,282,441700,1,2,0:3:0:0:
367,277,441786,1,2,0:3:0:0:
335,252,441871,1,2,0:3:0:0:
324,213,441957,2,0,P|356:192|426:196,1,100,2|2,0:0|0:3,0:0:0:0:
314,361,442300,1,8,0:0:0:0:
257,143,442472,1,2,0:3:0:0:
257,143,442814,5,2,0:3:0:0:
217,137,442900,1,2,0:3:0:0:
177,131,442986,1,8,0:0:0:0:
137,125,443072,1,2,0:3:0:0:
97,119,443157,1,2,0:3:0:0:
194,45,443329,1,2,0:0:0:0:
264,233,443500,1,2,0:0:0:0:
371,105,443672,1,8,0:0:0:0:
373,88,443757,1,2,0:0:0:0:
452,219,443929,1,2,0:0:0:0:
453,235,444014,6,0,B|407:258|407:258|350:248,1,100,6|2,0:0|0:3,0:0:0:0:
213,135,444357,1,8,0:0:0:0:
173,139,444443,1,2,0:3:0:0:
133,143,444529,1,2,0:3:0:0:
93,148,444614,1,2,0:3:0:0:
53,153,444700,2,0,L|37:265,1,100,2|2,0:0|0:3,0:0:0:0:
154,344,445043,1,8,0:0:0:0:
213,135,445214,1,2,0:3:0:0:
213,135,445557,5,2,0:3:0:0:
252,130,445643,1,2,0:3:0:0:
290,141,445729,1,8,0:0:0:0:
316,170,445814,1,2,0:3:0:0:
321,209,445900,1,2,0:3:0:0:
221,333,446072,6,0,P|215:303|216:276,1,50,2|0,0:0|0:0,0:0:0:0:
321,209,446243,2,0,P|327:239|326:266,1,50,2|0,0:3|0:0,0:0:0:0:
208,341,446414,2,0,P|202:311|203:284,1,50,8|0,0:0|0:0,0:0:0:0:
332,198,446586,2,0,P|338:228|337:255,1,50
195,348,446757,5,2,0:0:0:0:
212,137,446929,1,2,0:3:0:0:
332,198,447100,1,8,0:0:0:0:
371,194,447186,1,2,0:3:0:0:
410,190,447272,1,2,0:3:0:0:
449,186,447357,1,2,0:3:0:0:
488,182,447443,2,0,B|492:142|492:142|491:133|491:133|498:78,1,100,2|2,0:0|0:3,0:0:0:0:
320,4,447786,1,8,0:0:0:0:
332,198,447957,1,2,0:3:0:0:
394,112,448129,6,0,P|334:90|284:102,1,100,2|2,0:0|0:3,0:0:0:0:
223,196,448472,1,8,0:0:0:0:
230,234,448557,1,2,0:3:0:0:
250,268,448643,1,2,0:3:0:0:
282,291,448729,1,2,0:3:0:0:
319,302,448814,2,0,P|329:272|329:243,1,50,2|0,0:0|0:0,0:0:0:0:
413,270,448986,2,0,P|412:238|402:211,1,50,2|0,0:0|0:0,0:0:0:0:
277,75,449157,1,8,0:0:0:0:
277,75,449243,2,0,P|266:108|266:135,1,50,2|8,0:0|0:3,0:0:0:0:
198,31,449414,1,2,0:0:0:0:
198,31,449500,6,0,P|177:98|178:146,1,100,6|2,0:0|0:3,0:0:0:0:
319,302,449843,1,8,0:0:0:0:
307,263,449929,1,2,0:3:0:0:
274,240,450014,1,2,0:3:0:0:
234,234,450100,1,2,0:3:0:0:
200,256,450186,2,0,P|186:306|206:352,1,100,2|2,0:0|0:3,0:0:0:0:
410,307,450529,1,8,0:0:0:0:
413,267,450614,1,2,0:3:0:0:
416,227,450700,1,2,0:3:0:0:
419,187,450786,1,2,0:3:0:0:
423,147,450872,5,2,0:0:0:0:
328,82,451043,1,2,0:3:0:0:
248,157,451214,1,8,0:0:0:0:
210,142,451300,1,2,0:3:0:0:
185,110,451386,1,2,0:3:0:0:
179,70,451472,1,2,0:3:0:0:
193,33,451557,6,0,P|219:27|246:29,1,50,2|0,0:0|0:0,0:0:0:0:
328,82,451729,2,0,P|338:106|341:133,1,50,2|0,0:3|0:0,0:0:0:0:
455,212,451900,2,0,P|429:206|402:207,1,50,8|0,0:0|0:0,0:0:0:0:
319,259,452072,2,0,P|308:283|305:310,1,50,2|0,0:3|0:0,0:0:0:0:
420,316,452243,5,2,0:0:0:0:
420,316,452586,1,8,0:0:0:0:
380,306,452672,1,2,0:3:0:0:
341,298,452757,1,2,0:3:0:0:
301,288,452843,1,2,0:3:0:0:
263,280,452929,2,0,P|252:327|275:375,1,100,2|2,0:0|0:3,0:0:0:0:
408,224,453272,1,8,0:0:0:0:
285,122,453443,1,2,0:3:0:0:
285,122,453786,5,2,0:3:0:0:
186,242,453957,1,8,0:0:0:0:
154,266,454043,1,2,0:3:0:0:
114,270,454128,1,2,0:3:0:0:
76,255,454214,1,2,0:3:0:0:
52,222,454300,1,2,0:0:0:0:
96,363,454472,1,2,0:0:0:0:
127,173,454643,1,8,0:0:0:0:
129,157,454729,1,2,0:0:0:0:
258,292,454900,1,2,0:0:0:0:
262,306,454986,6,0,B|313:302|313:302|316:298|316:298|364:294,1,100,6|2,0:0|0:3,0:0:0:0:
449,140,455329,1,8,0:0:0:0:
409,134,455414,1,2,0:3:0:0:
369,128,455500,1,2,0:3:0:0:
329,122,455586,1,2,0:3:0:0:
289,117,455672,2,0,P|271:169|278:213,1,100,2|2,0:0|0:3,0:0:0:0:
359,294,456014,1,8,0:0:0:0:
449,140,456186,1,2,0:3:0:0:
449,140,456529,5,2,0:3:0:0:
358,55,456700,1,8,0:0:0:0:
330,26,456786,1,2,0:3:0:0:
290,16,456872,1,2,0:3:0:0:
252,29,456957,1,2,0:3:0:0:
229,62,457043,6,0,P|225:94|232:120,1,50,2|0,0:0|0:0,0:0:0:0:
335,194,457214,2,0,P|339:162|332:136,1,50,2|0,0:3|0:0,0:0:0:0:
217,53,457386,2,0,P|213:85|220:111,1,50,8|0,0:0|0:0,0:0:0:0:
345,201,457557,2,0,P|349:169|342:143,1,50,2|0,0:3|0:0,0:0:0:0:
205,42,457729,5,2,0:0:0:0:
226,237,457900,1,2,0:3:0:0:
345,151,458072,1,8,0:0:0:0:
384,155,458157,1,2,0:3:0:0:
423,160,458243,1,2,0:3:0:0:
462,165,458329,1,2,0:3:0:0:
501,170,458414,2,0,B|508:221|508:221|505:225|505:225|511:273,1,100,2|2,0:0|0:3,0:0:0:0:
325,339,458757,2,0,B|332:287|332:287|329:284|329:284|335:236,1,100,8|2,0:0|0:3,0:0:0:0:
431,78,459100,5,2,0:0:0:0:
221,55,459272,1,2,0:3:0:0:
300,194,459443,1,8,0:0:0:0:
339,198,459529,1,2,0:3:0:0:
377,189,459614,1,2,0:3:0:0:
407,163,459700,1,2,0:3:0:0:
422,127,459786,6,0,L|433:62,1,50,2|0,0:0|0:0,0:0:0:0:
335,109,459957,2,0,L|346:46,1,50,2|0,0:0|0:0,0:0:0:0:
505,248,460129,1,8,0:0:0:0:
505,248,460214,2,0,L|509:303,1,50,2|8,0:0|0:3,0:0:0:0:
419,259,460386,1,2,0:0:0:0:
419,259,460472,6,0,B|424:313|424:313|421:318|421:318|427:380,1,110.000003356934,4|2,0:0|0:3,0:0:0:0:
247,196,460814,1,8,0:0:0:0:
332,142,460986,2,0,B|409:104|489:157|489:157|459:152|428:165,1,220.000006713867,2|2,0:3|0:3,0:0:0:0:
247,196,461500,2,0,P|231:141|247:83,1,110.000003356934,8|2,0:0|0:3,0:0:0:0:
342,306,461843,6,0,B|270:299|270:299|237:312|237:312|206:294|206:294|130:287,1,220.000006713867,2|8,0:0|0:0,0:0:0:0:
289,204,462357,2,0,P|234:111|212:205,1,250,2|2,0:3|0:3,0:0:0:0:
342,306,462872,2,0,P|394:273|453:271,1,110.000003356934,8|2,0:0|0:3,0:0:0:0:
254,116,463214,6,0,B|231:108|218:79|218:79|191:106|155:111,1,110.000003356934,2|2,0:0|0:3,0:0:0:0:
205,297,463472,2,0,B|223:281|253:280|253:280|245:247|258:213,1,110.000003356934,0|0,0:0|0:0,0:0:0:0:
70,171,463729,2,0,B|74:194|59:221|59:221|92:230|115:259,1,110.000003356934,2|2,0:3|0:0,0:0:0:0:
325,171,464072,5,2,0:3:0:0:
89,94,464243,1,8,0:0:0:0:
125,335,464414,1,2,0:3:0:0:
232,75,464586,6,0,B|366:17|458:127|458:127|446:184|446:184|439:192|439:192|424:262,1,375,2|2,0:0|0:3,0:0:0:0:
297,342,465272,1,2,0:0:0:0:
325,171,465443,1,2,0:3:0:0:
427,244,465614,1,8,0:0:0:0:
430,260,465700,1,2,0:0:0:0:
297,342,465872,1,2,0:0:0:0:
299,326,465957,5,6,0:0:0:0:
266,295,466043,1,0,0:0:0:0:
223,282,466129,1,2,0:3:0:0:
181,295,466214,1,0,0:0:0:0:
150,327,466300,1,8,0:0:0:0:
118,358,466386,1,0,0:0:0:0:
74,367,466472,1,2,0:3:0:0:
33,350,466557,1,0,0:0:0:0:
8,313,466643,5,2,0:0:0:0:
5,257,466729,1,0,0:0:0:0:
36,212,466814,1,2,0:3:0:0:
88,195,466900,1,0,0:0:0:0:
139,213,466986,5,8,0:0:0:0:
153,196,467072,1,0,0:0:0:0:
159,175,467157,1,2,0:3:0:0:
159,152,467243,1,0,0:0:0:0:
152,131,467329,6,0,L|161:72,3,55.0000016784668,2|0|2|0,0:0|0:0|0:3|0:0,0:0:0:0:
244,118,467672,1,8,0:0:0:0:
286,128,467757,1,0,0:0:0:0:
329,122,467843,1,2,0:3:0:0:
365,97,467929,1,0,0:0:0:0:
380,56,468014,5,2,0:0:0:0:
325,50,468100,1,0,0:0:0:0:
273,70,468186,1,2,0:3:0:0:
244,118,468272,1,0,0:0:0:0:
250,172,468357,5,8,0:0:0:0:
253,193,468443,1,0,0:0:0:0:
256,214,468529,1,2,0:3:0:0:
259,235,468614,1,0,0:0:0:0:
263,256,468700,6,0,L|249:322,3,55.0000016784668,2|0|2|0,0:0|0:0|0:3|0:0,0:0:0:0:
343,309,469043,1,8,0:0:0:0:
386,317,469129,1,0,0:0:0:0:
429,310,469214,1,2,0:3:0:0:
460,279,469300,1,0,0:0:0:0:
470,235,469386,5,2,0:0:0:0:
452,182,469472,1,0,0:0:0:0:
407,151,469557,1,2,0:3:0:0:
351,149,469643,1,0,0:0:0:0:
304,178,469729,5,8,0:0:0:0:
282,181,469814,1,0,0:0:0:0:
260,178,469900,1,2,0:3:0:0:
239,169,469986,1,0,0:0:0:0:
222,154,470072,5,2,0:0:0:0:
228,197,470157,1,0,0:0:0:0:
214,239,470243,1,2,0:3:0:0:
177,263,470329,1,0,0:0:0:0:
133,263,470414,1,8,0:0:0:0:
94,241,470500,1,0,0:0:0:0:
73,201,470586,1,2,0:3:0:0:
82,157,470672,1,0,0:0:0:0:
112,126,470757,5,2,0:0:0:0:
141,79,470843,1,0,0:0:0:0:
132,24,470929,1,2,0:0:0:0:
82,2,471014,1,0,0:0:0:0:
30,22,471100,5,8,0:0:0:0:
32,43,471186,1,2,0:0:0:0:
34,64,471272,1,8,0:3:0:0:
36,85,471357,1,2,0:0:0:0:
38,106,471443,6,0,B|106:105|89:129|153:143,1,119.999996337891,4|8,0:0|0:0,0:0:0:0:
223,184,471957,1,2,0:3:0:0:
299,143,472129,2,0,B|357:127|349:73|349:73|295:75|300:142,1,160,2|8,0:0|0:0,0:0:0:0:
223,184,472643,1,2,0:3:0:0:
152,235,472814,6,0,B|111:276|144:343|144:343|172:312|220:312,1,200,2|8,0:0|0:0,0:0:0:0:
272,251,473329,1,2,0:3:0:0:
434,372,473500,2,0,P|377:384|295:311,1,160,2|8,0:0|0:0,0:0:0:0:
272,251,474014,1,2,0:3:0:0:
357,263,474186,6,0,B|436:261|469:183|453:104|367:87|328:109|328:109|283:138|219:154|163:83|192:-17|262:-7|307:12|335:58|305:107,1,599.999981689454,2|8,0:0|0:0,0:0:0:0:
28,332,476243,5,2,0:0:0:0:
83,266,476414,1,2,0:3:0:0:
172,272,476586,1,8,0:0:0:0:
168,289,476672,1,2,0:0:0:0:
241,331,476843,1,2,0:0:0:0:
231,346,476929,6,0,P|289:361|316:307,1,119.999996337891,6|8,0:0|0:0,0:0:0:0:
281,237,477443,1,2,0:3:0:0:
367,143,477614,2,0,P|294:162|280:236,1,160,2|8,0:0|0:0,0:0:0:0:
333,352,478129,1,2,0:3:0:0:
396,274,478300,6,0,B|335:244|302:272|302:272|275:303|202:276,1,200,2|8,0:0|0:0,0:0:0:0:
149,218,478814,1,2,0:3:0:0:
48,213,478986,2,0,B|114:204|114:204|118:176|104:139,1,120,2|0,0:0|0:0,0:0:0:0:
156,85,479329,2,0,B|229:71|229:71|223:110|233:146,1,150,8|0,0:0|0:0,0:0:0:0:
362,347,479672,6,0,B|340:210|233:233|233:233|301:283|437:264|390:175|384:148|476:88|476:88|406:66|332:89|334:157,1,700,2|0,0:0|0:0,0:0:0:0:
253,150,482243,1,2,0:3:0:0:
253,150,482414,6,0,B|216:119|231:89|193:59|193:59|244:46|291:79,1,200,2|8,0:0|0:0,0:0:0:0:
466,291,483100,5,2,0:0:0:0:
350,267,483272,1,2,0:0:0:0:
256,335,483443,1,8,0:0:0:0:
262,353,483529,1,2,0:0:0:0:
130,313,483700,1,2,0:0:0:0:
120,330,483786,6,0,P|104:274|166:243,1,119.999996337891,6|8,0:0|0:0,0:0:0:0:
231,218,484300,1,2,0:3:0:0:
365,275,484472,2,0,B|284:255|298:312|211:299,1,160,2|8,0:0|0:0,0:0:0:0:
147,241,484986,1,2,0:3:0:0:
137,118,485157,6,0,B|193:93|193:93|251:134|228:232,1,200,2|8,0:0|0:0,0:0:0:0:
211,300,485672,1,2,0:3:0:0:
283,346,485843,2,0,B|330:358|330:358|381:327|371:263,1,160,2|8,0:0|0:0,0:0:0:0:
311,192,486357,1,2,0:3:0:0:
314,98,486529,6,0,B|377:111|415:55|415:55|466:92|534:220|474:289|411:309|346:311|292:273|286:199|352:134|412:195,1,599.999981689454,2|8,0:0|0:0,0:0:0:0:
28,194,488586,5,2,0:0:0:0:
121,93,488757,1,2,0:0:0:0:
27,80,488929,1,8,0:0:0:0:
33,99,489014,1,2,0:0:0:0:
115,176,489186,1,2,0:0:0:0:
121,195,489272,6,0,L|201:213,1,80,4|2,0:0|0:3,0:0:0:0:
268,171,489614,1,8,0:0:0:0:
175,299,489786,1,2,0:3:0:0:
345,250,489957,2,0,B|279:254|279:254|248:284|248:284|175:295,1,160,2|8,0:0|0:0,0:0:0:0:
109,344,490472,1,2,0:3:0:0:
35,290,490643,6,0,P|25:254|22:201,1,80,2|2,0:0|0:3,0:0:0:0:
170,103,490986,2,0,P|180:139|183:192,1,80,8|2,0:0|0:3,0:0:0:0:
118,249,491329,2,0,B|108:166|82:176|78:93,1,160,2|8,0:0|0:0,0:0:0:0:
184,23,491843,1,2,0:3:0:0:
262,116,492014,6,0,P|291:157|407:170,1,160,2|8,0:0|0:0,0:0:0:0:
326,258,492529,1,2,0:3:0:0:
249,244,492700,2,0,L|221:325,1,80,2|2,0:0|0:3,0:0:0:0:
64,251,493043,1,8,0:0:0:0:
154,225,493214,1,2,0:3:0:0:
124,321,493386,6,0,P|113:242|91:165,1,160,2|8,0:0|0:0,0:0:0:0:
138,98,493900,1,2,0:3:0:0:
35,81,494072,5,2,0:0:0:0:
209,144,494243,1,2,0:3:0:0:
48,180,494414,1,8,0:0:0:0:
71,172,494500,1,2,0:0:0:0:
208,44,494672,1,2,0:0:0:0:
231,52,494757,6,0,P|265:59|323:64,1,80,4|2,0:0|0:3,0:0:0:0:
381,30,495100,1,8,0:0:0:0:
351,201,495272,1,2,0:3:0:0:
454,104,495443,2,0,P|391:111|337:197,1,160,2|8,0:0|0:0,0:0:0:0:
389,310,495957,1,2,0:3:0:0:
451,260,496129,6,0,P|442:216|418:171,1,80,2|2,0:0|0:3,0:0:0:0:
257,159,496472,2,0,P|242:196|223:231,1,80,8|2,0:0|0:3,0:0:0:0:
198,318,496814,2,0,B|282:317|272:280|353:288,1,160,2|8,0:0|0:0,0:0:0:0:
330,206,497329,1,2,0:3:0:0:
146,254,497500,6,0,L|65:221,1,80,2|2,0:0|0:3,0:0:0:0:
198,119,497843,2,0,L|209:205,1,80,8|2,0:0|0:3,0:0:0:0:
0,184,498186,2,0,P|57:173|122:80,1,160,2|8,0:0|0:0,0:0:0:0:
75,32,498700,1,2,0:3:0:0:
190,35,498872,6,0,P|237:42|306:128,1,160,2|8,0:0|0:0,0:0:0:0:
277,198,499386,1,2,0:3:0:0:
193,167,499557,5,2,0:0:0:0:
363,266,499729,1,2,0:3:0:0:
217,307,499900,1,8,0:0:0:0:
222,283,499986,1,2,0:0:0:0:
352,148,500157,1,2,0:0:0:0:
346,123,500243,6,0,L|352:78,11,40,6|0|0|0|0|0|0|0|0|0|0|0,0:0|0:0|0:0|0:0|0:0|0:0|0:0|0:0|0:0|0:0|0:0|0:0,0:0:0:0:
361,3,501272,5,6,0:0:0:0:
173,103,501443,2,0,L|179:148,1,40,6|0,0:0|0:0,0:0:0:0:
273,257,501614,2,0,L|309:272,3,40,0|0|0|0,0:0|0:0|0:0|0:0,0:0:0:0:
124,281,501957,2,0,L|92:305,3,40,0|0|0|0,0:0|0:0|0:0|0:0,0:0:0:0:
191,224,502300,5,0,0:0:0:0:
160,215,502386,1,0,0:0:0:0:
129,206,502472,1,0,0:0:0:0:
98,197,502557,1,0,0:0:0:0:
67,188,502643,1,0,0:0:0:0:
40,158,502729,1,0,0:0:0:0:
35,118,502814,1,0,0:0:0:0:
49,80,502900,1,0,0:0:0:0:
100,54,502986,5,6,0:0:0:0:
375,206,503157,5,2,0:3:0:0:
406,180,503243,2,0,B|426:150|426:150|422:112,1,66.6666666666667,2|2,0:0|0:3,0:0:0:0:
378,36,503415,1,2,0:3:0:0:
338,27,503501,1,0,0:0:0:0:
299,17,503586,1,0,0:0:0:0:
0,168,503758,5,2,0:3:0:0:
36,185,503844,2,0,B|68:196|68:196|131:177|131:177|151:140,1,133.333333333333,2|2,0:0|0:3,0:0:0:0:
149,53,504101,1,2,0:3:0:0:
139,14,504187,1,2,0:0:0:0:
237,173,504358,5,2,0:3:0:0:
276,169,504444,2,0,B|309:169|309:169|334:197,1,66.6666666666667,2|2,0:0|0:3,0:0:0:0:
346,287,504616,1,2,0:3:0:0:
338,326,504702,1,2,0:3:0:0:
330,364,504787,1,2,0:0:0:0:
467,365,504959,5,2,0:3:0:0:
491,333,505045,2,0,B|505:304|505:304|486:241|486:241|448:217,1,133.333333333333,2|2,0:0|0:3,0:0:0:0:
370,184,505302,1,2,0:3:0:0:
331,194,505388,1,2,0:0:0:0:
132,312,505559,5,2,0:3:0:0:
106,281,505645,2,0,B|84:252|84:252|87:197,1,66.6666666666667,2|2,0:0|0:3,0:0:0:0:
121,134,505817,1,2,0:3:0:0:
159,124,505903,1,2,0:3:0:0:
197,114,505988,1,2,0:0:0:0:
481,178,506160,5,2,0:3:0:0:
475,217,506246,2,0,B|464:241|464:241|396:269|396:269|347:255,1,133.333333333333,2|2,0:0|0:3,0:0:0:0:
298,192,506503,1,2,0:3:0:0:
287,153,506589,1,2,0:0:0:0:
43,8,506760,5,2,0:3:0:0:
24,43,506846,2,0,B|7:74|7:74|16:118,1,66.6666666666667,2|2,0:0|0:3,0:0:0:0:
80,171,507018,1,2,0:3:0:0:
119,175,507104,1,2,0:3:0:0:
158,179,507189,1,2,0:0:0:0:
277,284,507361,5,2,0:3:0:0:
263,321,507447,2,0,B|248:351|248:351|190:375|190:375|146:363,1,133.333333333333,2|2,0:0|0:3,0:0:0:0:
73,318,507704,1,2,0:3:0:0:
61,279,507790,1,6,0:0:0:0:
239,13,507961,5,2,0:3:0:0:
214,44,508047,2,0,B|197:70|197:70|208:132,1,66.6666666666667,2|2,0:0|0:3,0:0:0:0:
257,182,508219,1,2,0:3:0:0:
296,186,508305,1,2,0:3:0:0:
335,190,508390,1,2,0:0:0:0:
443,93,508562,5,2,0:3:0:0:
479,109,508648,2,0,B|510:131|510:131|523:186|523:186|507:227,1,133.333333333333,2|2,0:0|0:3,0:0:0:0:
468,306,508905,1,2,0:3:0:0:
428,313,508991,1,2,0:0:0:0:
136,323,509162,5,2,0:3:0:0:
160,291,509248,2,0,B|183:268|183:268|247:276,1,66.6666666666667,2|2,0:0|0:3,0:0:0:0:
303,309,509420,1,2,0:3:0:0:
320,344,509506,1,2,0:3:0:0:
339,378,509591,1,2,0:0:0:0:
85,201,509763,5,2,0:3:0:0:
57,172,509849,2,0,B|37:148|37:148|49:82|49:82|81:63,1,133.333333333333,2|2,0:0|0:3,0:0:0:0:
168,35,510106,1,2,0:3:0:0:
206,45,510192,1,2,0:0:0:0:
473,188,510363,5,2,0:3:0:0:
441,212,510449,2,0,B|411:229|411:229|379:224,1,66.6666666666667,2|2,0:0|0:3,0:0:0:0:
291,188,510621,1,2,0:3:0:0:
282,148,510707,1,2,0:3:0:0:
273,109,510792,1,2,0:0:0:0:
79,64,510964,5,2,0:3:0:0:
48,90,511050,2,0,B|28:114|28:114|40:180|40:180|72:199,1,133.333333333333,2|2,0:0|0:3,0:0:0:0:
148,249,511307,1,2,0:3:0:0:
186,239,511393,1,2,0:0:0:0:
496,307,511564,5,2,0:3:0:0:
467,278,511650,2,0,B|441:256|441:256|396:261,1,66.6666666666667,2|2,0:0|0:3,0:0:0:0:
318,287,511822,1,2,0:3:0:0:
310,326,511908,1,2,0:3:0:0:
301,364,511993,1,2,0:0:0:0:
199,147,512165,5,2,0:3:0:0:
176,131,512251,1,2,0:0:0:0:
186,86,512336,1,0,0:0:0:0:
220,56,512422,1,2,0:3:0:0:
265,50,512508,1,2,0:3:0:0:
305,71,512586,1,6,0:0:0:0:
422,269,512928,5,2,0:0:0:0:
335,159,513100,1,2,0:3:0:0:
285,290,513271,1,2,0:3:0:0:
346,235,513443,1,2,0:0:0:0:
335,159,513614,6,0,P|302:147|267:148,1,59.9999981689454,2|0,0:3|0:0,0:0:0:0:
422,269,513957,2,0,P|448:246|465:215,1,59.9999981689454,2|0,0:0|0:0,0:0:0:0:
285,290,514300,2,0,P|291:324|309:354,1,59.9999981689454,2|2,0:0|0:3,0:0:0:0:
346,235,514643,5,2,0:0:0:0:
278,196,514814,1,2,0:3:0:0:
184,184,514986,1,2,0:3:0:0:
97,253,515157,1,2,0:0:0:0:
125,373,515328,5,2,0:3:0:0:
196,272,515500,1,2,0:3:0:0:
163,170,515671,1,2,0:0:0:0:
90,126,515843,1,2,0:3:0:0:
13,141,516014,2,0,P|21:176|23:215,1,59.9999981689454,2|2,0:0|0:3,0:0:0:0:
182,26,516357,1,2,0:0:0:0:
171,110,516528,6,0,L|161:184,1,59.9999981689454,2|2,0:3|0:3,0:0:0:0:
361,117,516871,1,2,0:0:0:0:
306,178,517042,2,0,P|287:204|271:244,1,59.9999981689454,2|0,0:3|0:0,0:0:0:0:
143,343,517386,2,0,L|151:283,1,59.9999981689454,2|0,0:0|0:0,0:0:0:0:
99,177,517728,5,2,0:0:0:0:
133,194,517814,1,2,0:3:0:0:
171,186,517900,1,2,0:3:0:0:
194,154,517986,1,2,0:3:0:0:
192,115,518071,1,2,0:0:0:0:
159,92,518157,1,2,0:3:0:0:
119,92,518243,1,2,0:3:0:0:
83,77,518328,1,2,0:3:0:0:
63,43,518414,6,0,P|63:18|76:3,1,29.9999990844727,2|2,0:3|0:3,0:0:0:0:
231,37,518586,2,0,P|252:24|272:28,1,29.9999990844727,2|2,0:0|0:3,0:0:0:0:
291,142,518757,2,0,P|315:144|326:147,3,29.9999990844727,2|0|0|0,0:3|0:0|0:0|0:0,0:0:0:0:
297,227,519100,1,2,0:0:0:0:
293,247,519186,1,2,0:0:0:0:
283,265,519271,1,2,0:0:0:0:
267,279,519357,1,2,0:0:0:0:
246,283,519443,6,0,P|281:292|316:320,1,59.9999981689454,6|0,0:0|0:0,0:0:0:0:
436,227,519786,2,0,P|401:236|366:264,1,59.9999981689454,2|0,0:0|0:0,0:0:0:0:
285,122,520128,1,2,0:3:0:0:
297,227,520300,1,2,0:0:0:0:
168,128,520471,6,0,L|154:57,1,59.9999981689454,2|0,0:3|0:0,0:0:0:0:
134,223,520814,2,0,L|79:269,1,59.9999981689454,2|0,0:0|0:0,0:0:0:0:
240,207,521157,2,0,L|307:230,1,59.9999981689454,2|2,0:0|0:3,0:0:0:0:
490,211,521500,5,2,0:0:0:0:
425,165,521671,1,2,0:3:0:0:
332,145,521843,1,2,0:3:0:0:
240,207,522014,1,2,0:0:0:0:
257,328,522185,5,2,0:3:0:0:
336,234,522357,1,2,0:3:0:0:
312,129,522528,1,2,0:0:0:0:
244,79,522700,1,2,0:3:0:0:
165,87,522871,2,0,P|169:122|168:161,1,59.9999981689454,2|2,0:0|0:3,0:0:0:0:
312,129,523214,1,2,0:0:0:0:
355,55,523386,6,0,L|384:-2,1,59.9999981689454,2|2,0:3|0:3,0:0:0:0:
505,197,523728,1,2,0:0:0:0:
425,221,523900,2,0,P|391:234|358:255,1,59.9999981689454,0|2,0:0|0:3,0:0:0:0:
226,310,524243,2,0,L|255:253,1,59.9999981689454,2|0,0:0|0:0,0:0:0:0:
312,129,524586,5,2,0:0:0:0:
284,102,524671,1,0,0:0:0:0:
245,94,524757,1,0,0:0:0:0:
207,106,524843,1,0,0:0:0:0:
184,137,524928,1,2,0:0:0:0:
162,169,525014,1,2,0:3:0:0:
126,186,525100,1,2,0:3:0:0:
86,183,525186,1,2,0:3:0:0:
56,157,525271,6,0,P|61:128|65:119,1,29.9999990844727,2|2,0:3|0:3,0:0:0:0:
216,231,525443,2,0,P|211:260|207:269,1,29.9999990844727,2|2,0:0|0:3,0:0:0:0:
135,326,525614,2,0,L|88:319,3,29.9999990844727,2|0|0|0,0:3|0:0|0:0|0:0,0:0:0:0:
230,378,525957,1,2,0:0:0:0:
249,371,526043,1,2,0:0:0:0:
265,359,526128,1,2,0:0:0:0:
276,341,526214,1,2,0:0:0:0:
278,321,526300,5,6,0:0:0:0:
225,235,526471,2,0,B|249:220|260:188|260:188|280:219|319:233,1,120,2|0,0:0|0:0,0:0:0:0:
316,231,526814,1,2,0:0:0:0:
442,127,526986,2,0,B|418:112|407:80|407:80|387:111|348:125,1,120,2|0,0:0|0:0,0:0:0:0:
346,126,527328,2,0,P|294:126|260:115,1,80,2|0,0:0|0:0,0:0:0:0:
188,169,527671,6,0,P|162:123|154:89,1,80,2|2,0:3|0:0,0:0:0:0:
55,82,528014,1,2,0:3:0:0:
62,63,528099,1,0,0:0:0:0:
73,46,528185,1,2,0:0:0:0:
86,31,528271,1,2,0:0:0:0:
100,17,528356,5,4,0:0:0:0:
188,169,528528,1,2,0:3:0:0:
104,262,528699,2,0,B|54:258|54:258|50:253|50:253|-16:247,1,100,8|2,0:0|0:3,0:0:0:0:
216,354,529042,1,2,0:0:0:0:
300,248,529213,2,0,B|350:251|350:251|354:257|354:257|419:262,1,100,2|8,0:3|0:0,0:0:0:0:
216,354,529557,6,0,B|189:283|189:283|212:236|212:236|181:151,1,200,2|2,0:3|0:3,0:0:0:0:
159,91,529985,1,0,0:0:0:0:
159,91,530071,2,0,L|96:82,1,50,8|0,0:0|0:0,0:0:0:0:
26,73,530242,1,2,0:3:0:0:
74,214,530414,1,2,0:0:0:0:
214,232,530585,2,0,L|253:181,1,50,2|0,0:3|0:0,0:0:0:0:
296,125,530756,1,8,0:0:0:0:
74,214,530928,2,0,L|97:273,1,50,2|0,0:3|0:0,0:0:0:0:
132,337,531099,5,2,0:0:0:0:
153,167,531271,1,2,0:3:0:0:
307,343,531442,2,0,B|357:354|357:354|407:330,1,100,8|2,0:0|0:3,0:0:0:0:
478,303,531699,1,0,0:0:0:0:
478,303,531785,2,0,L|457:199,1,100,2|2,0:0|0:3,0:0:0:0:
307,343,532128,1,8,0:0:0:0:
200,279,532299,6,0,B|158:251|158:251|153:171|153:171|148:165|148:165|143:102,1,200,2|2,0:3|0:3,0:0:0:0:
260,73,532814,2,0,L|252:131,1,50,8|0,0:0|0:0,0:0:0:0:
241,202,532985,1,2,0:3:0:0:
27,91,533157,2,0,L|40:148,1,50,2|0,0:0|0:0,0:0:0:0:
57,217,533328,1,2,0:3:0:0:
141,82,533499,1,8,0:0:0:0:
143,103,533585,1,2,0:0:0:0:
239,223,533756,1,2,0:0:0:0:
241,202,533842,5,6,0:0:0:0:
149,274,534014,1,2,0:3:0:0:
292,345,534185,2,0,B|343:341|343:341|348:336|348:336|390:333,1,100,8|2,0:0|0:3,0:0:0:0:
384,131,534528,1,2,0:0:0:0:
239,223,534699,2,0,B|188:219|188:219|183:214|183:214|141:211,1,100,2|8,0:3|0:0,0:0:0:0:
226,69,535042,6,0,B|310:64|310:64|344:32|344:32|431:27,1,200,2|2,0:3|0:3,0:0:0:0:
497,28,535471,1,0,0:0:0:0:
497,28,535557,2,0,L|485:89,1,50,8|0,0:0|0:0,0:0:0:0:
470,160,535728,1,2,0:3:0:0:
449,267,535899,1,2,0:0:0:0:
262,155,536071,2,0,L|320:134,1,50,2|0,0:3|0:0,0:0:0:0:
389,112,536242,1,8,0:0:0:0:
487,300,536414,2,0,L|440:259,1,50,2|0,0:3|0:0,0:0:0:0:
386,211,536585,5,2,0:0:0:0:
359,343,536757,1,2,0:3:0:0:
262,155,536928,2,0,B|217:138|217:138|150:157,1,100,8|2,0:0|0:3,0:0:0:0:
119,231,537185,1,0,0:0:0:0:
119,231,537271,2,0,L|20:216,1,100,2|2,0:0|0:3,0:0:0:0:
146,61,537614,1,8,0:0:0:0:
214,235,537785,6,0,B|209:290|209:290|216:310|216:310|207:328|207:328|202:372|202:372|194:337|174:320,1,200,2|2,0:3|0:3,0:0:0:0:
20,216,538299,1,8,0:0:0:0:
59,212,538385,1,0,0:0:0:0:
95,194,538471,1,2,0:3:0:0:
115,159,538557,1,0,0:0:0:0:
115,119,538642,2,0,L|108:65,1,50,2|0,0:0|0:0,0:0:0:0:
35,135,538814,2,0,L|28:81,1,50,2|0,0:0|0:0,0:0:0:0:
272,214,538985,1,8,0:0:0:0:
272,214,539071,2,0,L|265:268,1,50,2|8,0:0|0:3,0:0:0:0:
194,176,539242,1,2,0:0:0:0:
194,176,539328,5,6,0:0:0:0:
334,121,539499,1,0,0:0:0:0:
194,176,539671,2,0,L|177:286,1,100,8|8,0:0|0:3,0:0:0:0:
302,382,540014,1,0,0:0:0:0:
178,274,540185,1,2,0:0:0:0:
332,213,540357,1,8,0:0:0:0:
270,287,540528,1,2,0:0:0:0:
221,125,540699,6,0,B|287:130|287:130|292:125|292:125|368:133,1,150,2|0,0:0|0:0,0:0:0:0:
381,135,541042,1,8,0:0:0:0:
205,28,541214,2,0,P|148:51|120:101,1,100,2|0,0:0|0:0,0:0:0:0:
227,219,541557,2,0,P|235:158|206:108,1,100,2|8,0:0|0:0,0:0:0:0:
62,154,541899,1,2,0:0:0:0:
80,149,541985,1,0,0:0:0:0:
96,146,542071,5,2,0:0:0:0:
54,257,542242,1,8,0:3:0:0:
180,108,542414,1,8,0:0:0:0:
197,302,542585,1,8,0:3:0:0:
104,55,542757,2,0,P|137:24|208:16,1,100,0|0,0:0|0:0,0:0:0:0:
317,179,543099,1,8,0:0:0:0:
341,17,543271,1,2,0:0:0:0:
250,239,543442,6,0,B|290:269|290:269|394:264,1,150,2|0,0:0|0:0,0:0:0:0:
405,263,543785,1,8,0:0:0:0:
509,206,543957,2,0,B|504:253|504:253|499:259|499:259|494:304,1,100,2|0,0:0|0:0,0:0:0:0:
317,179,544299,2,0,B|312:131|312:131|307:125|307:125|302:80,1,100,2|8,0:0|0:0,0:0:0:0:
438,27,544642,1,2,0:0:0:0:
435,46,544728,1,0,0:0:0:0:
432,62,544814,5,6,0:0:0:0:
317,179,544985,1,8,0:3:0:0:
226,117,545157,2,0,P|178:107|129:130,1,100,8|8,0:0|0:3,0:0:0:0:
113,314,545499,1,0,0:0:0:0:
187,190,545671,1,2,0:0:0:0:
58,215,545842,1,8,0:0:0:0:
230,316,546014,1,2,0:0:0:0:
226,117,546185,6,0,B|157:112|157:112|151:106|151:106|71:98,1,150,2|0,0:0|0:0,0:0:0:0:
61,97,546528,1,8,0:0:0:0:
254,29,546699,2,0,P|297:55|323:117,1,100,2|0,0:0|0:0,0:0:0:0:
148,191,547042,1,2,0:0:0:0:
320,97,547214,1,8,0:0:0:0:
323,298,547385,1,2,0:0:0:0:
268,193,547557,6,0,L|370:183,1,100,2|8,0:0|0:3,0:0:0:0:
230,301,547899,1,8,0:0:0:0:
166,102,548071,2,0,B|97:97|97:97|91:91|91:91|11:83,1,150,8|0,0:3|0:0,0:0:0:0:
1,82,548414,1,2,0:0:0:0:
40,327,548585,2,0,P|101:308|127:272,1,100,8|2,0:0|0:0,0:0:0:0:
1,82,548928,6,0,P|-13:144|5:184,1,100,2|8,0:0|0:3,0:0:0:0:
222,157,549271,1,8,0:0:0:0:
114,36,549442,1,2,0:0:0:0:
107,78,549528,1,0,0:0:0:0:
98,119,549613,1,0,0:0:0:0:
88,160,549699,1,0,0:0:0:0:
88,202,549785,1,2,0:0:0:0:
114,235,549871,1,0,0:0:0:0:
155,247,549956,1,8,0:0:0:0:
197,234,550042,1,2,0:3:0:0:
223,199,550128,1,2,0:0:0:0:
222,157,550213,1,2,0:3:0:0:
192,126,550299,5,6,0:0:0:0:
12,83,550471,1,2,0:3:0:0:
81,182,550642,1,8,0:0:0:0:
112,26,550814,1,8,0:3:0:0:
0,81,550985,5,2,0:3:0:0:
204,130,551157,1,2,0:0:0:0:
114,13,551328,1,8,0:0:0:0:
79,196,551499,1,2,0:0:0:0:
285,204,551671,5,2,0:0:0:0:
204,130,551842,1,8,0:3:0:0:
391,162,552014,1,8,0:0:0:0:
266,304,552185,1,2,0:0:0:0:
406,156,552357,5,2,0:3:0:0:
191,119,552528,1,2,0:0:0:0:
262,319,552700,1,8,0:0:0:0:
285,204,552871,1,2,0:0:0:0:
124,69,553042,5,2,0:0:0:0:
151,261,553214,1,8,0:3:0:0:
358,238,553385,1,8,0:0:0:0:
330,45,553557,1,8,0:3:0:0:
138,276,553728,5,2,0:3:0:0:
343,29,553900,1,0,0:0:0:0:
106,55,554071,1,8,0:0:0:0:
375,250,554243,1,2,0:0:0:0:
230,82,554414,5,2,0:0:0:0:
230,82,554757,5,8,0:0:0:0:
331,344,554928,1,2,0:0:0:0:
331,344,555271,5,2,0:0:0:0:
406,65,555442,1,8,0:0:0:0:
409,85,555528,1,0,0:0:0:0:
412,105,555613,1,2,0:0:0:0:
415,125,555699,1,0,0:0:0:0:
418,141,555785,6,0,B|422:115|422:115|427:87|391:81|387:109|387:109|381:140,1,112.500004291535,4|0,0:0|0:0,0:0:0:0:
406,243,556128,6,0,B|399:207|399:207|390:156|461:143|470:195|470:195|479:246,1,187.5,8|0,0:0|0:0,0:0:0:0:
421,375,556471,6,0,B|431:312|431:312|442:251|357:236|346:297|346:297|336:359,1,262.500002503395,2|0,0:0|0:0,0:0:0:0:
332,366,556814,1,8,0:0:0:0:
217,157,556985,2,0,B|166:131|107:170|107:170|115:177|115:177|67:219|-16:189,1,250,2|2,0:3|0:3,0:0:0:0:
112,371,557499,2,0,B|175:380|175:380|218:324|175:247,1,187.5,8|0,0:0|0:0,0:0:0:0:
177,250,557842,2,0,L|315:237,1,125,2|2,0:0|0:3,0:0:0:0:
412,324,558185,1,8,0:0:0:0:
458,128,558357,1,2,0:3:0:0:
229,43,558528,6,0,B|295:29|295:29|340:84|303:163,1,187.5,2|0,0:0|0:0,0:0:0:0:
303,159,558871,1,8,0:0:0:0:
143,344,559042,2,0,B|209:358|209:358|254:303|217:224,1,187.5,2|0,0:3|0:0,0:0:0:0:
217,228,559385,1,2,0:3:0:0:
151,127,559557,1,8,0:0:0:0:
151,127,559642,1,0,0:0:0:0:
151,127,559728,1,2,0:3:0:0:
350,47,559899,6,0,B|321:33|289:44|289:44|256:57|224:40,1,125,2|2,0:0|0:3,0:0:0:0:
383,194,560242,2,0,P|382:146|376:127,1,62.5,8|0,0:0|0:0,0:0:0:0:
218,254,560414,2,0,P|218:301|224:320,1,62.5,2|0,0:3|0:0,0:0:0:0:
317,362,560585,1,2,0:0:0:0:
296,167,560757,2,0,L|216:152,1,62.5,2|0,0:3|0:0,0:0:0:0:
120,136,560928,1,8,0:0:0:0:
140,138,561014,1,2,0:0:0:0:
307,279,561185,1,2,0:0:0:0:
326,278,561271,6,0,B|390:272|390:272|397:275|397:275|468:271|468:271|441:286|432:311,1,187.5,6|0,0:0|0:0,0:0:0:0:
436,316,561614,1,8,0:0:0:0:
296,167,561785,1,2,0:3:0:0:
434,176,561957,2,0,P|453:117|433:59,1,125,2|0,0:0|0:0,0:0:0:0:
334,257,562299,2,0,P|374:302|435:315,1,125,8|2,0:0|0:3,0:0:0:0:
226,351,562642,5,2,0:0:0:0:
224,332,562728,1,0,0:0:0:0:
223,313,562814,1,2,0:3:0:0:
175,206,562985,2,0,B|206:177|213:121|213:121|229:177|269:217,1,187.5,8|0,0:0|0:0,0:0:0:0:
134,287,563328,2,0,B|107:312|91:368|91:368|84:312|53:283,1,187.5,2|0,0:0|0:0,0:0:0:0:
0,211,563671,1,8,0:0:0:0:
276,65,563842,1,2,0:3:0:0:
0,211,564014,6,0,P|0:145|20:83,1,125,2|0,0:0|0:0,0:0:0:0:
178,174,564357,2,0,B|178:264|58:262|39:156|142:74,1,250,8|2,0:0|0:0,0:0:0:0:
215,335,564871,1,2,0:3:0:0:
276,65,565042,1,8,0:0:0:0:
388,294,565214,2,0,B|453:230|409:118|294:159|322:240,1,250,2|2,0:3|0:3,0:0:0:0:
488,325,565728,2,0,P|505:265|505:203,1,125,8|2,0:0|0:3,0:0:0:0:
286,132,566071,6,0,P|320:155|360:161,1,83.3333333333333,2|0,0:0|0:0,0:0:0:0:
424,113,566299,6,0,P|380:134|358:167,1,83.3333333333333,0|8,0:0|0:0,0:0:0:0:
370,242,566528,6,0,P|373:200|360:161,1,83.3333333333333,0|0,0:0|0:0,0:0:0:0:
108,136,566757,6,0,B|79:126|74:90|74:90|107:80|142:96,1,112.500004291535,6|0,0:0|0:0,0:0:0:0:
236,204,567099,6,0,B|251:253|206:288|206:288|153:264|160:204,1,187.5,8|0,0:0|0:0,0:0:0:0:
215,51,567442,6,0,B|257:0|338:22|338:22|343:101|274:138,1,262.500002503395,2|0,0:0|0:0,0:0:0:0:
197,135,567785,1,8,0:0:0:0:
370,242,567957,2,0,B|472:308|603:173|460:141|451:237,1,250,2|2,0:3|0:3,0:0:0:0:
413,380,568471,2,0,B|441:372|468:374|468:374|418:332|334:339,1,187.5,8|0,0:0|0:0,0:0:0:0:
326,341,568814,2,0,P|246:328|206:305,1,125,2|2,0:0|0:3,0:0:0:0:
193,77,569157,1,8,0:0:0:0:
294,228,569328,1,2,0:3:0:0:
83,282,569499,6,0,B|19:326|38:396|116:404|129:343,1,187.5,2|0,0:0|0:0,0:0:0:0:
132,331,569842,1,8,0:0:0:0:
30,126,570013,2,0,B|-34:82|-15:12|63:4|76:65,1,187.5,2|0,0:3|0:0,0:0:0:0:
78,76,570356,1,2,0:3:0:0:
12,224,570528,1,8,0:0:0:0:
12,224,570614,1,0,0:0:0:0:
12,224,570699,1,2,0:3:0:0:
193,95,570871,6,0,B|223:86|253:102|253:102|283:121|318:109,1,125,2|2,0:0|0:3,0:0:0:0:
417,177,571214,2,0,P|373:184|359:193,1,62.5,8|0,0:0|0:0,0:0:0:0:
335,314,571385,2,0,P|364:351|379:358,1,62.5,2|0,0:3|0:0,0:0:0:0:
464,281,571557,1,2,0:0:0:0:
218,230,571728,2,0,L|282:243,1,62.5,2|0,0:0|0:0,0:0:0:0:
464,281,571899,1,8,0:0:0:0:
445,277,571985,1,2,0:0:0:0:
323,65,572157,1,2,0:0:0:0:
339,64,572242,6,0,B|401:57|401:57|439:113|416:177,1,187.5,6|0,0:0|0:0,0:0:0:0:
409,193,572585,1,8,0:0:0:0:
238,73,572757,1,2,0:3:0:0:
497,46,572928,2,0,P|516:120|510:186,1,125,2|0,0:0|0:0,0:0:0:0:
241,213,573271,2,0,P|295:159|355:131,1,125,8|2,0:0|0:3,0:0:0:0:
482,309,573614,5,2,0:0:0:0:
485,321,573700,1,0,0:0:0:0:
488,336,573785,1,2,0:3:0:0:
338,137,573957,2,0,P|236:94|150:126,1,187.5,8|0,0:0|0:0,0:0:0:0:
153,127,574299,2,0,P|159:172|156:192,1,62.5,2|0,0:0|0:0,0:0:0:0:
326,231,574471,2,0,P|284:213|268:201,1,62.5,2|0,0:0|0:0,0:0:0:0:
152,333,574642,1,8,0:0:0:0:
163,321,574727,1,2,0:0:0:0:
175,312,574813,1,8,0:0:0:0:
189,304,574899,1,2,0:0:0:0:
205,299,574985,6,0,B|261:310|261:310|265:306|265:306|319:317,1,110.000003356934,4|2,0:0|0:3,0:0:0:0:
153,127,575328,2,0,B|97:138|97:138|93:134|93:134|39:145,1,110.000003356934,8|2,0:0|0:3,0:0:0:0:
311,315,575671,2,0,B|322:259|322:259|318:255|318:255|329:201,1,110.000003356934,2|0,0:0|0:0,0:0:0:0:
190,40,576014,1,8,0:0:0:0:
117,245,576185,6,0,B|187:232|187:232|224:209|224:209|258:219|258:219|333:206,1,220.000006713867,2|2,0:3|0:3,0:0:0:0:
302,382,576699,2,0,B|257:350|257:350|241:294,1,110.000003356934,8|2,0:0|0:3,0:0:0:0:
428,190,577042,2,0,B|422:244|422:244|382:286,1,110.000003356934,2|2,0:0|0:3,0:0:0:0:
221,162,577385,1,8,0:0:0:0:
335,91,577557,6,0,B|346:40|346:40|294:7|294:7|255:52|255:52|280:104,1,220.000006713867,2|2,0:3|0:3,0:0:0:0:
130,188,578071,1,8,0:0:0:0:
243,256,578242,2,0,B|254:306|254:306|202:339|202:339|163:294|163:294|188:242,1,220.000006713867,2|2,0:3|0:3,0:0:0:0:
61,140,578757,1,8,0:0:0:0:
61,140,578842,1,0,0:0:0:0:
61,140,578928,1,2,0:3:0:0:
239,43,579099,6,0,B|232:96|232:96|235:103|235:103|226:169,1,110.000003356934,2|2,0:0|0:3,0:0:0:0:
273,359,579442,2,0,P|313:358|336:348,1,55.0000016784668,8|0,0:0|0:0,0:0:0:0:
157,210,579614,2,0,P|117:211|94:221,1,55.0000016784668,2|0,0:3|0:0,0:0:0:0:
212,287,579785,1,2,0:0:0:0:
234,96,579957,2,0,L|228:157,1,55.0000016784668,2|0,0:3|0:0,0:0:0:0:
211,304,580128,1,8,0:0:0:0:
212,287,580214,1,2,0:0:0:0:
408,257,580385,1,2,0:0:0:0:
404,239,580471,6,0,B|356:235|356:235|352:230|352:230|277:223,1,110.000003356934,6|2,0:0|0:3,0:0:0:0:
151,156,580814,1,8,0:0:0:0:
160,357,580985,2,0,B|208:353|208:353|212:348|212:348|287:341,1,110.000003356934,2|2,0:3|0:0,0:0:0:0:
249,138,581328,1,2,0:3:0:0:
83,239,581499,1,8,0:0:0:0:
203,242,581671,1,2,0:3:0:0:
85,46,581842,6,0,B|116:27|116:27|197:32,1,110.000003356934,2|2,0:0|0:3,0:0:0:0:
347,128,582185,6,0,B|352:183|352:183|357:187|357:187|361:235,1,110.000003356934,8|2,0:0|0:3,0:0:0:0:
188,349,582528,2,0,B|193:293|193:293|198:289|198:289|202:241,1,110.000003356934,2|0,0:0|0:0,0:0:0:0:
224,35,582871,1,8,0:0:0:0:
468,221,583042,6,0,B|412:226|412:226|408:231|408:231|360:235,1,110.000003356934,2|2,0:3|0:0,0:0:0:0:
115,133,583385,2,0,B|221:83|221:83|314:164,1,220.000006713867,2|2,0:3|0:3,0:0:0:0:
188,349,583899,2,0,B|193:293|193:293|198:289|198:289|202:241,1,110.000003356934,2|2,0:0|0:3,0:0:0:0:
41,98,584242,1,8,0:0:0:0:
0,277,584414,6,0,B|61:288|61:288|114:264,1,110.000003356934,2|2,0:3|0:0,0:0:0:0:
302,213,584757,2,0,B|297:269|297:269|292:273|292:273|288:321,1,110.000003356934,2|8,0:3|0:0,0:0:0:0:
186,151,585099,1,2,0:3:0:0:
186,151,585185,1,0,0:0:0:0:
186,151,585271,2,0,L|175:94,1,55.0000016784668,2|0,0:0|0:0,0:0:0:0:
273,133,585442,2,0,L|262:76,1,55.0000016784668,2|0,0:0|0:0,0:0:0:0:
32,210,585614,1,8,0:0:0:0:
32,210,585699,2,0,L|21:267,1,55.0000016784668,2|8,0:0|0:3,0:0:0:0:
134,242,585871,1,2,0:0:0:0:
134,242,585957,6,0,P|133:287|105:254,1,112.500004291535,6|0,0:0|0:0,0:0:0:0:
145,174,586300,6,0,P|206:220|134:243,1,187.5,8|0,0:0|0:0,0:0:0:0:
73,138,586643,6,0,P|152:72|146:175,1,262.500002503395,2|0,0:0|0:0,0:0:0:0:
32,210,586985,1,8,0:0:0:0:
286,136,587157,2,0,B|314:103|325:59|325:59|314:144|384:236,1,250,2|2,0:3|0:3,0:0:0:0:
172,293,587671,2,0,B|151:269|117:261|117:261|192:271|270:226,1,187.5,8|0,0:0|0:0,0:0:0:0:
250,232,588014,2,0,P|284:303|282:363,1,125,2|2,0:0|0:3,0:0:0:0:
169,143,588357,1,8,0:0:0:0:
107,352,588528,1,2,0:3:0:0:
336,211,588699,6,0,B|406:203|393:126|338:93|255:174,1,187.5,2|0,0:0|0:0,0:0:0:0:
270,161,589042,1,8,0:0:0:0:
60,271,589213,2,0,B|-3:239|34:172|97:159|148:264,1,187.5,2|0,0:3|0:0,0:0:0:0:
139,247,589556,1,0,0:0:0:0:
211,345,589728,1,8,0:0:0:0:
211,345,589814,1,0,0:0:0:0:
211,345,589899,1,2,0:3:0:0:
270,161,590071,6,0,P|334:136|395:139,1,125,2|2,0:0|0:3,0:0:0:0:
444,295,590414,2,0,L|431:376,1,62.5,8|0,0:0|0:0,0:0:0:0:
279,222,590585,2,0,L|266:141,1,62.5,2|0,0:3|0:0,0:0:0:0:
361,259,590757,1,2,0:0:0:0:
211,345,590928,2,0,P|246:357|273:360,1,62.5,2|0,0:0|0:0,0:0:0:0:
364,243,591099,1,8,0:0:0:0:
361,259,591185,1,2,0:0:0:0:
453,141,591357,1,2,0:0:0:0:
449,123,591442,6,0,B|418:88|373:88|373:88|323:118|256:83,1,187.5,6|0,0:0|0:0,0:0:0:0:
259,82,591785,1,8,0:0:0:0:
361,259,591957,1,2,0:3:0:0:
117,127,592128,2,0,P|106:61|127:4,1,125,2|2,0:0|0:3,0:0:0:0:
230,232,592471,2,0,P|178:274|118:284,1,125,8|2,0:0|0:3,0:0:0:0:
259,82,592814,5,2,0:0:0:0:
277,85,592899,1,0,0:0:0:0:
295,88,592985,1,2,0:3:0:0:
459,198,593157,2,0,P|472:279|406:368,1,187.5,8|0,0:0|0:0,0:0:0:0:
398,355,593499,2,0,P|356:342|334:345,1,62.5,2|0,0:0|0:0,0:0:0:0:
345,162,593671,2,0,P|354:204|368:222,1,62.5,2|0,0:0|0:0,0:0:0:0:
215,315,593842,1,8,0:0:0:0:
228,307,593927,1,0,0:0:0:0:
239,296,594013,1,8,0:0:0:0:
248,283,594099,1,2,0:0:0:0:
255,271,594185,6,0,B|249:222|249:222|251:216|251:216|243:148,1,100,6|2,0:0|0:3,0:0:0:0:
115,68,594528,1,8,0:0:0:0:
245,171,594699,2,0,B|294:165|294:165|300:167|300:167|368:159,1,100,2|2,0:3|0:0,0:0:0:0:
158,261,595042,2,0,B|109:255|109:255|103:257|103:257|35:249,1,100,2|8,0:3|0:0,0:0:0:0:
245,171,595385,6,0,P|228:130|183:96,1,100,2|2,0:3|0:0,0:0:0:0:
338,23,595728,2,0,L|326:125,1,100,2|8,0:3|0:0,0:0:0:0:
393,195,596071,2,0,P|420:159|472:138,1,100,2|2,0:3|0:0,0:0:0:0:
212,135,596414,6,0,P|227:154|237:178,1,50,2|0,0:3|0:0,0:0:0:0:
319,79,596585,2,0,L|327:30,1,50,8|0,0:0|0:0,0:0:0:0:
412,151,596757,2,0,P|394:167|381:189,1,50,2|0,0:3|0:0,0:0:0:0:
298,284,596928,5,2,0:0:0:0:
141,198,597099,1,2,0:3:0:0:
141,198,597184,1,0,0:0:0:0:
141,198,597270,2,0,B|125:249|125:249|150:301,1,100,8|2,0:0|0:3,0:0:0:0:
244,140,597614,1,2,0:0:0:0:
93,90,597785,1,2,0:3:0:0:
244,140,597957,2,0,B|240:90|240:90|241:84|241:84|237:36,1,100,8|0,0:0|0:0,0:0:0:0:
343,212,598299,6,0,B|296:177|296:177|228:179|228:179|222:176|222:176|135:180,1,200,2|8,0:0|0:0,0:0:0:0:
70,263,598728,1,0,0:0:0:0:
70,263,598814,2,0,B|118:256|118:256|137:264|137:264|159:261|159:261|194:280,1,125,2|0,0:3|0:0,0:0:0:0:
93,90,599157,1,2,0:0:0:0:
8,189,599328,1,8,0:0:0:0:
10,203,599414,1,2,0:0:0:0:
161,347,599585,1,2,0:0:0:0:
159,359,599671,6,0,B|112:365|112:365|107:362|107:362|47:366|47:366|63:359|79:338,1,150,6|0,0:0|0:0,0:0:0:0:
78,328,600014,1,8,0:0:0:0:
175,171,600185,2,0,P|138:146|58:145,1,100,2|2,0:3|0:0,0:0:0:0:
247,342,600528,2,0,P|287:322|328:253,1,100,2|8,0:3|0:0,0:0:0:0:
339,93,600871,6,0,B|294:86|294:86|287:89|287:89|219:80,1,100,2|2,0:3|0:0,0:0:0:0:
229,258,601214,2,0,B|257:222|257:222|258:214|258:214|300:160,1,100,2|8,0:3|0:0,0:0:0:0:
134,80,601557,2,0,B|150:122|150:122|156:127|156:127|182:190,1,100,2|2,0:3|0:0,0:0:0:0:
332,102,601899,6,0,L|276:94,1,50,2|0,0:3|0:0,0:0:0:0:
221,248,602071,2,0,L|255:203,1,50,8|0,0:0|0:0,0:0:0:0:
146,78,602242,2,0,L|167:130,1,50,2|0,0:3|0:0,0:0:0:0:
332,102,602414,5,2,0:0:0:0:
363,189,602585,1,2,0:3:0:0:
491,118,602757,1,8,0:0:0:0:
447,198,602928,1,2,0:3:0:0:
332,102,603099,5,2,0:0:0:0:
309,261,603271,1,2,0:3:0:0:
204,166,603442,1,8,0:0:0:0:
363,189,603614,1,2,0:3:0:0:
260,329,603785,5,2,0:0:0:0:
285,178,603957,1,2,0:3:0:0:
158,64,604128,1,8,0:0:0:0:
118,56,604214,1,0,0:0:0:0:
78,63,604300,1,2,0:3:0:0:
47,88,604385,1,0,0:0:0:0:
37,127,604472,6,0,L|27:186,1,50,2|0,0:0|0:0,0:0:0:0:
123,154,604642,2,0,L|113:213,1,50,2|0,0:0|0:0,0:0:0:0:
260,329,604814,1,8,0:0:0:0:
260,329,604899,2,0,L|251:279,1,50,2|8,0:0|0:3,0:0:0:0:
168,331,605071,1,2,0:0:0:0:
168,331,605157,6,0,L|159:281,3,50,12|8|2|8,0:3|0:3|0:1|0:1,0:0:0:0:
114,203,605499,2,0,L|123:154,3,50,6|2|8|2,0:3|0:1|0:1|0:3,0:0:0:0:
192,100,605842,1,12,0:3:0:0:
221,93,605928,1,8,0:1:0:0:
250,99,606014,1,2,0:3:0:0:
273,117,606099,1,8,0:3:0:0:
288,142,606185,1,6,0:1:0:0:
307,164,606271,1,2,0:3:0:0:
334,177,606357,1,8,0:3:0:0:
363,178,606442,1,2,0:1:0:0:
391,167,606528,5,12,0:1:0:0:
388,207,606614,1,8,0:3:0:0:
384,246,606699,1,2,0:1:0:0:
378,285,606785,1,8,0:1:0:0:
371,324,606871,5,6,0:3:0:0:
327,299,606957,1,2,0:1:0:0:
278,290,607042,1,8,0:1:0:0:
232,310,607128,1,2,0:3:0:0:
198,347,607214,5,12,0:3:0:0:
147,366,607299,1,8,0:1:0:0:
93,354,607385,1,2,0:3:0:0:
59,310,607471,1,8,0:3:0:0:
59,256,607557,6,0,P|71:223|95:199,1,62.5,12|0,0:1|0:0,0:0:0:0:
106,66,607728,2,0,P|140:59|173:68,1,62.5,8|0,0:1|0:0,0:0:0:0:
248,149,607899,6,0,L|302:158,3,50,12|8|2|8,0:1|0:3|0:3|0:1,0:0:0:0:
357,99,608242,5,6,0:3:0:0:
377,97,608328,1,2,0:3:0:0:
397,95,608414,1,8,0:1:0:0:
416,93,608499,1,2,0:3:0:0:
436,93,608585,5,12,0:3:0:0:
465,101,608671,1,8,0:1:0:0:
487,122,608757,1,2,0:3:0:0:
494,151,608842,1,8,0:3:0:0:
487,180,608928,1,6,0:3:0:0:
465,201,609014,1,2,0:3:0:0:
437,209,609099,1,8,0:3:0:0:
407,202,609185,1,2,0:3:0:0:
386,180,609271,5,12,0:1:0:0:
360,210,609357,1,8,0:3:0:0:
322,223,609442,1,2,0:3:0:0:
282,219,609528,1,8,0:1:0:0:
250,194,609614,5,6,0:1:0:0:
201,204,609699,1,2,0:3:0:0:
167,240,609785,1,8,0:1:0:0:
161,289,609871,1,2,0:1:0:0:
182,334,609957,5,12,0:3:0:0:
225,366,610042,1,8,0:1:0:0:
280,364,610128,1,6,0:1:0:0:
320,326,610214,1,8,0:3:0:0:
335,275,610299,6,0,P|339:239|333:201,1,62.5,12|4,0:1|0:3,0:0:0:0:
388,95,610471,2,0,P|359:73|322:59,1,62.5,8|4,0:1|0:3,0:0:0:0:
237,91,610642,6,0,L|177:82,3,50,6|2|8|2,0:1|0:1|0:1|0:3,0:0:0:0:
117,41,610985,1,12,0:3:0:0:
97,43,611071,1,8,0:1:0:0:
77,45,611157,1,2,0:3:0:0:
57,48,611242,1,8,0:3:0:0:
37,51,611328,5,6,0:3:0:0:
25,78,611414,1,2,0:3:0:0:
20,107,611499,1,8,0:3:0:0:
27,136,611585,1,2,0:3:0:0:
44,160,611671,1,12,0:1:0:0:
59,185,611757,1,8,0:3:0:0:
64,214,611842,1,2,0:3:0:0:
55,243,611928,1,8,0:1:0:0:
42,270,612014,5,6,0:3:0:0:
80,259,612099,1,2,0:3:0:0:
119,264,612185,1,8,0:1:0:0:
153,284,612271,1,2,0:3:0:0:
175,317,612357,5,12,0:3:0:0:
213,286,612442,1,8,0:1:0:0:
262,276,612528,1,2,0:3:0:0:
307,296,612614,1,8,0:3:0:0:
337,334,612699,5,6,0:1:0:0:
392,337,612785,1,2,0:3:0:0:
439,308,612871,1,8,0:3:0:0:
446,254,612957,1,2,0:1:0:0:
414,206,613042,6,0,P|382:188|350:190,1,62.5,6|0,0:1|0:0,0:0:0:0:
196,76,613214,2,0,P|164:94|150:123,1,62.5,2|0,0:1|0:0,0:0:0:0:
175,317,613385,5,12,0:1:0:0:
215,316,613471,1,2,0:1:0:0:
255,315,613557,1,2,0:3:0:0:
294,314,613642,1,8,0:3:0:0:
334,313,613728,5,12,0:3:0:0:
381,297,613814,1,8,0:3:0:0:
411,257,613899,1,2,0:1:0:0:
414,206,613985,1,8,0:1:0:0:
385,164,614071,5,6,0:3:0:0:
332,181,614157,1,2,0:3:0:0:
278,167,614242,1,2,0:3:0:0:
242,124,614328,1,8,0:3:0:0:
241,66,614414,6,0,P|281:56|304:57,1,62.5,6|0,0:1|0:0,0:0:0:0:
144,232,614585,2,0,P|112:231|82:222,1,62.5,2|0,0:1|0:0,0:0:0:0:
278,167,614757,5,12,0:1:0:0:
302,197,614842,1,2,0:1:0:0:
307,236,614928,1,8,0:1:0:0:
293,273,615014,1,2,0:1:0:0:
261,297,615099,5,12,0:3:0:0:
211,302,615185,1,8,0:3:0:0:
167,277,615271,1,2,0:1:0:0:
144,232,615357,1,8,0:1:0:0:
157,184,615442,5,6,0:3:0:0:
181,134,615528,1,2,0:3:0:0:
172,79,615614,1,12,0:3:0:0:
128,46,615699,1,2,0:3:0:0:
72,52,615785,6,0,P|69:96|77:125,1,62.5,6|4,0:1|0:3,0:0:0:0:
278,167,615957,2,0,P|313:141|330:116,1,62.5,2|4,0:1|0:3,0:0:0:0:
144,232,616128,5,6,0:3:0:0:
211,302,616299,2,0,P|237:273|243:254,1,50,8|2,0:3|0:1,0:0:0:0:
181,134,616471,2,0,P|176:105|176:69,1,50,12|2,0:3|0:1,0:0:0:0:
170,136,616642,2,0,P|165:107|165:71,1,50,2|2,0:3|0:1,0:0:0:0:
319,102,616814,2,0,P|341:83|372:65,1,50,12|2,0:3|0:1,0:0:0:0:
311,93,616985,2,0,P|333:74|364:56,1,50,2|2,0:3|0:1,0:0:0:0:
405,217,617157,2,0,P|432:227|463:245,1,50,12|2,0:3|0:1,0:0:0:0:
408,205,617328,2,0,P|435:215|466:233,1,50,8|2,0:3|0:1,0:0:0:0:
386,346,617499,6,0,L|332:337,1,50,12|2,0:3|0:1,0:0:0:0:
385,334,617671,2,0,L|331:325,1,50,2|2,0:3|0:1,0:0:0:0:
269,179,617842,2,0,L|215:188,1,50,6|2,0:3|0:1,0:0:0:0:
268,191,618014,2,0,L|214:200,1,50,8|2,0:3|0:1,0:0:0:0:
188,315,618185,6,0,L|134:306,1,50,12|2,0:3|0:1,0:0:0:0:
187,303,618357,2,0,L|133:294,1,50,2|2,0:3|0:1,0:0:0:0:
89,217,618528,2,0,L|35:226,1,50,6|2,0:1|0:1,0:0:0:0:
88,229,618700,2,0,L|34:238,1,50,8|2,0:1|0:1,0:0:0:0:
155,139,618871,6,0,P|178:160|188:183,1,50,6|2,0:3|0:1,0:0:0:0:
163,131,619042,2,0,P|186:152|196:175,1,50,8|2,0:3|0:1,0:0:0:0:
334,155,619214,2,0,P|340:124|355:103,1,50,12|2,0:3|0:1,0:0:0:0:
323,151,619385,2,0,P|329:120|344:99,1,50,2|2,0:3|0:1,0:0:0:0:
251,6,619557,2,0,P|221:15|195:13,1,50,12|2,0:3|0:1,0:0:0:0:
253,18,619728,2,0,P|223:27|197:25,1,50,2|2,0:3|0:1,0:0:0:0:
54,85,619899,2,0,L|58:158,1,50,12|2,0:3|0:1,0:0:0:0:
43,85,620071,2,0,L|47:158,1,50,8|2,0:3|0:1,0:0:0:0:
197,203,620242,6,0,P|205:175|206:152,1,50,12|2,0:3|0:1,0:0:0:0:
207,205,620414,2,0,P|214:181|216:156,1,50,2|2,0:3|0:1,0:0:0:0:
33,211,620585,2,0,P|25:234|23:259,1,50,6|2,0:3|0:1,0:0:0:0:
23,208,620757,2,0,P|15:236|14:259,1,50,8|2,0:3|0:1,0:0:0:0:
159,331,620928,6,0,P|167:303|168:280,1,50,12|2,0:3|0:1,0:0:0:0:
169,333,621100,2,0,P|176:309|178:284,1,50,6|2,0:3|0:1,0:0:0:0:
74,324,621271,2,0,P|66:347|64:372,1,50,6|6,0:1|0:1,0:0:0:0:
64,321,621443,2,0,P|56:349|55:372,1,50,8|6,0:1|0:1,0:0:0:0:
124,136,621614,6,0,P|87:128|69:130,1,50,12|2,0:1|0:1,0:0:0:0:
124,125,621785,2,0,P|87:117|69:119,1,50,8|2,0:1|0:3,0:0:0:0:
258,231,621957,6,0,P|221:238|203:236,1,50,12|2,0:1|0:1,0:0:0:0:
237,261,622128,2,0,P|199:261|182:257,1,50,8|2,0:1|0:3,0:0:0:0:
376,111,622299,6,0,P|339:103|321:105,1,50,12|2,0:1|0:1,0:0:0:0:
286,32,622471,2,0,P|250:44|235:54,1,50,8|2,0:1|0:3,0:0:0:0:
478,272,622642,6,0,P|441:279|423:277,1,50,12|2,0:1|0:1,0:0:0:0:
326,370,622814,2,0,P|297:346|286:331,1,50,8|2,0:1|0:3,0:0:0:0:
223,169,622985,5,12,0:1:0:0:
223,169,623328,2,0,P|130:169|49:194,1,150,6|0,0:3|0:0,0:0:0:0:
26,246,623671,2,0,P|32:284|32:299,1,50,2|0,0:0|0:0,0:0:0:0:
115,281,623842,2,0,P|114:319|111:334,1,50,2|0,0:0|0:0,0:0:0:0:
223,169,624014,1,2,0:0:0:0:
223,169,624099,2,0,P|217:131|217:116,1,50,2|2,0:0|0:3,0:0:0:0:
134,134,624271,1,2,0:0:0:0:
134,134,624357,6,0,P|133:89|149:30,1,100,12|0,0:3|0:0,0:0:0:0:
301,229,624699,2,0,P|262:252|203:268,1,100,4|0,0:3|0:0,0:0:0:0:
299,41,625042,2,0,P|338:62|381:105,1,100,4|0,0:3|0:0,0:0:0:0:
245,141,625385,2,0,B|134:132|134:132|157:142|180:177,1,150,6|8,0:1|0:3,0:0:0:0:
51,170,625728,6,0,P|46:110|66:67,1,100,12|0,0:3|0:0,0:0:0:0:
222,247,626071,2,0,P|222:303|195:357,1,100,12|0,0:1|0:0,0:0:0:0:
145,134,626414,2,0,L|245:141,1,100,12|0,0:1|0:0,0:0:0:0:
123,277,626757,2,0,L|23:270,1,100,12|0,0:1|0:0,0:0:0:0:
60,74,627099,6,0,P|44:120|51:170,1,100,12|0,0:3|0:0,0:0:0:0:
223,190,627442,2,0,P|190:152|144:133,1,100,4|0,0:3|0:0,0:0:0:0:
39,277,627785,2,0,P|87:267|126:237,1,100,4|0,0:3|0:0,0:0:0:0:
256,92,628128,2,0,B|270:79|273:54|273:54|286:115|347:157,1,150,12|2,0:3|0:3,0:0:0:0:
346,140,628471,6,0,P|370:86|371:35,1,100,6|0,0:1|0:0,0:0:0:0:
223,190,628814,2,0,P|227:239|249:284,1,100,6|0,0:1|0:0,0:0:0:0:
438,203,629157,1,6,0:1:0:0:
256,92,629328,1,4,0:3:0:0:
413,25,629499,1,6,0:1:0:0:
411,39,629585,1,4,0:3:0:0:
318,199,629757,1,4,0:3:0:0:
320,212,629842,6,0,P|256:235|172:192,1,150,6|0,0:3|0:0,0:0:0:0:
177,196,630185,2,0,P|219:191|256:165,1,75.0000028610231,4|0,0:3|0:0,0:0:0:0:
109,65,630528,6,0,P|172:41|256:84,1,150,12|0,0:3|0:0,0:0:0:0:
252,81,630871,2,0,P|210:86|173:112,1,75.0000028610231,4|0,0:3|0:0,0:0:0:0:
75,210,631214,6,0,L|82:367,1,150,6|0,0:3|0:0,0:0:0:0:
92,363,631557,2,0,L|90:274,1,75.0000028610231,4|0,0:3|0:0,0:0:0:0:
218,176,631899,6,0,L|78:103,1,150,12|0,0:3|0:0,0:0:0:0:
76,115,632242,2,0,L|154:157,1,75.0000028610231,4|0,0:3|0:0,0:0:0:0:
209,307,632585,6,0,P|248:298|269:280,3,37.5000014305115,12|8|2|8,0:1|0:3|0:3|0:3,0:0:0:0:
320,337,632928,2,0,P|331:298|326:271,3,37.5000014305115,12|8|2|8,0:1|0:3|0:3|0:3,0:0:0:0:
407,253,633271,2,0,P|379:223|353:214,3,37.5000014305115,12|8|2|8,0:1|0:3|0:3|0:3,0:0:0:0:
384,136,633614,2,0,P|345:144|323:163,3,37.5000014305115,12|8|2|8,0:1|0:3|0:3|0:3,0:0:0:0:
248,236,633957,6,0,P|214:188|209:161,3,50,12|8|2|0,0:1|0:3|0:3|0:0,0:0:0:0:
125,186,634299,2,0,P|149:138|162:125,3,50,12|8|2|8,0:1|0:3|0:3|0:3,0:0:0:0:
203,36,634642,6,0,P|217:66|221:89,1,50,12|8,0:1|0:3,0:0:0:0:
298,57,634814,2,0,P|300:89|296:112,1,50,6|8,0:3|0:3,0:0:0:0:
126,236,634985,1,12,0:1:0:0:
126,236,635071,2,0,P|123:203|127:180,1,50,12|2,0:3|0:3,0:0:0:0:
43,183,635242,1,12,0:3:0:0:
43,183,635328,6,0,P|51:151|63:130,3,50,12|2|2|8,0:3|0:1|0:3|0:3,0:0:0:0:
135,97,635671,1,12,0:3:0:0:
164,92,635757,1,2,0:3:0:0:
192,99,635842,1,8,0:3:0:0:
216,117,635928,1,8,0:3:0:0:
231,143,636014,5,6,0:1:0:0:
265,162,636099,1,8,0:3:0:0:
304,167,636185,1,8,0:3:0:0:
341,152,636271,1,2,0:1:0:0:
360,116,636357,1,12,0:1:0:0:
358,76,636442,1,8,0:3:0:0:
332,44,636528,1,2,0:1:0:0:
294,31,636614,1,8,0:1:0:0:
255,39,636699,5,6,0:3:0:0:
210,62,636785,1,2,0:1:0:0:
159,63,636871,1,8,0:1:0:0:
111,46,636957,1,2,0:3:0:0:
70,16,637042,5,6,0:3:0:0:
99,62,637128,1,8,0:1:0:0:
108,116,637214,1,2,0:3:0:0:
94,168,637299,1,2,0:3:0:0:
63,214,637385,5,12,0:3:0:0:
114,182,637471,1,2,0:3:0:0:
173,172,637557,1,2,0:3:0:0:
230,186,637642,1,8,0:3:0:0:
280,214,637728,6,0,P|289:254|288:280,1,62.5,6|0,0:1|0:0,0:0:0:0:
127,363,637899,2,0,P|118:323|119:297,1,62.5,2|0,0:1|0:0,0:0:0:0:
226,100,638071,6,0,P|269:90|291:92,3,55.0000016784668,12|2|8|2,0:3|0:1|0:1|0:3,0:0:0:0:
367,46,638414,1,12,0:3:0:0:
363,78,638499,1,8,0:1:0:0:
359,110,638585,1,2,0:3:0:0:
355,142,638671,1,8,0:3:0:0:
352,174,638757,5,6,0:1:0:0:
360,216,638842,1,2,0:3:0:0:
393,244,638928,1,8,0:3:0:0:
436,247,639014,1,2,0:1:0:0:
473,225,639099,1,12,0:1:0:0:
486,182,639185,1,8,0:3:0:0:
471,140,639271,1,2,0:1:0:0:
432,118,639357,1,8,0:1:0:0:
388,124,639442,5,6,0:3:0:0:
335,141,639528,1,2,0:1:0:0:
279,141,639614,1,8,0:1:0:0:
227,123,639699,1,2,0:3:0:0:
188,83,639785,5,12,0:3:0:0:
218,135,639871,1,8,0:1:0:0:
221,195,639957,1,2,0:3:0:0:
196,249,640042,1,8,0:3:0:0:
149,287,640128,5,6,0:1:0:0:
208,258,640214,1,2,0:3:0:0:
273,261,640299,1,8,0:3:0:0:
333,287,640385,1,2,0:1:0:0:
370,336,640471,6,0,P|407:339|438:327,1,62.5,6|4,0:1|0:3,0:0:0:0:
492,113,640642,2,0,P|455:110|424:122,1,62.5,2|4,0:1|0:3,0:0:0:0:
338,203,640814,5,6,0:1:0:0:
309,219,640899,1,2,0:3:0:0:
276,223,640985,1,8,0:1:0:0:
243,215,641071,1,8,0:3:0:0:
215,196,641157,5,6,0:3:0:0:
176,175,641242,1,8,0:1:0:0:
132,168,641328,1,8,0:3:0:0:
89,179,641414,1,8,0:3:0:0:
59,211,641499,5,6,0:1:0:0:
54,266,641585,1,8,0:3:0:0:
85,311,641671,1,8,0:3:0:0:
136,331,641757,1,2,0:1:0:0:
189,321,641842,5,12,0:3:0:0:
225,272,641928,1,8,0:3:0:0:
221,211,642014,1,2,0:1:0:0:
178,169,642099,1,2,0:1:0:0:
122,145,642185,5,12,0:1:0:0:
94,84,642271,1,2,0:1:0:0:
128,27,642357,1,2,0:1:0:0:
193,24,642442,1,8,0:3:0:0:
233,69,642528,5,6,0:1:0:0:
280,106,642614,1,2,0:1:0:0:
339,114,642699,1,8,0:3:0:0:
397,99,642785,1,8,0:3:0:0:
435,51,642871,5,6,0:1:0:0:
424,93,642957,1,8,0:3:0:0:
427,136,643042,1,8,0:3:0:0:
448,174,643128,1,8,0:1:0:0:
482,201,643214,5,12,0:3:0:0:
503,225,643299,1,8,0:3:0:0:
511,256,643385,1,8,0:1:0:0:
507,288,643471,1,2,0:3:0:0:
487,314,643557,5,12,0:3:0:0:
463,327,643642,1,8,0:1:0:0:
435,331,643728,1,2,0:3:0:0:
407,325,643814,1,8,0:3:0:0:
385,308,643899,5,12,0:1:0:0:
366,295,643985,1,2,0:3:0:0:
344,289,644071,1,8,0:3:0:0:
322,292,644157,1,2,0:3:0:0:
302,301,644242,5,6,0:3:0:0:
303,290,644328,1,8,0:3:0:0:
304,279,644414,1,2,0:3:0:0:
305,268,644499,1,8,0:1:0:0:
306,257,644585,1,12,0:3:0:0:
307,246,644671,1,2,0:3:0:0:
308,235,644757,1,8,0:1:0:0:
309,224,644842,1,8,0:3:0:0:
310,213,644928,6,0,P|291:127|276:176,1,225.000008583069,12|0,0:1|0:0,0:0:0:0:
177,277,645271,2,0,P|208:294|249:292,1,75.0000028610231,6|0,0:1|0:0,0:0:0:0:
192,125,645442,6,0,P|127:184|176:172,1,225.000008583069,2|0,0:1|0:0,0:0:0:0:
291,35,645785,2,0,P|260:18|219:20,1,75.0000028610231,2|0,0:1|0:0,0:0:0:0:
226,203,645957,5,6,0:1:0:0:
277,197,646042,1,4,0:3:0:0:
329,192,646128,1,4,0:3:0:0:
381,187,646214,1,4,0:3:0:0:
435,183,646299,6,0,B|453:101|453:101|446:93|446:93|464:6,1,179.999994506836,6|2,0:0|0:3,0:0:0:0:
311,114,646814,2,0,B|329:196|329:196|322:204|322:204|340:291,1,179.999994506836,2|0,0:0|0:0,0:0:0:0:
108,161,647328,1,2,0:3:0:0:
135,177,647414,1,0,0:0:0:0:
161,192,647499,1,0,0:0:0:0:
188,208,647585,1,0,0:0:0:0:
215,224,647671,5,2,0:0:0:0:
152,338,647842,2,0,B|105:348|105:348|55:324,1,89.9999972534181,2|2,0:0|0:3,0:0:0:0:
211,191,648185,1,2,0:0:0:0:
213,207,648271,1,2,0:0:0:0:
215,224,648357,1,2,0:0:0:0:
292,110,648528,2,0,B|335:91|335:91|376:101,1,89.9999972534181,2|2,0:0|0:3,0:0:0:0:
349,269,648871,1,2,0:0:0:0:
215,224,649042,6,0,B|197:142|197:142|204:134|204:134|186:47,1,179.999994506836,2|2,0:0|0:3,0:0:0:0:
344,184,649557,2,0,B|326:266|326:266|333:274|333:274|315:361,1,179.999994506836,2|0,0:0|0:0,0:0:0:0:
128,230,650071,2,0,B|174:214|174:214|215:224,1,89.9999972534181,2|0,0:3|0:0,0:0:0:0:
105,344,650414,5,2,0:0:0:0:
20,179,650585,2,0,B|32:135|32:135|31:128|31:128|41:84,1,89.9999972534181,2|2,0:0|0:3,0:0:0:0:
164,222,650928,1,2,0:0:0:0:
146,226,651014,1,2,0:0:0:0:
128,230,651099,1,2,0:0:0:0:
155,54,651271,2,0,B|187:86|187:86|193:89|193:89|226:119,1,89.9999972534181,2|2,0:0|0:3,0:0:0:0:
280,269,651614,1,2,0:0:0:0:
285,251,651700,1,2,0:0:0:0:
290,237,651785,6,0,B|372:219|372:219|380:226|380:226|467:208,1,179.999994506836,6|2,0:0|0:3,0:0:0:0:
389,370,652299,2,0,B|307:352|307:352|299:359|299:359|212:341,1,179.999994506836,2|0,0:0|0:0,0:0:0:0:
153,176,652814,2,0,B|197:153|197:153|261:172,1,89.9999972534181,2|0,0:3|0:0,0:0:0:0:
106,322,653157,5,2,0:0:0:0:
32,190,653328,2,0,B|44:146|44:146|43:139|43:139|53:95,1,89.9999972534181,2|2,0:0|0:3,0:0:0:0:
208,244,653671,1,2,0:0:0:0:
210,260,653757,1,2,0:0:0:0:
212,277,653842,1,2,0:0:0:0:
285,174,654014,2,0,B|248:165|248:165|241:166|241:166|197:154,1,89.9999972534181,2|2,0:0|0:3,0:0:0:0:
295,343,654357,1,2,0:0:0:0:
380,263,654528,6,0,B|410:222|410:222|405:165|405:165|410:157|410:157|403:95,1,179.999994506836,2|2,0:0|0:3,0:0:0:0:
220,41,655042,2,0,B|190:82|190:82|195:139|195:139|190:147|190:147|197:209,1,179.999994506836,2|0,0:0|0:0,0:0:0:0:
303,199,655557,2,0,L|293:106,1,89.9999972534181,2|0,0:3|0:0,0:0:0:0:
105,69,655899,5,2,0:0:0:0:
116,278,656071,2,0,B|152:286|152:286|159:285|159:285|203:297,1,89.9999972534181,2|2,0:0|0:3,0:0:0:0:
331,333,656414,1,2,0:0:0:0:
331,333,656499,1,2,0:0:0:0:
331,333,656585,2,0,L|320:289,1,44.999998626709,2|0,0:0|0:0,0:0:0:0:
288,171,656757,2,0,L|255:201,1,44.999998626709,2|0,0:0|0:0,0:0:0:0:
116,278,656928,1,2,0:3:0:0:
145,285,657014,1,0,0:0:0:0:
174,291,657099,1,2,0:0:0:0:
204,299,657185,1,2,0:0:0:0:
235,308,657271,5,6,0:0:0:0:
206,156,657442,1,2,0:3:0:0:
247,312,657614,5,2,0:3:0:0:
218,160,657785,1,2,0:0:0:0:
366,201,657957,5,2,0:3:0:0:
274,226,658128,1,2,0:3:0:0:
451,221,658299,5,2,0:3:0:0:
475,128,658470,1,2,0:3:0:0:
390,283,658642,5,2,0:0:0:0:
458,350,658813,1,2,0:0:0:0:
366,201,658985,5,2,0:3:0:0:
274,226,659156,1,2,0:0:0:0:
272,239,659242,1,2,0:0:0:0:
270,251,659328,1,2,0:0:0:0:
451,221,659499,5,2,0:0:0:0:
475,128,659670,1,2,0:3:0:0:
448,237,659842,1,2,0:0:0:0:
388,49,660014,5,2,0:0:0:0:
236,78,660185,1,2,0:3:0:0:
392,37,660357,5,2,0:3:0:0:
240,66,660528,1,2,0:0:0:0:
270,226,660699,5,2,0:3:0:0:
326,116,660871,1,2,0:3:0:0:
186,232,661042,5,2,0:3:0:0:
253,335,661214,1,2,0:3:0:0:
222,154,661385,5,2,0:0:0:0:
100,162,661557,1,2,0:0:0:0:
270,226,661728,5,2,0:3:0:0:
326,116,661900,1,2,0:0:0:0:
326,116,661985,1,2,0:0:0:0:
326,116,662071,1,2,0:0:0:0:
186,232,662242,5,2,0:0:0:0:
253,335,662414,1,2,0:3:0:0:
177,218,662585,1,2,0:0:0:0:
401,155,662757,5,6,0:0:0:0:
360,368,662928,1,2,0:3:0:0:
411,151,663100,5,2,0:3:0:0:
372,363,663271,1,2,0:0:0:0:
177,218,663442,5,2,0:3:0:0:
359,253,663614,1,2,0:3:0:0:
408,65,663785,5,2,0:3:0:0:
286,205,663957,1,2,0:3:0:0:
422,341,664128,5,2,0:0:0:0:
361,165,664300,1,2,0:0:0:0:
177,218,664471,5,2,0:3:0:0:
359,253,664643,1,2,0:0:0:0:
359,253,664728,1,2,0:0:0:0:
359,253,664814,1,2,0:0:0:0:
408,65,664985,5,2,0:0:0:0:
286,205,665157,1,2,0:3:0:0:
420,51,665328,1,2,0:0:0:0:
241,116,665499,5,2,0:0:0:0:
454,157,665670,1,2,0:3:0:0:
237,106,665842,5,2,0:3:0:0:
449,145,666013,1,2,0:0:0:0:
311,312,666185,5,2,0:3:0:0:
346,130,666357,1,2,0:3:0:0:
158,81,666528,5,2,0:3:0:0:
298,203,666700,1,2,0:3:0:0:
434,67,666871,5,2,0:0:0:0:
258,128,667043,1,2,0:0:0:0:
311,312,667214,5,2,0:3:0:0:
346,130,667386,1,2,0:0:0:0:
346,130,667471,1,2,0:0:0:0:
346,130,667557,1,2,0:0:0:0:
307,331,667728,1,2,0:0:0:0:
150,187,667899,1,2,0:3:0:0:
179,194,667985,1,2,0:0:0:0:
208,200,668070,1,2,0:0:0:0:
238,208,668156,1,2,0:0:0:0:
268,215,668242,6,0,B|315:207|315:207|321:210|321:210|370:203,1,100,6|2,0:0|0:3,0:0:0:0:
405,342,668757,2,0,B|357:334|357:334|351:337|351:337|302:330,1,100,0|0,0:0|0:0,0:0:0:0:
168,273,669271,1,2,0:3:0:0:
212,359,669442,1,0,0:0:0:0:
268,215,669614,6,0,B|212:164|212:164|125:163,1,150,2|0,0:3|0:0,0:0:0:0:
58,162,670299,6,0,L|46:211,1,33.3333333333333,2|0,0:0|0:0,0:0:0:0:
204,145,670528,6,0,L|167:110,1,33.3333333333333,2|0,0:0|0:0,0:0:0:0:
144,268,670757,6,0,L|192:253,1,33.3333333333333,2|0,0:0|0:0,0:0:0:0:
130,189,670985,6,0,B|122:236|122:236|125:242|125:242|118:291,1,100,2|2,0:0|0:3,0:0:0:0:
269,340,671499,2,0,B|262:295|262:295|264:289|264:289|257:241,1,100,0|0,0:0|0:0,0:0:0:0:
222,156,672014,2,0,B|250:149|250:149|274:152,1,50,2|0,0:3|0:0,0:0:0:0:
144,268,672357,6,0,B|96:260|96:260|90:263|90:263|40:256|40:256|73:254|94:232,1,150,2|0,0:3|0:0,0:0:0:0:
151,136,673042,6,0,L|163:87,1,33.3333333333333,2|0,0:0|0:0,0:0:0:0:
5,153,673271,6,0,L|41:187,1,33.3333333333333,2|0,0:0|0:0,0:0:0:0:
65,30,673500,6,0,L|16:44,1,33.3333333333333,2|0,0:0|0:0,0:0:0:0:
110,236,673728,6,0,B|161:227|161:227|168:230|168:230|222:222,1,100,6|2,0:0|0:3,0:0:0:0:
251,103,674242,2,0,B|302:111|302:111|309:108|309:108|363:116,1,100,0|0,0:0|0:0,0:0:0:0:
411,203,674757,2,0,B|413:232|413:232|403:260,1,50,2|0,0:3|0:0,0:0:0:0:
243,260,675099,6,0,B|212:237|212:237|263:233|263:233|272:226|272:226|329:221,1,150,2|0,0:3|0:0,0:0:0:0:
422,339,675785,6,0,L|442:292,1,33.3333333333333,2|0,0:0|0:0,0:0:0:0:
275,330,676014,6,0,L|304:369,1,33.3333333333333,2|0,0:0|0:0,0:0:0:0:
355,218,676243,6,0,L|304:223,1,33.3333333333333,2|0,0:0|0:0,0:0:0:0:
225,256,676471,6,0,B|181:251|181:251|178:246|178:246|113:238,1,100,2|2,0:0|0:3,0:0:0:0:
355,218,677176,6,0,B|372:258|372:258|369:263|369:263|395:323,1,100,2|2,0:3|0:3,0:0:0:0:
258,125,677976,6,0,B|284:89|284:89|290:89|290:89|329:37,1,100,2|2,0:3|0:3,0:0:0:0:
367,227,678803,6,0,L|386:278,1,33.3333333333333,2|0,0:0|0:0,0:0:0:0:
268,137,679099,6,0,L|302:95,1,33.3333333333333,2|0,0:0|0:0,0:0:0:0:
245,277,679395,5,2,0:0:0:0:
227,278,679469,2,0,L|182:278,1,25,0|0,0:0|0:0,0:0:0:0:
430,342,679691,6,0,B|552:188|451:-25|242:-124|-28:31|4:263|4:263|84:276|161:241|161:241|142:236|126:210|126:210|109:183|90:168|90:168|115:169|152:160|152:160|191:166|208:189|208:189|203:156|220:128|220:128|246:101|261:71|261:71|266:104|280:138|280:138|285:171|270:200|270:200|298:184|332:192|332:192|365:208|398:214|398:214|369:228|341:253|341:253|309:267|279:261|279:261|301:285|305:316|305:316|301:354|306:386|306:386|282:363|249:343|249:343|228:321|223:288|223:288|207:317|177:331|177:331|140:338|112:353|112:353|126:323|134:287|134:287|150:257|180:244,1,2350.00008964539,6|0,0:0|0:0,0:0:0:0:
248,177,692491,5,2,0:1:0:0:
244,157,692757,1,2,0:3:0:0:
240,137,693024,1,2,0:1:0:0:
244,157,693291,5,2,0:3:0:0:
240,137,693557,1,2,0:1:0:0:
236,117,693824,1,2,0:1:0:0:
240,137,694091,5,2,0:3:0:0:
236,117,694357,1,2,0:1:0:0:
232,97,694624,1,2,0:1:0:0:
368,61,694891,5,2,0:1:0:0:
349,159,695157,1,2,0:1:0:0:
344,178,695424,2,0,L|339:204,1,16.6666666666667,2|2,0:1|0:1,0:0:0:0:
302,330,695691,5,2,0:1:0:0:
258,246,695957,1,2,0:3:0:0:
262,226,696224,1,8,0:3:0:0:
258,246,696491,5,2,0:3:0:0:
262,226,696757,1,2,0:3:0:0:
266,206,697024,1,8,0:3:0:0:
262,226,697291,5,2,0:3:0:0:
266,206,697557,1,2,0:3:0:0:
270,186,697824,1,8,0:3:0:0:
145,59,698091,5,2,0:1:0:0:
164,157,698357,1,2,0:3:0:0:
169,176,698624,2,0,L|174:200,1,16.6666666666667,8|2,0:3|0:1,0:0:0:0:
307,310,698891,5,2,0:1:0:0:
263,226,699157,1,2,0:1:0:0:
267,206,699424,1,2,0:1:0:0:
263,226,699691,5,2,0:3:0:0:
267,206,699957,1,2,0:1:0:0:
271,186,700224,1,2,0:1:0:0:
441,188,700491,5,2,0:1:0:0:
370,124,700757,1,2,0:1:0:0:
367,103,701024,1,8,0:3:0:0:
370,124,701291,5,8,0:3:0:0:
367,103,701557,1,2,0:1:0:0:
364,83,701824,1,8,0:3:0:0:
187,128,702091,5,2,0:1:0:0:
258,64,702357,1,8,0:1:0:0:
261,43,702624,1,2,0:1:0:0:
258,64,702891,5,2,0:3:0:0:
261,43,703157,1,8,0:1:0:0:
264,23,703424,1,2,0:1:0:0:
118,222,703691,5,8,0:3:0:0:
101,141,703957,1,8,0:1:0:0:
96,115,704224,1,2,0:3:0:0:
239,240,704491,5,8,0:1:0:0:
252,188,704757,1,8,0:1:0:0:
257,167,705024,1,2,0:3:0:0:
368,269,705291,5,2,0:1:0:0:
364,253,705557,1,8,0:1:0:0:
360,237,705824,1,2,0:1:0:0:
364,253,706091,5,2,0:3:0:0:
360,237,706357,1,8,0:1:0:0:
356,221,706624,1,2,0:1:0:0:
360,237,706891,5,2,0:3:0:0:
356,221,707157,1,8,0:1:0:0:
352,205,707424,1,2,0:1:0:0:
356,221,707691,5,2,0:3:0:0:
352,205,707957,1,8,0:1:0:0:
348,189,708224,1,2,0:1:0:0:
196,254,708491,5,2,0:1:0:0:
254,143,708757,1,8,0:1:0:0:
258,127,709024,1,2,0:1:0:0:
254,143,709291,5,2,0:1:0:0:
258,127,709557,1,8,0:1:0:0:
262,111,709824,1,2,0:1:0:0:
258,127,710091,5,2,0:1:0:0:
262,111,710357,1,8,0:1:0:0:
266,95,710624,1,2,0:1:0:0:
160,36,710891,5,8,0:1:0:0:
104,100,711157,1,8,0:1:0:0:
109,119,711424,2,0,L|114:143,1,16.6666666666667,2|8,0:1|0:1,0:0:0:0:
49,290,711691,5,8,0:1:0:0:
5,206,711957,1,8,0:1:0:0:
9,186,712224,1,2,0:3:0:0:
5,206,712491,5,2,0:1:0:0:
9,186,712757,1,8,0:1:0:0:
13,166,713024,1,2,0:3:0:0:
9,186,713291,5,2,0:1:0:0:
13,166,713557,1,8,0:1:0:0:
17,146,713824,1,2,0:3:0:0:
125,61,714091,5,8,0:1:0:0:
144,159,714357,1,8,0:1:0:0:
149,178,714624,2,0,L|155:202,1,16.6666666666667,2|8,0:3|0:1,0:0:0:0:
287,312,714891,5,8,0:1:0:0:
243,228,715157,1,2,0:3:0:0:
247,208,715424,1,2,0:1:0:0:
287,312,715691,5,2,0:3:0:0:
247,208,715957,1,8,0:1:0:0:
251,188,716224,1,2,0:1:0:0:
287,312,716491,5,8,0:1:0:0:
251,188,716757,1,2,0:1:0:0:
255,168,717024,1,2,0:1:0:0:
247,208,717291,5,8,0:3:0:0:
251,188,717558,1,2,0:1:0:0:
255,168,717824,1,2,0:1:0:0:
131,65,718091,5,8,0:3:0:0:
175,149,718357,1,8,0:1:0:0:
171,169,718624,1,8,0:3:0:0:
175,149,718891,5,8,0:1:0:0:
171,169,719158,1,8,0:1:0:0:
167,189,719424,1,8,0:3:0:0:
77,278,719691,5,8,0:1:0:0:
60,197,719957,1,8,0:1:0:0:
55,171,720224,1,2,0:1:0:0:
198,296,720491,5,2,0:1:0:0:
211,244,720757,1,8,0:1:0:0:
216,223,721024,1,2,0:1:0:0:
327,325,721291,5,8,0:3:0:0:
323,309,721557,1,8,0:1:0:0:
319,293,721824,1,8,0:3:0:0:
323,309,722091,5,8,0:1:0:0:
319,293,722357,1,8,0:1:0:0:
315,277,722624,1,8,0:3:0:0:
411,267,722891,5,8,0:3:0:0:
407,251,723157,1,8,0:3:0:0:
403,235,723424,1,2,0:1:0:0:
407,251,723691,5,8,0:1:0:0:
403,235,723957,1,8,0:3:0:0:
399,219,724224,1,2,0:1:0:0:
256,192,724491,5,8,0:1:0:0:
256,192,724757,12,0,730891,0:0:0:0:
