osu file format v14

[General]
AudioFilename: audio.mp3
AudioLeadIn: 0
PreviewTime: 86976
Countdown: 0
SampleSet: Normal
StackLeniency: 0.7
Mode: 1
LetterboxInBreaks: 0
WidescreenStoryboard: 0

[Editor]
DistanceSpacing: 0.1
BeatDivisor: 4
GridSize: 32
TimelineZoom: 2.4

[Metadata]
Title:Dizzolve
TitleUnicode:Dizzolve
Artist:Ester
ArtistUnicode:Ester
Creator:_DUSK_
Version:goheegy's Inner Oni
Source:
Tags:bofu2017 goheegy red velvet artcore breakcore dnb electronic instrumental bms litmus* mi
BeatmapID:1714380
BeatmapSetID:817528

[Difficulty]
HPDrainRate:6
CircleSize:2
OverallDifficulty:6.5
ApproachRate:9
SliderMultiplier:1.4
SliderTickRate:1

[Events]
//Background and Video events
0,0,"dizz.jpg",0,-15
//Break Periods
//Storyboard Layer 0 (Background)
//Storyboard Layer 1 (Fail)
//Storyboard Layer 2 (Pass)
//Storyboard Layer 3 (Foreground)
//Storyboard Layer 4 (Overlay)
//Storyboard Sound Samples

[TimingPoints]
2055,312.5,4,1,0,100,1,0
9555,-100,4,1,0,100,0,0
9607,-101.694949727102,4,1,0,100,0,0
9659,-103.448240190262,4,1,0,100,0,0
9711,-105.263157894737,4,1,0,100,0,0
9867,-95.2380952380952,4,1,0,100,0,0
10101,-90.9090909090909,4,1,0,100,0,0
10336,-86.9565217391304,4,1,0,100,0,0
10570,-83.3333333333333,4,1,0,100,0,0
10805,-80,4,1,0,100,0,0
11039,-76.9230769230769,4,1,0,100,0,0
11273,-74.0740740740741,4,1,0,100,0,0
11508,-71.4285714285714,4,1,0,100,0,0
11742,-68.9655172413793,4,1,0,100,0,0
12054,-100,4,1,0,100,0,0
19555,-100,4,1,0,100,0,0
19607,-101.694949727102,4,1,0,100,0,0
19659,-103.448240190262,4,1,0,100,0,0
19711,-105.263157894737,4,1,0,100,0,0
19867,-95.2380952380952,4,1,0,100,0,0
20101,-90.9090909090909,4,1,0,100,0,0
20336,-86.9565217391304,4,1,0,100,0,0
20570,-83.3333333333333,4,1,0,100,0,0
20805,-80,4,1,0,100,0,0
21039,-76.9230769230769,4,1,0,100,0,0
21273,-74.0740740740741,4,1,0,100,0,0
21508,-71.4285714285714,4,1,0,100,0,0
21742,-66.6666666666667,4,1,0,100,0,0
21898,-50,4,1,0,60,0,0
22055,-100,4,1,0,60,0,0
22289,-100,4,1,0,100,0,0
32055,-100,4,1,0,100,0,0
32107,-101.694949727102,4,1,0,100,0,0
32159,-103.448240190262,4,1,0,100,0,0
32211,-105.263157894737,4,1,0,100,0,0
32367,-95.2380952380952,4,1,0,100,0,0
32601,-90.9090909090909,4,1,0,100,0,0
32836,-86.9565217391304,4,1,0,100,0,0
33070,-83.3333333333333,4,1,0,100,0,0
33305,-80,4,1,0,100,0,0
33539,-76.9230769230769,4,1,0,100,0,0
33773,-74.0740740740741,4,1,0,100,0,0
34008,-71.4285714285714,4,1,0,100,0,0
34242,-68.9655172413793,4,1,0,100,0,0
34555,-100,4,1,0,100,0,0
43851,-100,4,1,0,60,0,0
44476,-100,4,1,0,100,0,0
44970,-125,4,1,0,100,0,0
45074,-123.456790123457,4,1,0,100,0,0
45179,-121.951219512195,4,1,0,100,0,0
45283,-120.481927710843,4,1,0,100,0,0
45387,-119.047619047619,4,1,0,100,0,0
45491,-117.647058823529,4,1,0,100,0,0
45595,-116.279069767442,4,1,0,100,0,0
45699,-114.942528735632,4,1,0,100,0,0
45804,-113.636363636364,4,1,0,100,0,0
45908,-112.359550561798,4,1,0,100,0,0
46012,-111.111111111111,4,1,0,100,0,0
46116,-112.359550561798,4,1,0,100,0,0
46220,-113.636363636364,4,1,0,100,0,0
46324,-114.942528735632,4,1,0,100,0,0
46429,-116.279069767442,4,1,0,100,0,0
46533,-117.647058823529,4,1,0,100,0,0
46637,-119.047619047619,4,1,0,100,0,0
46741,-120.481927710843,4,1,0,100,0,0
46845,-121.951219512195,4,1,0,100,0,0
46949,-123.456790123457,4,1,0,100,0,0
47054,-125,4,1,0,100,0,0
47470,-125,4,1,0,100,0,0
47574,-123.456790123457,4,1,0,100,0,0
47679,-121.951219512195,4,1,0,100,0,0
47783,-120.481927710843,4,1,0,100,0,0
47887,-119.047619047619,4,1,0,100,0,0
47991,-117.647058823529,4,1,0,100,0,0
48095,-116.279069767442,4,1,0,100,0,0
48199,-114.942528735632,4,1,0,100,0,0
48304,-113.636363636364,4,1,0,100,0,0
48408,-112.359550561798,4,1,0,100,0,0
48512,-111.111111111111,4,1,0,100,0,0
48616,-112.359550561798,4,1,0,100,0,0
48720,-113.636363636364,4,1,0,100,0,0
48824,-114.942528735632,4,1,0,100,0,0
48929,-116.279069767442,4,1,0,100,0,0
49033,-117.647058823529,4,1,0,100,0,0
49137,-119.047619047619,4,1,0,100,0,0
49241,-120.481927710843,4,1,0,100,0,0
49345,-121.951219512195,4,1,0,100,0,0
49449,-123.456790123457,4,1,0,100,0,0
49554,-125,4,1,0,100,0,0
49970,-125,4,1,0,100,0,0
50074,-123.456790123457,4,1,0,100,0,0
50179,-121.951219512195,4,1,0,100,0,0
50283,-120.481927710843,4,1,0,100,0,0
50387,-119.047619047619,4,1,0,100,0,0
50491,-117.647058823529,4,1,0,100,0,0
50595,-116.279069767442,4,1,0,100,0,0
50699,-114.942528735632,4,1,0,100,0,0
50804,-113.636363636364,4,1,0,100,0,0
50908,-112.359550561798,4,1,0,100,0,0
51012,-111.111111111111,4,1,0,100,0,0
51116,-112.359550561798,4,1,0,100,0,0
51220,-113.636363636364,4,1,0,100,0,0
51324,-114.942528735632,4,1,0,100,0,0
51429,-116.279069767442,4,1,0,100,0,0
51533,-117.647058823529,4,1,0,100,0,0
51637,-119.047619047619,4,1,0,100,0,0
51741,-120.481927710843,4,1,0,100,0,0
51845,-121.951219512195,4,1,0,100,0,0
51949,-123.456790123457,4,1,0,100,0,0
52054,-125,4,1,0,100,0,0
52470,-125,4,1,0,100,0,0
52574,-123.456790123457,4,1,0,100,0,0
52679,-121.951219512195,4,1,0,100,0,0
52783,-120.481927710843,4,1,0,100,0,0
52887,-119.047619047619,4,1,0,100,0,0
52991,-117.647058823529,4,1,0,100,0,0
53095,-116.279069767442,4,1,0,100,0,0
53199,-114.942528735632,4,1,0,100,0,0
53304,-113.636363636364,4,1,0,100,0,0
53408,-112.359550561798,4,1,0,100,0,0
53512,-111.111111111111,4,1,0,100,0,0
53616,-112.359550561798,4,1,0,100,0,0
53720,-113.636363636364,4,1,0,100,0,0
53824,-114.942528735632,4,1,0,100,0,0
53929,-116.279069767442,4,1,0,100,0,0
54033,-117.647058823529,4,1,0,100,0,0
54137,-119.047619047619,4,1,0,100,0,0
54241,-120.481927710843,4,1,0,100,0,0
54345,-121.951219512195,4,1,0,100,0,0
54449,-123.456790123457,4,1,0,100,0,0
54554,-125,4,1,0,100,0,0
54970,-125,4,1,0,100,0,0
55074,-123.456790123457,4,1,0,100,0,0
55179,-121.951219512195,4,1,0,100,0,0
55283,-120.481927710843,4,1,0,100,0,0
55387,-119.047619047619,4,1,0,100,0,0
55491,-117.647058823529,4,1,0,100,0,0
55595,-116.279069767442,4,1,0,100,0,0
55699,-114.942528735632,4,1,0,100,0,0
55804,-113.636363636364,4,1,0,100,0,0
55908,-112.359550561798,4,1,0,100,0,0
56012,-111.111111111111,4,1,0,100,0,0
56116,-112.359550561798,4,1,0,100,0,0
56220,-113.636363636364,4,1,0,100,0,0
56324,-114.942528735632,4,1,0,100,0,0
56429,-116.279069767442,4,1,0,100,0,0
56533,-117.647058823529,4,1,0,100,0,0
56637,-119.047619047619,4,1,0,100,0,0
56741,-120.481927710843,4,1,0,100,0,0
56845,-121.951219512195,4,1,0,100,0,0
56949,-123.456790123457,4,1,0,100,0,0
57054,-125,4,1,0,100,0,0
57470,-125,4,1,0,100,0,0
57574,-123.456790123457,4,1,0,100,0,0
57679,-121.951219512195,4,1,0,100,0,0
57783,-120.481927710843,4,1,0,100,0,0
57887,-119.047619047619,4,1,0,100,0,0
57991,-117.647058823529,4,1,0,100,0,0
58095,-116.279069767442,4,1,0,100,0,0
58199,-114.942528735632,4,1,0,100,0,0
58304,-113.636363636364,4,1,0,100,0,0
58408,-112.359550561798,4,1,0,100,0,0
58512,-111.111111111111,4,1,0,100,0,0
58616,-112.359550561798,4,1,0,100,0,0
58720,-113.636363636364,4,1,0,100,0,0
58824,-114.942528735632,4,1,0,100,0,0
58929,-116.279069767442,4,1,0,100,0,0
59033,-117.647058823529,4,1,0,100,0,0
59137,-119.047619047619,4,1,0,100,0,0
59241,-120.481927710843,4,1,0,100,0,0
59345,-121.951219512195,4,1,0,100,0,0
59449,-123.456790123457,4,1,0,100,0,0
59554,-125,4,1,0,100,0,0
59970,-125,4,1,0,100,0,0
60074,-123.456790123457,4,1,0,100,0,0
60179,-121.951219512195,4,1,0,100,0,0
60283,-120.481927710843,4,1,0,100,0,0
60387,-119.047619047619,4,1,0,100,0,0
60491,-117.647058823529,4,1,0,100,0,0
60595,-116.279069767442,4,1,0,100,0,0
60699,-114.942528735632,4,1,0,100,0,0
60804,-113.636363636364,4,1,0,100,0,0
60908,-112.359550561798,4,1,0,100,0,0
61012,-111.111111111111,4,1,0,100,0,0
61116,-112.359550561798,4,1,0,100,0,0
61220,-113.636363636364,4,1,0,100,0,0
61324,-114.942528735632,4,1,0,100,0,0
61429,-116.279069767442,4,1,0,100,0,0
61533,-117.647058823529,4,1,0,100,0,0
61637,-119.047619047619,4,1,0,100,0,0
61741,-120.481927710843,4,1,0,100,0,0
61845,-121.951219512195,4,1,0,100,0,0
61949,-123.456790123457,4,1,0,100,0,0
62054,-125,4,1,0,100,0,0
62470,-125,4,1,0,100,0,0
62574,-123.456790123457,4,1,0,100,0,0
62679,-121.951219512195,4,1,0,100,0,0
62783,-120.481927710843,4,1,0,100,0,0
62887,-119.047619047619,4,1,0,100,0,0
62991,-117.647058823529,4,1,0,100,0,0
63095,-116.279069767442,4,1,0,100,0,0
63199,-114.942528735632,4,1,0,100,0,0
63304,-113.636363636364,4,1,0,100,0,0
63461,-100,4,1,0,100,0,0
64555,-95.2380952380952,4,1,0,100,0,0
64633,-93.4579439252336,4,1,0,100,0,0
64711,-91.743119266055,4,1,0,100,0,0
64789,-90.0900900900901,4,1,0,100,0,0
64867,-88.4955752212389,4,1,0,100,0,0
65023,-95.2380952380952,4,1,0,100,0,0
65101,-93.4579439252336,4,1,0,100,0,0
65180,-91.743119266055,4,1,0,100,0,0
65258,-90.0900900900901,4,1,0,100,0,0
65336,-88.4955752212389,4,1,0,100,0,0
65492,-95.2380952380952,4,1,0,100,0,0
65570,-93.4579439252336,4,1,0,100,0,0
65648,-91.743119266055,4,1,0,100,0,0
65726,-90.0900900900901,4,1,0,100,0,0
65805,-88.4955752212389,4,1,0,100,0,0
65961,-95.2380952380952,4,1,0,100,0,0
66039,-93.4579439252336,4,1,0,100,0,0
66117,-91.743119266055,4,1,0,100,0,0
66195,-90.0900900900901,4,1,0,100,0,0
66273,-88.4955752212389,4,1,0,100,0,0
66430,-95.2380952380952,4,1,0,100,0,0
66508,-93.4579439252336,4,1,0,100,0,0
66586,-91.743119266055,4,1,0,100,0,0
66742,-90.0900900900901,4,1,0,100,0,0
66898,-88.4955752212389,4,1,0,100,0,0
67055,-95.2380952380952,4,1,0,100,0,0
67133,-93.4579439252336,4,1,0,100,0,0
67211,-91.743119266055,4,1,0,100,0,0
67289,-90.0900900900901,4,1,0,100,0,0
67367,-88.4955752212389,4,1,0,100,0,0
67523,-95.2380952380952,4,1,0,100,0,0
67601,-93.4579439252336,4,1,0,100,0,0
67680,-91.743119266055,4,1,0,100,0,0
67758,-90.0900900900901,4,1,0,100,0,0
67836,-88.4955752212389,4,1,0,100,0,0
67992,-95.2380952380952,4,1,0,100,0,0
68070,-93.4579439252336,4,1,0,100,0,0
68148,-91.743119266055,4,1,0,100,0,0
68226,-90.0900900900901,4,1,0,100,0,0
68305,-88.4955752212389,4,1,0,100,0,0
68461,-95.2380952380952,4,1,0,100,0,0
68539,-93.4579439252336,4,1,0,100,0,0
68617,-91.743119266055,4,1,0,100,0,0
68695,-90.0900900900901,4,1,0,100,0,0
68773,-88.4955752212389,4,1,0,100,0,0
68851,-90.0900900900901,4,1,0,100,0,0
68930,-91.743119266055,4,1,0,100,0,0
69008,-93.4579439252336,4,1,0,100,0,0
69086,-95.2380952380952,4,1,0,100,0,0
69242,-90.0900900900901,4,1,0,100,0,0
69398,-88.4955752212389,4,1,0,100,0,0
69555,-95.2380952380952,4,1,0,100,0,0
69633,-93.4579439252336,4,1,0,100,0,0
69711,-91.743119266055,4,1,0,100,0,0
69789,-90.0900900900901,4,1,0,100,0,0
69867,-88.4955752212389,4,1,0,100,0,0
70023,-95.2380952380952,4,1,0,100,0,0
70101,-93.4579439252336,4,1,0,100,0,0
70180,-91.743119266055,4,1,0,100,0,0
70258,-90.0900900900901,4,1,0,100,0,0
70336,-88.4955752212389,4,1,0,100,0,0
70492,-95.2380952380952,4,1,0,100,0,0
70570,-93.4579439252336,4,1,0,100,0,0
70648,-91.743119266055,4,1,0,100,0,0
70726,-90.0900900900901,4,1,0,100,0,0
70805,-88.4955752212389,4,1,0,100,0,0
70961,-95.2380952380952,4,1,0,100,0,0
71039,-93.4579439252336,4,1,0,100,0,0
71117,-91.743119266055,4,1,0,100,0,0
71195,-90.0900900900901,4,1,0,100,0,0
71273,-88.4955752212389,4,1,0,100,0,0
71430,-95.2380952380952,4,1,0,100,0,0
71508,-93.4579439252336,4,1,0,100,0,0
71586,-91.743119266055,4,1,0,100,0,0
71740,-90.0900900900901,4,1,0,100,0,0
71898,-88.4955752212389,4,1,0,100,0,0
72055,-90.9090909090909,4,1,0,100,0,0
74242,-90.0900900900901,4,1,0,100,0,0
74398,-88.4955752212389,4,1,0,100,0,0
74555,-90.9090909090909,4,1,0,100,0,0
74633,-89.2857142857143,4,1,0,100,0,0
74711,-87.719298245614,4,1,0,100,0,0
74789,-86.2068965517241,4,1,0,100,0,0
74867,-84.7457627118644,4,1,0,100,0,0
75023,-90.9090909090909,4,1,0,100,0,0
75101,-89.2857142857143,4,1,0,100,0,0
75180,-87.719298245614,4,1,0,100,0,0
75258,-86.2068965517241,4,1,0,100,0,0
75336,-84.7457627118644,4,1,0,100,0,0
75492,-90.9090909090909,4,1,0,100,0,0
75570,-89.2857142857143,4,1,0,100,0,0
75648,-87.719298245614,4,1,0,100,0,0
75726,-86.2068965517241,4,1,0,100,0,0
75805,-84.7457627118644,4,1,0,100,0,0
75961,-90.9090909090909,4,1,0,100,0,0
76039,-89.2857142857143,4,1,0,100,0,0
76117,-87.719298245614,4,1,0,100,0,0
76195,-86.2068965517241,4,1,0,100,0,0
76273,-84.7457627118644,4,1,0,100,0,0
76430,-90.9090909090909,4,1,0,100,0,0
76508,-89.2857142857143,4,1,0,100,0,0
76586,-87.719298245614,4,1,0,100,0,0
76739,-86.2068965517241,4,1,0,100,0,0
76898,-84.7457627118644,4,1,0,100,0,0
77055,-87.719298245614,4,1,0,100,0,0
77133,-86.2068965517241,4,1,0,100,0,0
77211,-84.7457627118644,4,1,0,100,0,0
77289,-83.3333333333333,4,1,0,100,0,0
77367,-81.9672131147541,4,1,0,100,0,0
77523,-87.719298245614,4,1,0,100,0,0
77601,-86.2068965517241,4,1,0,100,0,0
77679,-84.7457627118644,4,1,0,100,0,0
77757,-83.3333333333333,4,1,0,100,0,0
77835,-81.9672131147541,4,1,0,100,0,0
77992,-87.719298245614,4,1,0,100,0,0
78070,-86.2068965517241,4,1,0,100,0,0
78148,-84.7457627118644,4,1,0,100,0,0
78226,-83.3333333333333,4,1,0,100,0,0
78304,-81.9672131147541,4,1,0,100,0,0
78461,-87.719298245614,4,1,0,100,0,0
78539,-86.2068965517241,4,1,0,100,0,0
78617,-84.7457627118644,4,1,0,100,0,0
78695,-83.3333333333333,4,1,0,100,0,0
78773,-81.9672131147541,4,1,0,100,0,0
78851,-83.3333333333333,4,1,0,100,0,0
78930,-84.7457627118644,4,1,0,100,0,0
79008,-86.2068965517241,4,1,0,100,0,0
79086,-87.719298245614,4,1,0,100,0,0
79242,-83.3333333333333,4,1,0,100,0,0
79398,-81.9672131147541,4,1,0,100,0,0
79555,-84.7457627118644,4,1,0,100,0,0
79633,-83.3333333333333,4,1,0,100,0,0
79711,-81.9672131147541,4,1,0,100,0,0
79789,-80.6451612903226,4,1,0,100,0,0
79867,-79.3650793650794,4,1,0,100,0,0
80023,-84.7457627118644,4,1,0,100,0,0
80101,-83.3333333333333,4,1,0,100,0,0
80179,-81.9672131147541,4,1,0,100,0,0
80257,-80.6451612903226,4,1,0,100,0,0
80335,-79.3650793650794,4,1,0,100,0,0
80492,-84.7457627118644,4,1,0,100,0,0
80570,-83.3333333333333,4,1,0,100,0,0
80648,-81.9672131147541,4,1,0,100,0,0
80726,-80.6451612903226,4,1,0,100,0,0
80804,-79.3650793650794,4,1,0,100,0,0
80961,-84.7457627118644,4,1,0,100,0,0
81039,-83.3333333333333,4,1,0,100,0,0
81117,-81.9672131147541,4,1,0,100,0,0
81195,-80.6451612903226,4,1,0,100,0,0
81273,-79.3650793650794,4,1,0,100,0,0
81430,-84.7457627118644,4,1,0,100,0,0
81508,-83.3333333333333,4,1,0,100,0,0
81586,-81.9672131147541,4,1,0,100,0,0
81742,-80.6451612903226,4,1,0,100,0,0
81898,-79.3650793650794,4,1,0,100,0,0
82055,-79.3650793650794,4,1,0,100,0,0
83305,-76.9230769230769,4,1,0,100,0,0
83539,-74.0740740740741,4,1,0,100,0,0
83773,-71.4285714285714,4,1,0,100,0,0
83930,-68.9655172413793,4,1,0,100,0,0
84242,-66.6666666666667,4,1,0,100,0,0
84555,-90.9090909090909,4,1,0,100,0,0
84711,-88.8888888888889,4,1,0,100,0,0
84867,-86.9565217391304,4,1,0,100,0,0
85023,-85.1063829787234,4,1,0,100,0,0
85180,-83.3333333333333,4,1,0,100,0,0
85258,-82.4742268041237,4,1,0,100,0,0
85336,-81.6326530612245,4,1,0,100,0,0
85414,-80.8080808080808,4,1,0,100,0,0
85492,-80,4,1,0,100,0,0
85570,-79.2079207920792,4,1,0,100,0,0
85648,-78.4313725490196,4,1,0,100,0,0
85726,-77.6699029126214,4,1,0,100,0,0
85805,-76.9230769230769,4,1,0,100,0,0
85961,-76.3358778625954,4,1,0,100,0,0
87055,-90.9090909090909,4,1,0,100,0,1
96430,-90.9090909090909,4,1,0,100,0,1
96508,-89.8876404494382,4,1,0,100,0,1
96586,-88.8888888888889,4,1,0,100,0,1
96664,-87.9120879120879,4,1,0,100,0,1
96742,-86.9565217391304,4,1,0,100,0,1
96820,-86.0215053763441,4,1,0,100,0,1
96898,-85.1063829787234,4,1,0,100,0,1
96976,-84.2105263157895,4,1,0,100,0,1
97055,-83.3333333333333,4,1,0,100,0,0
99086,-100,4,1,0,100,0,0
99242,-96.8169491623882,4,1,0,100,0,0
99398,-93.8303715776545,4,1,0,100,0,0
99555,-90.9090909090909,4,1,0,100,0,1
104398,-90.9090909090909,4,1,0,100,0,0
105805,-100,4,1,0,100,0,0
106430,-100,4,1,0,100,0,0
106508,-98.7654320987654,4,1,0,100,0,0
106586,-97.5609756097561,4,1,0,100,0,0
106664,-96.3855421686747,4,1,0,100,0,0
106742,-95.2380952380952,4,1,0,100,0,0
106820,-94.1176470588235,4,1,0,100,0,0
106898,-93.0232558139535,4,1,0,100,0,0
106976,-91.9540229885058,4,1,0,100,0,0
107055,-90.9090909090909,4,1,0,100,0,1
116430,-90.9090909090909,4,1,0,100,0,1
116508,-89.8876404494382,4,1,0,100,0,1
116586,-88.8888888888889,4,1,0,100,0,1
116664,-87.9120879120879,4,1,0,100,0,1
116742,-86.9565217391304,4,1,0,100,0,1
116820,-86.0215053763441,4,1,0,100,0,1
116898,-85.1063829787234,4,1,0,100,0,1
116976,-84.2105263157895,4,1,0,100,0,1
117055,-83.3333333333333,4,1,0,100,0,0
118930,-82.6446280991736,4,1,0,100,0,0
119164,-81.9672131147541,4,1,0,100,0,0
119398,-81.3008130081301,4,1,0,100,0,0
119555,-80.6451612903226,4,1,0,100,0,1
124398,-80.6451612903226,4,1,0,100,0,0
127055,-40,4,1,0,100,0,0

[HitObjects]
200,96,2055,5,4,0:0:0:0:
305,179,2211,1,0,0:0:0:0:
305,179,2289,1,0,0:0:0:0:
305,179,2367,1,8,0:0:0:0:
367,293,2523,1,0,0:0:0:0:
367,293,2601,1,0,0:0:0:0:
367,293,2758,1,8,0:0:0:0:
367,293,2836,1,0,0:0:0:0:
236,214,2992,1,8,0:0:0:0:
307,290,3148,1,8,0:0:0:0:
381,294,3226,1,8,0:0:0:0:
381,294,3305,1,0,0:0:0:0:
251,202,3461,1,0,0:0:0:0:
191,129,3617,1,8,0:0:0:0:
374,260,3773,1,0,0:0:0:0:
374,260,3851,1,0,0:0:0:0:
374,260,4008,1,8,0:0:0:0:
374,260,4086,1,0,0:0:0:0:
374,260,4164,1,0,0:0:0:0:
374,260,4242,1,8,0:0:0:0:
127,137,4398,1,0,0:0:0:0:
232,146,4555,1,0,0:0:0:0:
232,146,4711,1,8,0:0:0:0:
232,146,4789,1,0,0:0:0:0:
232,146,4867,1,8,0:0:0:0:
232,146,5023,1,0,0:0:0:0:
232,146,5101,1,0,0:0:0:0:
232,146,5258,1,8,0:0:0:0:
232,146,5336,1,0,0:0:0:0:
232,146,5414,1,0,0:0:0:0:
232,146,5492,1,8,0:0:0:0:
177,39,5648,1,8,0:0:0:0:
232,146,5726,1,0,0:0:0:0:
209,94,5805,1,0,0:0:0:0:
209,94,5883,1,8,0:0:0:0:
209,94,5961,1,0,0:0:0:0:
209,94,6117,1,8,0:0:0:0:
255,67,6273,1,0,0:0:0:0:
255,67,6351,1,0,0:0:0:0:
255,67,6508,1,8,0:0:0:0:
255,67,6586,1,0,0:0:0:0:
255,67,6742,1,8,0:0:0:0:
237,64,6898,1,0,0:0:0:0:
237,64,6976,1,8,0:0:0:0:
237,64,7055,1,0,0:0:0:0:
237,64,7211,1,0,0:0:0:0:
237,64,7367,1,8,0:0:0:0:
248,88,7523,1,0,0:0:0:0:
248,88,7601,1,0,0:0:0:0:
248,88,7758,1,8,0:0:0:0:
248,88,7836,1,0,0:0:0:0:
248,88,7914,1,0,0:0:0:0:
248,88,7992,1,8,0:0:0:0:
223,86,8148,1,8,0:0:0:0:
277,84,8305,1,0,0:0:0:0:
277,84,8383,1,8,0:0:0:0:
277,84,8461,1,0,0:0:0:0:
277,84,8539,1,0,0:0:0:0:
277,84,8617,1,8,0:0:0:0:
192,147,8773,1,0,0:0:0:0:
192,147,8851,1,0,0:0:0:0:
199,125,9008,1,8,0:0:0:0:
199,125,9086,1,0,0:0:0:0:
199,125,9242,1,8,0:0:0:0:
199,125,9398,1,0,0:0:0:0:
283,107,9476,1,0,0:0:0:0:
199,125,9555,1,8,0:0:0:0:
232,107,9607,1,8,0:0:0:0:
232,107,9659,1,8,0:0:0:0:
232,107,9711,1,0,0:0:0:0:
194,137,9867,1,4,0:0:0:0:
239,137,10101,1,4,0:0:0:0:
238,142,10336,1,4,0:0:0:0:
83,153,10570,1,4,0:0:0:0:
337,231,10805,1,4,0:0:0:0:
337,231,11039,1,4,0:0:0:0:
337,231,11273,1,4,0:0:0:0:
337,231,11508,1,4,0:0:0:0:
337,231,11742,1,4,0:0:0:0:
277,169,12055,1,0,0:0:0:0:
218,223,12133,1,8,0:0:0:0:
218,223,12211,1,0,0:0:0:0:
218,223,12289,1,0,0:0:0:0:
217,194,12367,1,8,0:0:0:0:
271,214,12523,1,0,0:0:0:0:
208,37,12601,1,0,0:0:0:0:
222,55,12758,1,8,0:0:0:0:
207,36,12836,1,0,0:0:0:0:
257,78,12914,1,0,0:0:0:0:
257,78,12992,1,8,0:0:0:0:
257,78,13148,1,8,0:0:0:0:
191,10,13226,1,8,0:0:0:0:
257,78,13305,1,0,0:0:0:0:
257,78,13461,1,0,0:0:0:0:
251,77,13617,1,8,0:0:0:0:
251,77,13773,1,0,0:0:0:0:
251,77,13851,1,8,0:0:0:0:
251,77,13930,1,0,0:0:0:0:
251,77,14008,1,8,0:0:0:0:
194,42,14086,1,0,0:0:0:0:
217,52,14242,1,8,0:0:0:0:
398,154,14398,1,0,0:0:0:0:
215,178,14476,1,8,0:0:0:0:
215,178,14555,1,0,0:0:0:0:
215,178,14711,1,8,0:0:0:0:
242,140,14789,1,0,0:0:0:0:
242,140,14867,1,8,0:0:0:0:
111,132,15023,1,0,0:0:0:0:
111,132,15101,1,0,0:0:0:0:
304,140,15258,1,8,0:0:0:0:
172,76,15336,1,0,0:0:0:0:
172,76,15414,1,0,0:0:0:0:
172,76,15492,1,8,0:0:0:0:
175,113,15648,1,8,0:0:0:0:
175,113,15726,1,0,0:0:0:0:
211,73,15805,1,0,0:0:0:0:
211,73,15883,1,8,0:0:0:0:
161,98,15961,1,8,0:0:0:0:
161,98,16039,1,0,0:0:0:0:
161,98,16117,1,8,0:0:0:0:
183,115,16195,1,8,0:0:0:0:
186,109,16273,1,0,0:0:0:0:
186,109,16351,1,0,0:0:0:0:
218,74,16508,1,8,0:0:0:0:
218,74,16586,1,0,0:0:0:0:
194,103,16742,1,8,0:0:0:0:
224,152,16898,1,0,0:0:0:0:
204,110,16976,1,8,0:0:0:0:
201,38,17055,1,0,0:0:0:0:
143,201,17211,1,8,0:0:0:0:
214,118,17289,1,0,0:0:0:0:
143,201,17367,1,8,0:0:0:0:
193,88,17523,1,0,0:0:0:0:
193,88,17601,1,0,0:0:0:0:
193,88,17758,1,8,0:0:0:0:
193,88,17836,1,0,0:0:0:0:
193,88,17914,1,0,0:0:0:0:
193,88,17992,1,8,0:0:0:0:
193,88,18148,1,8,0:0:0:0:
225,88,18305,1,0,0:0:0:0:
209,34,18383,1,8,0:0:0:0:
225,88,18461,1,0,0:0:0:0:
78,121,18539,1,0,0:0:0:0:
225,88,18617,1,8,0:0:0:0:
322,212,18773,1,0,0:0:0:0:
211,52,18851,1,0,0:0:0:0:
322,212,19008,1,8,0:0:0:0:
322,212,19086,1,0,0:0:0:0:
322,212,19164,1,0,0:0:0:0:
322,212,19242,1,8,0:0:0:0:
229,125,19398,1,0,0:0:0:0:
229,125,19476,1,0,0:0:0:0:
229,125,19555,1,8,0:0:0:0:
330,70,19607,1,8,0:0:0:0:
330,70,19659,1,8,0:0:0:0:
330,70,19711,1,0,0:0:0:0:
211,159,19867,1,4,0:0:0:0:
211,159,20101,1,4,0:0:0:0:
211,159,20336,1,4,0:0:0:0:
211,159,20570,1,4,0:0:0:0:
211,159,20805,1,4,0:0:0:0:
211,159,21039,1,4,0:0:0:0:
211,159,21273,1,4,0:0:0:0:
211,159,21508,1,4,0:0:0:0:
211,159,21742,1,4,0:0:0:0:
256,192,21898,12,0,22211,0:0:0:0:
298,129,22367,5,0,0:0:0:0:
213,130,23305,1,0,0:0:0:0:
118,153,23461,1,8,0:0:0:0:
118,153,23539,1,0,0:0:0:0:
118,153,23617,1,8,0:0:0:0:
365,308,23669,1,8,0:0:0:0:
213,130,23721,1,8,0:0:0:0:
365,308,23773,1,8,0:0:0:0:
365,308,23825,1,8,0:0:0:0:
365,308,23877,1,8,0:0:0:0:
213,130,23930,1,0,0:0:0:0:
74,115,24008,1,0,0:0:0:0:
144,106,24086,1,8,0:0:0:0:
284,168,24164,1,0,0:0:0:0:
286,88,24242,1,8,0:0:0:0:
286,88,24294,1,8,0:0:0:0:
286,88,24346,1,8,0:0:0:0:
286,88,24398,1,0,0:0:0:0:
189,122,24555,1,4,0:0:0:0:
354,277,24711,1,8,0:0:0:0:
354,277,24867,1,0,0:0:0:0:
386,245,24945,1,8,0:0:0:0:
386,245,25023,1,0,0:0:0:0:
386,245,25180,1,0,0:0:0:0:
386,245,25336,1,8,0:0:0:0:
386,245,25414,1,0,0:0:0:0:
369,227,25492,1,8,0:0:0:0:
386,245,25570,1,8,0:0:0:0:
359,230,25648,1,0,0:0:0:0:
359,230,25805,1,0,0:0:0:0:
362,230,25883,1,8,0:0:0:0:
359,230,25961,1,0,0:0:0:0:
362,230,26117,1,0,0:0:0:0:
359,230,26195,1,8,0:0:0:0:
362,230,26273,1,0,0:0:0:0:
359,230,26351,1,8,0:0:0:0:
359,230,26430,1,8,0:0:0:0:
359,230,26508,1,0,0:0:0:0:
359,230,26586,1,0,0:0:0:0:
320,238,26742,1,8,0:0:0:0:
320,238,26898,1,8,0:0:0:0:
320,238,26976,1,0,0:0:0:0:
320,238,27055,1,0,0:0:0:0:
320,238,27211,1,8,0:0:0:0:
320,238,27289,1,8,0:0:0:0:
320,238,27367,1,0,0:0:0:0:
262,194,27523,1,8,0:0:0:0:
262,194,27680,1,0,0:0:0:0:
259,100,27758,1,8,0:0:0:0:
259,100,27836,1,0,0:0:0:0:
259,100,27914,1,8,0:0:0:0:
259,100,28070,1,0,0:0:0:0:
259,100,28148,1,8,0:0:0:0:
241,73,28226,1,0,0:0:0:0:
263,97,28305,1,0,0:0:0:0:
250,76,28383,1,8,0:0:0:0:
241,73,28461,1,8,0:0:0:0:
259,100,28539,1,0,0:0:0:0:
213,62,28695,1,0,0:0:0:0:
213,62,28773,1,8,0:0:0:0:
216,66,28930,1,8,0:0:0:0:
216,66,29008,1,0,0:0:0:0:
217,67,29086,1,8,0:0:0:0:
217,67,29242,1,0,0:0:0:0:
217,67,29398,1,8,0:0:0:0:
217,68,29476,1,8,0:0:0:0:
217,68,29555,1,0,0:0:0:0:
365,268,29711,1,8,0:0:0:0:
363,263,29867,1,0,0:0:0:0:
363,263,29945,1,8,0:0:0:0:
363,263,30023,1,0,0:0:0:0:
363,263,30180,1,0,0:0:0:0:
363,263,30336,1,8,0:0:0:0:
363,263,30414,1,0,0:0:0:0:
363,263,30492,1,8,0:0:0:0:
356,246,30570,1,8,0:0:0:0:
363,263,30648,1,0,0:0:0:0:
376,252,30805,1,0,0:0:0:0:
372,249,30883,1,8,0:0:0:0:
376,252,30961,1,0,0:0:0:0:
372,249,31117,1,0,0:0:0:0:
372,249,31195,1,8,0:0:0:0:
372,249,31273,1,0,0:0:0:0:
371,248,31351,1,8,0:0:0:0:
372,249,31430,1,8,0:0:0:0:
371,248,31508,1,0,0:0:0:0:
371,248,31586,1,0,0:0:0:0:
211,15,31742,1,8,0:0:0:0:
306,140,31898,1,0,0:0:0:0:
306,140,31976,1,0,0:0:0:0:
306,140,32055,1,8,0:0:0:0:
355,66,32107,1,8,0:0:0:0:
355,66,32159,1,8,0:0:0:0:
355,66,32211,1,0,0:0:0:0:
117,174,32367,1,4,0:0:0:0:
117,174,32601,1,4,0:0:0:0:
117,174,32836,1,4,0:0:0:0:
117,174,33070,1,4,0:0:0:0:
117,174,33305,1,4,0:0:0:0:
117,174,33539,1,4,0:0:0:0:
117,174,33773,1,4,0:0:0:0:
247,133,34008,1,4,0:0:0:0:
247,133,34242,1,4,0:0:0:0:
189,122,34555,1,4,0:0:0:0:
354,277,34711,1,8,0:0:0:0:
354,277,34867,1,0,0:0:0:0:
386,245,34945,1,8,0:0:0:0:
386,245,35023,1,0,0:0:0:0:
386,245,35180,1,0,0:0:0:0:
386,245,35336,1,8,0:0:0:0:
386,245,35414,1,0,0:0:0:0:
369,227,35492,1,8,0:0:0:0:
386,245,35570,1,8,0:0:0:0:
359,230,35648,1,0,0:0:0:0:
359,230,35805,1,0,0:0:0:0:
362,230,35883,1,8,0:0:0:0:
359,230,35961,1,0,0:0:0:0:
362,230,36117,1,0,0:0:0:0:
359,230,36195,1,8,0:0:0:0:
362,230,36273,1,0,0:0:0:0:
359,230,36351,1,8,0:0:0:0:
359,230,36430,1,8,0:0:0:0:
359,230,36508,1,0,0:0:0:0:
359,230,36586,1,0,0:0:0:0:
136,80,36742,5,8,0:0:0:0:
320,238,36898,1,8,0:0:0:0:
320,238,36976,1,0,0:0:0:0:
320,238,37055,1,0,0:0:0:0:
320,238,37211,1,8,0:0:0:0:
320,238,37289,1,8,0:0:0:0:
320,238,37367,1,0,0:0:0:0:
262,194,37523,1,8,0:0:0:0:
262,194,37680,1,0,0:0:0:0:
259,100,37758,1,8,0:0:0:0:
259,100,37836,1,0,0:0:0:0:
259,100,37914,1,8,0:0:0:0:
320,238,37992,1,0,0:0:0:0:
209,126,38070,1,0,0:0:0:0:
259,100,38148,1,8,0:0:0:0:
241,73,38226,1,0,0:0:0:0:
263,97,38305,1,0,0:0:0:0:
250,76,38383,1,8,0:0:0:0:
241,73,38461,1,8,0:0:0:0:
259,100,38539,1,0,0:0:0:0:
213,62,38695,1,0,0:0:0:0:
213,62,38773,1,8,0:0:0:0:
216,66,38930,1,8,0:0:0:0:
216,66,39008,1,0,0:0:0:0:
217,67,39086,1,8,0:0:0:0:
217,67,39242,1,0,0:0:0:0:
217,67,39398,1,8,0:0:0:0:
217,68,39476,1,0,0:0:0:0:
217,68,39555,1,0,0:0:0:0:
365,268,39711,1,8,0:0:0:0:
363,263,39867,1,0,0:0:0:0:
363,263,39945,1,8,0:0:0:0:
363,263,40023,1,0,0:0:0:0:
363,263,40180,1,0,0:0:0:0:
363,263,40336,1,8,0:0:0:0:
363,263,40414,1,0,0:0:0:0:
363,263,40492,1,8,0:0:0:0:
356,246,40570,1,8,0:0:0:0:
363,263,40648,1,0,0:0:0:0:
376,252,40805,1,0,0:0:0:0:
372,249,40883,1,8,0:0:0:0:
376,252,40961,1,0,0:0:0:0:
194,181,41039,1,0,0:0:0:0:
372,249,41117,1,0,0:0:0:0:
372,249,41195,1,8,0:0:0:0:
372,249,41273,1,0,0:0:0:0:
371,248,41351,1,8,0:0:0:0:
372,249,41430,1,8,0:0:0:0:
371,248,41508,1,0,0:0:0:0:
371,248,41586,1,0,0:0:0:0:
211,15,41742,1,8,0:0:0:0:
219,190,41898,1,0,0:0:0:0:
219,190,41976,1,8,0:0:0:0:
219,190,42055,1,0,0:0:0:0:
219,190,42211,1,8,0:0:0:0:
103,162,42289,1,8,0:0:0:0:
233,92,42367,1,0,0:0:0:0:
233,92,42523,1,8,0:0:0:0:
233,92,42680,1,0,0:0:0:0:
233,92,42758,1,8,0:0:0:0:
233,92,42836,1,0,0:0:0:0:
233,92,42914,1,8,0:0:0:0:
219,42,43070,1,0,0:0:0:0:
219,42,43148,1,8,0:0:0:0:
263,83,43305,1,8,0:0:0:0:
263,83,43383,1,0,0:0:0:0:
263,83,43461,1,8,0:0:0:0:
263,83,43539,1,8,0:0:0:0:
263,83,43695,1,8,0:0:0:0:
263,83,43773,1,0,0:0:0:0:
256,192,43930,12,0,44398,0:0:0:0:
293,159,44555,5,4,0:0:0:0:
172,98,44971,1,0,0:0:0:0:
172,98,45075,1,0,0:0:0:0:
172,98,45180,1,8,0:0:0:0:
172,98,45284,1,0,0:0:0:0:
172,98,45388,1,8,0:0:0:0:
172,98,45492,1,8,0:0:0:0:
172,98,45596,1,8,0:0:0:0:
172,98,45700,1,0,0:0:0:0:
172,98,45805,1,8,0:0:0:0:
172,98,45909,1,8,0:0:0:0:
172,98,46013,1,0,0:0:0:0:
172,98,46117,1,8,0:0:0:0:
172,98,46221,1,0,0:0:0:0:
172,98,46325,1,0,0:0:0:0:
172,98,46430,1,8,0:0:0:0:
172,98,46534,1,0,0:0:0:0:
172,98,46638,1,0,0:0:0:0:
172,98,46742,1,8,0:0:0:0:
179,192,46846,1,0,0:0:0:0:
179,192,46950,1,8,0:0:0:0:
179,192,47055,1,0,0:0:0:0:
165,182,47471,1,0,0:0:0:0:
165,182,47575,1,0,0:0:0:0:
99,149,47680,1,8,0:0:0:0:
99,149,47784,1,0,0:0:0:0:
99,149,47888,1,0,0:0:0:0:
99,149,47992,1,8,0:0:0:0:
99,149,48096,1,0,0:0:0:0:
99,149,48200,1,0,0:0:0:0:
99,149,48305,1,8,0:0:0:0:
99,149,48409,1,8,0:0:0:0:
99,149,48513,1,0,0:0:0:0:
99,149,48617,1,8,0:0:0:0:
99,149,48721,1,8,0:0:0:0:
99,149,48825,1,0,0:0:0:0:
99,149,48930,1,8,0:0:0:0:
99,149,49034,1,0,0:0:0:0:
99,149,49138,1,0,0:0:0:0:
99,149,49242,1,8,0:0:0:0:
99,149,49346,1,0,0:0:0:0:
99,149,49450,1,8,0:0:0:0:
99,149,49555,1,0,0:0:0:0:
130,114,49971,1,0,0:0:0:0:
130,114,50075,1,0,0:0:0:0:
130,114,50180,1,8,0:0:0:0:
130,114,50284,1,0,0:0:0:0:
167,100,50388,1,0,0:0:0:0:
130,114,50492,1,0,0:0:0:0:
130,114,50596,1,0,0:0:0:0:
130,114,50700,1,8,0:0:0:0:
167,100,50805,1,8,0:0:0:0:
167,100,50909,1,0,0:0:0:0:
167,100,51013,1,0,0:0:0:0:
167,100,51117,1,8,0:0:0:0:
167,100,51221,1,0,0:0:0:0:
167,100,51325,1,0,0:0:0:0:
167,100,51430,1,0,0:0:0:0:
167,100,51534,1,0,0:0:0:0:
167,100,51638,1,0,0:0:0:0:
167,100,51742,1,8,0:0:0:0:
167,100,51846,1,0,0:0:0:0:
167,100,51950,1,8,0:0:0:0:
167,100,52055,1,0,0:0:0:0:
241,135,52471,1,0,0:0:0:0:
241,135,52575,1,0,0:0:0:0:
241,135,52680,1,0,0:0:0:0:
241,135,52784,1,0,0:0:0:0:
241,135,52888,1,0,0:0:0:0:
241,135,52992,1,8,0:0:0:0:
241,135,53096,1,8,0:0:0:0:
241,135,53200,1,0,0:0:0:0:
241,135,53305,1,8,0:0:0:0:
241,135,53409,1,0,0:0:0:0:
241,135,53513,1,0,0:0:0:0:
241,136,53617,1,8,0:0:0:0:
241,136,53721,1,0,0:0:0:0:
241,136,53825,1,8,0:0:0:0:
241,136,53930,1,0,0:0:0:0:
241,136,54034,1,0,0:0:0:0:
241,136,54138,1,0,0:0:0:0:
241,136,54242,1,8,0:0:0:0:
241,136,54346,1,0,0:0:0:0:
241,136,54450,1,8,0:0:0:0:
241,136,54555,1,4,0:0:0:0:
213,97,54971,1,0,0:0:0:0:
213,97,55075,1,0,0:0:0:0:
213,97,55180,1,8,0:0:0:0:
213,97,55284,1,0,0:0:0:0:
213,97,55388,1,0,0:0:0:0:
213,97,55492,1,8,0:0:0:0:
213,97,55596,1,8,0:0:0:0:
213,97,55700,1,0,0:0:0:0:
213,97,55805,1,8,0:0:0:0:
213,97,55909,1,8,0:0:0:0:
213,97,56013,1,0,0:0:0:0:
213,97,56117,1,8,0:0:0:0:
200,98,56221,1,0,0:0:0:0:
200,98,56325,1,0,0:0:0:0:
200,98,56430,1,8,0:0:0:0:
200,98,56534,1,0,0:0:0:0:
200,98,56638,1,0,0:0:0:0:
200,98,56742,1,8,0:0:0:0:
200,98,56846,1,0,0:0:0:0:
200,98,56950,1,8,0:0:0:0:
200,98,57055,1,0,0:0:0:0:
200,98,57471,1,0,0:0:0:0:
200,98,57575,1,0,0:0:0:0:
200,98,57680,1,8,0:0:0:0:
200,98,57784,1,8,0:0:0:0:
200,98,57888,1,8,0:0:0:0:
200,98,57992,1,0,0:0:0:0:
200,98,58096,1,0,0:0:0:0:
200,98,58200,1,0,0:0:0:0:
200,98,58305,1,8,0:0:0:0:
200,98,58409,1,0,0:0:0:0:
200,98,58513,1,0,0:0:0:0:
200,98,58617,1,8,0:0:0:0:
200,98,58721,1,8,0:0:0:0:
200,98,58825,1,0,0:0:0:0:
200,98,58930,1,8,0:0:0:0:
200,98,59034,1,0,0:0:0:0:
200,98,59138,1,0,0:0:0:0:
200,98,59242,1,8,0:0:0:0:
200,98,59346,1,0,0:0:0:0:
200,98,59450,1,8,0:0:0:0:
200,98,59555,1,0,0:0:0:0:
181,2,59971,1,0,0:0:0:0:
181,2,60075,1,0,0:0:0:0:
181,2,60180,1,8,0:0:0:0:
181,2,60284,1,8,0:0:0:0:
181,2,60388,1,0,0:0:0:0:
181,2,60492,1,8,0:0:0:0:
181,2,60596,1,0,0:0:0:0:
181,2,60700,1,0,0:0:0:0:
181,2,60805,1,8,0:0:0:0:
181,2,60909,1,8,0:0:0:0:
181,2,61013,1,8,0:0:0:0:
181,2,61117,1,0,0:0:0:0:
181,2,61221,1,0,0:0:0:0:
181,2,61325,1,0,0:0:0:0:
181,2,61430,1,8,0:0:0:0:
181,2,61534,1,8,0:0:0:0:
181,2,61638,1,0,0:0:0:0:
181,2,61742,1,8,0:0:0:0:
181,2,61846,1,0,0:0:0:0:
181,2,61950,1,8,0:0:0:0:
181,2,62055,1,0,0:0:0:0:
246,118,62471,1,0,0:0:0:0:
246,118,62575,1,0,0:0:0:0:
246,118,62680,1,8,0:0:0:0:
246,118,62784,1,0,0:0:0:0:
246,118,62888,1,0,0:0:0:0:
246,118,62992,1,8,0:0:0:0:
246,118,63096,1,8,0:0:0:0:
246,118,63200,1,8,0:0:0:0:
246,118,63305,1,0,0:0:0:0:
328,100,63461,1,8,0:0:0:0:
328,100,63539,1,0,0:0:0:0:
328,100,63617,1,8,0:0:0:0:
328,100,63669,1,8,0:0:0:0:
328,100,63721,1,8,0:0:0:0:
328,100,63773,1,8,0:0:0:0:
328,100,63825,1,8,0:0:0:0:
328,100,63877,1,8,0:0:0:0:
328,100,63930,1,0,0:0:0:0:
322,128,64008,1,0,0:0:0:0:
322,128,64086,1,8,0:0:0:0:
322,128,64164,1,0,0:0:0:0:
116,108,64242,1,8,0:0:0:0:
116,108,64294,1,8,0:0:0:0:
116,108,64346,1,8,0:0:0:0:
116,108,64398,1,0,0:0:0:0:
246,114,64555,1,0,0:0:0:0:
246,114,64633,1,0,0:0:0:0:
246,114,64711,1,8,0:0:0:0:
246,114,64789,1,0,0:0:0:0:
246,114,64867,1,8,0:0:0:0:
246,114,65023,1,0,0:0:0:0:
246,114,65101,1,0,0:0:0:0:
246,114,65180,1,8,0:0:0:0:
246,114,65258,1,0,0:0:0:0:
246,114,65336,1,8,0:0:0:0:
246,114,65492,1,0,0:0:0:0:
246,114,65570,1,0,0:0:0:0:
246,114,65648,1,8,0:0:0:0:
246,114,65726,1,0,0:0:0:0:
246,114,65805,1,8,0:0:0:0:
194,131,65961,1,0,0:0:0:0:
194,131,66039,1,0,0:0:0:0:
194,131,66117,1,8,0:0:0:0:
194,131,66195,1,0,0:0:0:0:
194,131,66273,1,8,0:0:0:0:
190,127,66430,1,0,0:0:0:0:
190,127,66508,1,0,0:0:0:0:
190,127,66586,1,8,0:0:0:0:
190,126,66742,1,0,0:0:0:0:
190,126,66898,1,8,0:0:0:0:
190,126,67055,1,0,0:0:0:0:
190,126,67133,1,0,0:0:0:0:
190,126,67211,1,8,0:0:0:0:
190,126,67289,1,0,0:0:0:0:
190,127,67367,1,8,0:0:0:0:
190,127,67523,1,0,0:0:0:0:
190,127,67601,1,0,0:0:0:0:
190,126,67680,1,8,0:0:0:0:
190,126,67758,1,0,0:0:0:0:
190,126,67836,1,8,0:0:0:0:
190,126,67992,1,0,0:0:0:0:
190,126,68070,1,0,0:0:0:0:
190,126,68148,1,8,0:0:0:0:
190,126,68226,1,0,0:0:0:0:
190,126,68305,1,8,0:0:0:0:
180,55,68461,1,0,0:0:0:0:
180,55,68539,1,0,0:0:0:0:
180,55,68617,1,8,0:0:0:0:
180,55,68695,1,0,0:0:0:0:
180,55,68773,1,8,0:0:0:0:
180,55,68851,1,8,0:0:0:0:
180,55,68930,1,0,0:0:0:0:
180,55,69008,1,0,0:0:0:0:
180,55,69086,1,8,0:0:0:0:
181,59,69242,1,0,0:0:0:0:
188,67,69398,1,8,0:0:0:0:
146,39,69555,1,0,0:0:0:0:
146,39,69633,1,0,0:0:0:0:
144,32,69711,1,8,0:0:0:0:
144,32,69789,1,0,0:0:0:0:
145,27,69867,1,8,0:0:0:0:
149,60,70023,1,0,0:0:0:0:
149,60,70101,1,0,0:0:0:0:
149,60,70180,1,8,0:0:0:0:
149,60,70258,1,0,0:0:0:0:
149,60,70336,1,8,0:0:0:0:
149,62,70492,1,0,0:0:0:0:
149,62,70570,1,0,0:0:0:0:
149,62,70648,1,8,0:0:0:0:
149,60,70726,1,0,0:0:0:0:
149,60,70805,1,8,0:0:0:0:
149,60,70961,1,0,0:0:0:0:
149,60,71039,1,0,0:0:0:0:
149,60,71117,1,8,0:0:0:0:
149,60,71195,1,0,0:0:0:0:
149,60,71273,1,8,0:0:0:0:
186,77,71430,1,0,0:0:0:0:
149,62,71508,1,0,0:0:0:0:
149,62,71586,1,8,0:0:0:0:
149,60,71742,1,0,0:0:0:0:
295,138,71898,1,8,0:0:0:0:
222,89,72055,1,8,0:0:0:0:
222,89,72133,1,0,0:0:0:0:
222,89,72211,1,0,0:0:0:0:
222,89,72289,1,8,0:0:0:0:
222,89,72367,1,0,0:0:0:0:
222,89,72445,1,0,0:0:0:0:
222,89,72523,1,8,0:0:0:0:
222,89,72601,1,8,0:0:0:0:
222,89,72680,1,0,0:0:0:0:
222,89,72758,1,8,0:0:0:0:
222,89,72836,1,8,0:0:0:0:
222,89,72914,1,0,0:0:0:0:
222,89,72992,1,8,0:0:0:0:
222,89,73070,1,0,0:0:0:0:
222,89,73148,1,8,0:0:0:0:
246,168,73305,1,8,0:0:0:0:
246,168,73383,1,0,0:0:0:0:
246,168,73461,1,0,0:0:0:0:
246,168,73539,1,8,0:0:0:0:
246,168,73617,1,0,0:0:0:0:
246,168,73695,1,8,0:0:0:0:
246,168,73773,1,8,0:0:0:0:
246,168,73851,1,0,0:0:0:0:
246,168,73930,1,8,0:0:0:0:
246,168,74008,1,0,0:0:0:0:
246,168,74086,1,8,0:0:0:0:
172,166,74242,1,0,0:0:0:0:
211,156,74398,1,8,0:0:0:0:
272,171,74555,1,0,0:0:0:0:
272,171,74633,1,0,0:0:0:0:
272,171,74711,1,8,0:0:0:0:
272,171,74789,1,0,0:0:0:0:
272,171,74867,1,8,0:0:0:0:
231,127,75023,1,0,0:0:0:0:
231,127,75101,1,8,0:0:0:0:
231,127,75180,1,0,0:0:0:0:
231,127,75258,1,0,0:0:0:0:
231,127,75336,1,8,0:0:0:0:
232,122,75492,1,0,0:0:0:0:
232,122,75570,1,8,0:0:0:0:
232,122,75648,1,8,0:0:0:0:
232,122,75726,1,0,0:0:0:0:
232,122,75805,1,8,0:0:0:0:
218,107,75961,1,0,0:0:0:0:
218,107,76039,1,0,0:0:0:0:
218,107,76117,1,8,0:0:0:0:
218,107,76195,1,8,0:0:0:0:
218,107,76273,1,8,0:0:0:0:
217,180,76430,1,0,0:0:0:0:
217,180,76508,1,0,0:0:0:0:
217,180,76586,1,8,0:0:0:0:
219,185,76742,1,0,0:0:0:0:
219,185,76898,1,8,0:0:0:0:
271,188,77055,1,0,0:0:0:0:
271,188,77133,1,0,0:0:0:0:
271,188,77211,1,8,0:0:0:0:
271,188,77289,1,0,0:0:0:0:
271,188,77367,1,8,0:0:0:0:
271,188,77523,1,0,0:0:0:0:
271,188,77601,1,8,0:0:0:0:
271,188,77680,1,8,0:0:0:0:
271,188,77758,1,0,0:0:0:0:
271,188,77836,1,8,0:0:0:0:
271,188,77992,1,0,0:0:0:0:
271,188,78070,1,8,0:0:0:0:
271,188,78148,1,0,0:0:0:0:
271,188,78226,1,8,0:0:0:0:
271,188,78305,1,8,0:0:0:0:
209,77,78461,1,0,0:0:0:0:
209,77,78539,1,0,0:0:0:0:
209,77,78617,1,8,0:0:0:0:
209,77,78695,1,0,0:0:0:0:
209,77,78773,1,8,0:0:0:0:
209,77,78851,1,8,0:0:0:0:
209,77,78930,1,0,0:0:0:0:
243,172,79008,1,0,0:0:0:0:
243,172,79086,1,8,0:0:0:0:
251,142,79242,1,0,0:0:0:0:
251,142,79398,1,8,0:0:0:0:
292,236,79555,1,0,0:0:0:0:
292,236,79633,1,0,0:0:0:0:
292,236,79711,1,8,0:0:0:0:
292,236,79789,1,0,0:0:0:0:
292,236,79867,1,8,0:0:0:0:
292,236,80023,1,0,0:0:0:0:
292,236,80101,1,8,0:0:0:0:
292,236,80180,1,0,0:0:0:0:
292,236,80258,1,8,0:0:0:0:
292,236,80336,1,8,0:0:0:0:
292,236,80492,1,0,0:0:0:0:
292,236,80570,1,0,0:0:0:0:
292,236,80648,1,8,0:0:0:0:
292,236,80726,1,8,0:0:0:0:
292,236,80805,1,8,0:0:0:0:
292,236,80961,1,0,0:0:0:0:
292,236,81039,1,8,0:0:0:0:
292,236,81117,1,0,0:0:0:0:
292,236,81195,1,0,0:0:0:0:
292,236,81273,1,8,0:0:0:0:
292,236,81430,1,0,0:0:0:0:
292,236,81508,1,0,0:0:0:0:
292,236,81586,1,8,0:0:0:0:
292,236,81742,1,0,0:0:0:0:
292,236,81898,1,8,0:0:0:0:
174,253,82055,1,8,0:0:0:0:
260,101,82133,1,0,0:0:0:0:
260,101,82211,1,0,0:0:0:0:
260,101,82289,1,8,0:0:0:0:
260,101,82367,1,0,0:0:0:0:
260,101,82445,1,0,0:0:0:0:
260,101,82523,1,8,0:0:0:0:
260,101,82601,1,0,0:0:0:0:
260,101,82680,1,0,0:0:0:0:
174,253,82758,1,8,0:0:0:0:
260,101,82836,1,8,0:0:0:0:
336,115,82914,1,0,0:0:0:0:
174,253,82992,1,8,0:0:0:0:
181,238,83070,1,0,0:0:0:0:
181,238,83148,1,8,0:0:0:0:
291,204,83305,1,4,0:0:0:0:
291,204,83539,1,4,0:0:0:0:
291,204,83773,1,4,0:0:0:0:
291,204,83930,1,4,0:0:0:0:
291,204,84242,1,4,0:0:0:0:
210,121,84555,1,12,0:0:0:0:
180,32,84711,1,0,0:0:0:0:
210,121,84867,1,8,0:0:0:0:
182,57,85023,1,0,0:0:0:0:
210,121,85180,1,8,0:0:0:0:
291,204,85258,1,0,0:0:0:0:
180,62,85336,1,0,0:0:0:0:
292,205,85414,1,0,0:0:0:0:
210,121,85492,1,8,0:0:0:0:
292,205,85570,1,0,0:0:0:0:
292,205,85648,1,0,0:0:0:0:
292,205,85726,1,0,0:0:0:0:
164,119,85805,1,8,0:0:0:0:
236,116,85961,1,8,0:0:0:0:
236,116,86039,1,0,0:0:0:0:
236,116,86117,1,8,0:0:0:0:
236,116,86169,1,8,0:0:0:0:
236,116,86221,1,8,0:0:0:0:
236,116,86273,1,8,0:0:0:0:
236,116,86325,1,8,0:0:0:0:
236,116,86377,1,8,0:0:0:0:
186,116,86430,1,0,0:0:0:0:
186,116,86508,1,0,0:0:0:0:
186,116,86586,1,8,0:0:0:0:
186,116,86664,1,0,0:0:0:0:
236,116,86742,1,8,0:0:0:0:
236,116,86794,1,8,0:0:0:0:
236,116,86846,1,8,0:0:0:0:
236,116,86898,1,0,0:0:0:0:
320,231,87055,1,4,0:0:0:0:
320,231,87211,1,0,0:0:0:0:
320,231,87289,1,0,0:0:0:0:
320,231,87367,1,8,0:0:0:0:
320,231,87523,1,0,0:0:0:0:
204,138,87601,1,0,0:0:0:0:
320,231,87680,1,8,0:0:0:0:
320,231,87758,1,8,0:0:0:0:
320,231,87836,1,0,0:0:0:0:
320,231,87992,1,8,0:0:0:0:
305,232,88148,1,0,0:0:0:0:
160,173,88226,1,0,0:0:0:0:
216,212,88305,1,0,0:0:0:0:
216,212,88461,1,0,0:0:0:0:
216,212,88617,1,8,0:0:0:0:
371,249,88773,1,0,0:0:0:0:
371,249,88851,1,8,0:0:0:0:
371,249,88930,1,0,0:0:0:0:
371,249,89008,1,8,0:0:0:0:
371,249,89086,1,0,0:0:0:0:
131,114,89242,1,8,0:0:0:0:
211,147,89398,1,8,0:0:0:0:
211,147,89476,1,8,0:0:0:0:
211,147,89555,1,0,0:0:0:0:
321,265,89711,1,0,0:0:0:0:
321,265,89867,1,8,0:0:0:0:
351,255,90023,1,0,0:0:0:0:
351,255,90101,1,8,0:0:0:0:
351,255,90180,1,0,0:0:0:0:
351,255,90258,1,8,0:0:0:0:
351,255,90336,1,0,0:0:0:0:
351,255,90492,1,8,0:0:0:0:
351,255,90648,1,0,0:0:0:0:
372,154,90726,1,0,0:0:0:0:
395,243,90805,1,8,0:0:0:0:
395,243,90961,1,0,0:0:0:0:
395,243,91117,1,8,0:0:0:0:
154,146,91273,1,0,0:0:0:0:
154,146,91430,1,8,0:0:0:0:
306,115,91508,1,8,0:0:0:0:
306,115,91586,1,0,0:0:0:0:
306,115,91664,1,0,0:0:0:0:
306,115,91742,1,8,0:0:0:0:
280,115,91898,1,8,0:0:0:0:
280,115,91976,1,8,0:0:0:0:
280,115,92055,1,0,0:0:0:0:
280,115,92211,1,0,0:0:0:0:
280,115,92367,1,8,0:0:0:0:
280,115,92523,1,8,0:0:0:0:
280,115,92601,1,0,0:0:0:0:
280,115,92680,1,8,0:0:0:0:
280,115,92758,1,8,0:0:0:0:
280,115,92836,1,0,0:0:0:0:
280,115,92992,1,8,0:0:0:0:
280,115,93148,1,8,0:0:0:0:
403,132,93305,1,0,0:0:0:0:
447,163,93383,1,8,0:0:0:0:
280,115,93461,1,0,0:0:0:0:
280,115,93617,1,8,0:0:0:0:
280,115,93773,1,8,0:0:0:0:
280,115,93851,1,0,0:0:0:0:
280,115,93930,1,8,0:0:0:0:
280,115,94008,1,0,0:0:0:0:
261,81,94086,1,0,0:0:0:0:
323,208,94242,1,8,0:0:0:0:
323,208,94398,1,0,0:0:0:0:
323,208,94476,1,0,0:0:0:0:
323,208,94555,1,0,0:0:0:0:
224,85,94711,1,8,0:0:0:0:
224,85,94789,1,0,0:0:0:0:
224,85,94867,1,8,0:0:0:0:
435,172,95023,1,0,0:0:0:0:
356,107,95101,1,0,0:0:0:0:
220,113,95180,1,8,0:0:0:0:
220,113,95258,1,8,0:0:0:0:
220,113,95336,1,0,0:0:0:0:
220,113,95492,1,8,0:0:0:0:
185,156,95648,1,8,0:0:0:0:
185,156,95726,1,0,0:0:0:0:
185,156,95805,1,8,0:0:0:0:
214,154,95961,1,0,0:0:0:0:
214,154,96117,1,8,0:0:0:0:
253,95,96273,1,0,0:0:0:0:
259,101,96351,1,0,0:0:0:0:
259,101,96430,1,8,0:0:0:0:
259,101,96508,1,0,0:0:0:0:
259,101,96586,1,8,0:0:0:0:
259,101,96664,1,8,0:0:0:0:
259,101,96742,1,0,0:0:0:0:
259,101,96820,1,8,0:0:0:0:
259,101,96898,1,8,0:0:0:0:
224,136,96976,1,8,0:0:0:0:
197,138,97055,1,4,0:0:0:0:
324,185,97367,1,0,0:0:0:0:
228,208,97523,1,4,0:0:0:0:
228,208,97836,1,4,0:0:0:0:
406,321,98148,1,4,0:0:0:0:
366,215,98617,1,8,0:0:0:0:
366,215,98695,1,8,0:0:0:0:
366,215,98773,1,4,0:0:0:0:
281,148,99086,1,0,0:0:0:0:
281,148,99242,1,8,0:0:0:0:
281,148,99398,1,0,0:0:0:0:
207,46,99555,1,12,0:0:0:0:
229,178,99711,1,0,0:0:0:0:
229,178,99789,1,0,0:0:0:0:
229,178,99867,1,8,0:0:0:0:
229,178,100023,1,0,0:0:0:0:
229,178,100101,1,8,0:0:0:0:
229,178,100180,1,0,0:0:0:0:
229,178,100258,1,8,0:0:0:0:
229,178,100336,1,0,0:0:0:0:
229,178,100492,1,8,0:0:0:0:
229,178,100648,1,8,0:0:0:0:
229,178,100726,1,8,0:0:0:0:
229,178,100805,1,0,0:0:0:0:
210,192,100961,1,0,0:0:0:0:
210,192,101117,1,8,0:0:0:0:
210,192,101273,1,0,0:0:0:0:
210,192,101430,1,0,0:0:0:0:
210,192,101508,1,0,0:0:0:0:
210,192,101586,1,8,0:0:0:0:
210,192,101664,1,0,0:0:0:0:
210,192,101742,1,8,0:0:0:0:
190,122,101898,1,0,0:0:0:0:
190,122,102055,1,0,0:0:0:0:
233,171,102133,1,8,0:0:0:0:
190,122,102211,1,0,0:0:0:0:
190,122,102367,1,8,0:0:0:0:
190,122,102523,1,8,0:0:0:0:
190,122,102601,1,0,0:0:0:0:
352,123,102680,1,8,0:0:0:0:
190,122,102758,1,8,0:0:0:0:
190,122,102836,1,0,0:0:0:0:
182,166,102992,1,8,0:0:0:0:
231,176,103148,1,8,0:0:0:0:
230,175,103305,1,0,0:0:0:0:
41,147,103383,1,0,0:0:0:0:
303,119,103461,1,0,0:0:0:0:
303,119,103617,1,8,0:0:0:0:
191,52,103773,1,0,0:0:0:0:
191,52,103851,1,8,0:0:0:0:
191,52,103930,1,0,0:0:0:0:
191,52,104008,1,8,0:0:0:0:
191,52,104086,1,0,0:0:0:0:
191,52,104164,1,0,0:0:0:0:
191,52,104242,1,8,0:0:0:0:
236,125,104398,1,12,0:0:0:0:
256,192,104555,12,0,105648,0:0:0:0:
373,131,105805,5,0,0:0:0:0:
373,131,105961,5,8,0:0:0:0:
373,131,106039,1,0,0:0:0:0:
474,316,106117,5,8,0:0:0:0:
474,316,106169,5,8,0:0:0:0:
474,316,106221,5,8,0:0:0:0:
474,316,106273,5,8,0:0:0:0:
474,316,106325,5,8,0:0:0:0:
474,316,106377,5,8,0:0:0:0:
474,316,106430,5,0,0:0:0:0:
295,137,106508,1,0,0:0:0:0:
295,131,106586,1,8,0:0:0:0:
295,131,106664,1,8,0:0:0:0:
295,137,106742,1,0,0:0:0:0:
191,153,106820,1,8,0:0:0:0:
191,153,106898,1,8,0:0:0:0:
191,153,106976,1,8,0:0:0:0:
191,153,107055,1,4,0:0:0:0:
264,98,107211,1,0,0:0:0:0:
340,163,107289,1,0,0:0:0:0:
340,163,107367,1,8,0:0:0:0:
221,123,107523,1,0,0:0:0:0:
265,108,107601,1,0,0:0:0:0:
221,123,107680,1,8,0:0:0:0:
221,123,107758,1,8,0:0:0:0:
221,123,107836,1,0,0:0:0:0:
221,123,107992,1,8,0:0:0:0:
221,123,108148,1,0,0:0:0:0:
221,123,108226,1,0,0:0:0:0:
221,123,108305,1,0,0:0:0:0:
221,123,108461,1,0,0:0:0:0:
221,123,108617,1,8,0:0:0:0:
221,123,108773,1,0,0:0:0:0:
221,123,108851,1,0,0:0:0:0:
221,123,108930,1,8,0:0:0:0:
221,123,109008,1,8,0:0:0:0:
221,123,109086,1,0,0:0:0:0:
221,123,109164,1,0,0:0:0:0:
221,123,109242,1,8,0:0:0:0:
226,44,109398,1,8,0:0:0:0:
222,55,109476,1,8,0:0:0:0:
236,109,109555,1,0,0:0:0:0:
196,104,109711,1,0,0:0:0:0:
196,104,109789,1,0,0:0:0:0:
196,104,109867,1,8,0:0:0:0:
177,87,110023,1,0,0:0:0:0:
177,87,110101,1,8,0:0:0:0:
177,87,110180,1,0,0:0:0:0:
177,87,110258,1,8,0:0:0:0:
177,87,110336,1,0,0:0:0:0:
204,51,110492,1,8,0:0:0:0:
396,264,110648,1,0,0:0:0:0:
173,27,110726,1,0,0:0:0:0:
205,66,110805,1,8,0:0:0:0:
206,67,110961,1,0,0:0:0:0:
350,234,111117,1,8,0:0:0:0:
297,125,111273,1,0,0:0:0:0:
269,125,111351,1,0,0:0:0:0:
297,125,111430,1,8,0:0:0:0:
268,160,111508,1,8,0:0:0:0:
263,126,111586,1,0,0:0:0:0:
172,132,111742,1,8,0:0:0:0:
328,260,111898,1,0,0:0:0:0:
328,260,111976,1,8,0:0:0:0:
328,260,112055,1,0,0:0:0:0:
120,104,112211,1,0,0:0:0:0:
120,104,112289,1,0,0:0:0:0:
120,104,112367,1,8,0:0:0:0:
188,112,112523,1,8,0:0:0:0:
188,112,112601,1,0,0:0:0:0:
188,112,112680,1,8,0:0:0:0:
188,112,112758,1,8,0:0:0:0:
188,112,112836,1,0,0:0:0:0:
188,112,112914,1,0,0:0:0:0:
188,112,112992,1,8,0:0:0:0:
248,112,113148,1,8,0:0:0:0:
248,112,113305,1,0,0:0:0:0:
200,92,113461,1,0,0:0:0:0:
200,92,113539,1,0,0:0:0:0:
200,92,113617,1,8,0:0:0:0:
172,92,113773,1,0,0:0:0:0:
172,92,113851,1,8,0:0:0:0:
172,92,113930,1,0,0:0:0:0:
172,92,114008,1,0,0:0:0:0:
172,92,114086,1,8,0:0:0:0:
172,92,114164,1,0,0:0:0:0:
172,92,114242,1,8,0:0:0:0:
192,60,114398,1,8,0:0:0:0:
176,96,114476,1,8,0:0:0:0:
176,96,114555,1,0,0:0:0:0:
180,116,114711,1,8,0:0:0:0:
180,116,114789,1,0,0:0:0:0:
180,116,114867,1,8,0:0:0:0:
192,116,115023,1,0,0:0:0:0:
192,116,115101,1,8,0:0:0:0:
192,116,115180,1,0,0:0:0:0:
192,116,115258,1,8,0:0:0:0:
192,116,115336,1,0,0:0:0:0:
204,96,115492,1,8,0:0:0:0:
152,132,115648,1,0,0:0:0:0:
200,72,115726,1,0,0:0:0:0:
204,132,115805,1,8,0:0:0:0:
204,132,115961,1,0,0:0:0:0:
184,120,116117,1,8,0:0:0:0:
204,136,116273,1,0,0:0:0:0:
197,142,116351,1,0,0:0:0:0:
204,136,116430,1,8,0:0:0:0:
204,136,116508,1,0,0:0:0:0:
204,136,116586,1,8,0:0:0:0:
204,136,116664,1,8,0:0:0:0:
204,136,116742,1,0,0:0:0:0:
204,136,116820,1,8,0:0:0:0:
204,136,116898,1,8,0:0:0:0:
204,136,116976,1,8,0:0:0:0:
204,136,117055,1,4,0:0:0:0:
256,96,117367,1,0,0:0:0:0:
256,96,117523,1,4,0:0:0:0:
256,96,117836,1,4,0:0:0:0:
256,96,118148,1,4,0:0:0:0:
236,104,118461,1,8,0:0:0:0:
236,104,118539,1,8,0:0:0:0:
236,104,118617,1,4,0:0:0:0:
304,232,118930,1,4,0:0:0:0:
304,232,119164,1,4,0:0:0:0:
304,232,119398,1,4,0:0:0:0:
304,232,119555,1,12,0:0:0:0:
280,176,119711,1,0,0:0:0:0:
364,312,119789,1,0,0:0:0:0:
304,272,119867,1,8,0:0:0:0:
176,264,120023,1,0,0:0:0:0:
176,264,120101,1,8,0:0:0:0:
344,208,120180,1,0,0:0:0:0:
176,264,120258,1,8,0:0:0:0:
176,264,120336,1,0,0:0:0:0:
296,268,120492,1,8,0:0:0:0:
216,124,120648,1,0,0:0:0:0:
216,124,120726,1,8,0:0:0:0:
216,124,120805,1,0,0:0:0:0:
160,128,120961,1,0,0:0:0:0:
160,128,121117,1,8,0:0:0:0:
212,132,121273,1,0,0:0:0:0:
212,132,121351,1,8,0:0:0:0:
212,132,121430,1,0,0:0:0:0:
212,132,121508,1,0,0:0:0:0:
212,132,121586,1,8,0:0:0:0:
212,132,121664,1,0,0:0:0:0:
212,132,121742,1,8,0:0:0:0:
180,116,121898,1,8,0:0:0:0:
180,116,121976,1,8,0:0:0:0:
180,116,122055,1,0,0:0:0:0:
192,128,122211,1,0,0:0:0:0:
220,148,122289,1,0,0:0:0:0:
168,136,122367,1,8,0:0:0:0:
184,128,122523,1,8,0:0:0:0:
184,128,122601,1,0,0:0:0:0:
184,128,122680,1,8,0:0:0:0:
184,128,122758,1,8,0:0:0:0:
184,128,122836,1,0,0:0:0:0:
184,128,122914,1,0,0:0:0:0:
184,128,122992,1,8,0:0:0:0:
224,104,123148,1,8,0:0:0:0:
224,104,123226,1,8,0:0:0:0:
224,104,123305,1,0,0:0:0:0:
188,80,123461,1,8,0:0:0:0:
188,80,123539,1,0,0:0:0:0:
188,80,123617,1,8,0:0:0:0:
232,96,123773,1,0,0:0:0:0:
232,96,123851,1,8,0:0:0:0:
232,96,123930,1,0,0:0:0:0:
232,96,124008,1,8,0:0:0:0:
232,96,124086,1,0,0:0:0:0:
232,96,124164,1,0,0:0:0:0:
232,96,124242,1,8,0:0:0:0:
240,100,124398,1,12,0:0:0:0:
256,192,124555,12,0,126898,0:0:0:0:
268,216,127055,5,4,0:0:0:0:
