osu file format v14

[General]
AudioFilename: audio.mp3
AudioLeadIn: 0
PreviewTime: 86976
Countdown: 0
SampleSet: Normal
StackLeniency: 0.7
Mode: 1
LetterboxInBreaks: 0
WidescreenStoryboard: 0

[Editor]
DistanceSpacing: 0.1
BeatDivisor: 4
GridSize: 32
TimelineZoom: 2.2

[Metadata]
Title:Dizzolve
TitleUnicode:Dizzolve
Artist:Ester
ArtistUnicode:Ester
Creator:_DUSK_
Version:Kantan
Source:
Tags:bofu2017 goheegy red velvet artcore breakcore dnb electronic instrumental bms litmus* mi
BeatmapID:1714381
BeatmapSetID:817528

[Difficulty]
HPDrainRate:8
CircleSize:5
OverallDifficulty:3
ApproachRate:9
SliderMultiplier:1.4
SliderTickRate:1

[Events]
//Background and Video events
0,0,"dizz.jpg",0,-15
//Break Periods
//Storyboard Layer 0 (Background)
//Storyboard Layer 1 (Fail)
//Storyboard Layer 2 (Pass)
//Storyboard Layer 3 (Foreground)
//Storyboard Layer 4 (Overlay)
//Storyboard Sound Samples

[TimingPoints]
2055,312.5,4,1,0,100,1,0
2055,-111.111111111111,4,1,0,100,0,0
43930,-111.111111111111,4,1,0,60,0,0
44476,-125,4,1,0,100,0,0
64555,-117.647058823529,4,1,0,100,0,0
73930,-116.279069767442,4,1,0,100,0,0
74242,-114.942528735632,4,1,0,100,0,0
74555,-113.636363636364,4,1,0,100,0,0
84555,-112.359550561798,4,1,0,100,0,0
87055,-108.695652173913,4,1,0,100,0,1
97055,-108.695652173913,4,1,0,100,0,0
99555,-108.695652173913,4,1,0,100,0,1
104398,-108.695652173913,4,1,0,100,0,0
107055,-108.695652173913,4,1,0,100,0,1
117055,-108.695652173913,4,1,0,100,0,0
119555,-108.695652173913,4,1,0,100,0,1
124398,-108.695652173913,4,1,0,100,0,0

[HitObjects]
256,192,2055,5,4,0:0:0:0:
256,192,3305,1,0,0:0:0:0:
256,192,3930,1,8,0:0:0:0:
256,192,4555,1,0,0:0:0:0:
256,192,5805,1,0,0:0:0:0:
256,192,6430,1,8,0:0:0:0:
256,192,6742,1,8,0:0:0:0:
256,192,7055,1,0,0:0:0:0:
256,192,8305,1,0,0:0:0:0:
256,192,8930,1,8,0:0:0:0:
256,192,9555,1,8,0:0:0:0:
256,192,9867,1,4,0:0:0:0:
256,192,10805,1,4,0:0:0:0:
256,192,11742,1,8,0:0:0:0:
256,192,12055,1,4,0:0:0:0:
256,192,13305,1,0,0:0:0:0:
256,192,13930,1,8,0:0:0:0:
256,192,14555,1,0,0:0:0:0:
256,192,15805,1,0,0:0:0:0:
256,192,16430,1,8,0:0:0:0:
256,192,16742,1,8,0:0:0:0:
256,192,17055,1,0,0:0:0:0:
256,192,18305,1,0,0:0:0:0:
256,192,18930,1,8,0:0:0:0:
256,192,19555,1,8,0:0:0:0:
256,192,19867,1,4,0:0:0:0:
256,192,20805,1,4,0:0:0:0:
256,192,21742,1,8,0:0:0:0:
256,192,22367,1,4,0:0:0:0:
256,192,23305,1,0,0:0:0:0:
256,192,23930,1,8,0:0:0:0:
256,192,24242,1,8,0:0:0:0:
256,192,24555,1,4,0:0:0:0:
256,192,25180,1,8,0:0:0:0:
256,192,25805,1,0,0:0:0:0:
256,192,26117,1,0,0:0:0:0:
256,192,26430,1,8,0:0:0:0:
256,192,26742,1,8,0:0:0:0:
256,192,27055,1,0,0:0:0:0:
256,192,27680,1,8,0:0:0:0:
256,192,28305,1,8,0:0:0:0:
256,192,28617,1,0,0:0:0:0:
256,192,28930,1,8,0:0:0:0:
256,192,29555,1,0,0:0:0:0:
256,192,30180,1,0,0:0:0:0:
256,192,30805,1,8,0:0:0:0:
256,192,31117,1,0,0:0:0:0:
256,192,31430,1,8,0:0:0:0:
256,192,32055,1,8,0:0:0:0:
256,192,32367,1,4,0:0:0:0:
256,192,33305,1,4,0:0:0:0:
256,192,34242,1,8,0:0:0:0:
256,192,34555,1,4,0:0:0:0:
256,192,35180,1,8,0:0:0:0:
256,192,35805,1,0,0:0:0:0:
256,192,36117,1,8,0:0:0:0:
256,192,36430,1,0,0:0:0:0:
256,192,36742,1,8,0:0:0:0:
256,192,37055,1,0,0:0:0:0:
256,192,37680,1,8,0:0:0:0:
256,192,38305,1,0,0:0:0:0:
256,192,38617,1,0,0:0:0:0:
256,192,38930,1,8,0:0:0:0:
256,192,39555,1,0,0:0:0:0:
256,192,40180,1,8,0:0:0:0:
256,192,40805,1,8,0:0:0:0:
256,192,41117,1,8,0:0:0:0:
256,192,41430,1,0,0:0:0:0:
256,192,42055,1,0,0:0:0:0:
256,192,42367,1,8,0:0:0:0:
256,192,42992,1,8,0:0:0:0:
256,192,43305,1,0,0:0:0:0:
256,192,43617,1,8,0:0:0:0:
256,192,44555,5,12,0:0:0:0:
256,192,45180,1,0,0:0:0:0:
256,192,45805,1,8,0:0:0:0:
256,192,47055,1,8,0:0:0:0:
256,192,47680,1,8,0:0:0:0:
256,192,48305,1,0,0:0:0:0:
256,192,49555,1,0,0:0:0:0:
256,192,50805,1,8,0:0:0:0:
256,192,52055,1,0,0:0:0:0:
256,192,52680,1,0,0:0:0:0:
256,192,53305,1,8,0:0:0:0:
256,192,53930,1,8,0:0:0:0:
256,192,54555,1,12,0:0:0:0:
256,192,55180,1,0,0:0:0:0:
256,192,55805,1,8,0:0:0:0:
256,192,57055,1,8,0:0:0:0:
256,192,57680,1,8,0:0:0:0:
256,192,58305,1,0,0:0:0:0:
256,192,59555,1,8,0:0:0:0:
256,192,60805,1,0,0:0:0:0:
256,192,62055,1,8,0:0:0:0:
256,192,62680,1,0,0:0:0:0:
256,192,63305,1,0,0:0:0:0:
256,192,63617,1,0,0:0:0:0:
256,192,63930,1,8,0:0:0:0:
256,192,64242,1,8,0:0:0:0:
256,192,64555,1,4,0:0:0:0:
256,192,65492,1,4,0:0:0:0:
256,192,66430,1,8,0:0:0:0:
256,192,67055,1,4,0:0:0:0:
256,192,67992,1,4,0:0:0:0:
256,192,68930,1,8,0:0:0:0:
256,192,69242,1,8,0:0:0:0:
256,192,69555,1,4,0:0:0:0:
256,192,70492,1,4,0:0:0:0:
256,192,71430,1,8,0:0:0:0:
256,192,72055,1,4,0:0:0:0:
256,192,73305,1,4,0:0:0:0:
256,192,73930,1,0,0:0:0:0:
256,192,74242,1,8,0:0:0:0:
256,192,74555,1,4,0:0:0:0:
256,192,75023,1,4,0:0:0:0:
256,192,75492,1,4,0:0:0:0:
256,192,76430,1,8,0:0:0:0:
256,192,76742,1,8,0:0:0:0:
256,192,77055,1,4,0:0:0:0:
256,192,77523,1,4,0:0:0:0:
256,192,77992,1,4,0:0:0:0:
256,192,78930,1,8,0:0:0:0:
256,192,79242,1,8,0:0:0:0:
256,192,79555,1,4,0:0:0:0:
256,192,80023,1,4,0:0:0:0:
256,192,80492,1,4,0:0:0:0:
256,192,81430,1,8,0:0:0:0:
256,192,82055,1,4,0:0:0:0:
256,192,82523,1,4,0:0:0:0:
256,192,83305,1,12,0:0:0:0:
256,192,83773,1,12,0:0:0:0:
256,192,84555,1,8,0:0:0:0:
256,192,84867,1,8,0:0:0:0:
256,192,85180,1,8,0:0:0:0:
256,192,85805,1,0,0:0:0:0:
256,192,86430,1,8,0:0:0:0:
256,192,86742,1,8,0:0:0:0:
256,192,87055,1,4,0:0:0:0:
256,192,87680,1,8,0:0:0:0:
256,192,88305,1,0,0:0:0:0:
256,192,88617,1,0,0:0:0:0:
256,192,88930,1,8,0:0:0:0:
256,192,89242,1,8,0:0:0:0:
256,192,89555,1,0,0:0:0:0:
256,192,90180,1,8,0:0:0:0:
256,192,90492,1,0,0:0:0:0:
256,192,90805,1,8,0:0:0:0:
256,192,92055,1,0,0:0:0:0:
256,192,92367,1,0,0:0:0:0:
256,192,92680,1,8,0:0:0:0:
256,192,93305,1,0,0:0:0:0:
256,192,93617,1,0,0:0:0:0:
256,192,93930,1,8,0:0:0:0:
256,192,94242,1,8,0:0:0:0:
256,192,94555,1,0,0:0:0:0:
256,192,95180,1,8,0:0:0:0:
256,192,95492,1,0,0:0:0:0:
256,192,95805,1,8,0:0:0:0:
256,192,96117,1,8,0:0:0:0:
256,192,96430,1,0,0:0:0:0:
256,192,96742,1,8,0:0:0:0:
256,192,97055,1,4,0:0:0:0:
256,192,98148,1,4,0:0:0:0:
256,192,99555,1,4,0:0:0:0:
256,192,100180,1,8,0:0:0:0:
256,192,100805,1,0,0:0:0:0:
256,192,101117,1,8,0:0:0:0:
256,192,101430,1,8,0:0:0:0:
256,192,101742,1,8,0:0:0:0:
256,192,102055,1,0,0:0:0:0:
256,192,102680,1,8,0:0:0:0:
256,192,103305,1,8,0:0:0:0:
256,192,103617,1,0,0:0:0:0:
256,192,103930,1,8,0:0:0:0:
256,192,104398,1,4,0:0:0:0:
256,192,105805,1,0,0:0:0:0:
256,192,106117,1,0,0:0:0:0:
256,192,106430,1,8,0:0:0:0:
256,192,106742,1,8,0:0:0:0:
256,192,107055,5,4,0:0:0:0:
256,192,107680,1,8,0:0:0:0:
256,192,108305,1,0,0:0:0:0:
256,192,108617,1,0,0:0:0:0:
256,192,108930,1,8,0:0:0:0:
248,195,109242,1,0,0:0:0:0:
248,195,109555,1,8,0:0:0:0:
256,192,110180,1,8,0:0:0:0:
256,192,110492,1,8,0:0:0:0:
256,192,110805,1,0,0:0:0:0:
256,192,111117,1,0,0:0:0:0:
256,192,111430,1,8,0:0:0:0:
256,192,112055,1,0,0:0:0:0:
256,192,112680,1,8,0:0:0:0:
248,195,112992,1,0,0:0:0:0:
256,192,113305,1,8,0:0:0:0:
256,192,113930,1,0,0:0:0:0:
256,192,114242,1,0,0:0:0:0:
256,192,114555,1,8,0:0:0:0:
256,192,115180,1,8,0:0:0:0:
256,192,115492,1,0,0:0:0:0:
256,192,115805,1,0,0:0:0:0:
256,192,116117,1,0,0:0:0:0:
256,192,116430,1,8,0:0:0:0:
248,195,116742,1,8,0:0:0:0:
256,192,117055,1,4,0:0:0:0:
256,192,118148,1,4,0:0:0:0:
248,195,118930,1,8,0:0:0:0:
256,192,119555,1,4,0:0:0:0:
256,192,120180,1,8,0:0:0:0:
256,192,120492,1,8,0:0:0:0:
256,192,120805,1,0,0:0:0:0:
256,192,121117,1,0,0:0:0:0:
256,192,121430,1,8,0:0:0:0:
256,192,122055,1,0,0:0:0:0:
248,195,122367,1,0,0:0:0:0:
256,192,122680,1,8,0:0:0:0:
256,192,123305,1,0,0:0:0:0:
248,195,123617,1,8,0:0:0:0:
256,192,123930,1,0,0:0:0:0:
256,192,124398,1,4,0:0:0:0:
256,192,124555,12,0,126898,0:0:0:0:
256,192,127055,5,4,0:0:0:0:
