osu file format v14

[General]
AudioFilename: audio.mp3
AudioLeadIn: 0
PreviewTime: 57580
Countdown: 0
SampleSet: Soft
StackLeniency: 0.5
Mode: 0
LetterboxInBreaks: 0
SkinPreference:Default
WidescreenStoryboard: 1

[Editor]
DistanceSpacing: 1.5
BeatDivisor: 4
GridSize: 4
TimelineZoom: 1

[Metadata]
Title:SigSig (MiyuMiyu mix)
TitleUnicode:SigSig (MiyuMiyu mix)
Artist:Est feat. MIYU
ArtistUnicode:Est feat. MIYU
Creator:Bloxi
Version:Hyper
Source:beatmania IIDX 12 HAPPY SKY
Tags:kors k estish carmine mizuno yume trance pop electronic video game vgm english japanese
BeatmapID:3305695
BeatmapSetID:1618528

[Difficulty]
HPDrainRate:4
CircleSize:4
OverallDifficulty:6
ApproachRate:7
SliderMultiplier:1.6
SliderTickRate:1

[Events]
//Background and Video events
0,0,"bg.png",0,0
//Break Periods
2,54580,56680
//Storyboard Layer 0 (Background)
//Storyboard Layer 1 (Fail)
//Storyboard Layer 2 (Pass)
//Storyboard Layer 3 (Foreground)
//Storyboard Layer 4 (Overlay)
//Storyboard Sound Samples

[TimingPoints]
1580,400,4,2,1,75,1,0
2780,-100,4,2,1,5,0,0
3180,-100,4,2,1,65,0,0
28780,-133.333333333333,4,2,1,55,0,0
41580,-100,4,2,1,65,0,0
57580,-100,4,2,1,75,0,1
70180,-100,4,2,1,75,0,0
70380,-100,4,2,1,75,0,1
79780,-100,4,2,1,75,0,0
79980,-100,4,2,1,75,0,1
80580,-100,4,2,1,75,0,0
80780,-100,4,2,1,75,0,1
81380,-100,4,2,1,75,0,0
81580,-100,4,2,1,75,0,1
82980,-100,4,2,1,75,0,0
83180,-100,4,2,1,75,0,1
95780,-100,4,2,1,75,0,0
95980,-100,4,2,1,75,0,1
102180,-100,4,2,1,75,0,0
102380,-100,4,2,1,75,0,1
103180,-100,4,2,1,75,0,0
103380,-100,4,2,1,75,0,1
103680,-100,4,2,1,75,0,0
103780,-100,4,2,1,75,0,1
103880,-100,4,2,1,75,0,0
103980,-100,4,2,1,75,0,1
104980,-100,4,2,1,75,0,0
105180,-100,4,2,1,75,0,1
105380,-100,4,2,1,75,0,0
105580,-100,4,2,1,75,0,1
106580,-100,4,2,1,75,0,0
106780,-100,4,2,1,75,0,1
106980,-100,4,2,1,75,0,0
107180,-100,4,2,1,75,0,1
107380,-100,4,2,1,75,0,0
107580,-100,4,2,1,75,0,1
107780,-100,4,2,1,75,0,0
107980,-100,4,2,1,75,0,1
108780,-100,4,2,1,75,0,0

[Colours]
Combo1 : 252,95,162
Combo2 : 252,206,67
Combo3 : 52,191,237
SliderBorder : 255,255,255

[HitObjects]
256,192,1580,5,4,0:0:0:0:
256,192,1780,12,0,2780,0:0:0:0:
172,192,3180,6,2,B|164:152|164:152|180:112,1,80,2|2,0:0|0:0,0:0:0:0:
260,92,3580,1,10,0:0:0:0:
260,92,3780,1,2,0:0:0:0:
333,115,3980,2,2,B|348:152|348:152|340:192,1,80,2|2,0:0|0:0,0:0:0:0:
312,268,4380,6,2,L|296:348,1,80,10|2,0:0|0:0,0:0:0:0:
216,348,4780,2,2,L|200:269,1,80,2|2,0:0|0:0,0:0:0:0:
260,216,5180,1,10,0:0:0:0:
260,216,5380,1,2,0:0:0:0:
176,196,5580,1,2,0:0:0:0:
176,196,5780,1,2,0:0:0:0:
88,212,5980,1,10,0:0:0:0:
20,172,6180,1,2,0:0:0:0:
24,92,6380,1,2,0:0:0:0:
172,28,6780,5,10,0:0:0:0:
256,48,6980,1,2,0:0:0:0:
340,28,7180,2,2,L|428:28,1,80,2|2,0:0|0:0,0:0:0:0:
448,112,7580,2,2,L|448:192,1,80,10|2,0:0|0:0,0:0:0:0:
448,272,7980,1,2,0:0:0:0:
340,356,8380,5,10,0:0:0:0:
256,336,8580,1,2,0:0:0:0:
172,356,8780,1,2,0:0:0:0:
88,336,8980,1,2,0:0:0:0:
4,316,9180,2,2,P|0:292|8:260,4,40,10|2|2|2|2,0:0|0:0|0:0|0:0|0:0,0:0:0:0:
128,192,9980,5,10,0:0:0:0:
192,252,10180,1,2,0:0:0:0:
256,192,10380,2,2,L|256:98,1,80,2|2,0:0|0:0,0:0:0:0:
180,84,10780,2,2,B|209:51|209:51|209:3,1,80,10|2,0:0|0:0,0:0:0:0:
303,14,11180,2,2,B|303:51|303:51|332:84,1,80,2|2,0:0|0:0,0:0:0:0:
392,148,11580,5,10,0:0:0:0:
392,236,11780,1,2,0:0:0:0:
340,308,11980,1,2,0:0:0:0:
256,332,12180,1,2,0:0:0:0:
179,315,12380,1,10,0:0:0:0:
179,315,12580,1,2,0:0:0:0:
179,315,12780,1,2,0:0:0:0:
124,152,13180,5,10,0:0:0:0:
124,152,13380,1,2,0:0:0:0:
216,152,13580,2,2,L|296:152,1,80,2|2,0:0|0:0,0:0:0:0:
388,152,13980,1,10,0:0:0:0:
388,152,14380,1,2,0:0:0:0:
131,159,14980,1,2,0:0:0:0:
131,159,15180,1,2,0:0:0:0:
131,159,15380,2,2,L|131:257,1,80,2|10,0:0|0:0,0:0:0:0:
256,368,15980,5,6,0:0:0:0:
260,196,16380,1,10,0:0:0:0:
260,196,16580,1,2,0:0:0:0:
320,132,16780,2,2,P|317:91|299:54,1,80,2|2,0:0|0:0,0:0:0:0:
211,56,17180,2,2,P|194:92|192:132,1,80,10|2,0:0|0:0,0:0:0:0:
256,192,17580,2,2,L|256:276,1,80,2|2,0:0|0:0,0:0:0:0:
256,360,17980,5,10,0:0:0:0:
344,352,18180,1,2,0:0:0:0:
392,280,18380,1,2,0:0:0:0:
404,192,18580,1,2,0:0:0:0:
380,116,18780,1,10,0:0:0:0:
380,116,18980,1,2,0:0:0:0:
380,116,19180,1,2,0:0:0:0:
139,109,19580,5,10,0:0:0:0:
108,192,19780,1,2,0:0:0:0:
139,275,19980,2,2,P|171:299|215:303,1,80,2|2,0:0|0:0,0:0:0:0:
302,303,20380,2,2,P|341:298|373:275,1,80,10|2,0:0|0:0,0:0:0:0:
404,192,20780,1,2,0:0:0:0:
256,96,21180,5,10,0:0:0:0:
184,44,21380,1,2,0:0:0:0:
132,116,21580,1,2,0:0:0:0:
60,64,21780,1,2,0:0:0:0:
8,136,21980,2,2,L|8:192,4,40,10|2|2|2|2,0:0|0:0|0:0|0:0|0:0,0:0:0:0:
8,312,22780,5,10,0:0:0:0:
92,336,22980,1,2,0:0:0:0:
176,312,23180,2,2,L|256:312,1,80,2|2,0:0|0:0,0:0:0:0:
336,272,23580,2,2,P|346:233|341:194,1,80,10|2,0:0|0:0,0:0:0:0:
312,112,23980,2,2,P|307:72|317:34,1,80,2|2,0:0|0:0,0:0:0:0:
400,4,24380,5,10,0:0:0:0:
482,34,24580,1,2,0:0:0:0:
428,104,24780,1,2,0:0:0:0:
510,134,24980,1,2,0:0:0:0:
444,192,25180,6,0,L|376:252,1,80,10|2,0:0|0:0,0:0:0:0:
320,308,25580,1,6,0:0:0:0:
196,188,25980,1,10,0:0:0:0:
196,188,26180,1,2,0:0:0:0:
128,244,26380,6,0,L|68:191,1,80,6|2,0:0|0:0,0:0:0:0:
2,134,26780,1,10,0:0:0:0:
196,188,27180,2,0,B|236:180|256:140|256:140|276:180|316:188,1,160,6|8,0:0|0:0,0:0:0:0:
510,134,27980,6,2,L|510:81,3,40,2|2|2|2,0:0|0:0|0:0|0:0,0:0:0:0:
510,50,28380,1,10,0:0:0:0:
436,0,28580,1,2,0:0:0:0:
363,50,28780,5,6,0:0:0:0:
149,50,29380,2,0,L|68:50,1,60.0000022888184,0|2,0:0|0:0,0:0:0:0:
2,134,29980,1,0,0:0:0:0:
16,192,30180,1,0,0:0:0:0:
76,192,30380,1,2,0:0:0:0:
256,192,30980,2,0,L|316:192,1,60.0000022888184,0|2,0:0|0:0,0:0:0:0:
436,192,31580,1,0,0:0:0:0:
436,192,31980,1,2,0:0:0:0:
436,376,32580,5,0,0:0:0:0:
472,328,32780,1,2,0:0:0:0:
360,280,33180,1,0,0:0:0:0:
256,336,33580,1,2,0:0:0:0:
256,336,33980,1,0,0:0:0:0:
152,280,34380,5,2,0:0:0:0:
100,252,34580,1,0,0:0:0:0:
88,192,34780,1,2,0:0:0:0:
100,132,34980,1,0,0:0:0:0:
152,104,35180,1,2,0:0:0:0:
256,252,35780,5,0,0:0:0:0:
256,192,35980,1,2,0:0:0:0:
360,104,36380,1,0,0:0:0:0:
424,192,36780,1,2,0:0:0:0:
360,280,37180,1,0,0:0:0:0:
360,280,37580,5,2,0:0:0:0:
412,252,37780,1,0,0:0:0:0:
424,192,37980,1,2,0:0:0:0:
412,132,38180,1,0,0:0:0:0:
360,104,38380,1,2,0:0:0:0:
360,104,38980,6,0,L|276:104,1,60.0000022888184,0|2,0:0|0:0,0:0:0:0:
256,216,39580,1,0,0:0:0:0:
212,104,39980,1,2,0:0:0:0:
100,132,40380,1,0,0:0:0:0:
100,252,40780,1,2,0:0:0:0:
212,280,41180,1,0,0:0:0:0:
364,191,41580,6,2,P|402:184|442:191,1,80,6|2,0:0|0:0,0:0:0:0:
480,264,41980,2,0,L|480:344,1,80,10|2,0:0|0:0,0:0:0:0:
388,344,42380,2,0,L|284:344,1,80,2|2,0:0|0:0,0:0:0:0:
256,280,42780,1,10,0:0:0:0:
204,344,42980,1,2,0:0:0:0:
124,344,43180,2,0,L|44:344,1,80,2|2,0:0|0:0,0:0:0:0:
32,264,43580,2,0,L|32:184,1,80,10|2,0:0|0:0,0:0:0:0:
68,112,43980,1,2,0:0:0:0:
112,48,44180,5,6,0:0:0:0:
256,104,44580,1,6,0:0:0:0:
328,160,44780,2,2,B|356:188|356:188|396:188,1,80,6|2,0:0|0:0,0:0:0:0:
396,268,45180,2,2,B|356:268|356:268|328:296,1,80,10|2,0:0|0:0,0:0:0:0:
256,228,45580,2,2,L|164:228,1,80,2|2,0:0|0:0,0:0:0:0:
96,228,45980,2,2,P|70:191|67:147,1,80,10|2,0:0|0:0,0:0:0:0:
96,84,46380,5,6,0:0:0:0:
256,60,46780,1,14,0:0:0:0:
416,84,47180,5,6,0:0:0:0:
336,68,47380,1,2,0:0:0:0:
256,60,47580,1,10,0:0:0:0:
176,68,47780,1,6,0:0:0:0:
96,84,47980,1,6,0:0:0:0:
176,316,48580,5,2,0:0:0:0:
256,324,48780,1,2,0:0:0:0:
336,316,48980,1,6,0:0:0:0:
444,196,49380,1,6,0:0:0:0:
444,196,49580,1,6,0:0:0:0:
336,316,49980,1,10,0:0:0:0:
176,316,50380,5,2,0:0:0:0:
112,264,50580,1,2,0:0:0:0:
72,192,50780,1,10,0:0:0:0:
112,120,50980,1,6,0:0:0:0:
176,68,51180,1,6,0:0:0:0:
256,292,51780,5,6,0:0:0:0:
256,372,51980,1,6,0:0:0:0:
256,132,52580,1,6,0:0:0:0:
256,52,52780,1,6,0:0:0:0:
176,192,53180,1,14,0:0:0:0:
336,192,53580,1,6,0:0:0:0:
176,192,53980,6,2,L|136:192,4,40,14|2|2|2|6,0:0|0:0|0:0|0:0|0:0,0:0:0:0:
412,192,57580,6,2,P|412:247|377:289,1,80,2|2,0:0|0:0,0:0:0:0:
332,312,57980,1,10,0:0:0:0:
256,332,58180,1,2,0:0:0:0:
180,312,58380,2,2,P|180:257|215:215,1,80,2|2,0:0|0:0,0:0:0:0:
256,192,58780,2,2,P|271:155|267:116,1,80,10|2,0:0|0:0,0:0:0:0:
188,116,59180,2,2,L|76:116,1,80,2|2,0:0|0:0,0:0:0:0:
92,36,59580,2,2,L|12:36,1,80,10|2,0:0|0:0,0:0:0:0:
12,116,59980,2,2,B|12:168|32:192|32:192|12:216|12:268,1,160,2|10,0:0|0:0,0:0:0:0:
12,348,60580,1,2,0:0:0:0:
92,348,60780,6,2,L|196:348,1,80,2|2,0:0|0:0,0:0:0:0:
260,352,61180,1,10,0:0:0:0:
260,352,61380,1,2,0:0:0:0:
256,272,61580,2,2,L|256:192,1,80,2|2,0:0|0:0,0:0:0:0:
336,192,61980,2,2,L|416:192,1,80,10|2,0:0|0:0,0:0:0:0:
489,158,62380,2,2,B|520:128|507:85,1,80,2|2,0:0|0:0,0:0:0:0:
440,40,62780,2,2,B|409:70|421:112,1,80,10|2,0:0|0:0,0:0:0:0:
416,192,63180,2,2,B|348:192|348:144|264:144,1,160,2|10,0:0|0:0,0:0:0:0:
204,192,63780,1,2,0:0:0:0:
266,239,63980,6,2,B|348:240|348:192|416:192,1,160,2|10,0:0|0:0,0:0:0:0:
421,271,64580,1,2,0:0:0:0:
360,320,64780,2,2,B|336:352|336:352|296:352,1,80,2|2,0:0|0:0,0:0:0:0:
216,352,65180,2,2,B|176:352|176:352|152:320,1,80,10|2,0:0|0:0,0:0:0:0:
152,240,65580,2,2,L|152:124,1,80,2|2,0:0|0:0,0:0:0:0:
220,116,65980,2,2,B|256:99|256:99|292:116,1,80,10|2,0:0|0:0,0:0:0:0:
360,160,66380,2,2,L|360:240,1,80,2|2,0:0|0:0,0:0:0:0:
440,256,66780,2,2,L|440:144,1,80,10|2,0:0|0:0,0:0:0:0:
440,96,67180,6,0,B|370:77|383:27|310:7,1,160,2|10,0:0|0:0,0:0:0:0:
256,68,67780,1,2,0:0:0:0:
201,7,67980,2,0,B|128:27|141:77|72:96,1,160,2|10,0:0|0:0,0:0:0:0:
72,176,68580,1,2,0:0:0:0:
72,256,68780,2,2,B|124:256|124:256|180:280|180:280|180:328,1,160,2|10,0:0|0:0,0:0:0:0:
256,356,69380,1,2,0:0:0:0:
332,328,69580,2,2,B|332:280|332:280|388:256|388:256|440:256,1,160,2|10,0:0|0:0,0:0:0:0:
440,176,70180,1,2,0:0:0:0:
404,104,70380,6,2,L|329:132,1,80,2|2,0:0|0:0,0:0:0:0:
256,160,70780,1,10,0:0:0:0:
183,132,70980,1,2,0:0:0:0:
107,103,71180,2,2,P|72:84|48:48,1,80,2|2,0:0|0:0,0:0:0:0:
132,12,71580,2,2,L|224:12,1,80,10|2,0:0|0:0,0:0:0:0:
300,12,71980,6,2,L|380:12,1,80,2|2,0:0|0:0,0:0:0:0:
462,51,72380,2,2,P|439:84|405:103,1,80,10|2,0:0|0:0,0:0:0:0:
329,132,72780,2,2,B|329:192|329:192|300:228|300:228|300:288,1,160,2|10,0:0|0:0,0:0:0:0:
256,348,73380,1,2,0:0:0:0:
212,281,73580,6,2,B|212:228|212:228|183:192,1,80,2|2,0:0|0:0,0:0:0:0:
132,156,73980,1,10,0:0:0:0:
60,192,74180,1,2,0:0:0:0:
0,136,74380,2,2,L|0:44,1,80,2|2,0:0|0:0,0:0:0:0:
56,0,74780,2,2,L|152:0,1,80,10|2,0:0|0:0,0:0:0:0:
196,56,75180,2,2,B|216:88|216:88|216:144,1,80,2|2,0:0|0:0,0:0:0:0:
296,130,75580,2,2,B|296:88|296:88|316:56,1,80,10|2,0:0|0:0,0:0:0:0:
376,0,75980,2,2,B|464:0|464:0|512:56,1,160,2|10,0:0|0:0,0:0:0:0:
512,136,76580,1,2,0:0:0:0:
452,188,76780,6,2,P|424:215|414:254,1,80,2|2,0:0|0:0,0:0:0:0:
472,312,77180,2,2,P|462:350|434:378,1,80,10|2,0:0|0:0,0:0:0:0:
354,378,77580,2,2,P|326:350|316:311,1,80,2|2,0:0|0:0,0:0:0:0:
292,236,77980,2,2,B|256:219|256:219|220:236,1,80,10|2,0:0|0:0,0:0:0:0:
196,311,78380,2,2,P|185:350|158:378,1,80,2|2,0:0|0:0,0:0:0:0:
78,378,78780,2,2,P|50:350|40:312,1,80,10|2,0:0|0:0,0:0:0:0:
98,253,79180,2,2,P|88:215|60:188,1,80,2|2,0:0|0:0,0:0:0:0:
0,136,79580,5,10,0:0:0:0:
60,80,79780,1,2,0:0:0:0:
120,28,79980,2,2,L|232:28,1,80,6|2,0:0|0:0,0:0:0:0:
256,84,80380,1,10,0:0:0:0:
312,28,80580,1,2,0:0:0:0:
392,28,80780,2,2,L|450:28,2,40,6|2|2,0:0|0:0|0:0,0:0:0:0:
312,28,81180,5,10,0:0:0:0:
256,84,81380,1,2,0:0:0:0:
256,84,81580,2,2,L|256:164,1,80,6|2,0:0|0:0,0:0:0:0:
256,244,81980,2,2,L|344:244,1,80,10|2,0:0|0:0,0:0:0:0:
416,244,82380,2,2,L|416:300,2,40,2|2|2,0:0|0:0|0:0,0:0:0:0:
416,164,82780,1,10,0:0:0:0:
336,164,82980,1,2,0:0:0:0:
256,164,83180,6,0,L|96:164,1,160,6|10,0:0|0:0,0:0:0:0:
96,244,83780,1,2,0:0:0:0:
140,312,83980,2,2,B|176:312|176:340|216:340,1,80,2|2,0:0|0:0,0:0:0:0:
298,339,84380,2,2,B|336:340|336:312|372:312,1,80,10|2,0:0|0:0,0:0:0:0:
416,244,84780,2,0,L|496:244,1,80,2|2,0:0|0:0,0:0:0:0:
496,164,85180,2,0,L|496:60,1,80,10|2,0:0|0:0,0:0:0:0:
496,4,85580,2,2,B|416:4|416:4|336:4,1,160,2|10,0:0|0:0,0:0:0:0:
256,20,86180,1,2,0:0:0:0:
188,64,86380,6,2,B|172:104|199:138,1,80,2|2,0:0|0:0,0:0:0:0:
256,192,86780,1,10,0:0:0:0:
313,246,86980,1,2,0:0:0:0:
199,245,87180,2,2,B|172:280|188:320,1,80,2|2,0:0|0:0,0:0:0:0:
324,320,87580,2,2,B|340:280|312:245,1,80,10|2,0:0|0:0,0:0:0:0:
256,192,87980,2,2,B|229:158|245:118,1,80
324,64,88380,2,2,B|351:98|334:139,1,80,10|2,0:0|0:0,0:0:0:0:
256,192,88780,5,2,0:0:0:0:
192,240,88980,1,2,0:0:0:0:
216,316,89180,1,10,0:0:0:0:
296,316,89380,1,2,0:0:0:0:
320,240,89580,6,2,L|420:240,1,80,2|2,0:0|0:0,0:0:0:0:
472,276,89980,2,2,P|484:316|472:356,1,80,10|2,0:0|0:0,0:0:0:0:
400,320,90380,2,2,P|380:356|343:376,1,80,2|2,0:0|0:0,0:0:0:0:
296,316,90780,2,2,L|216:316,1,80,10|2,0:0|0:0,0:0:0:0:
164,375,91180,2,2,P|130:355|112:320,1,80,2|2,0:0|0:0,0:0:0:0:
37,352,91580,2,2,P|28:313|40:276,1,80,10|2,0:0|0:0,0:0:0:0:
112,242,91980,5,2,0:0:0:0:
49,192,92180,1,2,0:0:0:0:
73,116,92380,1,10,0:0:0:0:
153,116,92580,1,2,0:0:0:0:
177,192,92780,6,2,L|277:192,1,80,2|2,0:0|0:0,0:0:0:0:
336,192,93180,1,10,0:0:0:0:
359,268,93380,1,2,0:0:0:0:
439,268,93580,5,2,0:0:0:0:
454,231,93680,1,2,0:0:0:0:
463,192,93780,2,2,L|463:100,1,80,2|10,0:0|0:0,0:0:0:0:
463,32,94180,1,2,0:0:0:0:
384,32,94380,2,2,B|352:32|352:60|312:60,1,80,2|2,0:0|0:0,0:0:0:0:
292,136,94780,2,2,B|256:156|256:156|220:136,1,80,10|2,0:0|0:0,0:0:0:0:
200,60,95180,2,2,B|160:60|160:32|128:32,1,80,2|2,0:0|0:0,0:0:0:0:
49,32,95580,1,10,0:0:0:0:
49,192,95980,5,6,0:0:0:0:
49,192,96380,2,2,L|161:192,1,80,10|2,0:0|0:0,0:0:0:0:
208,192,96780,2,2,P|216:232|208:272,1,80,2|2,0:0|0:0,0:0:0:0:
180,344,97180,1,10,0:0:0:0:
256,372,97380,1,2,0:0:0:0:
332,344,97580,2,2,L|448:344,1,80,2|2,0:0|0:0,0:0:0:0:
460,268,97980,2,2,L|344:268,1,80,10|2,0:0|0:0,0:0:0:0:
304,270,98380,2,2,P|288:192|304:114,1,160,2|10,0:0|0:0,0:0:0:0:
332,40,98980,1,2,0:0:0:0:
256,12,99180,6,2,L|176:12,1,80,2|2,0:0|0:0,0:0:0:0:
95,12,99580,2,0,P|70:42|67:81,1,80,10|2,0:0|0:0,0:0:0:0:
96,156,99980,2,0,B|116:196|116:196|96:228,1,80,2|2,0:0|0:0,0:0:0:0:
67,302,100380,2,0,P|70:341|96:372,1,80,10|2,0:0|0:0,0:0:0:0:
176,372,100780,2,2,L|256:372,1,80,2|2,0:0|0:0,0:0:0:0:
256,292,101180,2,0,L|256:192,1,80,10|2,0:0|0:0,0:0:0:0:
312,156,101580,5,2,0:0:0:0:
256,100,101780,1,2,0:0:0:0:
200,156,101980,1,10,0:0:0:0:
256,212,102180,1,2,0:0:0:0:
312,156,102380,6,2,L|414:155,1,80,6|2,0:0|0:0,0:0:0:0:
472,172,102780,1,10,0:0:0:0:
500,248,102980,1,2,0:0:0:0:
480,324,103180,1,2,0:0:0:0:
416,372,103380,2,2,L|304:372,1,80,6|10,0:0|0:0,0:0:0:0:
256,372,103780,1,6,0:0:0:0:
176,372,103980,6,2,L|64:372,1,80,6|2,0:0|0:0,0:0:0:0:
32,324,104380,2,2,P|12:292|12:248,1,80,10|2,0:0|0:0,0:0:0:0:
68,192,104780,5,2,0:0:0:0:
124,136,104980,1,2,0:0:0:0:
68,80,105180,1,14,0:0:0:0:
12,136,105380,1,2,0:0:0:0:
124,136,105580,6,2,L|216:136,1,80,6|2,0:0|0:0,0:0:0:0:
260,196,105980,1,10,0:0:0:0:
260,196,106180,1,2,0:0:0:0:
308,136,106380,5,2,0:0:0:0:
348,136,106480,1,2,0:0:0:0:
388,136,106580,1,2,0:0:0:0:
468,136,106780,2,0,L|468:192,4,40,14|2|2|2|6,0:0|0:0|0:0|0:0|0:0,0:0:0:0:
408,84,107380,5,2,0:0:0:0:
348,136,107580,1,14,0:0:0:0:
288,84,107780,1,2,0:0:0:0:
228,136,107980,2,2,L|184:136,7,40,6|2|2|2|10|0|2|0,0:0|0:0|0:0|0:0|0:0|0:0|0:0|0:0,0:0:0:0:
148,136,108780,5,2,0:0:0:0:
260,256,109180,1,10,0:0:0:0:
260,256,109380,1,2,0:0:0:0:
304,192,109580,2,2,L|392:192,1,80,2|2,0:0|0:0,0:0:0:0:
460,220,109980,2,2,P|468:256|456:296,1,80,10|2,0:0|0:0,0:0:0:0:
380,328,110380,2,2,P|344:336|304:324,1,80,2|2,0:0|0:0,0:0:0:0:
260,256,110780,5,10,0:0:0:0:
260,256,110980,1,2,0:0:0:0:
209,323,111180,1,2,0:0:0:0:
209,323,111380,1,2,0:0:0:0:
156,384,111580,1,10,0:0:0:0:
108,319,111780,1,2,0:0:0:0:
62,252,111980,1,2,0:0:0:0:
180,144,112380,5,10,0:0:0:0:
256,120,112580,1,2,0:0:0:0:
332,144,112780,2,2,P|371:141|404:119,1,80
412,40,113180,2,2,P|372:42|339:64,1,80,10|2,0:0|0:0,0:0:0:0:
332,144,113580,1,2,0:0:0:0:
256,284,113980,5,10,0:0:0:0:
180,256,114180,1,2,0:0:0:0:
132,192,114380,1,2,0:0:0:0:
180,128,114580,1,2,0:0:0:0:
256,100,114780,2,0,L|316:100,4,40,10|2|2|2|2,0:0|0:0|0:0|0:0|0:0,0:0:0:0:
384,196,115580,5,10,0:0:0:0:
384,196,115780,1,2,0:0:0:0:
408,272,115980,2,2,L|408:352,1,80,2|2,0:0|0:0,0:0:0:0:
328,352,116380,2,2,B|300:324|300:324|300:280,1,80,10|2,0:0|0:0,0:0:0:0:
212,283,116780,2,2,B|212:324|212:324|184:352,1,80,2|2,0:0|0:0,0:0:0:0:
104,352,117180,5,10,0:0:0:0:
104,352,117380,1,2,0:0:0:0:
28,324,117580,1,2,0:0:0:0:
28,324,117780,1,2,0:0:0:0:
4,248,117980,1,10,0:0:0:0:
20,168,118180,1,2,0:0:0:0:
96,136,118380,1,2,0:0:0:0:
256,152,118780,5,10,0:0:0:0:
336,144,118980,1,2,0:0:0:0:
416,136,119180,2,2,P|436:96|432:56,1,80,2|2,0:0|0:0,0:0:0:0:
376,8,119580,2,2,L|284:32,1,80,10|2,0:0|0:0,0:0:0:0:
213,28,119980,2,2,L|136:8,1,80,2|2,0:0|0:0,0:0:0:0:
263,121,120580,1,2,0:0:0:0:
263,121,120780,1,2,0:0:0:0:
263,121,120980,2,2,L|263:219,1,80,2|10,0:0|0:0,0:0:0:0:
256,356,121580,5,6,0:0:0:0:
140,252,121980,1,10,0:0:0:0:
140,252,122180,1,2,0:0:0:0:
83,191,122380,2,2,P|72:156|80:113,1,80,2|2,0:0|0:0,0:0:0:0:
12,72,122780,2,2,P|28:38|65:14,1,80,10|2,0:0|0:0,0:0:0:0:
136,56,123180,2,0,L|216:56,1,80,2|2,0:0|0:0,0:0:0:0:
300,60,123580,5,10,0:0:0:0:
300,60,123780,1,2,0:0:0:0:
380,92,123980,1,2,0:0:0:0:
380,92,124180,1,2,0:0:0:0:
424,160,124380,1,10,0:0:0:0:
440,240,124580,1,2,0:0:0:0:
412,316,124780,1,2,0:0:0:0:
260,368,125180,5,10,0:0:0:0:
260,368,125380,1,2,0:0:0:0:
180,364,125580,2,2,L|92:364,1,80,2|2,0:0|0:0,0:0:0:0:
32,320,125980,2,2,P|24:280|35:241,1,80,10|2,0:0|0:0,0:0:0:0:
96,192,126380,1,2,0:0:0:0:
176,56,126780,5,10,0:0:0:0:
256,40,126980,1,2,0:0:0:0:
336,56,127180,1,2,0:0:0:0:
388,116,127380,1,2,0:0:0:0:
412,192,127580,2,0,L|412:248,4,40,10|2|2|2|2,0:0|0:0|0:0|0:0|0:0,0:0:0:0:
340,60,128380,5,10,0:0:0:0:
340,60,128580,1,2,0:0:0:0:
256,40,128780,2,2,L|177:40,1,80
108,84,129180,2,2,P|96:124|108:164,1,80,10|2,0:0|0:0,0:0:0:0:
164,216,129580,2,2,P|173:254|161:292,1,80
100,348,129980,5,10,0:0:0:0:
100,348,130180,1,2,0:0:0:0:
180,372,130380,1,2,0:0:0:0:
180,372,130580,1,2,0:0:0:0:
256,352,130780,1,10,0:0:0:0:
316,300,130980,1,2,0:0:0:0:
324,220,131180,1,6,0:0:0:0:
260,80,131580,5,10,0:0:0:0:
260,80,131780,1,2,0:0:0:0:
172,76,131980,2,2,L|92:76,1,80,6|2,0:0|0:0,0:0:0:0:
92,156,132380,1,10,0:0:0:0:
92,308,132780,6,2,B|256:308,1,160,6|10,0:0|0:0,0:0:0:0:
256,148,133580,2,2,L|256:92,3,40,2|2|2|2,0:0|0:0|0:0|0:0,0:0:0:0:
256,68,133980,1,10,0:0:0:0:
336,68,134180,1,2,0:0:0:0:
176,68,134380,5,6,0:0:0:0:
