osu file format v14

[General]
AudioFilename: audio.mp3
AudioLeadIn: 0
PreviewTime: -1
Countdown: 1
SampleSet: None
StackLeniency: 0.7
Mode: 3
LetterboxInBreaks: 0
SpecialStyle: 0
WidescreenStoryboard: 1

[Editor]
DistanceSpacing: 0.8
BeatDivisor: 8
GridSize: 32
TimelineZoom: 1.4

[Metadata]
Title:Cloudlight (cut)
TitleUnicode:Cloudlight (cut)
Artist:Eskmo
ArtistUnicode:Eskmo
Creator:Ciel
Version:Stage 1: Control
Source:
Tags:
BeatmapID:1546415
BeatmapSetID:732986

[Difficulty]
HPDrainRate:7
CircleSize:4
OverallDifficulty:5
ApproachRate:5
SliderMultiplier:1.4
SliderTickRate:1

[Events]
//Background and Video events
0,0,"dark-clouds-hiding-sun.jpg",0,0
//Break Periods
//Storyboard Layer 0 (Background)
//Storyboard Layer 1 (Fail)
//Storyboard Layer 2 (Pass)
//Storyboard Layer 3 (Foreground)
//Storyboard Sound Samples

[TimingPoints]
13773,428.571428571429,4,2,0,100,1,0
13773,-45.4545454545455,4,2,0,100,0,0
13880,-100,4,2,0,100,0,0
13987,-200,4,2,0,100,0,0
14094,-500,4,2,0,100,0,0
14147,-46.7289719626168,4,2,0,100,0,0
14201,-93.4579439252336,4,2,0,100,0,0
14255,-188.679245283019,4,2,0,100,0,0
14308,-384.615384615385,4,2,0,100,0,0
14362,-76.9230769230769,4,2,0,100,0,0
14415,-166.666666666667,4,2,0,100,0,0
14469,-333.333333333333,4,2,0,100,0,0
14522,-75.187969924812,4,2,0,100,0,0
14576,-151.515151515152,4,2,0,100,0,0
14630,-39.3700787401575,4,2,0,100,0,0
14683,-46.7289719626168,4,2,0,100,0,0
14737,-93.4579439252336,4,2,0,100,0,0
14844,-188.679245283019,4,2,0,100,0,0
14951,-384.615384615385,4,2,0,100,0,0
15058,-384.615384615385,4,2,0,100,0,0
15165,-188.679245283019,4,2,0,100,0,0
15272,-93.4579439252336,4,2,0,100,0,0
15380,-46.7289719626168,4,2,0,100,0,0
15487,-46.7289719626168,4,2,0,100,0,0
15540,-93.4579439252336,4,2,0,100,0,0
15594,-188.679245283019,4,2,0,100,0,0
15647,-384.615384615385,4,2,0,100,0,0
15701,-333.333333333333,4,2,0,100,0,0
15915,-90.9090909090909,4,2,0,100,0,0
15969,-105.263157894737,4,2,0,100,0,0
16076,-66.6666666666667,4,2,0,100,0,0
16130,-133.333333333333,4,2,0,100,0,0
16237,-52.6315789473684,4,2,0,100,0,0
16290,-1000,4,2,0,100,0,0
16344,-45.4545454545455,4,2,0,100,0,0
16451,-100,4,2,0,100,0,0
16558,-200,4,2,0,100,0,0
16665,-500,4,2,0,100,0,0
16719,-50,4,2,0,100,0,0
16772,-200,4,2,0,100,0,0
16880,-50,4,2,0,100,0,0
16933,-200,4,2,0,100,0,0
17040,-50,4,2,0,100,0,0
17094,-200,4,2,0,100,0,0
17201,-52.6315789473684,4,2,0,100,0,0
17308,-100,4,2,0,100,0,0
17415,-200,4,2,0,100,0,0
17522,-500,4,2,0,100,0,0
17630,-384.615384615385,4,2,0,100,0,0
17737,-188.679245283019,4,2,0,100,0,0
17844,-93.4579439252336,4,2,0,100,0,0
17952,-46.7289719626168,4,2,0,100,0,0
18058,-52.6315789473684,4,2,0,100,0,0
18165,-100,4,2,0,100,0,0
18272,-200,4,2,0,100,0,0
18379,-500,4,2,0,100,0,0
18487,-384.615384615385,4,2,0,100,0,0
18594,-188.679245283019,4,2,0,100,0,0
18701,-93.4579439252336,4,2,0,100,0,0
18809,-46.7289719626168,4,2,0,100,0,0
18915,-52.6315789473684,4,2,0,100,0,0
19022,-100,4,2,0,100,0,0
19129,-200,4,2,0,100,0,0
19236,-500,4,2,0,100,0,0
19290,-100,4,2,0,100,0,0
19344,-1000,4,2,0,100,0,0
19398,-52.6315789473684,4,2,0,100,0,0
19451,-100,4,2,0,100,0,0
19505,-1000,4,2,0,100,0,0
19612,-35.7142857142857,4,2,0,100,0,0
19665,-1000,4,2,0,100,0,0
19719,-52.6315789473684,4,2,0,100,0,0
19773,-45.4545454545455,4,2,0,100,0,0
19880,-100,4,2,0,100,0,0
19987,-200,4,2,0,100,0,0
20094,-500,4,2,0,100,0,0
20202,-384.615384615385,4,2,0,100,0,0
20309,-188.679245283019,4,2,0,100,0,0
20416,-93.4579439252336,4,2,0,100,0,0
20524,-46.7289719626168,4,2,0,100,0,0
20630,-59.5238095238095,4,2,0,100,0,0
20737,-119.047619047619,4,2,0,100,0,0
20844,-238.095238095238,4,2,0,100,0,0
20951,-66.6666666666667,4,2,0,100,0,0
21005,-200,4,2,0,100,0,0
21058,-46.7289719626168,4,2,0,100,0,0
21112,-93.4579439252336,4,2,0,100,0,0
21165,-188.679245283019,4,2,0,100,0,0
21219,-384.615384615385,4,2,0,100,0,0
21273,-66.6666666666667,4,2,0,100,0,0
21326,-200,4,2,0,100,0,0
21380,-58.8235294117647,4,2,0,100,0,0
21433,-333.333333333333,4,2,0,100,0,0
21487,-50,4,2,0,100,0,0
21594,-119.047619047619,4,2,0,100,0,0
21701,-238.095238095238,4,2,0,100,0,0
21808,-238.095238095238,4,2,0,100,0,0
21915,-119.047619047619,4,2,0,100,0,0
22023,-59.5238095238095,4,2,0,100,0,0
22130,-66.6666666666667,4,2,0,100,0,0
22183,-200,4,2,0,100,0,0
22237,-58.8235294117647,4,2,0,100,0,0
22290,-333.333333333333,4,2,0,100,0,0
22344,-46.7289719626168,4,2,0,100,0,0
22398,-93.4579439252336,4,2,0,100,0,0
22451,-188.679245283019,4,2,0,100,0,0
22505,-384.615384615385,4,2,0,100,0,0
22558,-66.6666666666667,4,2,0,100,0,0
22612,-200,4,2,0,100,0,0
22665,-58.8235294117647,4,2,0,100,0,0
22719,-333.333333333333,4,2,0,100,0,0
22773,-55.5555555555556,4,2,0,100,0,0
22826,-500,4,2,0,100,0,0
22880,-52.6315789473684,4,2,0,100,0,0
22933,-1000,4,2,0,100,0,0
22987,-55.5555555555556,4,2,0,100,0,0
23040,-500,4,2,0,100,0,0
23094,-58.8235294117647,4,2,0,100,0,0
23148,-333.333333333333,4,2,0,100,0,0
23201,-50,4,2,0,100,0,0
23308,-119.047619047619,4,2,0,100,0,0
23415,-238.095238095238,4,2,0,100,0,0
23523,-58.8235294117647,4,2,0,100,0,0
23576,-333.333333333333,4,2,0,100,0,0
23630,-384.615384615385,4,2,0,100,0,0
23737,-188.679245283019,4,2,0,100,0,0
23844,-93.4579439252336,4,2,0,100,0,0
23951,-46.7289719626168,4,2,0,100,0,0
24058,-100,4,2,0,100,0,0
24112,-100,4,2,0,100,0,0
24165,-1000,4,2,0,100,0,0
24487,-384.615384615385,4,2,0,100,0,0
24594,-188.679245283019,4,2,0,100,0,0
24701,-93.4579439252336,4,2,0,100,0,0
24808,-46.7289719626168,4,2,0,100,0,0
24915,-52.6315789473684,4,2,0,100,0,0
25022,-100,4,2,0,100,0,0
25129,-200,4,2,0,100,0,0
25236,-500,4,2,0,100,0,0
25344,-66.6666666666667,4,2,0,100,0,0
25398,-200,4,2,0,100,0,0
25451,-238.095238095238,4,2,0,100,0,0
25558,-119.047619047619,4,2,0,100,0,0
25666,-59.5238095238095,4,2,0,100,0,0
25773,-34.7222222222222,4,2,0,100,0,0
25880,-69.4444444444444,4,2,0,100,0,0
25987,-138.888888888889,4,2,0,100,0,0
26094,-277.777777777778,4,2,0,100,0,0
26201,-555.555555555556,4,2,0,100,0,0
26308,-1000,4,2,0,100,0,0
26415,-66.6666666666667,4,2,0,100,0,0
26469,-200,4,2,0,100,0,0
26523,-58.8235294117647,4,2,0,100,0,0
26576,-333.333333333333,4,2,0,100,0,0
26630,-46.7289719626168,4,2,0,100,0,0
26737,-93.4579439252336,4,2,0,100,0,0
26844,-188.679245283019,4,2,0,100,0,0
26951,-384.615384615385,4,2,0,100,0,0
27058,-66.6666666666667,4,2,0,100,0,0
27112,-200,4,2,0,100,0,0
27165,-58.8235294117647,4,2,0,100,0,0
27219,-333.333333333333,4,2,0,100,0,0
27326,-58.8235294117647,4,2,0,100,0,0
27380,-52.6315789473684,4,2,0,100,0,0
27433,-1000,4,2,0,100,0,0
27487,-52.6315789473684,4,2,0,100,0,0
27594,-100,4,2,0,100,0,0
27701,-200,4,2,0,100,0,0
27808,-500,4,2,0,100,0,0
27862,-58.8235294117647,4,2,0,100,0,0
27915,-333.333333333333,4,2,0,100,0,0
27969,-58.8235294117647,4,2,0,100,0,0
28023,-333.333333333333,4,2,0,100,0,0
28076,-41.6666666666667,4,2,0,100,0,0
28130,-333.333333333333,4,2,0,100,0,0
28237,-58.8235294117647,4,2,0,100,0,0
28290,-333.333333333333,4,2,0,100,0,0
28344,-45.4545454545455,4,2,0,100,0,0
28451,-100,4,2,0,100,0,0
28558,-200,4,2,0,100,0,0
28665,-500,4,2,0,100,0,0
28719,-500,4,2,0,100,0,0
28773,-384.615384615385,4,2,0,100,0,0
28880,-188.679245283019,4,2,0,100,0,0
28987,-93.4579439252336,4,2,0,100,0,0
29094,-46.7289719626168,4,2,0,100,0,0
29201,-66.6666666666667,4,2,0,100,0,0
29255,-200,4,2,0,100,0,0
29308,-200,4,2,0,100,0,0
29469,-40,4,2,0,100,0,0
29523,-100,4,2,0,100,0,0
29630,-200,4,2,0,100,0,0
29790,-40,4,2,0,100,0,0
29844,-66.6666666666667,4,2,0,100,0,0
29898,-200,4,2,0,100,0,0
29951,-58.8235294117647,4,2,0,100,0,0
30005,-333.333333333333,4,2,0,100,0,0
30058,-40.983606557377,4,2,0,100,0,0
30165,-93.4579439252336,4,2,0,100,0,0
30273,-188.679245283019,4,2,0,100,0,0
30380,-384.615384615385,4,2,0,100,0,0
30487,-384.615384615385,4,2,0,100,0,0
30594,-188.679245283019,4,2,0,100,0,0
30701,-93.4579439252336,4,2,0,100,0,0
30808,-46.7289719626168,4,2,0,100,0,0
30915,-59.5238095238095,4,2,0,100,0,0
31023,-119.047619047619,4,2,0,100,0,0
31130,-238.095238095238,4,2,0,100,0,0
31237,-500,4,2,0,100,0,0
31290,-384.615384615385,4,2,0,100,0,0
31451,-188.679245283019,4,2,0,100,0,0
31558,-93.4579439252336,4,2,0,100,0,0
31665,-46.7289719626168,4,2,0,100,0,0
31773,-52.6315789473684,4,2,0,100,0,0
31880,-100,4,2,0,100,0,0
31987,-200,4,2,0,100,0,0
32094,-500,4,2,0,100,0,0
32148,-384.615384615385,4,2,0,100,0,0
32308,-188.679245283019,4,2,0,100,0,0
32415,-93.4579439252336,4,2,0,100,0,0
32523,-46.7289719626168,4,2,0,100,0,0
32630,-52.6315789473684,4,2,0,100,0,0
32737,-100,4,2,0,100,0,0
32844,-200,4,2,0,100,0,0
32951,-500,4,2,0,100,0,0
33005,-100,4,2,0,100,0,0
33273,-66.6666666666667,4,2,0,100,0,0
33326,-200,4,2,0,100,0,0
33380,-58.8235294117647,4,2,0,100,0,0
33433,-333.333333333333,4,2,0,100,0,0
33487,-50.5050505050505,4,2,0,100,0,0
33594,-119.047619047619,4,2,0,100,0,0
33701,-238.095238095238,4,2,0,100,0,0
33808,-625,4,2,0,100,0,0
33915,-312.5,4,2,0,100,0,0
34023,-153.846153846154,4,2,0,100,0,0
34130,-77.5193798449612,4,2,0,100,0,0
34237,-38.7596899224806,4,2,0,100,0,0
34344,-59.5238095238095,4,2,0,100,0,0
34451,-119.047619047619,4,2,0,100,0,0
34558,-238.095238095238,4,2,0,100,0,0
34665,-100,4,2,0,100,0,0
34773,-50,4,2,0,100,0,0
34826,-200,4,2,0,100,0,0
35040,-50,4,2,0,100,0,0
35094,-58.8235294117647,4,2,0,100,0,0
35148,-333.333333333333,4,2,0,100,0,0
35201,-45.4545454545455,4,2,0,100,0,0
35308,-100,4,2,0,100,0,0
35415,-200,4,2,0,100,0,0
35523,-500,4,2,0,100,0,0
35576,-100,4,2,0,100,0,0
35630,-208.333333333333,4,2,0,100,0,0
35737,-119.047619047619,4,2,0,100,0,0
35844,-59.5238095238095,4,2,0,100,0,0
35951,-58.8235294117647,4,2,0,100,0,0
36005,-333.333333333333,4,2,0,100,0,0
36058,-46.7289719626168,4,2,0,100,0,0
36112,-93.4579439252336,4,2,0,100,0,0
36165,-188.679245283019,4,2,0,100,0,0
36219,-384.615384615385,4,2,0,100,0,0
36273,-66.6666666666667,4,2,0,100,0,0
36326,-200,4,2,0,100,0,0
36380,-66.6666666666667,4,2,0,100,0,0
36433,-200,4,2,0,100,0,0
36487,-59.5238095238095,4,2,0,100,0,0
36594,-119.047619047619,4,2,0,100,0,0
36701,-238.095238095238,4,2,0,100,0,0
36808,-58.8235294117647,4,2,0,100,0,0
36862,-333.333333333333,4,2,0,100,0,0
36915,-50,4,2,0,100,0,0
37023,-119.047619047619,4,2,0,100,0,0
37130,-238.095238095238,4,2,0,100,0,0
37237,-66.6666666666667,4,2,0,100,0,0
37290,-200,4,2,0,100,0,0
37344,-384.615384615385,4,2,0,100,0,0
37451,-188.679245283019,4,2,0,100,0,0
37558,-93.4579439252336,4,2,0,100,0,0
37665,-46.7289719626168,4,2,0,100,0,0
37773,-52.6315789473684,4,2,0,100,0,0
37880,-100,4,2,0,100,0,0
37987,-200,4,2,0,100,0,0
38094,-500,4,2,0,100,0,0
38148,-384.615384615385,4,2,0,100,0,0
38308,-188.679245283019,4,2,0,100,0,0
38415,-93.4579439252336,4,2,0,100,0,0
38523,-46.7289719626168,4,2,0,100,0,0
38630,-52.6315789473684,4,2,0,100,0,0
38737,-100,4,2,0,100,0,0
38844,-200,4,2,0,100,0,0
38951,-500,4,2,0,100,0,0
39005,-384.615384615385,4,2,0,100,0,0
39165,-188.679245283019,4,2,0,100,0,0
39272,-93.4579439252336,4,2,0,100,0,0
39380,-46.7289719626168,4,2,0,100,0,0
39487,-59.5238095238095,4,2,0,100,0,0
39594,-119.047619047619,4,2,0,100,0,0
39701,-238.095238095238,4,2,0,100,0,0
39808,-66.6666666666667,4,2,0,100,0,0
39862,-200,4,2,0,100,0,0
39915,-45.4545454545455,4,2,0,100,0,0
39969,-250,4,2,0,100,0,0
40076,-41.6666666666667,4,2,0,100,0,0
40183,-333.333333333333,4,2,0,100,0,0
40237,-100,4,2,0,100,0,0
40344,-45.4545454545455,4,2,0,100,0,0
40451,-100,4,2,0,100,0,0
40558,-200,4,2,0,100,0,0
40665,-500,4,2,0,100,0,0
40719,-50,4,2,0,100,0,0
40773,-200,4,2,0,100,0,0
40880,-41.6666666666667,4,2,0,100,0,0
40933,-333.333333333333,4,2,0,100,0,0
41040,-35.7142857142857,4,2,0,100,0,0
41094,-1000,4,2,0,100,0,0
41201,-28.4090909090909,4,2,0,100,0,0
41308,-56.8181818181818,4,2,0,100,0,0
41415,-113.636363636364,4,2,0,100,0,0
41523,-227.272727272727,4,2,0,100,0,0
41630,-454.545454545455,4,2,0,100,0,0
41737,-909.090909090909,4,2,0,100,0,0
41844,-1000,4,2,0,100,0,0
41951,-66.6666666666667,4,2,0,100,0,0
42005,-200,4,2,0,100,0,0
42058,-25,4,2,0,100,0,0
42165,-50,4,2,0,100,0,0
42273,-100,4,2,0,100,0,0
42380,-200,4,2,0,100,0,0
42487,-400,4,2,0,100,0,0
42594,-769.230769230769,4,2,0,100,0,0
42701,-1000,4,2,0,100,0,0
42808,-1000,4,2,0,100,0,0
42915,-10,4,2,0,100,0,0
42969,-500,4,2,0,100,0,0
43023,-500,4,2,0,100,0,0
43130,-500,4,2,0,100,0,0
43237,-384.615384615385,4,2,0,100,0,0
43344,-188.679245283019,4,2,0,100,0,0
43451,-93.4579439252336,4,2,0,100,0,0
43558,-46.7289719626168,4,2,0,100,0,0
43665,-66.6666666666667,4,2,0,100,0,0
43719,-200,4,2,0,100,0,0
43773,-25,4,2,0,100,0,0
43880,-50,4,2,0,100,0,0
43988,-100,4,2,0,100,0,0
44095,-200,4,2,0,100,0,0
44202,-400,4,2,0,100,0,0
44309,-769.230769230769,4,2,0,100,0,0
44416,-1000,4,2,0,100,0,0
44523,-1000,4,2,0,100,0,0
44630,-31.25,4,2,0,100,0,0
44737,-62.5,4,2,0,100,0,0
44845,-125,4,2,0,100,0,0
44952,-250,4,2,0,100,0,0
45059,-500,4,2,0,100,0,0
45166,-909.090909090909,4,2,0,100,0,0
45273,-1000,4,2,0,100,0,0
45380,-1000,4,2,0,100,0,0
45487,-41.6666666666667,4,2,0,100,0,0
45594,-83.3333333333333,4,2,0,100,0,0
45702,-166.666666666667,4,2,0,100,0,0
45809,-333.333333333333,4,2,0,100,0,0
45916,-666.666666666667,4,2,0,100,0,0
46023,-1000,4,2,0,100,0,0
46130,-1000,4,2,0,100,0,0
46237,-1000,4,2,0,100,0,0
46344,-71.4285714285714,4,2,0,100,0,0
46451,-142.857142857143,4,2,0,100,0,0
46558,-285.714285714286,4,2,0,100,0,0
46666,-555.555555555556,4,2,0,100,0,0
46773,-1000,4,2,0,100,0,0
46880,-1000,4,2,0,100,0,0
46987,-1000,4,2,0,100,0,0
47094,-66.6666666666667,4,2,0,100,0,0
47148,-200,4,2,0,100,0,0
47201,-31.25,4,2,0,100,0,0
47308,-62.5,4,2,0,100,0,0
47416,-125,4,2,0,100,0,0
47523,-250,4,2,0,100,0,0
47630,-500,4,2,0,100,0,0
47737,-909.090909090909,4,2,0,100,0,0
47844,-1000,4,2,0,100,0,0
47951,-1000,4,2,0,100,0,0
48058,-28.4090909090909,4,2,0,100,0,0
48165,-56.8181818181818,4,2,0,100,0,0
48272,-113.636363636364,4,2,0,100,0,0
48380,-227.272727272727,4,2,0,100,0,0
48487,-454.545454545455,4,2,0,100,0,0
48594,-909.090909090909,4,2,0,100,0,0
48701,-1000,4,2,0,100,0,0
48808,-66.6666666666667,4,2,0,100,0,0
48862,-200,4,2,0,100,0,0
48915,-25,4,2,0,100,0,0
49022,-50,4,2,0,100,0,0
49130,-100,4,2,0,100,0,0
49237,-200,4,2,0,100,0,0
49344,-400,4,2,0,100,0,0
49451,-769.230769230769,4,2,0,100,0,0
49558,-1000,4,2,0,100,0,0
49665,-1000,4,2,0,100,0,0
49772,-10,4,2,0,100,0,0
49826,-500,4,2,0,100,0,0
49880,-500,4,2,0,100,0,0
49987,-500,4,2,0,100,0,0
50094,-384.615384615385,4,2,0,100,0,0
50201,-188.679245283019,4,2,0,100,0,0
50308,-93.4579439252336,4,2,0,100,0,0
50415,-46.7289719626168,4,2,0,100,0,0
50522,-66.6666666666667,4,2,0,100,0,0
50576,-200,4,2,0,100,0,0
50630,-25,4,2,0,100,0,0
50737,-50,4,2,0,100,0,0
50845,-100,4,2,0,100,0,0
50952,-200,4,2,0,100,0,0
51059,-400,4,2,0,100,0,0
51166,-769.230769230769,4,2,0,100,0,0
51273,-1000,4,2,0,100,0,0
51380,-1000,4,2,0,100,0,0
51487,-31.25,4,2,0,100,0,0
51594,-62.5,4,2,0,100,0,0
51702,-125,4,2,0,100,0,0
51809,-250,4,2,0,100,0,0
51916,-500,4,2,0,100,0,0
52023,-909.090909090909,4,2,0,100,0,0
52130,-1000,4,2,0,100,0,0
52237,-1000,4,2,0,100,0,0
52344,-41.6666666666667,4,2,0,100,0,0
52451,-83.3333333333333,4,2,0,100,0,0
52559,-166.666666666667,4,2,0,100,0,0
52666,-333.333333333333,4,2,0,100,0,0
52773,-666.666666666667,4,2,0,100,0,0
52880,-1000,4,2,0,100,0,0
52987,-1000,4,2,0,100,0,0
53094,-1000,4,2,0,100,0,0
53201,-71.4285714285714,4,2,0,100,0,0
53308,-142.857142857143,4,2,0,100,0,0
53415,-285.714285714286,4,2,0,100,0,0
53523,-555.555555555556,4,2,0,100,0,0
53630,-1000,4,2,0,100,0,0
53737,-1000,4,2,0,100,0,0
53844,-1000,4,2,0,100,0,0
53951,-66.6666666666667,4,2,0,100,0,0
54005,-200,4,2,0,100,0,0
54058,-31.25,4,2,0,100,0,0
54165,-62.5,4,2,0,100,0,0
54273,-125,4,2,0,100,0,0
54380,-250,4,2,0,100,0,0
54487,-500,4,2,0,100,0,0
54594,-909.090909090909,4,2,0,100,0,0
54701,-1000,4,2,0,100,0,0
54808,-1000,4,2,0,100,0,0
54915,-28.4090909090909,4,2,0,100,0,0
55022,-56.8181818181818,4,2,0,100,0,0
55129,-113.636363636364,4,2,0,100,0,0
55237,-227.272727272727,4,2,0,100,0,0
55344,-454.545454545455,4,2,0,100,0,0
55451,-909.090909090909,4,2,0,100,0,0
55558,-1000,4,2,0,100,0,0
55665,-66.6666666666667,4,2,0,100,0,0
55719,-200,4,2,0,100,0,0
55773,-40.983606557377,4,2,0,100,0,0
55826,-93.4579439252336,4,2,0,100,0,0
55880,-188.679245283019,4,2,0,100,0,0
55933,-384.615384615385,4,2,0,100,0,0
55987,-66.6666666666667,4,2,0,100,0,0
56040,-200,4,2,0,100,0,0
56094,-25,4,2,0,100,0,0
56148,-250,4,2,0,100,0,0
56415,-66.6666666666667,4,2,0,100,0,0
56469,-200,4,2,0,100,0,0
56523,-25,4,2,0,100,0,0
56576,-250,4,2,0,100,0,0
56844,-46.7289719626168,4,2,0,100,0,0
56898,-93.4579439252336,4,2,0,100,0,0
56951,-188.679245283019,4,2,0,100,0,0
57005,-384.615384615385,4,2,0,100,0,0
57058,-59.5238095238095,4,2,0,100,0,0
57165,-119.047619047619,4,2,0,100,0,0
57273,-238.095238095238,4,2,0,100,0,0
57380,-66.6666666666667,4,2,0,100,0,0
57433,-200,4,2,0,100,0,0
57487,-25,4,2,0,100,0,0
57594,-50,4,2,0,100,0,0
57702,-100,4,2,0,100,0,0
57809,-200,4,2,0,100,0,0
57916,-400,4,2,0,100,0,0
58023,-769.230769230769,4,2,0,100,0,0
58130,-1000,4,2,0,100,0,0
58237,-1000,4,2,0,100,0,0
58344,-59.5238095238095,4,2,0,100,0,0
58451,-119.047619047619,4,2,0,100,0,0
58558,-238.095238095238,4,2,0,100,0,0
58665,-50,4,2,0,100,0,0
58719,-100,4,2,0,100,0,0
58826,-200,4,2,0,100,0,0
58933,-50,4,2,0,100,0,0
59040,-100,4,2,0,100,0,0
59148,-200,4,2,0,100,0,0
59201,-59.5238095238095,4,2,0,100,0,0
59308,-119.047619047619,4,2,0,100,0,0
59415,-238.095238095238,4,2,0,100,0,0
59523,-50,4,2,0,100,0,0
59577,-100,4,2,0,100,0,0
59684,-200,4,2,0,100,0,0
59791,-50,4,2,0,100,0,0
59898,-100,4,2,0,100,0,0
60006,-200,4,2,0,100,0,0
60058,-46.7289719626168,4,2,0,100,0,0
60112,-93.4579439252336,4,2,0,100,0,0
60165,-188.679245283019,4,2,0,100,0,0
60219,-384.615384615385,4,2,0,100,0,0
60273,-59.5238095238095,4,2,0,100,0,0
60380,-119.047619047619,4,2,0,100,0,0
60487,-238.095238095238,4,2,0,100,0,0
60594,-100,4,2,0,100,0,0
60648,-59.5238095238095,4,2,0,100,0,0
60701,-119.047619047619,4,2,0,100,0,0
60755,-238.095238095238,4,2,0,100,0,0
60808,-66.6666666666667,4,2,0,100,0,0
60862,-200,4,2,0,100,0,0
60915,-50.5050505050505,4,2,0,100,0,0
60969,-59.5238095238095,4,2,0,100,0,0
61022,-119.047619047619,4,2,0,100,0,0
61129,-238.095238095238,4,2,0,100,0,0
61237,-50,4,2,0,100,0,0
61291,-100,4,2,0,100,0,0
61398,-200,4,2,0,100,0,0
61505,-50,4,2,0,100,0,0
61612,-100,4,2,0,100,0,0
61720,-200,4,2,0,100,0,0
61773,-166.666666666667,4,2,0,100,0,0
61826,-333.333333333333,4,2,0,100,0,0
61880,-333.333333333333,4,2,0,100,0,0
61933,-32.258064516129,4,2,0,100,0,0
61987,-38.7596899224806,4,2,0,100,0,0
62094,-77.5193798449612,4,2,0,100,0,0
62201,-153.846153846154,4,2,0,100,0,0
62308,-312.5,4,2,0,100,0,0
62415,-625,4,2,0,100,0,0
62523,-66.6666666666667,4,2,0,100,0,0
62576,-200,4,2,0,100,0,0
62630,-32.8947368421053,4,2,0,100,0,0
62737,-65.7894736842105,4,2,0,100,0,0
62844,-131.578947368421,4,2,0,100,0,0
62951,-263.157894736842,4,2,0,100,0,0
63058,-526.315789473684,4,2,0,100,0,0
63165,-1000,4,2,0,100,0,0
63273,-384.615384615385,4,2,0,100,0,0
63326,-188.679245283019,4,2,0,100,0,0
63380,-93.4579439252336,4,2,0,100,0,0
63433,-46.7289719626168,4,2,0,100,0,0
63487,-28.4090909090909,4,2,0,100,0,0
63594,-56.8181818181818,4,2,0,100,0,0
63701,-113.636363636364,4,2,0,100,0,0
63809,-227.272727272727,4,2,0,100,0,0
63916,-454.545454545455,4,2,0,100,0,0
64023,-909.090909090909,4,2,0,100,0,0
64130,-1000,4,2,0,100,0,0
64237,-66.6666666666667,4,2,0,100,0,0
64291,-200,4,2,0,100,0,0
64344,-50.5050505050505,4,2,0,100,0,0
64398,-59.5238095238095,4,2,0,100,0,0
64451,-119.047619047619,4,2,0,100,0,0
64558,-238.095238095238,4,2,0,100,0,0
64665,-59.5238095238095,4,2,0,100,0,0
64773,-119.047619047619,4,2,0,100,0,0
64880,-238.095238095238,4,2,0,100,0,0
64987,-46.7289719626168,4,2,0,100,0,0
65040,-93.4579439252336,4,2,0,100,0,0
65094,-188.679245283019,4,2,0,100,0,0
65148,-384.615384615385,4,2,0,100,0,0
65201,-32.8947368421053,4,2,0,100,0,0
65308,-65.7894736842105,4,2,0,100,0,0
65415,-131.578947368421,4,2,0,100,0,0
65523,-263.157894736842,4,2,0,100,0,0
65630,-526.315789473684,4,2,0,100,0,0
65737,-1000,4,2,0,100,0,0
65844,-46.7289719626168,4,2,0,100,0,0
65898,-93.4579439252336,4,2,0,100,0,0
65951,-188.679245283019,4,2,0,100,0,0
66005,-384.615384615385,4,2,0,100,0,0
66058,-46.7289719626168,4,2,0,100,0,0
66112,-93.4579439252336,4,2,0,100,0,0
66165,-188.679245283019,4,2,0,100,0,0
66219,-384.615384615385,4,2,0,100,0,0
66273,-238.095238095238,4,2,0,100,0,0
66380,-119.047619047619,4,2,0,100,0,0
66487,-59.5238095238095,4,2,0,100,0,0
66594,-238.095238095238,4,2,0,100,0,0
66701,-119.047619047619,4,2,0,100,0,0
66808,-59.5238095238095,4,2,0,100,0,0
66915,-46.7289719626168,4,2,0,100,0,0
67023,-93.4579439252336,4,2,0,100,0,0
67130,-188.679245283019,4,2,0,100,0,0
67237,-384.615384615385,4,2,0,100,0,0
67344,-238.095238095238,4,2,0,100,0,0
67451,-119.047619047619,4,2,0,100,0,0
67558,-59.5238095238095,4,2,0,100,0,0
67665,-66.6666666666667,4,2,0,100,0,0
67719,-200,4,2,0,100,0,0
67773,-59.5238095238095,4,2,0,100,0,0
67880,-119.047619047619,4,2,0,100,0,0
67987,-238.095238095238,4,2,0,100,0,0
68094,-625,4,2,0,100,0,0
68201,-312.5,4,2,0,100,0,0
68308,-153.846153846154,4,2,0,100,0,0
68415,-77.5193798449612,4,2,0,100,0,0
68523,-38.7596899224806,4,2,0,100,0,0
68630,-28.4090909090909,4,2,0,100,0,0
68737,-56.8181818181818,4,2,0,100,0,0
68844,-113.636363636364,4,2,0,100,0,0
68952,-227.272727272727,4,2,0,100,0,0
69059,-454.545454545455,4,2,0,100,0,0
69166,-909.090909090909,4,2,0,100,0,0
69273,-1000,4,2,0,100,0,0
69380,-66.6666666666667,4,2,0,100,0,0
69434,-200,4,2,0,100,0,0
69488,-40.983606557377,4,2,0,100,0,0
69541,-93.4579439252336,4,2,0,100,0,0
69595,-188.679245283019,4,2,0,100,0,0
69648,-384.615384615385,4,2,0,100,0,0
69702,-66.6666666666667,4,2,0,100,0,0
69755,-200,4,2,0,100,0,0
69809,-23.8095238095238,4,2,0,100,0,0
69863,-250,4,2,0,100,0,0
70237,-66.6666666666667,4,2,0,100,0,0
70290,-200,4,2,0,100,0,0
70344,-35.7142857142857,4,2,0,100,0,0
70398,-250,4,2,0,100,0,0
70559,-46.7289719626168,4,2,0,100,0,0
70613,-93.4579439252336,4,2,0,100,0,0
70666,-188.679245283019,4,2,0,100,0,0
70720,-384.615384615385,4,2,0,100,0,0
70773,-59.5238095238095,4,2,0,100,0,0
70880,-119.047619047619,4,2,0,100,0,0
70988,-238.095238095238,4,2,0,100,0,0
71095,-66.6666666666667,4,2,0,100,0,0
71148,-200,4,2,0,100,0,0
71202,-25,4,2,0,100,0,0
71309,-50,4,2,0,100,0,0
71417,-100,4,2,0,100,0,0
71524,-200,4,2,0,100,0,0
71631,-400,4,2,0,100,0,0
71738,-769.230769230769,4,2,0,100,0,0
71845,-1000,4,2,0,100,0,0
71952,-1000,4,2,0,100,0,0
72058,-59.5238095238095,4,2,0,100,0,0
72165,-119.047619047619,4,2,0,100,0,0
72272,-238.095238095238,4,2,0,100,0,0
72379,-50,4,2,0,100,0,0
72433,-100,4,2,0,100,0,0
72540,-200,4,2,0,100,0,0
72647,-50,4,2,0,100,0,0
72754,-100,4,2,0,100,0,0
72862,-200,4,2,0,100,0,0
72915,-59.5238095238095,4,2,0,100,0,0
73022,-119.047619047619,4,2,0,100,0,0
73129,-238.095238095238,4,2,0,100,0,0
73237,-50,4,2,0,100,0,0
73291,-100,4,2,0,100,0,0
73398,-200,4,2,0,100,0,0
73505,-50,4,2,0,100,0,0
73612,-100,4,2,0,100,0,0
73720,-200,4,2,0,100,0,0
73772,-46.7289719626168,4,2,0,100,0,0
73826,-93.4579439252336,4,2,0,100,0,0
73879,-188.679245283019,4,2,0,100,0,0
73933,-384.615384615385,4,2,0,100,0,0
73987,-59.5238095238095,4,2,0,100,0,0
74094,-119.047619047619,4,2,0,100,0,0
74201,-238.095238095238,4,2,0,100,0,0
74308,-100,4,2,0,100,0,0
74362,-59.5238095238095,4,2,0,100,0,0
74415,-119.047619047619,4,2,0,100,0,0
74469,-238.095238095238,4,2,0,100,0,0
74522,-66.6666666666667,4,2,0,100,0,0
74576,-200,4,2,0,100,0,0
74629,-50.5050505050505,4,2,0,100,0,0
74683,-59.5238095238095,4,2,0,100,0,0
74736,-119.047619047619,4,2,0,100,0,0
74843,-238.095238095238,4,2,0,100,0,0
74951,-50,4,2,0,100,0,0
75005,-100,4,2,0,100,0,0
75112,-200,4,2,0,100,0,0
75219,-50,4,2,0,100,0,0
75326,-100,4,2,0,100,0,0
75434,-200,4,2,0,100,0,0
75488,-166.666666666667,4,2,0,100,0,0
75541,-333.333333333333,4,2,0,100,0,0
75595,-333.333333333333,4,2,0,100,0,0
75648,-32.258064516129,4,2,0,100,0,0
75702,-38.7596899224806,4,2,0,100,0,0
75809,-77.5193798449612,4,2,0,100,0,0
75916,-153.846153846154,4,2,0,100,0,0
76023,-312.5,4,2,0,100,0,0
76130,-625,4,2,0,100,0,0
76238,-66.6666666666667,4,2,0,100,0,0
76291,-200,4,2,0,100,0,0
76345,-59.5238095238095,4,2,0,100,0,0
76451,-119.047619047619,4,2,0,100,0,0
76558,-238.095238095238,4,2,0,100,0,0
76665,-625,4,2,0,100,0,0
76773,-312.5,4,2,0,100,0,0
76880,-153.846153846154,4,2,0,100,0,0
76987,-77.5193798449612,4,2,0,100,0,0
77094,-38.7596899224806,4,2,0,100,0,0
77202,-28.4090909090909,4,2,0,100,0,0
77309,-56.8181818181818,4,2,0,100,0,0
77416,-113.636363636364,4,2,0,100,0,0
77524,-227.272727272727,4,2,0,100,0,0
77631,-454.545454545455,4,2,0,100,0,0
77738,-909.090909090909,4,2,0,100,0,0
77845,-1000,4,2,0,100,0,0
77952,-66.6666666666667,4,2,0,100,0,0
78006,-200,4,2,0,100,0,0
78059,-50.5050505050505,4,2,0,100,0,0
78113,-59.5238095238095,4,2,0,100,0,0
78166,-119.047619047619,4,2,0,100,0,0
78273,-238.095238095238,4,2,0,100,0,0
78380,-59.5238095238095,4,2,0,100,0,0
78488,-119.047619047619,4,2,0,100,0,0
78595,-238.095238095238,4,2,0,100,0,0
78702,-46.7289719626168,4,2,0,100,0,0
78755,-93.4579439252336,4,2,0,100,0,0
78809,-188.679245283019,4,2,0,100,0,0
78863,-384.615384615385,4,2,0,100,0,0
78916,-32.8947368421053,4,2,0,100,0,0
79023,-65.7894736842105,4,2,0,100,0,0
79130,-131.578947368421,4,2,0,100,0,0
79238,-263.157894736842,4,2,0,100,0,0
79345,-526.315789473684,4,2,0,100,0,0
79452,-1000,4,2,0,100,0,0
79559,-46.7289719626168,4,2,0,100,0,0
79613,-93.4579439252336,4,2,0,100,0,0
79666,-188.679245283019,4,2,0,100,0,0
79720,-384.615384615385,4,2,0,100,0,0
79773,-46.7289719626168,4,2,0,100,0,0
79827,-93.4579439252336,4,2,0,100,0,0
79880,-188.679245283019,4,2,0,100,0,0
79934,-384.615384615385,4,2,0,100,0,0
79988,-238.095238095238,4,2,0,100,0,0
80095,-119.047619047619,4,2,0,100,0,0
80202,-59.5238095238095,4,2,0,100,0,0
80309,-238.095238095238,4,2,0,100,0,0
80416,-119.047619047619,4,2,0,100,0,0
80523,-59.5238095238095,4,2,0,100,0,0
80630,-46.7289719626168,4,2,0,100,0,0
80738,-93.4579439252336,4,2,0,100,0,0
80845,-188.679245283019,4,2,0,100,0,0
80952,-384.615384615385,4,2,0,100,0,0
81059,-238.095238095238,4,2,0,100,0,0
81166,-119.047619047619,4,2,0,100,0,0
81273,-59.5238095238095,4,2,0,100,0,0
81380,-66.6666666666667,4,2,0,100,0,0
81434,-200,4,2,0,100,0,0
81488,-59.5238095238095,4,2,0,100,0,0
81595,-119.047619047619,4,2,0,100,0,0
81702,-238.095238095238,4,2,0,100,0,0
81809,-66.6666666666667,4,2,0,100,0,0
81862,-200,4,2,0,100,0,0
81916,-238.095238095238,4,2,0,100,0,0
82023,-119.047619047619,4,2,0,100,0,0
82130,-59.5238095238095,4,2,0,100,0,0
82238,-66.6666666666667,4,2,0,100,0,0
82290,-200,4,2,0,100,0,0
82345,-46.7289719626168,4,2,0,100,0,0
82451,-93.4579439252336,4,2,0,100,0,0
82558,-188.679245283019,4,2,0,100,0,0
82665,-384.615384615385,4,2,0,100,0,0
82773,-238.095238095238,4,2,0,100,0,0
82880,-119.047619047619,4,2,0,100,0,0
82987,-59.5238095238095,4,2,0,100,0,0
83094,-66.6666666666667,4,2,0,100,0,0
83148,-200,4,2,0,100,0,0
83201,-40.983606557377,4,2,0,100,0,0
83308,-93.4579439252336,4,2,0,100,0,0
83415,-188.679245283019,4,2,0,100,0,0
83523,-384.615384615385,4,2,0,100,0,0
83630,-100,4,2,0,100,0,0
83737,-238.095238095238,4,2,0,100,0,0
83844,-119.047619047619,4,2,0,100,0,0
83951,-59.5238095238095,4,2,0,100,0,0
84058,-250,4,2,0,100,0,0
84487,-238.095238095238,4,2,0,100,0,0
84594,-119.047619047619,4,2,0,100,0,0
84701,-59.5238095238095,4,2,0,100,0,0
84808,-66.6666666666667,4,2,0,100,0,0
84862,-200,4,2,0,100,0,0
84915,-40.983606557377,4,2,0,100,0,0
85023,-93.4579439252336,4,2,0,100,0,0
85130,-188.679245283019,4,2,0,100,0,0
85237,-384.615384615385,4,2,0,100,0,0
85344,-66.6666666666667,4,2,0,100,0,0
85398,-200,4,2,0,100,0,0
85451,-238.095238095238,4,2,0,100,0,0
85558,-119.047619047619,4,2,0,100,0,0
85665,-59.5238095238095,4,2,0,100,0,0
85773,0.1,4,2,0,100,1,0
85773,-100,4,2,0,100,0,0
85774,2142.85714285714,4,2,0,100,1,0
86093,2.00267022696929,4,2,0,100,1,0
86094,0.1,4,2,0,100,1,0
86095,2142.85714285714,4,2,0,100,1,0
86361,2.00267022696929,4,2,0,100,1,0
86362,0.1,4,2,0,100,1,0
86363,2142.85714285714,4,2,0,100,1,0
86629,2.00267022696929,4,2,0,100,1,0
86630,0.1,4,2,0,100,1,0
86631,2142.85714285714,4,2,0,100,1,0
86950,2.00267022696929,4,2,0,100,1,0
86951,0.1,4,2,0,100,1,0
86952,2142.85714285714,4,2,0,100,1,0
87218,2.00267022696929,4,2,0,100,1,0
87219,0.1,4,2,0,100,1,0
87220,2142.85714285714,4,2,0,100,1,0
87486,2.00267022696929,4,2,0,100,1,0
87487,0.1,4,2,0,100,1,0
87488,2142.85714285714,4,2,0,100,1,0
87807,2.00267022696929,4,2,0,100,1,0
87808,0.1,4,2,0,100,1,0
87809,2142.85714285714,4,2,0,100,1,0
88075,2.00267022696929,4,2,0,100,1,0
88076,428.571428571429,4,2,0,100,1,0
88344,-59.5238095238095,4,2,0,100,0,0
88451,-119.047619047619,4,2,0,100,0,0
88558,-238.095238095238,4,2,0,100,0,0
88665,-66.6666666666667,4,2,0,100,0,0
88719,-200,4,2,0,100,0,0
88773,-238.095238095238,4,2,0,100,0,0
88880,-119.047619047619,4,2,0,100,0,0
88987,-59.5238095238095,4,2,0,100,0,0
89094,-66.6666666666667,4,2,0,100,0,0
89148,-200,4,2,0,100,0,0
89201,-46.7289719626168,4,2,0,100,0,0
89307,-93.4579439252336,4,2,0,100,0,0
89414,-188.679245283019,4,2,0,100,0,0
89521,-384.615384615385,4,2,0,100,0,0
89629,-238.095238095238,4,2,0,100,0,0
89736,-119.047619047619,4,2,0,100,0,0
89843,-59.5238095238095,4,2,0,100,0,0
89950,-66.6666666666667,4,2,0,100,0,0
90004,-200,4,2,0,100,0,0
90057,-40.983606557377,4,2,0,100,0,0
90164,-93.4579439252336,4,2,0,100,0,0
90271,-188.679245283019,4,2,0,100,0,0
90379,-384.615384615385,4,2,0,100,0,0
90486,-66.6666666666667,4,2,0,100,0,0
90540,-200,4,2,0,100,0,0
90593,-66.6666666666667,4,2,0,100,0,0
90648,-200,4,2,0,100,0,0
90700,-46.7289719626168,4,2,0,100,0,0
90755,-93.4579439252336,4,2,0,100,0,0
90808,-188.679245283019,4,2,0,100,0,0
90862,-384.615384615385,4,2,0,100,0,0
90915,-250,4,2,0,100,0,0
91343,-66.6666666666667,4,2,0,100,0,0
91398,-200,4,2,0,100,0,0
91450,-238.095238095238,4,2,0,100,0,0
91505,-119.047619047619,4,2,0,100,0,0
91557,-59.5238095238095,4,2,0,100,0,0
91612,-100,4,2,0,100,0,0
91664,-66.6666666666667,4,2,0,100,0,0
91718,-200,4,2,0,100,0,0
91771,-40.983606557377,4,2,0,100,0,0
91879,-93.4579439252336,4,2,0,100,0,0
91986,-188.679245283019,4,2,0,100,0,0
92093,-384.615384615385,4,2,0,100,0,0
92200,-384.615384615385,4,2,0,100,0,0
92255,-188.679245283019,4,2,0,100,0,0
92307,-93.4579439252336,4,2,0,100,0,0
92362,-46.7289719626168,4,2,0,100,0,0
92414,-384.615384615385,4,2,0,100,0,0
92469,-188.679245283019,4,2,0,100,0,0
92521,-93.4579439252336,4,2,0,100,0,0
92576,-46.7289719626168,4,2,0,100,0,0
92629,-100,4,2,0,100,0,0
92630,0.1,4,2,0,100,1,0
92631,2142.85714285714,4,2,0,100,1,0
92950,2.00267022696929,4,2,0,100,1,0
92951,0.1,4,2,0,100,1,0
92952,2142.85714285714,4,2,0,100,1,0
93218,2.00267022696929,4,2,0,100,1,0
93219,0.1,4,2,0,100,1,0
93220,2142.85714285714,4,2,0,100,1,0
93486,2.00267022696929,4,2,0,100,1,0
93487,0.1,4,2,0,100,1,0
93488,2142.85714285714,4,2,0,100,1,0
93807,2.00267022696929,4,2,0,100,1,0
93808,0.1,4,2,0,100,1,0
93809,2142.85714285714,4,2,0,100,1,0
94075,2.00267022696929,4,2,0,100,1,0
94076,0.1,4,2,0,100,1,0
94077,2142.85714285714,4,2,0,100,1,0
94343,2.00267022696929,4,2,0,100,1,0
94344,0.1,4,2,0,100,1,0
94345,2142.85714285714,4,2,0,100,1,0
94664,2.00267022696929,4,2,0,100,1,0
94665,0.1,4,2,0,100,1,0
94666,2142.85714285714,4,2,0,100,1,0
94932,2.00267022696929,4,2,0,100,1,0
94933,428.571428571429,4,2,0,100,1,0
95200,-59.5238095238095,4,2,0,100,0,0
95307,-119.047619047619,4,2,0,100,0,0
95414,-238.095238095238,4,2,0,100,0,0
95521,-66.6666666666667,4,2,0,100,0,0
95575,-200,4,2,0,100,0,0
95629,-200,4,2,0,100,0,0
95736,-100,4,2,0,100,0,0
95843,-50,4,2,0,100,0,0
95898,-100,4,2,0,100,0,0
95950,-66.6666666666667,4,2,0,100,0,0
96004,-200,4,2,0,100,0,0
96059,-46.7289719626168,4,2,0,100,0,0
96165,-93.4579439252336,4,2,0,100,0,0
96272,-188.679245283019,4,2,0,100,0,0
96379,-384.615384615385,4,2,0,100,0,0
96487,-238.095238095238,4,2,0,100,0,0
96594,-119.047619047619,4,2,0,100,0,0
96701,-59.5238095238095,4,2,0,100,0,0
96808,-66.6666666666667,4,2,0,100,0,0
96862,-200,4,2,0,100,0,0
96915,-40.983606557377,4,2,0,100,0,0
97022,-93.4579439252336,4,2,0,100,0,0
97129,-188.679245283019,4,2,0,100,0,0
97237,-384.615384615385,4,2,0,100,0,0
97344,-100,4,2,0,100,0,0
97398,-66.6666666666667,4,2,0,100,0,0
97451,-200,4,2,0,100,0,0
97505,-200,4,2,0,100,0,0
97612,-100,4,2,0,100,0,0
97719,-50,4,2,0,100,0,0
97772,-250,4,2,0,100,0,0
98201,-238.095238095238,4,2,0,100,0,0
98308,-119.047619047619,4,2,0,100,0,0
98415,-59.5238095238095,4,2,0,100,0,0
98522,-66.6666666666667,4,2,0,100,0,0
98576,-200,4,2,0,100,0,0
98629,-40.983606557377,4,2,0,100,0,0
98737,-93.4579439252336,4,2,0,100,0,0
98844,-188.679245283019,4,2,0,100,0,0
98951,-384.615384615385,4,2,0,100,0,0
99058,-66.6666666666667,4,2,0,100,0,0
99112,-200,4,2,0,100,0,0
99165,-238.095238095238,4,2,0,100,0,0
99219,-119.047619047619,4,2,0,100,0,0
99273,-59.5238095238095,4,2,0,100,0,0
99326,-59.5238095238095,4,2,0,100,0,0
99380,-238.095238095238,4,2,0,100,0,0
99433,-119.047619047619,4,2,0,100,0,0
99487,0.1,4,2,0,100,1,0
99487,-100,4,2,0,100,0,0
99488,2142.85714285714,4,2,0,100,1,0
99807,2.00267022696929,4,2,0,100,1,0
99808,0.1,4,2,0,100,1,0
99809,2142.85714285714,4,2,0,100,1,0
100075,2.00267022696929,4,2,0,100,1,0
100076,0.1,4,2,0,100,1,0
100077,2142.85714285714,4,2,0,100,1,0
100343,2.00267022696929,4,2,0,100,1,0
100344,0.1,4,2,0,100,1,0
100345,2142.85714285714,4,2,0,100,1,0
100664,2.00267022696929,4,2,0,100,1,0
100665,0.1,4,2,0,100,1,0
100666,2142.85714285714,4,2,0,100,1,0
100932,2.00267022696929,4,2,0,100,1,0
100933,0.1,4,2,0,100,1,0
100934,2142.85714285714,4,2,0,100,1,0
101200,2.00267022696929,4,2,0,100,1,0
101201,0.1,4,2,0,100,1,0
101202,2142.85714285714,4,2,0,100,1,0
101522,2.00267022696929,4,2,0,100,1,0
101523,0.1,4,2,0,100,1,0
101524,2142.85714285714,4,2,0,100,1,0
101789,2.00267022696929,4,2,0,100,1,0
101790,428.571428571429,4,2,0,100,1,0
102058,-59.5238095238095,4,2,0,100,0,0
102165,-119.047619047619,4,2,0,100,0,0
102272,-238.095238095238,4,2,0,100,0,0
102379,-66.6666666666667,4,2,0,100,0,0
102433,-200,4,2,0,100,0,0
102487,-238.095238095238,4,2,0,100,0,0
102594,-119.047619047619,4,2,0,100,0,0
102701,-59.5238095238095,4,2,0,100,0,0
102808,-66.6666666666667,4,2,0,100,0,0
102862,-200,4,2,0,100,0,0
102915,-46.7289719626168,4,2,0,100,0,0
103021,-93.4579439252336,4,2,0,100,0,0
103128,-188.679245283019,4,2,0,100,0,0
103235,-384.615384615385,4,2,0,100,0,0
103343,-238.095238095238,4,2,0,100,0,0
103450,-119.047619047619,4,2,0,100,0,0
103557,-59.5238095238095,4,2,0,100,0,0
103664,-66.6666666666667,4,2,0,100,0,0
103718,-200,4,2,0,100,0,0
103771,-40.983606557377,4,2,0,100,0,0
103878,-93.4579439252336,4,2,0,100,0,0
103985,-188.679245283019,4,2,0,100,0,0
104093,-384.615384615385,4,2,0,100,0,0
104200,-66.6666666666667,4,2,0,100,0,0
104254,-200,4,2,0,100,0,0
104307,-66.6666666666667,4,2,0,100,0,0
104362,-200,4,2,0,100,0,0
104414,-46.7289719626168,4,2,0,100,0,0
104469,-93.4579439252336,4,2,0,100,0,0
104522,-188.679245283019,4,2,0,100,0,0
104576,-384.615384615385,4,2,0,100,0,0
104629,-250,4,2,0,100,0,0
105057,-66.6666666666667,4,2,0,100,0,0
105112,-200,4,2,0,100,0,0
105164,-238.095238095238,4,2,0,100,0,0
105219,-119.047619047619,4,2,0,100,0,0
105271,-59.5238095238095,4,2,0,100,0,0
105326,-100,4,2,0,100,0,0
105378,-66.6666666666667,4,2,0,100,0,0
105432,-200,4,2,0,100,0,0
105485,-40.983606557377,4,2,0,100,0,0
105593,-93.4579439252336,4,2,0,100,0,0
105700,-188.679245283019,4,2,0,100,0,0
105807,-384.615384615385,4,2,0,100,0,0
105914,-384.615384615385,4,2,0,100,0,0
105969,-188.679245283019,4,2,0,100,0,0
106021,-93.4579439252336,4,2,0,100,0,0
106076,-46.7289719626168,4,2,0,100,0,0
106128,-384.615384615385,4,2,0,100,0,0
106183,-188.679245283019,4,2,0,100,0,0
106235,-93.4579439252336,4,2,0,100,0,0
106290,-46.7289719626168,4,2,0,100,0,0
106343,-100,4,2,0,100,0,0
106344,0.1,4,2,0,100,1,0
106345,2142.85714285714,4,2,0,100,1,0
106664,2.00267022696929,4,2,0,100,1,0
106665,0.1,4,2,0,100,1,0
106666,2142.85714285714,4,2,0,100,1,0
106932,2.00267022696929,4,2,0,100,1,0
106933,0.1,4,2,0,100,1,0
106934,2142.85714285714,4,2,0,100,1,0
107200,2.00267022696929,4,2,0,100,1,0
107201,0.1,4,2,0,100,1,0
107202,2142.85714285714,4,2,0,100,1,0
107522,2.00267022696929,4,2,0,100,1,0
107523,0.1,4,2,0,100,1,0
107524,2142.85714285714,4,2,0,100,1,0
107789,2.00267022696929,4,2,0,100,1,0
107790,0.1,4,2,0,100,1,0
107791,2142.85714285714,4,2,0,100,1,0
108057,2.00267022696929,4,2,0,100,1,0
108058,0.1,4,2,0,100,1,0
108059,2142.85714285714,4,2,0,100,1,0
108379,2.00267022696929,4,2,0,100,1,0
108380,0.1,4,2,0,100,1,0
108381,2142.85714285714,4,2,0,100,1,0
108647,2.00267022696929,4,2,0,100,1,0
108648,428.571428571429,4,2,0,100,1,0
108914,-59.5238095238095,4,2,0,100,0,0
109021,-119.047619047619,4,2,0,100,0,0
109128,-238.095238095238,4,2,0,100,0,0
109235,-66.6666666666667,4,2,0,100,0,0
109289,-200,4,2,0,100,0,0
109343,-200,4,2,0,100,0,0
109450,-100,4,2,0,100,0,0
109557,-50,4,2,0,100,0,0
109612,-100,4,2,0,100,0,0
109664,-66.6666666666667,4,2,0,100,0,0
109718,-200,4,2,0,100,0,0
109772,-100,4,2,0,100,0,0
109773,-46.7289719626168,4,2,0,100,0,0
109879,-93.4579439252336,4,2,0,100,0,0
109986,-188.679245283019,4,2,0,100,0,0
110093,-384.615384615385,4,2,0,100,0,0
110201,-238.095238095238,4,2,0,100,0,0
110308,-119.047619047619,4,2,0,100,0,0
110415,-59.5238095238095,4,2,0,100,0,0
110522,-66.6666666666667,4,2,0,100,0,0
110576,-200,4,2,0,100,0,0
110629,-40.983606557377,4,2,0,100,0,0
110736,-93.4579439252336,4,2,0,100,0,0
110843,-188.679245283019,4,2,0,100,0,0
110951,-384.615384615385,4,2,0,100,0,0
111058,-100,4,2,0,100,0,0
111165,-66.6666666666667,4,2,0,100,0,0
111219,-200,4,2,0,100,0,0
111273,-46.7289719626168,4,2,0,100,0,0
111326,-93.4579439252336,4,2,0,100,0,0
111380,-188.679245283019,4,2,0,100,0,0
111433,-384.615384615385,4,2,0,100,0,0
111486,-250,4,2,0,100,0,0
111915,-238.095238095238,4,2,0,100,0,0
112022,-119.047619047619,4,2,0,100,0,0
112129,-59.5238095238095,4,2,0,100,0,0
112236,-66.6666666666667,4,2,0,100,0,0
112290,-200,4,2,0,100,0,0
112343,-40.983606557377,4,2,0,100,0,0
112451,-93.4579439252336,4,2,0,100,0,0
112558,-188.679245283019,4,2,0,100,0,0
112665,-384.615384615385,4,2,0,100,0,0
112772,-66.6666666666667,4,2,0,100,0,0
112826,-200,4,2,0,100,0,0
112879,-238.095238095238,4,2,0,100,0,0
112986,-119.047619047619,4,2,0,100,0,0
113093,-59.5238095238095,4,2,0,100,0,0
113201,0.1,4,2,0,100,1,0
113201,-100,4,2,0,100,0,0
113202,2142.85714285714,4,2,0,100,1,0
113522,2.00267022696929,4,2,0,100,1,0
113523,0.1,4,2,0,100,1,0
113524,2142.85714285714,4,2,0,100,1,0
113789,2.00267022696929,4,2,0,100,1,0
113790,0.1,4,2,0,100,1,0
113791,2142.85714285714,4,2,0,100,1,0
114057,2.00267022696929,4,2,0,100,1,0
114058,0.1,4,2,0,100,1,0
114059,2142.85714285714,4,2,0,100,1,0
114379,2.00267022696929,4,2,0,100,1,0
114380,0.1,4,2,0,100,1,0
114381,2142.85714285714,4,2,0,100,1,0
114647,2.00267022696929,4,2,0,100,1,0
114648,0.1,4,2,0,100,1,0
114649,2142.85714285714,4,2,0,100,1,0
114914,2.00267022696929,4,2,0,100,1,0
114915,0.1,4,2,0,100,1,0
114916,2142.85714285714,4,2,0,100,1,0
115236,2.00267022696929,4,2,0,100,1,0
115237,0.1,4,2,0,100,1,0
115238,2142.85714285714,4,2,0,100,1,0
115504,2.00267022696929,4,2,0,100,1,0
115505,428.571428571429,4,2,0,100,1,0
115772,-59.5238095238095,4,2,0,100,0,0
115879,-119.047619047619,4,2,0,100,0,0
115986,-238.095238095238,4,2,0,100,0,0
116093,-66.6666666666667,4,2,0,100,0,0
116147,-200,4,2,0,100,0,0
116201,-238.095238095238,4,2,0,100,0,0
116308,-119.047619047619,4,2,0,100,0,0
116415,-59.5238095238095,4,2,0,100,0,0
116522,-66.6666666666667,4,2,0,100,0,0
116576,-200,4,2,0,100,0,0
116629,-46.7289719626168,4,2,0,100,0,0
116735,-93.4579439252336,4,2,0,100,0,0
116842,-188.679245283019,4,2,0,100,0,0
116949,-384.615384615385,4,2,0,100,0,0
117057,-238.095238095238,4,2,0,100,0,0
117164,-119.047619047619,4,2,0,100,0,0
117271,-59.5238095238095,4,2,0,100,0,0
117378,-66.6666666666667,4,2,0,100,0,0
117432,-200,4,2,0,100,0,0
117485,-40.983606557377,4,2,0,100,0,0
117592,-93.4579439252336,4,2,0,100,0,0
117699,-188.679245283019,4,2,0,100,0,0
117807,-384.615384615385,4,2,0,100,0,0
117914,-384.615384615385,4,2,0,100,0,0
117968,-188.679245283019,4,2,0,100,0,0
118021,-93.4579439252336,4,2,0,100,0,0
118076,-46.7289719626168,4,2,0,100,0,0
118128,-46.7289719626168,4,2,0,100,0,0
118183,-93.4579439252336,4,2,0,100,0,0
118236,-188.679245283019,4,2,0,100,0,0
118290,-384.615384615385,4,2,0,100,0,0
118343,-250,4,2,0,100,0,0
118771,-66.6666666666667,4,2,0,100,0,0
118826,-200,4,2,0,100,0,0
118878,-238.095238095238,4,2,0,100,0,0
118933,-119.047619047619,4,2,0,100,0,0
118985,-59.5238095238095,4,2,0,100,0,0
119040,-100,4,2,0,100,0,0
119092,-66.6666666666667,4,2,0,100,0,0
119146,-200,4,2,0,100,0,0
119199,-40.983606557377,4,2,0,100,0,0
119307,-93.4579439252336,4,2,0,100,0,0
119414,-188.679245283019,4,2,0,100,0,0
119521,-384.615384615385,4,2,0,100,0,0
119628,-384.615384615385,4,2,0,100,0,0
119683,-188.679245283019,4,2,0,100,0,0
119735,-93.4579439252336,4,2,0,100,0,0
119790,-46.7289719626168,4,2,0,100,0,0
119842,-384.615384615385,4,2,0,100,0,0
119897,-188.679245283019,4,2,0,100,0,0
119949,-93.4579439252336,4,2,0,100,0,0
120004,-46.7289719626168,4,2,0,100,0,0
120057,-100,4,2,0,100,0,0
120058,0.1,4,2,0,100,1,0
120059,2142.85714285714,4,2,0,100,1,0
120379,2.00267022696929,4,2,0,100,1,0
120380,0.1,4,2,0,100,1,0
120381,2142.85714285714,4,2,0,100,1,0
120647,2.00267022696929,4,2,0,100,1,0
120648,0.1,4,2,0,100,1,0
120649,2142.85714285714,4,2,0,100,1,0
120914,2.00267022696929,4,2,0,100,1,0
120915,0.1,4,2,0,100,1,0
120916,2142.85714285714,4,2,0,100,1,0
121236,2.00267022696929,4,2,0,100,1,0
121237,0.1,4,2,0,100,1,0
121238,2142.85714285714,4,2,0,100,1,0
121504,2.00267022696929,4,2,0,100,1,0
121505,0.1,4,2,0,100,1,0
121506,2142.85714285714,4,2,0,100,1,0
121772,2.00267022696929,4,2,0,100,1,0
121773,0.1,4,2,0,100,1,0
121774,2142.85714285714,4,2,0,100,1,0
122093,2.00267022696929,4,2,0,100,1,0
122094,0.1,4,2,0,100,1,0
122095,2142.85714285714,4,2,0,100,1,0
122361,2.00267022696929,4,2,0,100,1,0
122362,428.571428571429,4,2,0,100,1,0
122628,-59.5238095238095,4,2,0,100,0,0
122735,-119.047619047619,4,2,0,100,0,0
122842,-238.095238095238,4,2,0,100,0,0
122949,-66.6666666666667,4,2,0,100,0,0
123003,-200,4,2,0,100,0,0
123057,-200,4,2,0,100,0,0
123164,-100,4,2,0,100,0,0
123271,-50,4,2,0,100,0,0
123326,-100,4,2,0,100,0,0
123378,-66.6666666666667,4,2,0,100,0,0
123432,-200,4,2,0,100,0,0
123487,-46.7289719626168,4,2,0,100,0,0
123594,-93.4579439252336,4,2,0,100,0,0
123701,-188.679245283019,4,2,0,100,0,0
123808,-384.615384615385,4,2,0,100,0,0
123915,-46.7289719626168,4,2,0,100,0,0
124023,-93.4579439252336,4,2,0,100,0,0
124130,-188.679245283019,4,2,0,100,0,0
124237,-384.615384615385,4,2,0,100,0,0
124344,-46.7289719626168,4,2,0,100,0,0
124451,-93.4579439252336,4,2,0,100,0,0
124558,-188.679245283019,4,2,0,100,0,0
124665,-384.615384615385,4,2,0,100,0,0
124772,-46.7289719626168,4,2,0,100,0,0
124880,-93.4579439252336,4,2,0,100,0,0
124987,-188.679245283019,4,2,0,100,0,0
125094,-384.615384615385,4,2,0,100,0,0
125201,-46.7289719626168,4,2,0,100,0,0
125308,-93.4579439252336,4,2,0,100,0,0
125415,-188.679245283019,4,2,0,100,0,0
125523,-384.615384615385,4,2,0,100,0,0
125630,-46.7289719626168,4,2,0,100,0,0
125683,-93.4579439252336,4,2,0,100,0,0
125737,-188.679245283019,4,2,0,100,0,0
125790,-384.615384615385,4,2,0,100,0,0
125844,-46.7289719626168,4,2,0,100,0,0
125898,-93.4579439252336,4,2,0,100,0,0
125951,-188.679245283019,4,2,0,100,0,0
126005,-384.615384615385,4,2,0,100,0,0
126058,-46.7289719626168,4,2,0,100,0,0
126165,-93.4579439252336,4,2,0,100,0,0
126273,-188.679245283019,4,2,0,100,0,0
126380,-384.615384615385,4,2,0,100,0,0
126487,-238.095238095238,4,2,0,100,0,0
126594,-119.047619047619,4,2,0,100,0,0
126701,-59.5238095238095,4,2,0,100,0,0
126808,-66.6666666666667,4,2,0,100,0,0
126862,-200,4,2,0,100,0,0
126915,-46.7289719626168,4,2,0,100,0,0
127023,-93.4579439252336,4,2,0,100,0,0
127130,-188.679245283019,4,2,0,100,0,0
127237,-384.615384615385,4,2,0,100,0,0
127344,-46.7289719626168,4,2,0,100,0,0
127451,-93.4579439252336,4,2,0,100,0,0
127558,-188.679245283019,4,2,0,100,0,0
127665,-384.615384615385,4,2,0,100,0,0
127773,-59.5238095238095,4,2,0,100,0,0
127880,-119.047619047619,4,2,0,100,0,0
127987,-238.095238095238,4,2,0,100,0,0
128094,-66.6666666666667,4,2,0,100,0,0
128148,-200,4,2,0,100,0,0
128201,-46.7289719626168,4,2,0,100,0,0
128308,-93.4579439252336,4,2,0,100,0,0
128415,-188.679245283019,4,2,0,100,0,0
128523,-384.615384615385,4,2,0,100,0,0
128630,-59.5238095238095,4,2,0,100,0,0
128737,-119.047619047619,4,2,0,100,0,0
128844,-238.095238095238,4,2,0,100,0,0
128951,-59.5238095238095,4,2,0,100,0,0
129058,-119.047619047619,4,2,0,100,0,0
129165,-238.095238095238,4,2,0,100,0,0
129273,-66.6666666666667,4,2,0,100,0,0
129326,-200,4,2,0,100,0,0
129380,-66.6666666666667,4,2,0,100,0,0
129433,-200,4,2,0,100,0,0
129487,-59.5238095238095,4,2,0,100,0,0
129594,-119.047619047619,4,2,0,100,0,0
129701,-238.095238095238,4,2,0,100,0,0
129808,-66.6666666666667,4,2,0,100,0,0
129862,-200,4,2,0,100,0,0
129915,-200,4,2,0,100,0,0
130023,-100,4,2,0,100,0,0
130130,-50,4,2,0,100,0,0
130183,-38.4615384615385,4,2,0,100,0,0
130237,-500,4,2,0,100,0,0
130344,-46.0829493087558,4,2,0,100,0,0
130451,-93.4579439252336,4,2,0,100,0,0
130558,-188.679245283019,4,2,0,100,0,0
130665,-384.615384615385,4,2,0,100,0,0
130773,-66.6666666666667,4,2,0,100,0,0
130826,-200,4,2,0,100,0,0
130880,-66.6666666666667,4,2,0,100,0,0
130933,-200,4,2,0,100,0,0
130987,-66.6666666666667,4,2,0,100,0,0
131040,-200,4,2,0,100,0,0
131094,-66.6666666666667,4,2,0,100,0,0
131148,-200,4,2,0,100,0,0
131201,-52.6315789473684,4,2,0,100,0,0
131308,-100,4,2,0,100,0,0
131415,-200,4,2,0,100,0,0
131523,-500,4,2,0,100,0,0
131576,-100,4,2,0,100,0,0
131630,-46.7289719626168,4,2,0,100,0,0
131737,-93.4579439252336,4,2,0,100,0,0
131844,-188.679245283019,4,2,0,100,0,0
131951,-384.615384615385,4,2,0,100,0,0
132058,-52.6315789473684,4,2,0,100,0,0
132165,-100,4,2,0,100,0,0
132273,-200,4,2,0,100,0,0
132380,-500,4,2,0,100,0,0
132433,-384.615384615385,4,2,0,100,0,0
132487,-188.679245283019,4,2,0,100,0,0
132540,-93.4579439252336,4,2,0,100,0,0
132594,-46.7289719626168,4,2,0,100,0,0
132648,-200,4,2,0,100,0,0
132755,-100,4,2,0,100,0,0
132862,-50,4,2,0,100,0,0
132915,-40.983606557377,4,2,0,100,0,0
133023,-93.4579439252336,4,2,0,100,0,0
133130,-188.679245283019,4,2,0,100,0,0
133237,-384.615384615385,4,2,0,100,0,0
133344,-50,4,2,0,100,0,0
133398,-100,4,2,0,100,0,0
133505,-200,4,2,0,100,0,0
133612,-41.6666666666667,4,2,0,100,0,0
133665,-500,4,2,0,100,0,0
133773,-59.5238095238095,4,2,0,100,0,0
133880,-119.047619047619,4,2,0,100,0,0
133987,-238.095238095238,4,2,0,100,0,0
134094,-166.666666666667,4,2,0,100,0,0
134201,-125,4,2,0,100,0,0
134308,-100,4,2,0,100,0,0
134415,-83.3333333333333,4,2,0,100,0,0
134523,-71.4285714285714,4,2,0,100,0,0
134630,-56.1797752808989,4,2,0,100,0,0
134737,-106.382978723404,4,2,0,100,0,0
134844,-192.307692307692,4,2,0,100,0,0
134951,-142.857142857143,4,2,0,100,0,0
135058,-111.111111111111,4,2,0,100,0,0
135165,-90.9090909090909,4,2,0,100,0,0
135272,-76.9230769230769,4,2,0,100,0,0
135380,-66.6666666666667,4,2,0,100,0,0
135487,-53.1914893617021,4,2,0,100,0,0
135594,-96.1538461538461,4,2,0,100,0,0
135701,-161.290322580645,4,2,0,100,0,0
135808,-125,4,2,0,100,0,0
135915,-100,4,2,0,100,0,0
136022,-83.3333333333333,4,2,0,100,0,0
136129,-71.4285714285714,4,2,0,100,0,0
136237,-62.5,4,2,0,100,0,0
136344,-50.5050505050505,4,2,0,100,0,0
136451,-87.719298245614,4,2,0,100,0,0
136558,-138.888888888889,4,2,0,100,0,0
136665,-111.111111111111,4,2,0,100,0,0
136772,-90.9090909090909,4,2,0,100,0,0
136879,-76.9230769230769,4,2,0,100,0,0
136986,-66.6666666666667,4,2,0,100,0,0
137094,-58.8235294117647,4,2,0,100,0,0
137201,-100,4,2,0,100,0,0

[HitObjects]
192,192,13772,5,0,0:0:0:0:
320,192,13772,1,0,0:0:0:0:
448,192,13772,1,0,0:0:0:0:
64,192,13772,1,0,0:0:0:0:
448,192,14147,1,0,0:0:0:0:
192,192,14362,1,0,0:0:0:0:
320,192,14522,1,0,0:0:0:0:
64,192,14630,1,0,0:0:0:0:
448,192,14630,1,0,0:0:0:0:
192,192,15058,128,0,15487:0:0:0:0:
448,192,15487,128,0,15701:0:0:0:0:
64,192,15915,1,0,0:0:0:0:
320,192,16076,1,0,0:0:0:0:
192,192,16237,1,0,0:0:0:0:
64,192,16344,1,0,0:0:0:0:
448,192,16344,1,0,0:0:0:0:
320,192,16719,1,0,0:0:0:0:
192,192,16880,1,0,0:0:0:0:
320,192,17040,1,0,0:0:0:0:
64,192,17201,1,0,0:0:0:0:
448,192,17201,1,0,0:0:0:0:
192,192,17576,1,0,0:0:0:0:
320,192,17630,128,0,18058:0:0:0:0:
64,192,18058,1,0,0:0:0:0:
448,192,18058,1,0,0:0:0:0:
320,192,18487,128,0,18915:0:0:0:0:
192,192,18487,1,0,0:0:0:0:
64,192,18915,1,0,0:0:0:0:
448,192,18915,1,0,0:0:0:0:
320,192,19290,1,0,0:0:0:0:
448,192,19344,1,0,0:0:0:0:
192,192,19451,1,0,0:0:0:0:
64,192,19505,1,0,0:0:0:0:
320,192,19665,1,0,0:0:0:0:
64,192,19773,1,0,0:0:0:0:
448,192,19773,1,0,0:0:0:0:
320,192,20201,128,0,20630:0:0:0:0:
192,192,20255,1,0,0:0:0:0:
448,192,20630,1,0,0:0:0:0:
64,192,20630,1,0,0:0:0:0:
320,192,20951,1,0,0:0:0:0:
192,192,21058,1,0,0:0:0:0:
64,192,21273,1,0,0:0:0:0:
320,192,21380,1,0,0:0:0:0:
192,192,21487,1,0,0:0:0:0:
448,192,21487,1,0,0:0:0:0:
320,192,21808,1,0,0:0:0:0:
192,192,22130,1,0,0:0:0:0:
64,192,22237,1,0,0:0:0:0:
320,192,22344,1,0,0:0:0:0:
448,192,22558,1,0,0:0:0:0:
64,192,22665,1,0,0:0:0:0:
192,192,22773,1,0,0:0:0:0:
448,192,22880,1,0,0:0:0:0:
320,192,22987,1,0,0:0:0:0:
64,192,23094,1,0,0:0:0:0:
192,192,23201,1,0,0:0:0:0:
448,192,23201,1,0,0:0:0:0:
320,192,23523,1,0,0:0:0:0:
64,192,23630,128,0,24058:0:0:0:0:
448,192,24058,1,0,0:0:0:0:
192,192,24058,1,0,0:0:0:0:
320,192,24165,128,0,24915:0:0:0:0:
448,192,24915,1,0,0:0:0:0:
64,192,24915,1,0,0:0:0:0:
192,192,25344,128,0,25773:0:0:0:0:
320,192,25451,1,0,0:0:0:0:
64,192,25773,1,0,0:0:0:0:
448,192,25773,1,0,0:0:0:0:
320,192,26415,1,0,0:0:0:0:
448,192,26523,1,0,0:0:0:0:
192,192,26630,1,0,0:0:0:0:
64,192,26630,1,0,0:0:0:0:
448,192,27058,1,0,0:0:0:0:
320,192,27165,1,0,0:0:0:0:
192,192,27380,1,0,0:0:0:0:
64,192,27487,128,0,27862:0:0:0:0:
320,192,27487,1,0,0:0:0:0:
320,192,27862,1,0,0:0:0:0:
448,192,27969,1,0,0:0:0:0:
64,192,28076,1,0,0:0:0:0:
320,192,28237,1,0,0:0:0:0:
192,192,28344,1,0,0:0:0:0:
448,192,28344,1,0,0:0:0:0:
320,192,28719,1,0,0:0:0:0:
64,192,28719,128,0,29201:0:0:0:0:
320,192,29201,1,0,0:0:0:0:
192,192,29201,128,0,29308:0:0:0:0:
448,192,29308,1,0,0:0:0:0:
320,192,29523,1,0,0:0:0:0:
192,192,29576,1,0,0:0:0:0:
64,192,29630,1,0,0:0:0:0:
320,192,29844,1,0,0:0:0:0:
448,192,29951,1,0,0:0:0:0:
192,192,30058,1,0,0:0:0:0:
64,192,30058,1,0,0:0:0:0:
192,193,30540,1,0,0:0:0:0:
320,192,30540,128,0,30915:0:0:0:0:
64,192,30915,1,0,0:0:0:0:
448,192,30915,1,0,0:0:0:0:
192,192,31237,1,0,0:0:0:0:
320,192,31290,128,0,31773:0:0:0:0:
448,192,31773,1,0,0:0:0:0:
64,192,31773,1,0,0:0:0:0:
192,192,32148,1,0,0:0:0:0:
320,192,32201,128,0,32630:0:0:0:0:
64,192,32630,1,0,0:0:0:0:
448,192,32630,1,0,0:0:0:0:
320,192,33005,1,0,0:0:0:0:
448,192,33058,1,0,0:0:0:0:
192,192,33112,1,0,0:0:0:0:
64,192,33165,1,0,0:0:0:0:
448,192,33219,1,0,0:0:0:0:
320,192,33273,1,0,0:0:0:0:
64,192,33380,1,0,0:0:0:0:
192,192,33487,1,0,0:0:0:0:
448,192,33487,1,0,0:0:0:0:
192,192,33808,1,0,0:0:0:0:
320,192,33808,128,0,34344:0:0:0:0:
64,192,34344,1,0,0:0:0:0:
448,192,34344,1,0,0:0:0:0:
192,192,34665,1,0,0:0:0:0:
320,192,34719,1,0,0:0:0:0:
448,192,34773,1,0,0:0:0:0:
64,192,35094,1,0,0:0:0:0:
192,192,35201,1,0,0:0:0:0:
320,192,35201,128,0,36058:0:0:0:0:
448,192,35576,1,0,0:0:0:0:
64,192,35630,1,0,0:0:0:0:
192,192,35951,1,0,0:0:0:0:
448,192,36058,128,0,36273:0:0:0:0:
320,192,36380,1,0,0:0:0:0:
192,192,36487,1,0,0:0:0:0:
64,192,36808,1,0,0:0:0:0:
448,192,36915,1,0,0:0:0:0:
192,192,36915,1,0,0:0:0:0:
320,192,37237,1,0,0:0:0:0:
448,192,37344,1,0,0:0:0:0:
64,192,37773,1,0,0:0:0:0:
320,192,37773,1,0,0:0:0:0:
192,192,38148,1,0,0:0:0:0:
448,192,38201,128,0,38630:0:0:0:0:
64,192,38630,1,0,0:0:0:0:
320,192,38630,1,0,0:0:0:0:
192,192,39005,1,0,0:0:0:0:
320,192,39058,128,0,39487:0:0:0:0:
64,192,39487,1,0,0:0:0:0:
448,192,39487,1,0,0:0:0:0:
320,192,39808,1,0,0:0:0:0:
192,192,39915,1,0,0:0:0:0:
64,192,40076,5,0,0:0:0:0:
192,192,40237,1,0,0:0:0:0:
320,192,40290,1,0,0:0:0:0:
448,192,40344,1,0,0:0:0:0:
64,192,40344,1,0,0:0:0:0:
320,192,40719,1,0,0:0:0:0:
192,192,40880,1,0,0:0:0:0:
64,192,41040,1,0,0:0:0:0:
448,192,41201,5,0,0:0:0:0:
192,192,41201,1,0,0:0:0:0:
320,192,41201,1,0,0:0:0:0:
192,192,41951,1,0,0:0:0:0:
64,192,42058,1,0,0:0:0:0:
448,192,42058,1,0,0:0:0:0:
448,192,42915,128,0,43773:0:0:0:0:
192,192,43665,1,0,0:0:0:0:
64,192,43773,128,0,46344:0:0:0:0:
320,192,43773,1,0,0:0:0:0:
192,192,44630,1,0,0:0:0:0:
320,192,44630,1,0,0:0:0:0:
320,192,45487,1,0,0:0:0:0:
448,192,45487,1,0,0:0:0:0:
192,192,46344,1,0,0:0:0:0:
448,192,46344,1,0,0:0:0:0:
320,192,47094,1,0,0:0:0:0:
64,192,47201,1,0,0:0:0:0:
448,192,47201,1,0,0:0:0:0:
192,192,48058,1,0,0:0:0:0:
320,192,48058,1,0,0:0:0:0:
320,192,48808,1,0,0:0:0:0:
192,192,48915,1,0,0:0:0:0:
448,192,48915,1,0,0:0:0:0:
320,192,49773,128,0,50630:0:0:0:0:
192,192,50523,1,0,0:0:0:0:
448,192,50630,1,0,0:0:0:0:
64,192,50630,128,0,53201:0:0:0:0:
320,192,51487,1,0,0:0:0:0:
448,192,51487,1,0,0:0:0:0:
192,192,52344,1,0,0:0:0:0:
448,192,52344,1,0,0:0:0:0:
448,192,53201,128,0,54915:0:0:0:0:
192,192,53201,1,0,0:0:0:0:
320,192,53201,1,0,0:0:0:0:
192,192,53951,1,0,0:0:0:0:
64,192,54058,1,0,0:0:0:0:
320,192,54058,1,0,0:0:0:0:
64,192,54915,1,0,0:0:0:0:
192,192,54915,1,0,0:0:0:0:
320,192,54915,1,0,0:0:0:0:
192,192,55665,1,0,0:0:0:0:
64,192,55773,1,0,0:0:0:0:
448,192,55773,1,0,0:0:0:0:
192,192,55987,1,0,0:0:0:0:
320,192,56094,128,0,56415:0:0:0:0:
192,192,56415,1,0,0:0:0:0:
320,192,56523,128,0,56844:0:0:0:0:
448,192,56844,128,0,57058:0:0:0:0:
320,192,57058,128,0,58344:0:0:0:0:
192,192,57380,1,0,0:0:0:0:
64,192,57487,1,0,0:0:0:0:
448,192,57487,1,0,0:0:0:0:
64,192,58344,1,0,0:0:0:0:
192,192,58344,1,0,0:0:0:0:
448,192,58344,1,0,0:0:0:0:
448,192,58665,1,0,0:0:0:0:
448,192,58933,1,0,0:0:0:0:
448,192,59201,1,0,0:0:0:0:
64,192,59201,1,0,0:0:0:0:
192,192,59201,1,0,0:0:0:0:
320,192,59523,1,0,0:0:0:0:
320,192,59790,1,0,0:0:0:0:
64,192,60058,1,0,0:0:0:0:
192,192,60058,1,0,0:0:0:0:
448,192,60058,1,0,0:0:0:0:
320,192,60273,1,0,0:0:0:0:
448,192,60594,1,0,0:0:0:0:
192,192,60648,1,0,0:0:0:0:
320,192,60808,1,0,0:0:0:0:
64,192,60915,1,0,0:0:0:0:
192,192,60915,1,0,0:0:0:0:
448,192,60915,1,0,0:0:0:0:
320,192,61237,1,0,0:0:0:0:
192,192,61505,1,0,0:0:0:0:
64,192,61773,1,0,0:0:0:0:
448,192,61773,1,0,0:0:0:0:
320,192,61987,128,0,63273:0:0:0:0:
64,192,62523,1,0,0:0:0:0:
192,192,62630,1,0,0:0:0:0:
448,192,62630,1,0,0:0:0:0:
64,192,63273,128,0,63487:0:0:0:0:
448,192,63487,128,0,65201:0:0:0:0:
192,192,64237,1,0,0:0:0:0:
64,192,64344,1,0,0:0:0:0:
320,192,64344,1,0,0:0:0:0:
192,192,64665,1,0,0:0:0:0:
64,192,64987,1,0,0:0:0:0:
192,192,65201,1,0,0:0:0:0:
320,192,65201,1,0,0:0:0:0:
448,192,65844,1,0,0:0:0:0:
64,192,66058,1,0,0:0:0:0:
320,192,66058,1,0,0:0:0:0:
448,192,66273,128,0,66594:0:0:0:0:
320,192,66594,128,0,66915:0:0:0:0:
64,192,66915,1,0,0:0:0:0:
448,192,66915,1,0,0:0:0:0:
192,192,67344,128,0,67665:0:0:0:0:
448,192,67665,128,0,68094:0:0:0:0:
64,192,67665,1,0,0:0:0:0:
320,192,67773,1,0,0:0:0:0:
192,192,67773,1,0,0:0:0:0:
64,192,68094,128,0,68630:0:0:0:0:
320,192,68630,1,0,0:0:0:0:
448,192,68630,1,0,0:0:0:0:
192,192,69380,1,0,0:0:0:0:
64,192,69487,1,0,0:0:0:0:
320,192,69487,1,0,0:0:0:0:
192,192,69701,1,0,0:0:0:0:
448,192,69808,128,0,70344:0:0:0:0:
192,192,70237,1,0,0:0:0:0:
320,192,70344,128,0,72058:0:0:0:0:
448,192,70558,128,0,70880:0:0:0:0:
192,192,70880,128,0,71094:0:0:0:0:
64,192,71094,1,0,0:0:0:0:
192,192,71201,1,0,0:0:0:0:
448,192,71201,1,0,0:0:0:0:
64,192,72058,1,0,0:0:0:0:
192,192,72058,1,0,0:0:0:0:
448,192,72058,1,0,0:0:0:0:
448,192,72380,1,0,0:0:0:0:
448,192,72648,1,0,0:0:0:0:
448,192,72915,1,0,0:0:0:0:
64,192,72915,1,0,0:0:0:0:
192,192,72915,1,0,0:0:0:0:
320,192,73237,1,0,0:0:0:0:
320,192,73505,1,0,0:0:0:0:
64,192,73773,1,0,0:0:0:0:
192,192,73773,1,0,0:0:0:0:
448,192,73773,1,0,0:0:0:0:
320,192,73987,1,0,0:0:0:0:
448,192,74308,1,0,0:0:0:0:
192,192,74362,1,0,0:0:0:0:
320,192,74523,1,0,0:0:0:0:
64,192,74630,1,0,0:0:0:0:
192,192,74630,1,0,0:0:0:0:
448,192,74630,1,0,0:0:0:0:
320,192,74951,1,0,0:0:0:0:
192,192,75219,1,0,0:0:0:0:
64,192,75487,1,0,0:0:0:0:
448,192,75487,1,0,0:0:0:0:
320,192,75701,128,0,76665:0:0:0:0:
64,192,76237,1,0,0:0:0:0:
192,192,76344,1,0,0:0:0:0:
448,192,76344,1,0,0:0:0:0:
64,192,76665,128,0,77201:0:0:0:0:
448,192,77201,128,0,78915:0:0:0:0:
192,192,77951,1,0,0:0:0:0:
64,192,78058,1,0,0:0:0:0:
320,192,78058,1,0,0:0:0:0:
192,192,78380,1,0,0:0:0:0:
64,192,78701,1,0,0:0:0:0:
192,192,78915,1,0,0:0:0:0:
320,192,78915,1,0,0:0:0:0:
448,192,79558,1,0,0:0:0:0:
64,192,79773,1,0,0:0:0:0:
320,192,79773,1,0,0:0:0:0:
448,192,79987,128,0,80308:0:0:0:0:
320,192,80308,128,0,80630:0:0:0:0:
64,192,80630,1,0,0:0:0:0:
448,192,80630,1,0,0:0:0:0:
192,192,81058,128,0,81380:0:0:0:0:
448,192,81380,128,0,81808:0:0:0:0:
64,192,81380,1,0,0:0:0:0:
320,192,81487,1,0,0:0:0:0:
192,192,81487,1,0,0:0:0:0:
64,192,81808,128,0,82344:0:0:0:0:
320,192,81915,1,0,0:0:0:0:
192,192,82237,1,0,0:0:0:0:
320,192,82344,1,0,0:0:0:0:
448,192,82344,1,0,0:0:0:0:
192,192,82773,128,0,83094:0:0:0:0:
64,192,83094,1,0,0:0:0:0:
320,192,83201,1,0,0:0:0:0:
448,192,83201,1,0,0:0:0:0:
64,192,83630,1,0,0:0:0:0:
192,192,83683,1,0,0:0:0:0:
448,192,83737,128,0,84058:0:0:0:0:
320,192,84487,128,0,84808:0:0:0:0:
192,192,84808,1,0,0:0:0:0:
64,192,84915,1,0,0:0:0:0:
448,192,84915,1,0,0:0:0:0:
192,192,85344,128,0,85773:0:0:0:0:
320,192,85451,1,0,0:0:0:0:
64,192,85773,1,0,0:0:0:0:
448,192,85773,1,0,0:0:0:0:
64,192,86094,1,0,0:0:0:0:
320,192,86094,128,0,86362:0:0:0:0:
192,192,86362,128,0,86630:0:0:0:0:
448,192,86362,1,0,0:0:0:0:
320,192,86630,1,0,0:0:0:0:
64,192,86630,1,0,0:0:0:0:
448,192,86951,1,0,0:0:0:0:
64,192,86951,128,0,87219:0:0:0:0:
192,192,87219,1,0,0:0:0:0:
320,192,87219,128,0,87487:0:0:0:0:
64,192,87487,1,0,0:0:0:0:
448,192,87487,1,0,0:0:0:0:
448,192,87808,1,0,0:0:0:0:
192,192,87808,128,0,88076:0:0:0:0:
320,192,88076,128,0,88344:0:0:0:0:
64,192,88076,1,0,0:0:0:0:
192,192,88237,1,0,0:0:0:0:
64,192,88344,1,0,0:0:0:0:
448,192,88344,1,0,0:0:0:0:
192,192,88665,1,0,0:0:0:0:
448,192,88773,128,0,89094:0:0:0:0:
320,192,89094,1,0,0:0:0:0:
64,192,89201,1,0,0:0:0:0:
192,192,89201,1,0,0:0:0:0:
448,192,89630,128,0,90058:0:0:0:0:
64,192,89951,1,0,0:0:0:0:
192,192,90058,1,0,0:0:0:0:
320,192,90058,1,0,0:0:0:0:
320,192,90487,1,0,0:0:0:0:
64,192,90594,1,0,0:0:0:0:
448,192,90701,128,0,90915:0:0:0:0:
64,192,91344,128,0,91773:0:0:0:0:
192,192,91451,1,0,0:0:0:0:
448,192,91612,1,0,0:0:0:0:
320,192,91665,1,0,0:0:0:0:
192,192,91773,1,0,0:0:0:0:
448,192,91773,1,0,0:0:0:0:
320,192,92201,1,0,0:0:0:0:
320,192,92415,1,0,0:0:0:0:
64,192,92630,1,0,0:0:0:0:
448,192,92630,1,0,0:0:0:0:
320,192,92951,1,0,0:0:0:0:
192,192,92951,128,0,93219:0:0:0:0:
448,192,93219,128,0,93487:0:0:0:0:
64,192,93219,1,0,0:0:0:0:
192,192,93487,1,0,0:0:0:0:
320,192,93487,1,0,0:0:0:0:
448,192,93808,1,0,0:0:0:0:
192,192,93808,128,0,94076:0:0:0:0:
320,192,94076,128,0,94344:0:0:0:0:
64,192,94076,1,0,0:0:0:0:
192,192,94344,1,0,0:0:0:0:
448,192,94344,1,0,0:0:0:0:
64,192,94665,1,0,0:0:0:0:
448,192,94665,128,0,94933:0:0:0:0:
192,192,94933,128,0,95201:0:0:0:0:
320,192,94933,1,0,0:0:0:0:
448,192,95094,1,0,0:0:0:0:
64,192,95201,1,0,0:0:0:0:
320,192,95201,1,0,0:0:0:0:
64,192,95523,1,0,0:0:0:0:
448,192,95630,128,0,95898:0:0:0:0:
320,192,95898,1,0,0:0:0:0:
192,192,95951,1,0,0:0:0:0:
64,192,96058,1,0,0:0:0:0:
448,192,96058,1,0,0:0:0:0:
192,192,96487,128,0,96808:0:0:0:0:
64,192,96808,1,0,0:0:0:0:
320,192,96915,1,0,0:0:0:0:
448,192,96915,1,0,0:0:0:0:
64,192,97344,1,0,0:0:0:0:
192,192,97398,1,0,0:0:0:0:
448,192,97505,128,0,97773:0:0:0:0:
320,192,98201,128,0,98523:0:0:0:0:
192,192,98523,1,0,0:0:0:0:
64,192,98630,1,0,0:0:0:0:
448,192,98630,1,0,0:0:0:0:
192,192,99058,128,0,99487:0:0:0:0:
320,192,99165,1,0,0:0:0:0:
448,192,99326,128,0,99487:0:0:0:0:
64,192,99487,1,0,0:0:0:0:
320,192,99487,1,0,0:0:0:0:
64,192,99808,1,0,0:0:0:0:
448,192,99808,128,0,100076:0:0:0:0:
192,192,100076,128,0,100344:0:0:0:0:
320,192,100076,1,0,0:0:0:0:
448,192,100344,1,0,0:0:0:0:
64,192,100344,1,0,0:0:0:0:
320,192,100665,1,0,0:0:0:0:
64,192,100665,128,0,100933:0:0:0:0:
192,192,100933,1,0,0:0:0:0:
448,192,100933,128,0,101201:0:0:0:0:
64,192,101201,1,0,0:0:0:0:
320,192,101201,1,0,0:0:0:0:
192,192,101523,1,0,0:0:0:0:
320,192,101523,128,0,101790:0:0:0:0:
64,192,101790,128,0,102058:0:0:0:0:
448,192,101790,1,0,0:0:0:0:
320,192,101951,1,0,0:0:0:0:
448,192,102058,1,0,0:0:0:0:
192,192,102058,1,0,0:0:0:0:
192,192,102380,1,0,0:0:0:0:
448,192,102487,128,0,102808:0:0:0:0:
320,192,102808,1,0,0:0:0:0:
64,192,102915,1,0,0:0:0:0:
192,192,102915,1,0,0:0:0:0:
448,192,103344,128,0,103773:0:0:0:0:
64,192,103665,1,0,0:0:0:0:
192,192,103773,1,0,0:0:0:0:
320,192,103773,1,0,0:0:0:0:
320,192,104201,1,0,0:0:0:0:
64,192,104308,1,0,0:0:0:0:
448,192,104415,128,0,104630:0:0:0:0:
64,192,105058,128,0,105487:0:0:0:0:
192,192,105165,1,0,0:0:0:0:
448,192,105326,1,0,0:0:0:0:
320,192,105380,1,0,0:0:0:0:
192,192,105487,1,0,0:0:0:0:
448,192,105487,1,0,0:0:0:0:
320,192,105915,1,0,0:0:0:0:
320,192,106130,1,0,0:0:0:0:
64,192,106344,1,0,0:0:0:0:
448,192,106344,1,0,0:0:0:0:
320,192,106665,1,0,0:0:0:0:
64,192,106665,128,0,106933:0:0:0:0:
448,192,106933,128,0,107201:0:0:0:0:
192,192,106933,1,0,0:0:0:0:
64,192,107201,1,0,0:0:0:0:
320,192,107201,1,0,0:0:0:0:
64,192,107523,1,0,0:0:0:0:
448,192,107523,128,0,107790:0:0:0:0:
192,192,107790,128,0,108058:0:0:0:0:
320,192,107790,1,0,0:0:0:0:
64,192,108058,1,0,0:0:0:0:
448,192,108058,1,0,0:0:0:0:
192,192,108380,1,0,0:0:0:0:
448,192,108380,128,0,108648:0:0:0:0:
64,192,108648,128,0,108915:0:0:0:0:
320,192,108648,1,0,0:0:0:0:
448,192,108808,1,0,0:0:0:0:
192,192,108915,1,0,0:0:0:0:
320,192,108915,1,0,0:0:0:0:
64,192,109237,1,0,0:0:0:0:
448,192,109344,128,0,109612:0:0:0:0:
320,192,109612,1,0,0:0:0:0:
192,192,109665,1,0,0:0:0:0:
64,192,109773,1,0,0:0:0:0:
448,192,109773,1,0,0:0:0:0:
192,192,110201,128,0,110523:0:0:0:0:
64,192,110523,1,0,0:0:0:0:
320,192,110630,1,0,0:0:0:0:
448,192,110630,1,0,0:0:0:0:
192,192,111058,1,0,0:0:0:0:
320,192,111112,1,0,0:0:0:0:
448,192,111165,128,0,111487:0:0:0:0:
64,192,111273,128,0,111487:0:0:0:0:
320,192,111915,128,0,112237:0:0:0:0:
192,192,112237,1,0,0:0:0:0:
64,192,112344,1,0,0:0:0:0:
448,192,112344,1,0,0:0:0:0:
192,192,112773,128,0,113201:0:0:0:0:
320,192,112880,1,0,0:0:0:0:
64,192,113201,1,0,0:0:0:0:
448,192,113201,1,0,0:0:0:0:
192,192,113523,1,0,0:0:0:0:
448,192,113523,128,0,113790:0:0:0:0:
64,192,113790,128,0,114058:0:0:0:0:
320,192,113790,1,0,0:0:0:0:
448,192,114058,1,0,0:0:0:0:
192,192,114058,1,0,0:0:0:0:
192,192,114380,1,0,0:0:0:0:
320,192,114380,128,0,114648:0:0:0:0:
448,192,114648,1,0,0:0:0:0:
64,192,114648,128,0,114915:0:0:0:0:
192,192,114915,1,0,0:0:0:0:
320,192,114915,1,0,0:0:0:0:
64,192,115237,1,0,0:0:0:0:
320,192,115237,128,0,115505:0:0:0:0:
192,192,115505,128,0,115773:0:0:0:0:
448,192,115505,1,0,0:0:0:0:
320,192,115665,1,0,0:0:0:0:
448,192,115773,1,0,0:0:0:0:
64,192,115773,1,0,0:0:0:0:
192,192,116094,1,0,0:0:0:0:
448,192,116201,128,0,116523:0:0:0:0:
320,192,116523,1,0,0:0:0:0:
64,192,116630,1,0,0:0:0:0:
192,192,116630,1,0,0:0:0:0:
448,192,117058,128,0,117487:0:0:0:0:
64,192,117380,1,0,0:0:0:0:
192,192,117487,1,0,0:0:0:0:
320,192,117487,1,0,0:0:0:0:
64,192,117915,128,0,118130:0:0:0:0:
448,192,118130,128,0,118344:0:0:0:0:
64,192,118773,128,0,119201:0:0:0:0:
192,192,118880,1,0,0:0:0:0:
448,192,119040,1,0,0:0:0:0:
320,192,119094,1,0,0:0:0:0:
192,192,119201,1,0,0:0:0:0:
448,192,119201,1,0,0:0:0:0:
320,192,119630,1,0,0:0:0:0:
320,192,119844,1,0,0:0:0:0:
64,192,120058,1,0,0:0:0:0:
448,192,120058,1,0,0:0:0:0:
192,192,120380,1,0,0:0:0:0:
448,192,120380,128,0,120648:0:0:0:0:
64,192,120648,128,0,120915:0:0:0:0:
320,192,120648,1,0,0:0:0:0:
192,192,120915,1,0,0:0:0:0:
448,192,120915,1,0,0:0:0:0:
320,192,121237,1,0,0:0:0:0:
192,192,121237,128,0,121505:0:0:0:0:
448,192,121505,128,0,121773:0:0:0:0:
64,192,121505,1,0,0:0:0:0:
192,192,121773,1,0,0:0:0:0:
320,192,121773,1,0,0:0:0:0:
64,192,122094,1,0,0:0:0:0:
320,192,122094,128,0,122362:0:0:0:0:
192,192,122362,128,0,122630:0:0:0:0:
448,192,122362,1,0,0:0:0:0:
320,192,122523,1,0,0:0:0:0:
64,192,122630,1,0,0:0:0:0:
448,192,122630,1,0,0:0:0:0:
64,192,122951,1,0,0:0:0:0:
448,192,123058,128,0,123326:0:0:0:0:
320,192,123326,1,0,0:0:0:0:
192,192,123380,1,0,0:0:0:0:
64,192,123487,1,0,0:0:0:0:
448,192,123487,128,0,126915:0:0:0:0:
192,192,123915,1,0,0:0:0:0:
64,192,124344,1,0,0:0:0:0:
320,192,124344,1,0,0:0:0:0:
320,192,124773,1,0,0:0:0:0:
192,192,125201,1,0,0:0:0:0:
320,192,125201,1,0,0:0:0:0:
320,192,125630,1,0,0:0:0:0:
64,192,125844,1,0,0:0:0:0:
64,192,126058,1,0,0:0:0:0:
320,192,126058,1,0,0:0:0:0:
192,192,126487,1,0,0:0:0:0:
320,192,126808,1,0,0:0:0:0:
64,192,126915,1,0,0:0:0:0:
192,192,126915,1,0,0:0:0:0:
320,192,127344,1,0,0:0:0:0:
192,192,127773,1,0,0:0:0:0:
448,192,127773,1,0,0:0:0:0:
64,192,128094,1,0,0:0:0:0:
320,192,128201,1,0,0:0:0:0:
192,192,128630,1,0,0:0:0:0:
448,192,128630,1,0,0:0:0:0:
320,192,128951,1,0,0:0:0:0:
448,192,129273,1,0,0:0:0:0:
320,192,129380,1,0,0:0:0:0:
64,192,129487,1,0,0:0:0:0:
448,192,129487,1,0,0:0:0:0:
192,192,129808,1,0,0:0:0:0:
320,192,129915,128,0,130183:0:0:0:0:
64,192,130183,1,0,0:0:0:0:
192,192,130344,1,0,0:0:0:0:
320,192,130344,1,0,0:0:0:0:
448,192,130773,1,0,0:0:0:0:
64,192,130773,1,0,0:0:0:0:
320,192,130880,1,0,0:0:0:0:
192,192,130987,1,0,0:0:0:0:
320,192,131094,1,0,0:0:0:0:
64,192,131201,1,0,0:0:0:0:
448,192,131201,1,0,0:0:0:0:
192,192,131576,1,0,0:0:0:0:
320,192,131630,1,0,0:0:0:0:
64,192,132058,1,0,0:0:0:0:
320,192,132058,1,0,0:0:0:0:
192,192,132433,128,0,132648:0:0:0:0:
448,192,132648,128,0,132915:0:0:0:0:
64,192,132915,1,0,0:0:0:0:
320,192,132915,1,0,0:0:0:0:
192,192,133344,1,0,0:0:0:0:
448,195,133612,1,0,0:0:0:0:
192,192,133773,1,0,0:0:0:0:
320,192,133773,1,0,0:0:0:0:
64,192,134094,128,0,134255:0:0:0:0:
448,192,134094,128,0,134255:0:0:0:0:
64,192,134362,128,0,134630:0:0:0:0:
448,192,134362,128,0,134630:0:0:0:0:
192,192,134630,1,0,0:0:0:0:
320,192,134630,1,0,0:0:0:0:
448,192,134951,128,0,135112:0:0:0:0:
64,192,134951,128,0,135112:0:0:0:0:
64,192,135219,128,0,135487:0:0:0:0:
448,192,135219,128,0,135487:0:0:0:0:
192,192,135487,1,0,0:0:0:0:
320,192,135487,1,0,0:0:0:0:
64,192,135808,128,0,135969:0:0:0:0:
448,192,135808,128,0,135969:0:0:0:0:
448,192,136076,128,0,136344:0:0:0:0:
64,192,136076,128,0,136344:0:0:0:0:
320,192,136344,1,0,0:0:0:0:
192,192,136344,1,0,0:0:0:0:
64,192,136665,128,0,137201:0:0:0:0:
448,192,136665,128,0,137201:0:0:0:0:
192,192,137201,1,0,0:0:0:0:
320,192,137201,1,0,0:0:0:0:
