osu file format v14

[General]
AudioFilename: audio.mp3
AudioLeadIn: 0
PreviewTime: 48772
Countdown: 0
SampleSet: Normal
StackLeniency: 0.7
Mode: 0
LetterboxInBreaks: 0
WidescreenStoryboard: 0

[Editor]
Bookmarks: 9435,29149,72971,75327,77840,80353,81924,82395,82709,83024,87421,88050,156354,172966,173280,217730
DistanceSpacing: 1
BeatDivisor: 4
GridSize: 4
TimelineZoom: 2.1

[Metadata]
Title:This War Is Ours (The Guillotine Part II)
TitleUnicode:This War Is Ours (The Guillotine Part II)
Artist:Escape the Fate
ArtistUnicode:Escape the Fate
Creator:Keada
Version:Apocalypse
Source:
Tags:
BeatmapID:1524217
BeatmapSetID:721861

[Difficulty]
HPDrainRate:6.5
CircleSize:4.5
OverallDifficulty:8
ApproachRate:9.3
SliderMultiplier:1.6
SliderTickRate:1

[Events]
//Background and Video events
0,0,"art-kodama-wa-ka-me-kantai.jpg",0,0
//Break Periods
2,128971,133766
2,198557,206013
//Storyboard Layer 0 (Background)
//Storyboard Layer 1 (Fail)
//Storyboard Layer 2 (Pass)
//Storyboard Layer 3 (Foreground)
//Storyboard Sound Samples

[TimingPoints]
6013,346.820809248555,4,1,1,10,1,0
6706,-100,4,1,1,15,0,0
7400,-100,4,1,1,20,0,0
8093,335.195530726257,4,1,1,25,1,0
8763,-100,4,1,1,30,0,0
9433,-100,4,1,1,35,0,0
10104,324.324324324324,4,1,1,40,1,0
10752,319.148936170213,4,1,1,10,1,0
10752,-100,4,1,1,45,0,0
11390,314.13612565445,4,1,1,60,1,0
11468,-100,4,1,1,50,0,0
13903,-100,4,1,1,60,0,0
13981,-100,4,1,1,50,0,0
15787,-100,4,1,1,60,0,0
16494,-100,4,1,1,50,0,0
18929,-100,4,1,1,60,0,0
19007,-100,4,1,1,50,0,0
20185,-100,4,1,1,60,0,0
24583,-66.6666666666667,4,1,1,60,0,0
25211,-90.9090909090909,4,1,3,60,0,0
25526,-90.9090909090909,4,1,2,60,0,0
30238,-90.9090909090909,4,1,3,60,0,0
30395,-90.9090909090909,4,1,2,60,0,0
35264,-100,4,1,3,60,0,0
35421,-100,4,1,2,60,0,0
40290,-100,4,1,3,60,0,0
40447,-100,4,1,2,60,0,0
45159,-76.9230769230769,4,1,3,60,0,0
46573,-133.333333333333,4,1,2,60,0,0
47672,-76.9230769230769,4,1,3,60,0,0
49086,-133.333333333333,4,1,2,60,0,0
50185,-76.9230769230769,4,1,3,75,0,1
50657,-76.9230769230769,4,1,2,75,0,1
52698,-76.9230769230769,4,1,3,75,0,1
53170,-76.9230769230769,4,1,2,75,0,1
55211,-76.9230769230769,4,1,3,75,0,1
55683,-76.9230769230769,4,1,2,75,0,1
57725,-76.9230769230769,4,1,3,75,0,1
58196,-76.9230769230769,4,1,2,75,0,1
60238,-76.9230769230769,4,1,3,75,0,1
60709,-76.9230769230769,4,1,2,75,0,1
62751,-76.9230769230769,4,1,3,75,0,1
63222,-76.9230769230769,4,1,2,75,0,1
65264,-76.9230769230769,4,1,3,75,0,1
65735,-76.9230769230769,4,1,2,75,0,1
67777,-90.9090909090909,4,1,3,60,0,0
68248,-90.9090909090909,4,1,2,60,0,0
70290,-90.9090909090909,4,1,1,60,0,0
70761,-90.9090909090909,4,1,1,60,0,0
71704,-133.333333333333,4,1,2,60,0,0
72960,-100,4,1,3,55,0,0
73117,-100,4,1,2,55,0,0
77986,-100,4,1,3,55,0,0
78143,-100,4,1,2,55,0,0
81756,-100,4,1,3,55,0,0
83013,-90.9090909090909,4,1,3,60,0,0
83327,-90.9090909090909,4,1,2,60,0,0
87724,-90.9090909090909,4,1,1,60,0,0
92908,-76.9230769230769,4,1,3,60,0,0
93693,-76.9230769230769,4,1,1,60,0,0
94321,-133.333333333333,4,1,3,60,0,0
95421,-76.9230769230769,4,1,3,60,0,0
96835,-133.333333333333,4,1,3,60,0,0
97934,-74.074074074074,4,1,3,75,0,1
98405,-74.074074074074,4,1,2,75,0,1
100447,-74.074074074074,4,1,3,75,0,1
100918,-74.074074074074,4,1,2,75,0,1
102960,-74.074074074074,4,1,3,75,0,1
103431,-74.074074074074,4,1,2,75,0,1
105473,-74.074074074074,4,1,1,75,0,1
105944,-74.074074074074,4,1,2,75,0,1
107986,-74.074074074074,4,1,3,75,0,1
108458,-74.074074074074,4,1,2,75,0,1
110499,-74.074074074074,4,1,3,75,0,1
110971,-74.074074074074,4,1,2,75,0,1
113013,-74.074074074074,4,1,3,75,0,1
113484,-74.074074074074,4,1,2,75,0,1
115526,-74.074074074074,4,1,3,75,0,0
115997,-74.074074074074,4,1,2,75,0,0
118196,-74.074074074074,4,1,3,75,0,0
118353,-74.074074074074,4,1,2,75,0,0
121023,-74.074074074074,4,1,1,75,0,0
123222,346.820809248555,4,1,3,60,1,0
134320,-200,4,2,1,30,0,0
145418,-133.333333333333,4,1,1,40,0,0
146112,-133.333333333333,4,1,2,40,0,0
150967,-133.333333333333,4,1,1,40,0,0
159291,-105.263157894737,4,1,1,40,0,0
160678,-86.9565217391306,4,1,1,40,0,0
167615,314.13612565445,4,1,1,70,1,0
167615,-76.9230769230769,4,1,1,70,0,0
172012,-133.333333333333,4,1,1,70,0,0
172641,-76.9230769230769,4,2,1,70,0,0
172798,-76.9230769230769,4,1,2,70,0,0
175154,-76.9230769230769,4,1,3,70,0,0
175468,-76.9230769230769,4,1,2,70,0,0
177667,-76.9230769230769,4,1,3,70,0,0
177824,-76.9230769230769,4,1,2,70,0,0
180180,-76.9230769230769,4,1,3,70,0,0
180494,-76.9230769230769,4,1,2,70,0,0
182693,-76.9230769230769,4,1,3,70,0,0
182772,-76.9230769230769,4,1,2,70,0,0
187719,-76.9230769230769,4,1,3,70,0,0
187876,-76.9230769230769,4,1,2,70,0,0
190232,-76.9230769230769,4,1,3,70,0,0
190546,-76.9230769230769,4,1,2,70,0,0
192588,-76.9230769230769,4,1,3,70,0,0
193374,-133.333333333333,4,1,2,70,0,0
194630,-76.9230769230769,4,1,3,70,0,0
196515,-133.333333333333,4,1,2,70,0,0
197614,-76.9230769230769,4,1,3,70,0,0
206567,-76.9230769230769,4,1,1,70,0,0
207667,-71.4285714285714,4,1,3,70,0,1
208138,-71.4285714285714,4,1,2,70,0,1
210180,-71.4285714285714,4,1,3,70,0,1
210651,-71.4285714285714,4,1,2,70,0,1
212693,-71.4285714285714,4,1,3,70,0,1
213164,-71.4285714285714,4,1,2,70,0,1
215206,-71.4285714285714,4,1,3,70,0,1
215677,-71.4285714285714,4,1,2,70,0,1
217719,-71.4285714285714,4,1,3,70,0,1
218190,-71.4285714285714,4,1,2,70,0,1
220232,-71.4285714285714,4,1,3,70,0,1
220704,-71.4285714285714,4,1,2,70,0,1
221646,-71.4285714285714,4,1,3,70,0,1
221803,-71.4285714285714,4,1,2,70,0,1
222745,-71.4285714285714,4,1,3,70,0,1
223217,-71.4285714285714,4,1,2,70,0,1
225258,-83.3333333333333,4,1,3,70,0,0
225730,-83.3333333333333,4,1,2,70,0,0
227772,-83.3333333333333,4,1,3,70,0,0
228243,-83.3333333333333,4,1,2,70,0,0
230285,-83.3333333333333,4,1,3,70,0,0
230756,-83.3333333333333,4,1,2,70,0,0
232955,350.877192982456,4,1,3,60,1,0
232955,-83.3333333333333,4,1,3,60,0,0
233305,-83.3333333333333,4,1,2,60,0,0
234358,375,4,1,1,55,1,0
234358,-83.3333333333333,4,1,2,55,0,0
235108,348.837209302326,5,1,3,55,1,0
238596,357.142857142857,4,1,1,55,1,0
238596,-76.9230769230769,5,1,3,55,0,0
238774,357.142857142857,4,1,3,55,1,0
241452,-76.9230769230769,5,1,3,55,0,0
245202,-133.333333333333,5,1,3,55,0,0
247166,-76.9230769230769,5,1,3,55,0,0
250916,-133.333333333333,5,1,3,55,0,0
252345,-76.9230769230769,5,1,3,55,0,0
253774,-133.333333333333,5,1,3,55,0,0
255202,-76.9230769230769,5,1,3,55,0,0
256631,-133.333333333333,5,1,3,55,0,0
257881,-76.9230769230769,5,1,3,55,0,0

[Colours]
Combo1 : 44,83,218
Combo2 : 230,27,252
Combo3 : 100,120,172
Combo4 : 105,185,211

[HitObjects]
128,128,6013,5,2,0:0:0:0:
131,143,6186,1,2,0:0:0:0:
134,158,6359,1,2,0:0:0:0:
137,173,6533,1,2,0:0:0:0:
208,72,6706,5,2,0:0:0:0:
207,87,6879,1,2,0:0:0:0:
206,102,7052,1,2,0:0:0:0:
205,117,7226,1,2,0:0:0:0:
304,52,7400,5,2,0:0:0:0:
299,66,7573,1,2,0:0:0:0:
294,80,7746,1,2,0:0:0:0:
289,94,7920,1,2,0:0:0:0:
404,56,8093,5,2,0:0:0:0:
395,68,8260,1,2,0:0:0:0:
387,80,8428,1,2,0:0:0:0:
378,92,8595,1,2,0:0:0:0:
432,256,8763,5,2,0:0:0:0:
364,296,8930,1,2,0:0:0:0:
284,292,9098,1,2,0:0:0:0:
228,236,9266,1,2,0:0:0:0:
204,160,9433,5,2,0:0:0:0:
136,120,9601,1,2,0:0:0:0:
56,124,9768,1,2,0:0:0:0:
0,180,9936,1,2,0:0:0:0:
204,160,10104,5,2,0:0:0:0:
280,140,10266,1,2,0:0:0:0:
312,68,10428,1,2,0:0:0:0:
268,0,10590,1,2,0:0:0:0:
96,192,10752,5,2,0:0:0:0:
128,264,10911,1,2,0:0:0:0:
204,288,11071,1,2,0:0:0:0:
284,272,11230,1,2,0:0:0:0:
112,81,11390,5,6,0:0:0:0:
94,105,11468,1,0,2:0:0:0:
85,133,11547,1,0,2:0:0:0:
85,163,11625,1,0,2:0:0:0:
96,192,11704,2,0,L|148:196,3,40,2|0|0|0,2:0|2:0|2:0|2:0,2:0:0:0:
248,155,12018,1,2,2:0:0:0:
275,144,12096,1,0,2:0:0:0:
305,141,12175,1,0,2:0:0:0:
334,147,12253,1,0,2:0:0:0:
360,162,12332,2,0,L|360:208,3,40,2|0|0|0,2:0|2:0|2:0|2:0,2:0:0:0:
328,320,12646,5,2,2:0:0:0:
300,331,12725,1,0,2:0:0:0:
270,332,12803,1,0,2:0:0:0:
242,321,12882,1,0,2:0:0:0:
221,301,12960,2,0,P|196:296|172:296,3,40,2|0|0|0,2:0|2:0|2:0|2:0,2:0:0:0:
84,344,13274,1,2,2:0:0:0:
100,318,13352,1,0,2:0:0:0:
107,290,13431,1,0,2:0:0:0:
105,260,13509,1,0,2:0:0:0:
93,232,13588,2,0,P|72:228|48:232,3,40,2|0|0|0,2:0|2:0|2:0|2:0,2:0:0:0:
176,212,13903,5,6,0:0:0:0:
214,217,13981,1,0,2:0:0:0:
247,196,14060,1,0,2:0:0:0:
259,158,14138,1,0,2:0:0:0:
244,122,14217,5,2,2:0:0:0:
250,73,14295,1,0,2:0:0:0:
286,41,14374,1,0,2:0:0:0:
335,41,14452,1,0,2:0:0:0:
371,74,14531,5,2,2:0:0:0:
381,112,14609,1,0,2:0:0:0:
413,134,14688,1,0,2:0:0:0:
452,129,14766,1,0,2:0:0:0:
477,99,14845,5,2,2:0:0:0:
429,93,14923,1,0,2:0:0:0:
387,119,15002,1,0,2:0:0:0:
372,166,15080,1,0,2:0:0:0:
390,211,15159,5,2,2:0:0:0:
380,208,15238,1,2,2:0:0:0:
368,204,15316,1,2,2:0:0:0:
356,200,15395,1,2,2:0:0:0:
344,196,15473,1,2,2:0:0:0:
332,192,15552,1,2,2:0:0:0:
320,188,15630,1,2,2:0:0:0:
308,184,15709,1,2,2:0:0:0:
296,180,15787,6,0,L|248:180,1,40,2|0,0:0|0:0,0:0:0:0:
156,244,15944,2,0,L|196:244,1,40,2|0,0:0|0:0,0:0:0:0:
312,108,16102,2,0,L|272:108,1,40,2|0,0:0|0:0,0:0:0:0:
140,176,16259,2,0,L|180:176,1,40,2|0,0:0|0:0,0:0:0:0:
264,20,16416,5,6,0:0:0:0:
234,24,16494,1,0,2:0:0:0:
209,40,16573,1,0,2:0:0:0:
193,65,16651,1,0,2:0:0:0:
188,94,16730,2,0,L|140:80,3,40,2|0|0|0,2:0|2:0|2:0|2:0,2:0:0:0:
140,176,17044,1,2,2:0:0:0:
150,203,17122,1,0,2:0:0:0:
151,233,17201,1,0,2:0:0:0:
140,261,17279,1,0,2:0:0:0:
120,283,17358,2,0,L|164:284,3,40,2|0|0|0,2:0|2:0|2:0|2:0,2:0:0:0:
272,344,17672,5,2,2:0:0:0:
301,349,17750,1,0,2:0:0:0:
329,341,17829,1,0,2:0:0:0:
351,321,17907,1,0,2:0:0:0:
362,293,17986,2,0,P|388:284|416:288,3,40,2|0|0|0,2:0|2:0|2:0|2:0,2:0:0:0:
368,180,18300,1,2,2:0:0:0:
367,150,18378,1,0,2:0:0:0:
379,123,18457,1,0,2:0:0:0:
402,104,18535,1,0,2:0:0:0:
431,97,18615,2,0,P|460:104|484:96,3,40,2|0|0|0,2:0|2:0|2:0|2:0,2:0:0:0:
368,180,18929,5,6,0:0:0:0:
330,193,19007,1,0,2:0:0:0:
291,188,19086,1,0,2:0:0:0:
259,165,19164,1,0,2:0:0:0:
241,129,19243,5,2,2:0:0:0:
226,83,19321,1,0,2:0:0:0:
184,58,19400,1,0,2:0:0:0:
136,66,19478,1,0,2:0:0:0:
105,105,19557,5,2,2:0:0:0:
131,135,19635,1,0,2:0:0:0:
167,151,19714,1,0,2:0:0:0:
206,149,19792,1,0,2:0:0:0:
241,129,19871,5,2,2:0:0:0:
279,97,19949,1,0,2:0:0:0:
327,87,20028,1,0,2:0:0:0:
374,104,20106,1,0,2:0:0:0:
406,141,20185,5,4,0:0:0:0:
412,152,20264,1,0,2:0:0:0:
416,164,20342,1,0,2:0:0:0:
420,176,20421,1,0,2:0:0:0:
424,188,20499,1,0,2:0:0:0:
428,200,20578,1,0,2:0:0:0:
432,212,20657,2,0,L|392:220,1,40,0|0,2:0|2:0,2:0:0:0:
228,272,20814,5,4,0:0:0:0:
208,269,20892,1,0,2:0:0:0:
190,260,20971,1,0,2:0:0:0:
175,247,21049,1,0,2:0:0:0:
164,232,21128,2,0,B|152:200|172:176|172:176|152:144|172:104,1,120,0|0,2:0|2:0,2:0:0:0:
200,48,21442,6,0,L|192:8,2,40,6|0|0,0:0|2:0|2:0,0:0:0:0:
228,272,21756,2,0,L|220:312,2,40,2|0|0,0:0|2:0|2:0,0:0:0:0:
276,44,22070,2,0,L|268:4,2,40,2|0|0,0:0|2:0|2:0,0:0:0:0:
304,268,22384,2,0,L|296:308,2,40,2|0|0,0:0|2:0|2:0,0:0:0:0:
360,48,22698,5,6,0:0:0:0:
360,48,22777,1,0,2:0:0:0:
360,48,22855,2,0,P|372:72|376:100,1,40,2|0,0:0|2:0,0:0:0:0:
249,188,23013,1,2,0:0:0:0:
249,188,23092,1,0,2:0:0:0:
249,188,23170,2,0,P|250:161|261:134,1,40,2|0,0:0|2:0,0:0:0:0:
456,100,23327,1,2,0:0:0:0:
456,100,23406,1,0,2:0:0:0:
456,100,23484,2,0,P|447:125|430:148,1,40,2|0,0:0|2:0,0:0:0:0:
200,100,23641,1,2,0:0:0:0:
200,100,23720,1,0,2:0:0:0:
200,100,23798,2,0,P|220:82|246:71,1,40,2|0,0:0|2:0,0:0:0:0:
442,225,23955,5,2,0:0:0:0:
393,258,24033,1,2,0:0:0:0:
334,263,24112,1,2,0:0:0:0:
281,237,24190,1,2,0:0:0:0:
248,187,24269,1,2,0:0:0:0:
215,137,24348,1,2,0:0:0:0:
162,110,24426,1,2,0:0:0:0:
103,115,24505,1,2,0:0:0:0:
58,160,24583,2,2,P|110:178|40:125,1,360.000013732911,2|2,0:0|2:0,0:0:0:0:
32,336,25211,5,6,0:0:0:0:
32,336,25290,1,2,0:0:0:0:
32,336,25369,1,2,0:0:0:0:
237,271,25526,2,0,P|253:219|245:179,1,88.000002685547,12|2,0:0|0:0,0:0:0:0:
29,41,25840,2,0,P|24:84|39:125,1,88.000002685547,12|2,0:0|0:0,0:0:0:0:
168,216,26154,1,12,0:0:0:0:
240,24,26311,6,0,B|200:16|200:16|140:32,1,88.000002685547,2|12,0:0|0:0,0:0:0:0:
320,212,26625,2,0,B|365:224|365:224|405:216,1,88.000002685547,2|12,0:0|0:0,0:0:0:0:
200,96,26939,1,2,0:0:0:0:
316,304,27096,1,12,0:0:0:0:
452,108,27253,1,2,0:0:0:0:
228,180,27410,1,12,0:0:0:0:
464,360,27568,5,2,0:0:0:0:
464,360,27646,1,2,0:0:0:0:
464,360,27725,2,0,B|480:316|480:316|464:272,1,88.000002685547,12|2,0:0|0:0,0:0:0:0:
228,180,28039,2,0,B|213:218|213:218|229:262,1,88.000002685547,12|2,0:0|0:0,0:0:0:0:
432,140,28353,1,12,0:0:0:0:
196,104,28510,1,2,0:0:0:0:
268,328,28667,1,12,0:0:0:0:
360,108,28824,6,0,P|312:88|264:104,1,88.000002685547,2|12,0:0|0:0,0:0:0:0:
186,340,29138,2,0,P|228:346|267:327,1,88.000002685547,2|12,0:0|0:0,0:0:0:0:
310,162,29452,1,2,0:0:0:0:
40,208,29609,2,0,L|28:328,1,88.000002685547,12|2,0:0|0:0,0:0:0:0:
192,60,29924,2,0,L|204:180,1,88.000002685547,12|2,0:0|0:0,0:0:0:0:
128,256,30160,1,2,0:0:0:0:
116,256,30238,6,0,B|156:244|156:244|200:256,1,88.000002685547,12|2,0:0|0:0,0:0:0:0:
424,340,30552,2,0,B|379:352|379:352|339:340,1,88.000002685547,12|2,0:0|0:0,0:0:0:0:
372,104,30866,2,0,P|391:142|386:185,1,88.000002685547,12|2,0:0|0:0,0:0:0:0:
128,176,31180,2,0,P|123:132|142:94,1,88.000002685547,12|2,0:0|0:0,0:0:0:0:
372,28,31494,2,0,L|468:24,1,88.000002685547,12|2,0:0|0:0,0:0:0:0:
300,200,31808,2,0,L|212:196,1,88.000002685547,12|2,0:0|0:0,0:0:0:0:
44,28,32122,1,12,0:0:0:0:
272,100,32280,1,2,0:0:0:0:
96,260,32437,1,12,0:0:0:0:
192,12,32594,5,2,0:0:0:0:
192,12,32672,1,2,0:0:0:0:
192,12,32751,2,0,L|200:112,1,88.000002685547,12|0,0:0|0:0,0:0:0:0:
88,347,33065,2,0,L|95:259,1,88.000002685547,12|0,0:0|0:0,0:0:0:0:
296,132,33379,1,12,0:0:0:0:
180,340,33536,1,2,0:0:0:0:
44,144,33693,2,0,P|40:76|60:48,1,88.000002685547,12|2,0:0|0:0,0:0:0:0:
280,8,34007,5,6,0:0:0:0:
184,168,34164,1,8,0:0:0:0:
184,168,34243,1,8,0:0:0:0:
184,168,34321,2,0,L|128:172,1,44.0000013427735,6|8,0:0|0:0,0:0:0:0:
376,128,34479,1,8,0:0:0:0:
376,128,34558,1,8,0:0:0:0:
376,128,34636,2,0,L|432:132,1,44.0000013427735,2|8,0:0|0:0,0:0:0:0:
272,252,34793,2,0,L|216:256,1,44.0000013427735,8|10,0:0|0:0,0:0:0:0:
360,360,34950,5,8,0:0:0:0:
309,381,35028,1,8,0:0:0:0:
254,379,35107,1,8,0:0:0:0:
205,355,35185,1,8,0:0:0:0:
172,316,35264,6,0,P|147:267|155:219,1,80,6|2,0:0|0:0,0:0:0:0:
376,90,35578,2,0,P|382:140|364:180,1,80,12|2,0:0|0:0,0:0:0:0:
147,243,35892,2,0,L|67:235,1,80,6|2,0:0|0:0,0:0:0:0:
288,264,36206,1,12,0:0:0:0:
116,136,36363,6,0,P|104:104|120:52,1,80,2|6,0:0|0:0,0:0:0:0:
292,280,36677,1,2,0:0:0:0:
184,92,36835,2,0,B|224:80|224:80|276:92,1,80,12|2,0:0|0:0,0:0:0:0:
376,272,37149,1,6,0:0:0:0:
168,216,37306,1,2,0:0:0:0:
336,92,37463,2,0,B|317:173|317:173|284:192,1,120,12|0,0:0|2:0,0:0:0:0:
168,216,37777,5,6,0:0:0:0:
384,204,37934,1,2,0:0:0:0:
276,16,38091,2,0,P|232:8|184:24,1,80,12|0,0:0|0:0,0:0:0:0:
128,292,38405,2,0,P|166:300|205:292,1,80,6|0,0:0|0:0,0:0:0:0:
285,191,38719,1,12,0:0:0:0:
44,128,38876,2,0,L|36:224,1,80,2|6,0:0|0:0,0:0:0:0:
198,16,39191,2,0,L|206:112,1,80,2|12,0:0|0:0,0:0:0:0:
128,292,39505,1,2,0:0:0:0:
320,112,39662,1,6,0:0:0:0:
344,129,39740,1,2,0:0:0:0:
360,154,39819,1,2,0:0:0:0:
364,183,39897,1,2,0:0:0:0:
355,212,39976,2,0,P|336:260|368:324,1,120,12|0,0:0|2:0,0:0:0:0:
488,272,40290,6,0,B|448:260|448:260|408:264,1,80,6|2,0:0|0:0,0:0:0:0:
212,348,40604,2,0,B|250:351|250:351|290:339,1,80,12|2,0:0|0:0,0:0:0:0:
320,112,40918,2,0,B|216:96|216:96|140:128,1,160,6|12,0:0|0:0,0:0:0:0:
376,175,41389,2,0,P|400:145|403:105,1,80,2|6,0:0|0:0,0:0:0:0:
228,184,41704,2,0,P|230:223|255:254,1,80,2|12,0:0|0:0,0:0:0:0:
468,220,42018,1,2,0:0:0:0:
344,44,42175,1,6,0:0:0:0:
408,292,42332,1,2,0:0:0:0:
460,33,42489,6,0,B|411:32|411:32|391:44|391:44|341:43,1,120,12|0,0:0|2:0,0:0:0:0:
236,32,42803,5,6,0:0:0:0:
276,244,42960,1,2,0:0:0:0:
72,168,43117,2,0,B|108:156|108:156|172:172,1,80,12|2,0:0|0:0,0:0:0:0:
308,312,43431,1,6,0:0:0:0:
112,232,43588,1,2,0:0:0:0:
280,96,43746,2,0,B|292:132|292:132|276:196,1,80,12|2,0:0|0:0,0:0:0:0:
0,204,44060,5,10,0:0:0:0:
276,245,44217,1,10,0:0:0:0:
74,52,44374,1,10,0:0:0:0:
116,331,44531,1,10,0:0:0:0:
239,79,44688,1,10,0:0:0:0:
40,276,44845,1,10,0:0:0:0:
312,340,45002,1,10,0:0:0:0:
168,28,45159,6,0,B|156:100|156:100|180:144|180:144|160:232,1,207.999990478516,6|8,0:0|0:0,0:0:0:0:
90,183,45552,1,2,0:0:0:0:
122,157,45630,1,2,0:0:0:0:
163,150,45709,1,2,0:0:0:0:
202,162,45787,1,2,0:0:0:0:
232,190,45866,1,2,0:0:0:0:
245,229,45944,1,8,0:0:0:0:
245,229,46573,6,2,B|241:181|241:181|353:261|353:261|300:272,1,240.000009155274,0|10,2:0|1:0,1:0:0:0:
299,272,47358,1,2,0:0:0:0:
384,72,47672,6,0,B|316:56|316:56|260:92|260:92|180:72,1,207.999990478516,6|8,0:0|0:0,0:0:0:0:
248,8,48065,1,2,0:0:0:0:
252,49,48143,1,2,0:0:0:0:
257,90,48222,1,2,0:0:0:0:
261,132,48300,1,2,0:0:0:0:
266,173,48379,1,2,0:0:0:0:
270,214,48457,1,10,0:0:0:0:
156,264,49086,6,0,L|140:264,1,10.0000003814697,10|0,0:0|0:0,0:0:0:0:
396,168,49714,6,0,L|412:168,1,10.0000003814697,10|0,0:0|0:0,0:0:0:0:
96,112,50185,6,0,B|232:88|232:88|300:128,1,207.999990478516,6|2,0:0|0:0,0:0:0:0:
116,240,50657,2,0,B|64:248|64:248|16:224,1,103.999995239258,12|0,0:0|2:0,0:0:0:0:
140,16,50971,1,6,0:0:0:0:
208,212,51128,1,2,0:0:0:0:
340,52,51285,1,12,0:0:0:0:
311,330,51442,6,0,L|291:114,1,207.999990478516,2|2,0:0|0:0,0:0:0:0:
480,212,51913,2,0,P|492:268|472:320,1,103.999995239258,12|0,0:0|2:0,0:0:0:0:
216,264,52227,1,6,0:0:0:0:
388,68,52384,1,2,0:0:0:0:
477,311,52541,1,12,0:0:0:0:
200,144,52698,6,0,B|280:136|280:136|312:160|312:160|404:152,1,207.999990478516,6|2,0:0|0:0,0:0:0:0:
215,264,53170,2,0,P|165:269|123:240,1,103.999995239258,12|0,0:0|2:0,0:0:0:0:
92,36,53484,1,6,0:0:0:0:
92,36,53641,1,2,0:0:0:0:
296,224,53798,2,0,L|304:336,1,103.999995239258,12|0,0:0|2:0,0:0:0:0:
40,284,54112,6,0,B|28:232|28:232|52:172,1,103.999995239258,6|2,0:0|1:0,0:0:0:0:
289,124,54426,2,0,B|307:171|307:171|295:223,1,103.999995239258,12|2,0:0|0:0,0:0:0:0:
144,8,54740,1,8,0:0:0:0:
156,268,54897,1,2,0:0:0:0:
224,16,55054,1,8,0:0:0:0:
205,341,55211,6,0,P|107:343|70:252,1,207.999990478516,6|2,0:0|0:0,0:0:0:0:
289,124,55683,2,0,B|332:120|332:120|348:128|348:128|397:124,1,103.999995239258,12|0,0:0|2:0,0:0:0:0:
500,300,55997,1,6,0:0:0:0:
500,300,56154,1,2,0:0:0:0:
257,268,56311,2,0,B|214:271|214:271|198:263|198:263|155:267,1,103.999995239258,12|0,0:0|2:0,0:0:0:0:
80,72,56625,5,6,0:0:0:0:
264,172,56782,1,2,0:0:0:0:
24,276,56939,5,12,0:0:0:0:
160,56,57096,1,8,0:0:0:0:
112,260,57253,5,6,0:0:0:0:
4,84,57410,1,2,0:0:0:0:
76,336,57568,1,12,0:0:0:0:
160,56,57725,6,0,B|260:24|260:96|372:60,1,207.999990478516,6|2,0:0|0:0,0:0:0:0:
444,332,58196,2,0,L|336:324,1,103.999995239258,12|0,0:0|2:0,0:0:0:0:
72,240,58510,2,0,L|180:232,1,103.999995239258,6|0,0:0|2:0,0:0:0:0:
448,160,58824,2,0,L|340:152,1,103.999995239258,6|0,0:0|2:0,0:0:0:0:
68,100,59138,5,6,0:0:0:0:
236,324,59295,1,8,0:0:0:0:
156,100,59452,5,6,0:0:0:0:
152,308,59609,1,2,0:0:0:0:
220,36,59766,5,8,0:0:0:0:
72,276,59924,1,8,0:0:0:0:
352,264,60081,1,8,0:0:0:0:
128,8,60238,6,0,B|112:72|112:72|148:128|148:128|124:216,1,207.999990478516,6|2,0:0|0:0,0:0:0:0:
296,332,60709,2,0,P|343:351|393:340,1,103.999995239258,12|0,0:0|2:0,0:0:0:0:
392,132,61023,1,6,0:0:0:0:
240,276,61180,1,2,0:0:0:0:
484,188,61337,1,12,0:0:0:0:
240,168,61494,6,0,B|88:164|88:164|136:208,1,207.999990478516,2|2,0:0|0:0,0:0:0:0:
385,228,61965,2,0,P|405:180|385:124,1,103.999995239258,12|0,0:0|2:0,0:0:0:0:
136,72,62280,1,6,0:0:0:0:
312,264,62437,1,2,0:0:0:0:
404,20,62594,1,12,0:0:0:0:
129,201,62751,6,0,B|160:248|160:248|320:264,1,207.999990478516,6|2,0:0|0:0,0:0:0:0:
448,108,63222,2,0,B|400:92|400:92|336:112,1,103.999995239258,12|0,0:0|2:0,0:0:0:0:
188,328,63536,1,6,0:0:0:0:
188,328,63693,1,2,0:0:0:0:
440,260,63850,2,0,B|437:209|437:209|396:156,1,103.999995239258,12|0,0:0|2:0,0:0:0:0:
280,68,64086,1,2,0:0:0:0:
266,61,64164,6,0,L|159:60,1,103.999995239258,12|0,0:0|2:0,0:0:0:0:
336,260,64479,2,0,L|442:259,1,103.999995239258,12|0,0:0|2:0,0:0:0:0:
168,184,64793,1,8,0:0:0:0:
444,140,64950,1,2,0:0:0:0:
156,264,65107,1,8,0:0:0:0:
464,64,65264,6,0,L|452:280,1,207.999990478516,6|2,0:0|0:0,0:0:0:0:
196,340,65735,2,0,P|146:350|100:327,1,103.999995239258,12|0,0:0|2:0,0:0:0:0:
52,124,66049,1,6,0:0:0:0:
52,124,66206,1,2,0:0:0:0:
296,216,66363,2,0,L|304:332,1,103.999995239258,12|0,0:0|2:0,0:0:0:0:
96,224,66677,5,6,0:0:0:0:
304,128,66835,1,2,0:0:0:0:
100,327,66992,5,12,0:0:0:0:
156,52,67149,1,8,0:0:0:0:
328,204,67306,5,6,0:0:0:0:
104,152,67463,1,2,0:0:0:0:
384,148,67620,1,8,0:0:0:0:
137,227,67777,6,0,L|157:35,1,176.000005371094,6|10,0:0|0:0,0:0:0:0:
404,224,68248,2,0,L|400:328,1,88.000002685547,12|0,0:0|2:0,0:0:0:0:
240,128,68562,2,0,L|236:40,1,88.000002685547,6|0,0:0|2:0,0:0:0:0:
480,264,68876,2,0,L|476:368,1,88.000002685547,6|0,0:0|2:0,0:0:0:0:
316,168,69191,5,6,0:0:0:0:
496,40,69348,1,8,0:0:0:0:
404,188,69505,5,6,0:0:0:0:
296,48,69662,1,8,0:0:0:0:
484,160,69819,5,6,0:0:0:0:
292,268,69976,1,2,0:0:0:0:
296,48,70133,1,12,0:0:0:0:
334,335,70290,6,0,P|250:335|212:261,1,176.000005371094,6|8,0:0|0:0,0:0:0:0:
440,157,70761,2,0,L|508:161,2,44.0000013427735,6|0|0,0:0|2:0|2:0,0:0:0:0:
136,228,71075,2,0,L|68:232,2,44.0000013427735,6|0|0,0:0|2:0|2:0,0:0:0:0:
436,232,71389,2,0,L|504:236,2,44.0000013427735,6|0|0,0:0|2:0|2:0,0:0:0:0:
120,148,71704,6,2,P|265:72|213:227,1,420.000016021729,2|0,0:0|2:0,0:0:0:0:
16,200,72960,5,6,0:0:0:0:
16,200,73039,1,2,0:0:0:0:
16,200,73117,1,2,0:0:0:0:
208,140,73274,2,0,L|287:137,1,80,12|2,0:0|0:0,0:0:0:0:
124,280,73588,2,0,L|44:277,1,80,12|2,0:0|0:0,0:0:0:0:
20,120,73903,1,12,0:0:0:0:
196,240,74060,6,0,P|212:280|199:318,1,80,2|12,0:0|0:0,0:0:0:0:
13,194,74374,2,0,P|3:155|19:119,1,80,2|12,0:0|0:0,0:0:0:0:
124,280,74688,1,2,0:0:0:0:
92,92,74845,2,0,L|184:84,1,80,12|2,0:0|0:0,0:0:0:0:
288,196,75159,1,12,0:0:0:0:
356,8,75316,5,2,0:0:0:0:
356,8,75395,1,2,0:0:0:0:
356,8,75473,2,0,B|368:48|368:48|356:88,1,80,12|0,0:0|0:0,0:0:0:0:
208,240,75787,2,0,B|197:203|197:203|209:163,1,80,12|2,0:0|0:0,0:0:0:0:
408,196,76102,1,12,0:0:0:0:
244,308,76259,1,2,0:0:0:0:
256,108,76416,1,12,0:0:0:0:
399,275,76573,6,0,P|362:264|337:234,1,80,2|12,0:0|0:0,0:0:0:0:
464,56,76887,2,0,P|467:95|449:130,1,80,2|12,0:0|0:0,0:0:0:0:
296,40,77201,1,2,0:0:0:0:
408,196,77358,2,0,L|400:292,1,80,12|2,0:0|0:0,0:0:0:0:
240,328,77672,1,12,0:0:0:0:
307,52,77829,5,2,0:0:0:0:
307,52,77908,1,2,0:0:0:0:
307,52,77986,2,0,L|315:148,1,80,12|2,0:0|0:0,0:0:0:0:
160,296,78300,2,0,L|166:216,1,80,12|2,0:0|0:0,0:0:0:0:
384,40,78615,2,0,L|392:136,1,80,12|2,0:0|0:0,0:0:0:0:
237,284,78929,2,0,L|243:204,1,80,12|2,0:0|0:0,0:0:0:0:
448,168,79243,5,12,0:0:0:0:
244,124,79400,1,2,0:0:0:0:
404,256,79557,5,12,0:0:0:0:
420,48,79714,1,2,0:0:0:0:
324,232,79871,5,12,0:0:0:0:
304,24,80028,1,2,0:0:0:0:
404,256,80185,5,12,0:0:0:0:
166,127,80342,5,2,0:0:0:0:
166,127,80421,1,2,0:0:0:0:
166,127,80499,2,0,B|206:115|206:115|262:127,1,80,12|2,0:0|0:0,0:0:0:0:
100,264,80814,2,0,B|62:272|62:272|22:260,1,80,12|2,0:0|0:0,0:0:0:0:
312,80,81128,2,0,P|328:116|316:156,1,80,12|2,0:0|0:0,0:0:0:0:
84,160,81442,2,0,P|73:122|89:86,1,80,12|2,0:0|0:0,0:0:0:0:
268,16,81756,5,12,0:0:0:0:
240,216,81913,1,2,0:0:0:0:
200,204,81992,1,2,0:0:0:0:
164,192,82070,1,2,0:0:0:0:
280,28,82227,5,2,0:0:0:0:
320,220,82384,1,8,0:0:0:0:
278,218,82463,1,8,0:0:0:0:
240,216,82541,1,8,0:0:0:0:
404,144,82698,1,8,0:0:0:0:
430,173,82776,1,8,0:0:0:0:
443,211,82855,1,8,0:0:0:0:
439,250,82933,1,8,0:0:0:0:
420,285,83013,6,0,L|316:288,1,88.000002685547,6|2,0:0|0:0,0:0:0:0:
404,144,83327,2,0,L|491:146,1,88.000002685547,12|0,0:0|2:0,0:0:0:0:
278,218,83641,2,0,L|173:220,1,88.000002685547,6|0,0:0|2:0,0:0:0:0:
340,60,83955,1,12,0:0:0:0:
187,292,84112,6,0,P|145:284|121:249,1,88.000002685547,2|6,0:0|0:0,0:0:0:0:
332,164,84426,2,0,P|356:199|348:241,1,88.000002685547,2|12,0:0|0:0,0:0:0:0:
190,220,84740,1,0,2:0:0:0:
368,92,84897,1,6,0:0:0:0:
368,92,85054,1,2,0:0:0:0:
384,312,85211,2,0,P|336:320|296:296,1,88.000002685547,12|2,0:0|0:0,0:0:0:0:
148,112,85526,5,6,0:0:0:0:
148,112,85683,1,2,0:0:0:0:
368,92,85840,2,0,L|364:192,1,88.000002685547,12|0,0:0|2:0,0:0:0:0:
151,199,86154,2,0,L|147:111,1,88.000002685547,6|0,0:0|2:0,0:0:0:0:
308,244,86468,1,12,0:0:0:0:
208,60,86625,6,0,B|252:48|252:48|296:60,1,88.000002685547,2|2,0:0|2:0,0:0:0:0:
308,244,86939,2,0,B|267:255|267:255|223:243,1,88.000002685547,2|12,0:0|0:0,0:0:0:0:
368,92,87253,1,0,2:0:0:0:
439,259,87410,1,2,0:0:0:0:
406,255,87488,1,2,0:0:0:0:
373,251,87567,1,2,0:0:0:0:
340,247,87645,1,2,0:0:0:0:
307,243,87725,2,0,B|276:200|276:200|296:116,1,132.00000402832,12|0,0:0|2:0,0:0:0:0:
368,92,88039,5,2,0:0:0:0:
357,72,88117,1,2,0:0:0:0:
342,57,88196,1,2,0:0:0:0:
323,46,88274,1,2,0:0:0:0:
301,41,88353,1,8,0:0:0:0:
279,42,88431,1,2,0:0:0:0:
259,49,88510,1,2,0:0:0:0:
241,62,88588,1,2,0:0:0:0:
227,79,88667,5,2,0:0:0:0:
213,96,88746,1,2,0:0:0:0:
195,108,88824,1,2,0:0:0:0:
174,115,88903,1,2,0:0:0:0:
152,117,88981,1,8,0:0:0:0:
131,112,89060,1,2,0:0:0:0:
112,101,89138,1,2,0:0:0:0:
97,85,89217,1,2,0:0:0:0:
84,64,89295,5,2,0:0:0:0:
81,85,89373,1,2,0:0:0:0:
79,107,89452,1,2,0:0:0:0:
77,129,89530,1,2,0:0:0:0:
75,151,89609,1,8,0:0:0:0:
73,173,89687,1,2,0:0:0:0:
71,195,89766,1,2,0:0:0:0:
68,217,89844,1,2,0:0:0:0:
68,240,89924,5,2,0:0:0:0:
89,233,90002,1,2,0:0:0:0:
110,229,90081,1,2,0:0:0:0:
132,228,90159,1,2,0:0:0:0:
154,228,90238,1,8,0:0:0:0:
176,231,90316,1,2,0:0:0:0:
197,235,90395,1,2,0:0:0:0:
218,242,90473,1,2,0:0:0:0:
236,252,90552,5,2,0:0:0:0:
248,269,90630,1,2,0:0:0:0:
266,282,90709,1,2,0:0:0:0:
287,289,90787,1,2,0:0:0:0:
309,289,90866,1,8,0:0:0:0:
330,283,90944,1,2,0:0:0:0:
348,271,91023,1,2,0:0:0:0:
361,253,91101,1,2,0:0:0:0:
369,233,91180,5,2,0:0:0:0:
370,211,91258,1,2,0:0:0:0:
364,190,91337,1,2,0:0:0:0:
352,171,91415,1,2,0:0:0:0:
335,158,91494,1,8,0:0:0:0:
315,149,91572,1,2,0:0:0:0:
293,148,91651,1,2,0:0:0:0:
272,153,91730,1,2,0:0:0:0:
253,165,91808,5,2,0:0:0:0:
380,8,91965,1,8,0:0:0:0:
336,8,92044,1,8,0:0:0:0:
292,8,92122,1,10,0:0:0:0:
476,132,92280,1,2,0:0:0:0:
236,80,92437,1,10,0:0:0:0:
492,24,92594,1,10,0:0:0:0:
364,276,92751,1,10,0:0:0:0:
173,23,92908,6,0,P|269:7|318:91,1,207.999990478516,6|8,0:0|0:0,0:0:0:0:
236,80,93300,1,2,0:0:0:0:
253,42,93378,1,2,0:0:0:0:
287,18,93457,1,2,0:0:0:0:
327,12,93535,1,2,0:0:0:0:
366,26,93614,1,2,0:0:0:0:
394,56,93692,1,12,0:0:0:0:
355,264,94321,6,2,B|331:260|319:240|319:240|291:228|259:244|259:244|235:220|207:220|207:220|174:235|127:212,1,240.000009155274,0|2,2:0|0:0,0:0:0:0:
136,216,95107,1,10,0:0:0:0:
396,28,95421,6,0,B|384:100|384:100|420:148|420:148|396:248,1,207.999990478516,6|8,0:0|0:0,0:0:0:0:
344,168,95814,1,2,0:0:0:0:
379,147,95892,1,2,0:0:0:0:
421,148,95971,1,2,0:0:0:0:
456,168,96049,1,2,0:0:0:0:
477,204,96128,1,2,0:0:0:0:
477,245,96206,1,8,0:0:0:0:
176,172,96835,6,0,L|176:160,1,10.0000003814697,2|0,0:0|0:0,0:0:0:0:
408,228,97463,6,0,L|408:216,1,10.0000003814697,2|0,0:0|0:0,0:0:0:0:
104,220,97934,6,2,B|68:160|88:56|88:56|96:96|104:108,1,216.000000823975,6|2,0:0|0:0,0:0:0:0:
240,264,98405,2,0,P|296:288|352:272,1,108.000000411987,12|0,0:0|2:0,0:0:0:0:
476,112,98719,1,6,0:0:0:0:
264,148,98876,1,2,0:0:0:0:
412,308,99033,1,12,0:0:0:0:
412,48,99191,6,0,B|368:40|368:40|324:60|324:60|264:28|204:64,1,216.000000823975,2|2,0:0|0:0,0:0:0:0:
80,228,99662,2,0,L|64:352,1,108.000000411987,12|0,0:0|2:0,0:0:0:0:
244,212,99976,1,6,0:0:0:0:
44,128,100133,1,2,0:0:0:0:
248,304,100290,1,12,0:0:0:0:
83,12,100447,6,0,P|75:160|83:252,1,216.000000823975,6|2,0:0|0:0,0:0:0:0:
316,356,100918,2,0,B|364:372|364:372|436:348,1,108.000000411987,12|0,0:0|2:0,0:0:0:0:
496,152,101232,1,6,0:0:0:0:
496,152,101389,1,2,0:0:0:0:
252,32,101547,2,0,B|201:13|201:13|149:29,1,108.000000411987,12|0,0:0|2:0,0:0:0:0:
344,216,101861,5,6,0:0:0:0:
76,196,102018,1,2,0:0:0:0:
312,292,102175,5,12,0:0:0:0:
58,203,102332,1,2,0:0:0:0:
356,72,102489,5,12,0:0:0:0:
172,340,102646,1,2,0:0:0:0:
12,60,102803,1,12,0:0:0:0:
344,216,102960,6,0,L|116:232,1,216.000000823975,6|2,0:0|0:0,0:0:0:0:
356,72,103431,2,0,P|412:60|472:84,1,108.000000411987,12|0,0:0|2:0,0:0:0:0:
396,340,103746,2,0,P|344:355|292:342,1,108.000000411987,6|2,0:0|0:0,0:0:0:0:
252,69,104060,2,0,P|304:56|355:71,1,108.000000411987,12|0,0:0|2:0,0:0:0:0:
200,292,104374,5,6,0:0:0:0:
148,28,104531,1,2,0:0:0:0:
128,364,104688,5,12,0:0:0:0:
180,100,104845,1,2,0:0:0:0:
32,372,105002,5,12,0:0:0:0:
256,168,105159,2,0,P|328:160|376:176,1,108.000000411987,0|6,0:0|0:0,0:0:0:0:
76,288,105473,6,0,B|64:132|64:132|92:200,1,216.000000823975,6|0,0:0|0:0,0:0:0:0:
256,324,105944,2,0,L|388:332,1,108.000000411987,12|0,0:0|2:0,0:0:0:0:
196,48,106259,2,0,L|88:54,1,108.000000411987,6|0,0:0|2:0,0:0:0:0:
344,256,106573,2,0,L|476:264,1,108.000000411987,6|0,0:0|2:0,0:0:0:0:
160,124,106887,5,6,0:0:0:0:
428,116,107044,1,8,0:0:0:0:
316,364,107201,1,6,0:0:0:0:
236,108,107358,1,8,0:0:0:0:
464,336,107515,5,10,0:0:0:0:
160,224,107672,1,10,0:0:0:0:
420,32,107829,1,10,0:0:0:0:
208,360,107986,6,2,P|96:356|36:248,1,216.000000823975,6|2,0:0|0:0,0:0:0:0:
236,108,108458,2,0,L|376:104,1,108.000000411987,12|0,0:0|2:0,0:0:0:0:
464,336,108772,2,0,L|356:332,1,108.000000411987,6|0,0:0|2:0,0:0:0:0:
120,200,109086,1,12,0:0:0:0:
400,44,109243,6,0,B|428:108|428:108|348:272,1,216.000000823975,2|2,0:0|0:0,0:0:0:0:
92,284,109714,2,0,P|44:248|36:188,1,108.000000411987,12|0,0:0|2:0,0:0:0:0:
252,44,110028,1,6,0:0:0:0:
180,304,110185,1,2,0:0:0:0:
0,120,110342,1,12,0:0:0:0:
332,220,110499,6,0,P|192:220|112:196,1,216.000000823975,6|0,0:0|0:0,0:0:0:0:
356,64,110971,2,0,P|424:56|484:72,1,108.000000411987,12|0,0:0|2:0,0:0:0:0:
484,280,111285,1,6,0:0:0:0:
484,280,111442,1,2,0:0:0:0:
244,156,111599,2,0,P|224:104|224:36,1,108.000000411987,12|2,0:0|0:0,0:0:0:0:
324,124,111835,1,2,0:0:0:0:
324,124,111913,6,0,L|328:248,1,108.000000411987,12|2,0:0|0:0,0:0:0:0:
16,120,112227,2,0,L|20:-4,1,108.000000411987,12|2,0:0|0:0,0:0:0:0:
340,40,112541,1,12,0:0:0:0:
52,192,112698,1,2,0:0:0:0:
356,48,112855,1,12,0:0:0:0:
84,292,113013,6,2,L|92:77,1,216.000000823975,6|2,0:0|0:0,0:0:0:0:
360,120,113484,2,0,B|380:172|380:172|356:244,1,108.000000411987,12|0,0:0|2:0,0:0:0:0:
192,352,113798,1,6,0:0:0:0:
220,140,113955,1,2,0:0:0:0:
419,320,114112,2,0,P|369:337|318:323,1,108.000000411987,12|0,0:0|2:0,0:0:0:0:
140,120,114426,5,6,0:0:0:0:
140,120,114583,1,2,0:0:0:0:
460,180,114740,1,12,0:0:0:0:
460,180,114897,1,8,0:0:0:0:
160,204,115054,1,6,0:0:0:0:
404,24,115211,1,2,0:0:0:0:
328,320,115369,1,12,0:0:0:0:
124,40,115526,6,8,B|208:24|208:24|244:48|244:48|344:28,1,216.000000823975,14|8,0:0|0:0,0:0:0:0:
468,264,115997,5,6,0:0:0:0:
468,264,116154,1,2,0:0:0:0:
192,112,116311,5,12,0:0:0:0:
192,112,116468,1,2,0:0:0:0:
472,344,116625,5,6,0:0:0:0:
472,344,116782,1,2,0:0:0:0:
200,200,116939,5,12,0:0:0:0:
200,200,117096,1,2,0:0:0:0:
376,368,117253,5,12,0:0:0:0:
376,368,117410,1,2,0:0:0:0:
292,104,117568,5,6,0:0:0:0:
492,284,117725,1,2,0:0:0:0:
232,364,117882,1,12,0:0:0:0:
368,132,118039,1,2,0:0:0:0:
482,383,118196,5,6,0:0:0:0:
204,264,118353,1,8,0:0:0:0:
428,60,118510,2,0,P|456:112|448:192,1,108.000000411987,12|0,0:0|2:0,0:0:0:0:
204,264,118824,2,0,P|207:210|233:164,1,108.000000411987,12|0,0:0|2:0,0:0:0:0:
492,284,119138,2,0,L|384:296,1,108.000000411987,6|0,0:0|2:0,0:0:0:0:
128,76,119452,6,0,L|236:88,1,108.000000411987,6|0,0:0|2:0,0:0:0:0:
420,364,119766,2,0,L|312:376,1,108.000000411987,6|0,0:0|2:0,0:0:0:0:
92,168,120081,1,12,0:0:0:0:
324,8,120238,1,8,0:0:0:0:
348,287,120395,2,0,P|297:305|246:292,1,108.000000411987,12|0,0:0|0:0,0:0:0:0:
84,64,120709,5,12,0:0:0:0:
356,124,120866,1,2,0:0:0:0:
160,328,121023,2,0,L|104:328,2,54.0000002059937,12|0|0,0:0|2:0|2:0,0:0:0:0:
436,136,121337,2,0,L|492:136,2,54.0000002059937,6|0|0,0:0|2:0|2:0,0:0:0:0:
124,248,121651,2,0,L|68:248,2,54.0000002059937,6|0|0,0:0|2:0|2:0,0:0:0:0:
456,224,121965,6,0,L|512:224,2,54.0000002059937,6|0|0,0:0|2:0|2:0,0:0:0:0:
88,168,122280,2,0,L|32:168,2,54.0000002059937,6|0|0,0:0|2:0|2:0,0:0:0:0:
460,304,122594,1,6,0:0:0:0:
24,24,123222,5,6,0:0:0:0:
256,192,123395,12,2,128771,2:0:0:0:
140,128,134320,6,0,P|192:112|228:120,1,80,2|0,0:0|0:0,0:0:0:0:
272,208,135013,2,0,L|188:196,1,80,8|0,0:0|0:0,0:0:0:0:
304,128,135534,2,0,P|344:156|356:192,1,80,2|0,0:0|0:0,0:0:0:0:
352,264,136054,2,0,L|344:316,1,40,2|0,0:0|0:0,0:0:0:0:
268,316,136401,6,0,B|216:316|216:316|200:304|200:304|136:304,1,120,10|0,0:0|0:0,0:0:0:0:
120,312,137008,1,2,0:0:0:0:
120,312,137094,2,0,P|96:264|104:224,1,80,6|0,0:0|0:0,0:0:0:0:
132,164,137615,1,0,0:0:0:0:
180,100,137788,2,0,P|200:68|156:88,1,120,10|0,0:0|0:0,0:0:0:0:
216,172,138482,6,0,P|240:184|268:184,1,40,2|0,0:0|0:0,0:0:0:0:
352,120,138828,2,0,P|324:132|312:156,1,40,2|0,0:0|0:0,0:0:0:0:
332,296,139175,2,0,P|340:252|320:216,1,80,10|0,0:0|0:0,0:0:0:0:
260,96,139695,1,0,0:0:0:0:
260,96,139869,6,0,P|212:88|156:136,1,120,6|0,0:0|0:0,0:0:0:0:
140,208,140563,2,0,P|142:236|151:258,1,40,10|0,0:0|0:0,0:0:0:0:
220,280,140909,2,0,P|225:260|226:240,1,40
88,148,141256,6,0,B|56:176|56:176|64:268,1,120,2|0,0:0|0:0,0:0:0:0:
92,328,141950,2,0,P|124:336|144:328,1,40,10|0,0:0|0:0,0:0:0:0:
258,273,142297,2,0,P|238:271|219:279,1,40,2|0,0:0|0:0,0:0:0:0:
332,352,142643,6,0,L|344:216,1,120,6|0,0:0|0:0,0:0:0:0:
336,152,143337,2,0,P|304:132|248:128,1,80,10|0,0:0|0:0,0:0:0:0:
200,172,143857,1,2,0:0:0:0:
128,208,144031,6,0,P|96:200|80:188,1,40,2|0,0:0|0:0,0:0:0:0:
156,96,144378,2,0,P|174:87|193:84,1,40,2|0,0:0|0:0,0:0:0:0:
220,272,144724,2,0,B|196:284|196:284|172:276|172:276|140:296|92:284,1,120,10|0,0:0|0:0,0:0:0:0:
196,164,145418,6,0,B|240:144|240:144|380:180,1,180.000006866455,6|0,1:0|2:0,0:0:0:0:
512,168,146112,2,0,P|506:122|432:77,1,120.000004577637,8|2,0:0|0:0,0:0:0:0:
332,68,146632,2,0,L|208:56,1,120.000004577637,2|2,1:0|2:0,2:0:0:0:
92,76,147152,2,0,P|84:120|88:144,1,60.0000022888184,2|0,0:0|2:0,0:0:0:0:
144,240,147499,2,0,B|232:280|232:216|324:248,1,180.000006866455,8|0,0:0|2:0,0:0:0:0:
408,328,148193,6,0,B|424:184|424:184|400:232,1,180.000006866455,2|2,0:0|2:0,0:0:0:0:
340,312,148886,2,0,P|308:316|272:196,1,180.000006866455,8|2,0:0|0:0,0:0:0:0:
356,128,149580,2,0,L|440:124,1,60.0000022888184,2|0,2:0|2:0,0:0:0:0:
312,64,149927,2,0,L|228:60,1,60.0000022888184,2|0,0:0|2:0,0:0:0:0:
148,120,150274,2,0,P|128:172|132:196,1,60.0000022888184,8|0,0:0|2:0,0:0:0:0:
284,260,150620,2,0,P|279:230|264:204,1,60.0000022888184,0|0,2:0|2:0,0:0:0:0:
32,304,150967,6,0,B|108:296|108:296|116:304|116:304|212:296,1,180.000006866455,6|0,0:0|0:0,0:0:0:0:
372,276,151661,2,0,P|392:248|392:212,1,60.0000022888184,8|0,0:0|2:0,0:0:0:0:
241,152,152008,2,0,P|245:181|263:204,1,60.0000022888184,2|2,2:0|0:0,0:0:0:0:
480,260,152354,6,0,L|488:116,1,120.000004577637,2|2,2:0|0:0,0:0:0:0:
280,80,153048,2,0,P|232:68|160:164,1,180.000006866455,12|0,0:0|2:0,0:0:0:0:
108,240,153742,6,0,B|196:284|196:200|304:256,1,180.000006866455,2|0,0:0|2:0,0:0:0:0:
356,296,154435,2,0,P|372:320|392:240,1,180.000006866455,8|0,0:0|2:0,0:0:0:0:
320,176,155129,5,2,0:0:0:0:
356,64,155302,1,2,0:0:0:0:
440,148,155476,1,2,0:0:0:0:
240,88,155649,1,2,0:0:0:0:
472,32,155823,1,12,0:0:0:0:
480,28,156169,1,8,0:0:0:0:
216,192,156343,6,0,L|88:176,1,120.000004577637,6|0,0:0|0:0,0:0:0:0:
128,36,156863,2,0,P|172:32|192:36,1,60.0000022888184,2|0,0:0|0:0,0:0:0:0:
384,36,157210,2,0,P|340:32|320:36,1,60.0000022888184,2|0,0:0|0:0,0:0:0:0:
160,104,157557,2,0,P|193:132|205:149,1,60.0000022888184,2|0,0:0|0:0,0:0:0:0:
352,104,157904,2,0,P|318:132|306:149,1,60.0000022888184,2|0,0:0|0:0,0:0:0:0:
136,188,158250,2,0,P|140:232|136:252,1,60.0000022888184,2|0,0:0|0:0,0:0:0:0:
376,188,158597,2,0,P|372:232|376:252,1,60.0000022888184,2|0,0:0|0:0,0:0:0:0:
256,340,158944,2,0,L|256:268,1,60.0000022888184,2|0,0:0|0:0,0:0:0:0:
356,112,159291,6,0,L|436:104,1,75.9999979705811,2|0,0:0|0:0,0:0:0:0:
211,195,159638,2,0,L|131:187,1,75.9999979705811,2|0,0:0|0:0,0:0:0:0:
344,96,159985,6,0,L|424:88,1,75.9999979705811,2|0,0:0|0:0,0:0:0:0:
199,179,160332,2,0,L|119:171,1,75.9999979705811,2|0,0:0|0:0,0:0:0:0:
328,80,160678,6,0,L|420:72,1,92.0000017547608,2|0,0:0|0:0,0:0:0:0:
183,163,161025,2,0,L|88:152,1,92.0000017547608,2|0,0:0|0:0,0:0:0:0:
312,64,161372,6,0,L|404:56,1,92.0000017547608,2|0,0:0|0:0,0:0:0:0:
167,147,161719,1,8,0:0:0:0:
460,132,161892,6,0,B|484:184|484:184|436:320,1,184.000003509522,6|0,0:0|0:0,0:0:0:0:
79,267,162412,1,2,0:0:0:0:
221,221,162586,1,0,0:0:0:0:
79,175,162759,1,2,0:0:0:0:
167,296,162932,1,0,0:0:0:0:
167,147,163106,1,2,0:0:0:0:
62,280,163279,1,0,0:0:0:0:
239,222,163453,5,2,0:0:0:0:
62,165,163626,1,0,0:0:0:0:
172,316,163800,1,2,0:0:0:0:
172,129,163973,1,0,0:0:0:0:
48,293,164146,1,2,0:0:0:0:
261,224,164320,1,0,0:0:0:0:
48,155,164493,1,2,0:0:0:0:
180,336,164667,1,0,0:0:0:0:
180,112,164840,5,8,0:0:0:0:
179,100,164926,1,2,0:0:0:0:
178,89,165013,1,2,0:0:0:0:
177,77,165100,1,2,0:0:0:0:
176,68,165187,5,8,0:0:0:0:
195,55,165273,1,2,0:0:0:0:
216,46,165360,1,2,0:0:0:0:
239,43,165447,1,2,0:0:0:0:
262,45,165533,5,8,0:0:0:0:
289,66,165620,1,2,0:0:0:0:
321,80,165707,1,2,0:0:0:0:
355,84,165794,1,2,0:0:0:0:
389,77,165880,5,8,0:0:0:0:
431,60,165966,1,2,0:0:0:0:
474,73,166053,1,2,0:0:0:0:
499,111,166140,1,2,0:0:0:0:
495,155,166226,5,8,0:0:0:0:
467,205,166313,1,10,0:0:0:0:
419,236,166400,1,10,0:0:0:0:
362,243,166487,1,10,0:0:0:0:
309,222,166573,5,10,0:0:0:0:
254,181,166660,1,10,0:0:0:0:
187,174,166747,1,8,0:0:0:0:
124,201,166834,1,10,0:0:0:0:
84,256,166920,5,10,0:0:0:0:
151,255,167007,1,2,0:0:0:0:
206,215,167094,1,2,0:0:0:0:
226,151,167181,1,2,0:0:0:0:
204,86,167267,1,2,0:0:0:0:
149,48,167354,1,2,0:0:0:0:
81,49,167441,1,2,0:0:0:0:
27,91,167527,1,2,0:0:0:0:
8,156,167615,6,0,L|4:280,1,103.999995239258,6|0,0:0|2:0,0:0:0:0:
226,151,167929,1,2,2:0:0:0:
248,144,168243,1,2,2:0:0:0:
269,136,168557,1,2,2:0:0:0:
290,128,168871,1,2,2:0:0:0:
311,120,169185,5,2,2:0:0:0:
320,144,169264,1,0,2:0:0:0:
312,168,169342,1,0,2:0:0:0:
320,192,169421,1,0,2:0:0:0:
312,216,169499,1,2,2:0:0:0:
320,240,169578,1,0,2:0:0:0:
312,264,169656,1,0,2:0:0:0:
320,288,169735,1,0,2:0:0:0:
312,312,169813,1,2,2:0:0:0:
320,336,169892,1,0,2:0:0:0:
308,360,169971,5,6,0:0:0:0:
115,199,170128,2,0,P|98:151|109:101,1,103.999995239258,6|0,0:0|2:0,0:0:0:0:
360,76,170442,1,2,2:0:0:0:
384,72,170756,1,2,2:0:0:0:
408,68,171070,1,2,2:0:0:0:
268,348,171227,5,6,0:0:0:0:
20,24,171541,1,6,0:0:0:0:
388,304,171855,5,8,0:0:0:0:
76,280,172012,2,0,B|60:232|60:232|80:196|80:196|56:148|80:88,1,180.000006866455,6|0,0:0|2:0,0:0:0:0:
124,40,172641,5,6,1:0:0:0:
167,12,172719,1,0,2:0:0:0:
218,11,172798,1,2,1:0:0:0:
262,37,172876,1,0,2:0:0:0:
286,82,172955,2,2,P|296:124|292:148,1,51.999997619629,12|0,1:0|2:0,1:0:0:0:
216,268,173112,1,2,1:0:0:0:
216,268,173190,1,0,2:0:0:0:
216,268,173269,2,2,P|216:242|224:217,1,51.999997619629,14|0,1:0|2:0,1:0:0:0:
372,116,173426,2,0,P|373:141|366:166,1,51.999997619629,2|0,1:0|2:0,2:0:0:0:
136,216,173583,2,0,P|129:190|130:165,1,51.999997619629,12|0,1:0|2:0,2:0:0:0:
344,248,173740,5,2,1:0:0:0:
344,248,173819,1,0,2:0:0:0:
344,248,173897,2,0,P|304:256|280:244,1,51.999997619629,12|0,1:0|2:0,2:0:0:0:
208,112,174054,1,2,1:0:0:0:
208,112,174133,1,0,2:0:0:0:
208,112,174211,2,0,P|248:104|272:116,1,51.999997619629,12|0,1:0|2:0,2:0:0:0:
420,208,174368,1,2,0:0:0:0:
420,208,174447,1,0,2:0:0:0:
420,208,174525,2,0,L|424:268,1,51.999997619629,12|0,0:0|2:0,0:0:0:0:
216,268,174683,2,0,L|219:216,1,51.999997619629,2|0,0:0|2:0,0:0:0:0:
504,176,174840,2,0,L|492:234,1,51.999997619629,12|0,1:0|2:0,0:0:0:0:
296,240,174997,2,0,L|285:188,1,51.999997619629,2|2,0:0|0:0,0:0:0:0:
386,41,175154,5,6,0:0:0:0:
429,68,175232,1,0,2:0:0:0:
452,114,175311,1,2,0:0:0:0:
448,165,175389,1,0,2:0:0:0:
420,208,175468,2,2,P|384:212|356:204,1,51.999997619629,14|0,0:0|2:0,0:0:0:0:
224,96,175625,1,2,0:0:0:0:
224,96,175704,1,0,2:0:0:0:
224,96,175782,2,2,P|188:92|160:100,1,51.999997619629,14|0,0:0|2:0,0:0:0:0:
84,216,175939,2,0,P|109:219|135:215,1,51.999997619629,2|0,0:0|2:0,0:0:0:0:
136,28,176096,2,0,P|107:50|93:76,1,51.999997619629,12|0,0:0|2:0,0:0:0:0:
232,184,176253,5,2,0:0:0:0:
232,184,176332,1,0,2:0:0:0:
232,184,176410,2,0,L|292:188,1,51.999997619629,12|0,0:0|2:0,0:0:0:0:
112,300,176567,1,2,0:0:0:0:
112,300,176646,1,0,2:0:0:0:
112,300,176724,2,0,L|52:304,1,51.999997619629,12|0,0:0|2:0,0:0:0:0:
296,356,176882,1,2,0:0:0:0:
296,356,176961,1,0,2:0:0:0:
296,356,177039,2,0,L|356:360,1,51.999997619629,12|0,0:0|2:0,0:0:0:0:
448,196,177196,2,0,L|388:200,1,51.999997619629,2|0,0:0|2:0,0:0:0:0:
244,272,177353,1,12,0:0:0:0:
244,272,177431,1,2,0:0:0:0:
244,272,177510,6,0,L|236:308,2,34.6666650797527,2|2|2,0:0|0:0|0:0,0:0:0:0:
164,236,177667,5,12,0:0:0:0:
116,216,177745,1,0,2:0:0:0:
88,173,177824,1,2,0:0:0:0:
91,122,177902,1,0,2:0:0:0:
123,82,177981,2,2,L|188:80,1,51.999997619629,12|0,0:0|2:0,0:0:0:0:
324,204,178138,2,0,L|259:202,1,51.999997619629,2|0,0:0|2:0,0:0:0:0:
228,20,178295,1,12,0:0:0:0:
228,20,178374,1,0,2:0:0:0:
228,20,178452,2,0,P|244:39|250:64,1,51.999997619629,2|0,0:0|2:0,0:0:0:0:
164,236,178609,2,0,P|170:210|186:191,1,51.999997619629,12|0,0:0|2:0,0:0:0:0:
344,108,178766,5,2,0:0:0:0:
344,108,178845,1,0,2:0:0:0:
344,108,178923,2,0,P|372:108|416:128,1,51.999997619629,12|0,0:0|2:0,0:0:0:0:
464,304,179080,1,2,0:0:0:0:
464,304,179159,1,0,2:0:0:0:
464,304,179237,2,0,P|436:304|392:284,1,51.999997619629,12|0,0:0|2:0,0:0:0:0:
248,144,179395,5,2,0:0:0:0:
248,144,179473,1,0,2:0:0:0:
248,144,179552,2,0,P|241:118|240:93,1,51.999997619629,12|0,0:0|2:0,0:0:0:0:
472,96,179709,2,0,P|471:121|464:146,1,51.999997619629,2|0,0:0|2:0,0:0:0:0:
297,53,179866,2,0,P|296:27|302:1,1,51.999997619629,12|0,0:0|2:0,0:0:0:0:
404,184,180023,2,0,P|409:209|409:235,1,51.999997619629,2|2,0:0|0:0,0:0:0:0:
268,304,180180,5,6,0:0:0:0:
140,80,180337,1,8,0:0:0:0:
140,80,180416,1,8,0:0:0:0:
140,80,180494,2,0,L|148:160,1,51.999997619629,12|0,0:0|2:0,0:0:0:0:
32,280,180651,2,0,L|37:228,1,51.999997619629,2|0,0:0|2:0,0:0:0:0:
224,112,180808,1,12,0:0:0:0:
258,128,180886,1,0,2:0:0:0:
278,160,180965,1,2,0:0:0:0:
277,199,181043,1,0,2:0:0:0:
254,230,181122,2,0,P|220:232|196:220,1,51.999997619629,12|0,0:0|2:0,0:0:0:0:
60,112,181279,5,6,0:0:0:0:
316,76,181436,1,6,0:0:0:0:
240,328,181594,1,8,0:0:0:0:
236,336,181672,1,8,0:0:0:0:
233,344,181751,5,8,0:0:0:0:
232,293,181829,1,8,0:0:0:0:
195,259,181908,1,8,0:0:0:0:
145,261,181986,1,8,0:0:0:0:
112,300,182065,5,2,0:0:0:0:
61,291,182143,1,2,0:0:0:0:
23,256,182222,1,2,0:0:0:0:
10,206,182300,1,2,0:0:0:0:
25,157,182379,1,2,0:0:0:0:
65,125,182457,1,2,0:0:0:0:
116,118,182536,1,2,0:0:0:0:
162,140,182614,1,2,0:0:0:0:
190,183,182693,6,2,P|216:188|244:184,3,51.999997619629,6|0|0|0,0:0|2:0|0:0|2:0,0:0:0:0:
312,116,183007,1,12,0:0:0:0:
320,108,183086,1,0,2:0:0:0:
328,100,183164,1,2,0:0:0:0:
336,92,183243,1,0,2:0:0:0:
344,84,183321,5,6,0:0:0:0:
390,63,183399,1,0,2:0:0:0:
434,86,183478,1,2,0:0:0:0:
445,135,183556,1,0,2:0:0:0:
414,174,183635,1,12,0:0:0:0:
382,213,183714,1,0,2:0:0:0:
393,262,183792,1,0,0:0:0:0:
438,285,183871,1,0,2:0:0:0:
484,264,183950,5,6,0:0:0:0:
449,225,184028,1,0,2:0:0:0:
400,212,184107,1,2,0:0:0:0:
351,228,184185,1,0,2:0:0:0:
319,268,184264,1,12,0:0:0:0:
287,308,184342,1,0,2:0:0:0:
238,324,184420,1,2,0:0:0:0:
188,310,184499,1,0,2:0:0:0:
154,272,184578,6,2,B|178:276|190:296|190:296|218:308|242:294|242:294|266:314|298:318|298:318|326:294|370:318,1,207.999990478516,12|12,1:0|1:0,0:0:0:0:
208,64,185049,5,2,0:0:0:0:
260,60,185128,1,0,2:0:0:0:
312,56,185206,1,6,0:0:0:0:
154,272,185363,1,2,0:0:0:0:
102,268,185442,1,0,2:0:0:0:
50,264,185520,1,12,0:0:0:0:
228,48,185677,5,2,0:0:0:0:
280,44,185756,1,0,2:0:0:0:
332,40,185834,1,6,0:0:0:0:
132,288,185991,1,2,0:0:0:0:
80,284,186070,1,0,2:0:0:0:
28,280,186148,1,12,0:0:0:0:
200,136,186306,5,2,0:0:0:0:
252,132,186385,1,0,2:0:0:0:
304,128,186463,1,6,0:0:0:0:
352,141,186541,1,0,2:0:0:0:
371,188,186620,1,0,0:0:0:0:
347,232,186698,1,0,2:0:0:0:
298,240,186777,1,12,0:0:0:0:
249,253,186855,1,0,2:0:0:0:
230,300,186934,1,0,0:0:0:0:
254,344,187012,1,0,2:0:0:0:
303,352,187091,5,6,0:0:0:0:
334,312,187169,1,2,0:0:0:0:
327,261,187248,1,0,0:0:0:0:
287,231,187326,1,2,0:0:0:0:
240,240,187405,1,12,0:0:0:0:
191,250,187483,1,0,2:0:0:0:
156,215,187562,1,0,2:0:0:0:
169,166,187640,1,0,2:0:0:0:
216,152,187719,5,6,0:0:0:0:
200,148,187798,1,0,2:0:0:0:
184,144,187876,1,2,0:0:0:0:
168,140,187955,1,0,2:0:0:0:
132,120,188033,5,12,0:0:0:0:
148,116,188112,1,0,2:0:0:0:
164,112,188190,1,0,2:0:0:0:
180,108,188269,1,0,2:0:0:0:
200,64,188347,5,2,0:0:0:0:
178,49,188425,1,0,2:0:0:0:
153,44,188504,1,2,0:0:0:0:
127,47,188582,1,0,2:0:0:0:
104,59,188661,1,12,0:0:0:0:
82,73,188740,1,0,2:0:0:0:
57,78,188819,2,0,L|48:140,1,51.999997619629,2|0,0:0|2:0,0:0:0:0:
40,280,188976,5,2,2:0:0:0:
80,311,189054,1,0,2:0:0:0:
131,319,189133,1,2,0:0:0:0:
178,299,189211,1,0,2:0:0:0:
209,258,189290,1,12,0:0:0:0:
239,217,189368,1,0,2:0:0:0:
287,197,189446,1,0,2:0:0:0:
338,204,189525,1,0,2:0:0:0:
378,236,189603,5,6,0:0:0:0:
350,193,189682,1,0,2:0:0:0:
354,142,189761,1,2,0:0:0:0:
390,105,189839,1,0,2:0:0:0:
440,88,189918,2,2,B|449:113|433:133|433:133|437:165|457:189|457:189|443:213|455:241|455:241,1,155.999992858887,12|0,0:0|2:0,0:0:0:0:
468,312,190232,5,6,0:0:0:0:
444,316,190311,1,2,0:0:0:0:
420,320,190389,1,2,0:0:0:0:
336,91,190546,2,0,L|460:87,1,103.999995239258,12|2,0:0|0:0,0:0:0:0:
204,200,190861,2,0,L|80:196,1,103.999995239258,12|2,0:0|0:0,0:0:0:0:
296,24,191175,1,12,0:0:0:0:
272,284,191332,1,2,0:0:0:0:
28,96,191489,5,12,0:0:0:0:
280,156,191646,1,8,0:0:0:0:
280,156,191724,1,8,0:0:0:0:
280,156,191803,1,6,0:0:0:0:
112,356,191960,1,8,0:0:0:0:
160,100,192117,1,12,0:0:0:0:
160,100,192196,1,2,0:0:0:0:
160,100,192274,1,2,0:0:0:0:
368,256,192431,1,12,0:0:0:0:
88,144,192588,6,0,P|72:80|192:20,1,207.999990478516,6|8,0:0|0:0,0:0:0:0:
248,40,192981,1,2,0:0:0:0:
246,81,193059,1,2,0:0:0:0:
244,123,193138,1,2,0:0:0:0:
243,164,193216,1,2,0:0:0:0:
241,206,193295,1,2,0:0:0:0:
240,247,193374,2,0,L|192:248,7,30.0000011444092,8|2|2|2|2|2|2|2,1:0|2:0|2:0|2:0|2:0|2:0|2:0|2:0,2:0:0:0:
332,304,194002,6,2,B|356:240|356:240|328:176|328:176|360:104,1,210.000008010865,2|0,2:0|2:0,0:0:0:0:
368,88,194630,1,12,0:0:0:0:
100,80,194787,1,2,0:0:0:0:
88,64,195101,6,2,B|64:132|64:132|104:176|104:176|68:276,1,207.999990478516,6|8,0:0|0:0,0:0:0:0:
16,196,195494,1,2,0:0:0:0:
51,174,195572,1,2,0:0:0:0:
92,172,195651,1,2,0:0:0:0:
129,190,195729,1,2,0:0:0:0:
154,223,195808,1,2,0:0:0:0:
161,263,195886,1,8,0:0:0:0:
412,280,196515,6,0,L|416:264,1,10.0000003814697,2|0,0:0|0:0,0:0:0:0:
164,104,197143,6,0,L|166:113,1,10.0000003814697,2|0,0:0|0:0,0:0:0:0:
492,352,197614,5,6,0:0:0:0:
224,92,206567,6,0,L|116:112,1,103.999995239258,6|0,0:0|2:0,0:0:0:0:
400,236,206882,2,0,L|520:260,1,103.999995239258,6|0,0:0|2:0,0:0:0:0:
112,224,207196,5,2,0:0:0:0:
456,56,207353,1,12,0:0:0:0:
480,48,207667,6,0,B|492:128|492:128|464:172|464:172|476:284,1,223.999993164063,6|2,0:0|0:0,0:0:0:0:
208,348,208138,2,0,P|148:348|96:300,1,111.999996582031,12|0,0:0|2:0,0:0:0:0:
232,68,208452,1,6,0:0:0:0:
296,340,208609,1,2,0:0:0:0:
32,248,208766,1,12,0:0:0:0:
372,132,208923,6,0,P|380:276|368:372,1,223.999993164063,2|2,0:0|0:0,0:0:0:0:
112,276,209395,2,0,B|100:224|100:224|128:160,1,111.999996582031,12|0,0:0|2:0,0:0:0:0:
452,72,209709,1,6,0:0:0:0:
248,312,209866,1,2,0:0:0:0:
120,24,210023,1,12,0:0:0:0:
404,236,210180,6,0,B|300:268|300:188|180:232,1,223.999993164063,6|2,0:0|0:0,0:0:0:0:
484,320,210651,2,0,P|520:272|508:196,1,111.999996582031,12|0,0:0|2:0,0:0:0:0:
260,48,210965,1,6,0:0:0:0:
260,48,211122,1,2,0:0:0:0:
0,221,211279,2,0,P|-6:276|28:320,1,111.999996582031,12|0,0:0|2:0,0:0:0:0:
276,184,211594,5,6,0:0:0:0:
24,64,211751,1,2,0:0:0:0:
232,328,211908,5,12,0:0:0:0:
92,24,212065,1,8,0:0:0:0:
96,304,212222,5,6,0:0:0:0:
352,188,212379,1,2,0:0:0:0:
20,228,212536,1,12,0:0:0:0:
428,264,212693,6,0,P|451:159|375:84,1,223.999993164063,6|2,0:0|0:0,0:0:0:0:
96,76,213164,2,0,L|88:196,1,111.999996582031,12|0,0:0|2:0,0:0:0:0:
340,312,213478,1,6,0:0:0:0:
244,48,213635,1,2,0:0:0:0:
120,300,213793,2,0,P|176:320|236:288,1,111.999996582031,12|0,0:0|2:0,0:0:0:0:
388,76,214107,5,6,0:0:0:0:
116,144,214264,1,2,0:0:0:0:
308,348,214421,2,0,P|364:340|408:260,1,111.999996582031,12|0,0:0|2:0,0:0:0:0:
252,64,214735,1,6,0:0:0:0:
164,332,214892,1,2,0:0:0:0:
184,0,215049,1,12,0:0:0:0:
400,301,215206,6,0,B|352:312|312:285|312:285|288:288|276:309|276:309|240:284|168:304,1,223.999993164063,6|2,0:0|0:0,0:0:0:0:
32,27,215677,2,0,P|83:7|137:20,1,111.999996582031,12|0,0:0|2:0,0:0:0:0:
432,220,215991,2,0,P|378:232|326:212,1,111.999996582031,6|0,0:0|2:0,0:0:0:0:
88,88,216306,2,0,L|212:84,1,111.999996582031,12|0,0:0|0:0,0:0:0:0:
496,260,216620,5,10,0:0:0:0:
463,305,216698,1,2,0:0:0:0:
414,333,216777,1,2,0:0:0:0:
358,339,216855,1,2,0:0:0:0:
305,321,216934,1,10,0:0:0:0:
264,284,217012,1,2,0:0:0:0:
241,233,217091,1,2,0:0:0:0:
241,177,217169,1,2,0:0:0:0:
264,126,217248,1,8,0:0:0:0:
305,88,217327,1,8,0:0:0:0:
358,71,217405,1,8,0:0:0:0:
414,77,217484,1,8,0:0:0:0:
463,105,217562,1,8,0:0:0:0:
496,150,217641,1,8,0:0:0:0:
507,205,217719,6,0,P|388:248|292:184,1,223.999993164063,6|2,0:0|0:0,0:0:0:0:
100,16,218190,2,0,L|216:8,1,111.999996582031,12|0,0:0|2:0,0:0:0:0:
144,280,218505,2,0,L|28:272,1,111.999996582031,6|2,0:0|0:0,0:0:0:0:
268,68,218819,1,12,0:0:0:0:
40,348,218976,6,0,P|36:208|56:120,1,223.999993164063,2|2,0:0|0:0,0:0:0:0:
304,0,219447,2,0,P|339:41|339:96,1,111.999996582031,12|0,0:0|2:0,0:0:0:0:
144,280,219761,2,0,P|143:225|179:183,1,111.999996582031,6|2,0:0|0:0,0:0:0:0:
448,104,220075,1,12,0:0:0:0:
152,372,220232,6,0,P|80:352|84:208,1,223.999993164063,6|0,0:0|0:0,0:0:0:0:
352,240,220704,2,0,L|376:368,1,111.999996582031,12|0,0:0|2:0,0:0:0:0:
108,144,221018,1,6,0:0:0:0:
108,144,221175,1,2,0:0:0:0:
384,88,221332,1,8,0:0:0:0:
268,344,221489,5,8,0:0:0:0:
264,352,221567,1,8,0:0:0:0:
260,360,221646,2,0,L|248:240,1,111.999996582031,12|2,0:0|0:0,0:0:0:0:
488,12,221960,2,0,L|476:123,1,111.999996582031,12|2,0:0|0:0,0:0:0:0:
140,108,222274,1,12,0:0:0:0:
428,280,222431,1,2,0:0:0:0:
120,112,222588,1,12,0:0:0:0:
436,364,222745,6,0,P|500:328|448:200,1,223.999993164063,6|0,0:0|0:0,0:0:0:0:
100,116,223217,2,0,B|76:168|76:168|92:236,1,111.999996582031,12|0,0:0|2:0,0:0:0:0:
340,340,223531,1,2,0:0:0:0:
432,76,223688,1,2,0:0:0:0:
268,360,223845,1,12,0:0:0:0:
176,96,224002,1,2,0:0:0:0:
460,288,224159,6,0,L|324:260,1,111.999996582031,6|2,0:0|0:0,0:0:0:0:
66,118,224473,2,0,L|202:90,1,111.999996582031,14|2,0:0|0:0,0:0:0:0:
476,188,224787,1,8,0:0:0:0:
188,308,224944,1,2,0:0:0:0:
256,4,225101,1,8,0:0:0:0:
512,260,225258,6,0,B|460:268|460:268|332:200,1,191.999994140625,6|2,0:0|0:0,0:0:0:0:
128,32,225730,2,0,L|144:164,1,95.9999970703126,12|0,0:0|2:0,0:0:0:0:
348,107,226044,2,0,L|332:239,1,95.9999970703126,6|0,0:0|2:0,0:0:0:0:
64,120,226358,2,0,L|80:252,1,95.9999970703126,6|0,0:0|2:0,0:0:0:0:
280,28,226672,6,0,L|264:160,1,95.9999970703126,6|0,0:0|2:0,0:0:0:0:
12,300,226986,2,0,L|0:204,1,95.9999970703126,6|0,0:0|2:0,0:0:0:0:
284,260,227300,1,12,0:0:0:0:
92,44,227457,1,2,0:0:0:0:
72,36,227772,6,0,L|288:20,1,191.999994140625,6|2,0:0|0:0,0:0:0:0:
420,204,228243,2,0,P|440:248|424:312,1,95.9999970703126,12|0,0:0|2:0,0:0:0:0:
57,126,228557,2,0,P|51:78|71:35,1,95.9999970703126,6|0,0:0|2:0,0:0:0:0:
360,260,228871,2,0,P|343:305|286:339,1,95.9999970703126,6|0,0:0|2:0,0:0:0:0:
132,88,229185,2,0,P|161:50|205:34,1,95.9999970703126,12|0,0:0|2:0,0:0:0:0:
280,252,229499,2,0,P|236:272|172:256,1,95.9999970703126,6|0,0:0|2:0,0:0:0:0:
312,60,229813,1,8,0:0:0:0:
240,340,229971,1,8,0:0:0:0:
205,34,230128,1,8,0:0:0:0:
380,292,230285,6,0,L|180:264,1,191.999994140625,6|2,0:0|0:0,0:0:0:0:
48,72,230756,1,12,0:0:0:0:
48,72,230913,1,2,0:0:0:0:
284,116,231070,1,6,0:0:0:0:
284,116,231227,1,2,0:0:0:0:
128,300,231384,1,12,0:0:0:0:
128,300,231541,1,2,0:0:0:0:
224,44,231698,6,0,L|340:32,1,95.9999970703126,12|2,0:0|0:0,0:0:0:0:
136,212,232012,2,0,L|20:200,1,95.9999970703126,6|2,0:0|0:0,0:0:0:0:
308,164,232327,1,8,0:0:0:0:
56,76,232484,1,2,0:0:0:0:
316,184,232641,1,8,0:0:0:0:
48,56,232798,1,2,0:0:0:0:
320,256,232955,6,0,P|364:244|384:180,1,95.9999970703126,6|0,0:0|2:0,0:0:0:0:
104,156,233305,2,0,L|96:260,1,95.9999970703126,12|0,0:0|0:0,0:0:0:0:
316,184,233656,2,0,P|338:144|307:85,1,95.9999970703126,6|0,0:0|2:0,0:0:0:0:
24,192,234007,2,0,L|20:292,1,95.9999970703126,12|0,0:0|2:0,0:0:0:0:
260,132,234358,6,0,B|216:120|216:120|156:144,1,95.9999970703126,6|0,0:0|2:0,0:0:0:0:
344,276,234733,2,0,B|390:294|390:294|434:282,1,95.9999970703126,12|0,0:0|2:0,0:0:0:0:
264,52,235108,5,6,0:0:0:0:
240,276,235282,1,12,0:0:0:0:
256,192,235456,12,0,238421,2:0:0:0:
192,132,238596,6,0,B|272:116|272:116|304:136|304:136|396:120,1,207.999990478516,6|8,0:0|0:0,0:0:0:0:
432,45,239041,1,2,0:0:0:0:
457,64,239131,1,2,0:0:0:0:
473,92,239220,1,2,0:0:0:0:
477,123,239309,1,2,0:0:0:0:
470,154,239399,1,2,0:0:0:0:
452,180,239488,1,12,0:0:0:0:
452,180,240916,5,12,0:0:0:0:
240,260,241095,1,2,0:0:0:0:
220,268,241452,6,0,L|432:284,1,207.999990478516,6|8,0:0|0:0,0:0:0:0:
475,355,241899,1,2,0:0:0:0:
496,331,241988,1,2,0:0:0:0:
509,302,242077,1,2,0:0:0:0:
510,270,242166,1,2,0:0:0:0:
500,240,242256,1,2,0:0:0:0:
480,215,242345,1,12,0:0:0:0:
180,96,243595,6,0,L|144:88,2,34.6666650797527,2|2|2,0:0|0:0|0:0,0:0:0:0:
156,180,243774,1,12,0:0:0:0:
400,92,243952,1,2,0:0:0:0:
132,192,244309,6,0,B|192:184|192:184|228:212|228:212|272:192|336:220,1,207.999990478516,6|8,0:0|0:0,0:0:0:0:
375,313,244756,1,2,0:0:0:0:
409,290,244845,1,2,0:0:0:0:
431,255,244934,1,2,0:0:0:0:
436,214,245023,1,2,0:0:0:0:
425,174,245113,1,2,0:0:0:0:
398,143,245202,6,0,B|352:112|352:112|312:136|312:136|280:112|212:128,1,180.000006866455,12|0,0:0|2:0,0:0:0:0:
398,143,246631,5,12,0:0:0:0:
140,160,246809,1,2,0:0:0:0:
120,168,247166,6,0,B|224:128|224:220|332:160,1,207.999990478516,6|8,0:0|0:0,0:0:0:0:
264,96,247613,1,2,0:0:0:0:
260,137,247702,1,2,0:0:0:0:
257,178,247791,1,2,0:0:0:0:
254,220,247880,1,2,0:0:0:0:
251,261,247970,1,2,0:0:0:0:
248,303,248059,1,12,0:0:0:0:
456,312,248595,6,0,L|504:312,2,34.6666650797527,2|2|2,0:0|0:0|0:0,0:0:0:0:
468,232,248774,2,0,P|480:184|452:124,1,103.999995239258,12|0,0:0|0:0,0:0:0:0:
168,24,249131,2,0,P|149:71|161:121,1,103.999995239258,12|0,0:0|0:0,0:0:0:0:
368,328,249488,1,8,0:0:0:0:
284,48,249666,1,8,0:0:0:0:
80,256,249845,1,8,0:0:0:0:
468,232,250024,6,0,B|416:260|416:260|252:220,1,207.999990478516,6|8,0:0|0:0,0:0:0:0:
188,156,250470,1,2,0:0:0:0:
219,129,250559,1,2,0:0:0:0:
259,117,250648,1,2,0:0:0:0:
300,120,250737,1,2,0:0:0:0:
337,139,250827,1,2,0:0:0:0:
363,171,250916,6,0,P|300:140|420:148,1,420.000016021729,12|0,0:0|2:0,0:0:0:0:
272,344,252345,5,12,0:0:0:0:
364,92,252524,1,2,0:0:0:0:
364,92,252881,6,0,B|292:80|292:80|232:112|232:112|152:96,1,207.999990478516,6|8,0:0|0:0,0:0:0:0:
220,20,253327,1,2,0:0:0:0:
223,61,253416,1,2,0:0:0:0:
227,102,253505,1,2,0:0:0:0:
231,144,253594,1,2,0:0:0:0:
235,185,253684,1,2,0:0:0:0:
238,227,253774,2,0,L|188:220,7,30.0000011444092,12|2|2|2|2|2|2|2,0:0|2:0|2:0|2:0|2:0|2:0|2:0|2:0,0:0:0:0:
320,272,254488,6,2,B|336:224|336:224|324:188|324:188|344:148|324:96,1,180.000006866455,2|0,2:0|2:0,1:0:0:0:
72,160,255202,5,12,0:0:0:0:
248,352,255381,1,2,0:0:0:0:
256,364,255738,6,0,L|240:144,1,207.999990478516,6|8,0:0|0:0,0:0:0:0:
208,56,256184,1,2,0:0:0:0:
172,35,256273,1,2,0:0:0:0:
131,33,256362,1,2,0:0:0:0:
94,50,256451,1,2,0:0:0:0:
69,83,256541,1,2,0:0:0:0:
63,124,256631,6,0,B|64:152|56:176|56:176|120:184|148:232|148:232|124:280|64:264,1,240.000009155274,12|0,0:0|2:0,0:0:0:0:
63,124,257881,6,0,L|11:124,2,34.6666650797527,2|2|2,0:0|0:0|0:0,0:0:0:0:
104,200,258059,1,12,0:0:0:0:
332,76,258238,1,2,0:0:0:0:
356,52,258595,6,0,B|348:128|348:128|376:168|376:168|360:268,1,207.999990478516,6|8,0:0|0:0,0:0:0:0:
280,312,259041,1,2,0:0:0:0:
241,327,259130,1,2,0:0:0:0:
200,324,259219,1,2,0:0:0:0:
165,303,259308,1,2,0:0:0:0:
143,268,259398,1,2,0:0:0:0:
139,227,259487,1,12,0:0:0:0:
212,48,260024,6,0,L|216:84,2,34.6666650797527,2|2|2,0:0|0:0|0:0,0:0:0:0:
260,148,260202,2,0,P|212:160|152:124,1,103.999995239258,12|0,0:0|2:0,0:0:0:0:
408,36,260559,2,0,P|454:14|504:26,1,103.999995239258,8|0,0:0|2:0,0:0:0:0:
140,72,260916,1,8,0:0:0:0:
448,132,261095,1,8,0:0:0:0:
120,72,261274,1,8,0:0:0:0:
380,324,261452,6,0,L|372:148,1,155.999992858887,6|0,0:0|2:0,0:0:0:0:
348,80,261809,1,8,0:0:0:0:
176,236,261988,2,0,L|227:228,1,51.999997619629,8|8,0:0|0:0,0:0:0:0:
216,16,262166,2,0,L|135:25,1,51.999997619629,8|8,0:0|1:0,0:0:0:0:
296,260,262345,1,12,0:0:0:0:
