osu file format v14

[General]
AudioFilename: audio.mp3
AudioLeadIn: 0
PreviewTime: 44753
Countdown: 0
SampleSet: None
StackLeniency: 0.4
Mode: 0
LetterboxInBreaks: 0
WidescreenStoryboard: 1

[Editor]
DistanceSpacing: 1.2
BeatDivisor: 2
GridSize: 4
TimelineZoom: 3.599999

[Metadata]
Title:One For The Money
TitleUnicode:One For The Money
Artist:Escape the Fate
ArtistUnicode:Escape the Fate
Creator:Pandize
Version:Normal
Source:
Tags:
BeatmapID:1682244
BeatmapSetID:794012

[Difficulty]
HPDrainRate:2
CircleSize:2.5
OverallDifficulty:2
ApproachRate:4
SliderMultiplier:0.899999999999999
SliderTickRate:1

[Events]
//Background and Video events
0,0,"IMG_364041.jpg",0,0
//Break Periods
//Storyboard Layer 0 (Background)
//Storyboard Layer 1 (Fail)
//Storyboard Layer 2 (Pass)
//Storyboard Layer 3 (Foreground)
//Storyboard Sound Samples

[TimingPoints]
2754,333.333333333333,4,1,1,100,1,0
45420,-100,4,1,1,85,0,1
66753,-100,4,1,1,85,0,0
88087,-100,4,1,1,85,0,1
101420,-100,4,1,1,85,0,0

[Colours]
Combo1 : 100,100,100
Combo2 : 255,223,0
Combo3 : 192,192,192
Combo4 : 255,0,0
SliderTrackOverride : 70,10,10
SliderBorder : 220,220,220

[HitObjects]
217,63,45420,6,0,L|333:61,1,89.9999999999999,2|2,0:3|0:3,0:0:0:0:
396,0,46087,2,0,P|367:82|393:189,1,180,8|2,0:0|0:3,0:0:0:0:
461,246,47087,1,2,0:3:0:0:
452,299,47253,1,0,0:0:0:0:
438,351,47420,2,0,P|357:335|282:348,1,135,8|0,0:0|0:0,0:0:0:0:
258,366,48087,6,0,L|260:249,1,89.9999999999999,2|2,0:3|0:3,0:0:0:0:
321,187,48753,2,0,P|239:216|132:190,2,180,8|2|8,0:0|0:3|0:0,0:0:0:0:
373,92,50420,1,0,0:0:0:0:
431,182,50753,6,0,L|429:298,1,89.9999999999999,2|2,0:3|0:3,0:0:0:0:
507,347,51420,2,0,P|425:318|318:344,1,180,8|2,0:0|0:3,0:0:0:0:
232,368,52420,1,2,0:3:0:0:
247,261,52753,2,0,L|250:209,1,45
210,178,53087,2,0,L|207:126,1,45
237,87,53420,6,0,P|189:95|122:79,2,89.9999999999999,2|2|8,0:3|0:3|0:0,0:0:0:0:
336,45,54420,2,0,L|339:97,1,45
320,140,54753,2,0,P|368:132|435:148,2,89.9999999999999,2|2|8,0:3|0:3|0:0,0:0:0:0:
144,267,56087,6,0,L|142:151,1,89.9999999999999,2|2,0:3|0:3,0:0:0:0:
60,106,56753,2,0,P|142:135|249:109,1,180,8|2,0:0|0:3,0:0:0:0:
327,67,57753,1,2,0:3:0:0:
380,68,57919,1,0,0:0:0:0:
434,69,58086,2,0,P|418:150|431:225,1,135,8|0,0:0|0:0,0:0:0:0:
461,240,58753,6,0,L|345:238,1,89.9999999999999,2|2,0:3|0:3,0:0:0:0:
282,300,59419,2,0,P|311:218|285:111,2,180,8|2|8,0:0|0:3|0:0,0:0:0:0:
201,372,61087,1,0,0:0:0:0:
182,265,61420,6,0,L|67:268,1,89.9999999999999,2|2,0:3|0:3,0:0:0:0:
9,337,62086,2,0,P|48:260|38:150,1,180,8|2,0:0|0:3,0:0:0:0:
8,66,63086,1,2,0:3:0:0:
114,85,63420,2,0,L|172:84,1,45
199,48,63753,2,0,L|257:49,1,45
294,28,64087,6,0,P|286:76|302:143,2,89.9999999999999,2|2|8,0:3|0:3|0:0,0:0:0:0:
390,77,65087,2,0,L|448:78,1,45
475,41,65421,2,0,P|467:89|483:156,2,89.9999999999999,2|2|8,0:3|0:3|0:0,0:0:0:0:
484,239,66753,5,6,0:3:0:0:
389,238,67087,1,6,0:3:0:0:
294,236,67420,2,0,P|313:183|345:153,1,89.9999999999999
380,142,67920,2,0,P|361:89|329:59,1,89.9999999999999
290,66,68420,6,0,L|284:-2,2,45
214,123,69087,1,0,0:0:0:0:
126,87,69420,5,2,0:3:0:0:
136,181,69754,1,6,0:3:0:0:
145,274,70087,1,8,0:0:0:0:
216,212,70420,6,0,L|266:214,1,45
297,243,70753,2,0,L|347:241,1,45
382,266,71087,2,0,P|377:214|386:165,1,89.9999999999999,2|8,0:3|0:0,0:0:0:0:
424,87,71753,2,0,L|374:89,1,45
336,62,72087,5,6,0:3:0:0:
237,74,72421,1,6,0:3:0:0:
139,89,72753,2,0,P|151:131|180:165,1,89.9999999999999
223,190,73253,2,0,P|204:243|172:273,1,89.9999999999999
136,287,73753,6,0,L|130:355,2,45,0|0|8,0:0|0:0|0:0,0:0:0:0:
93,197,74421,1,0,0:0:0:0:
0,162,74754,5,2,0:3:0:0:
14,260,75088,1,6,0:3:0:0:
22,358,75421,1,8,0:0:0:0:
104,303,75754,6,0,L|154:305,1,45
183,340,76087,2,0,L|233:338,1,45,0|0,2:0|2:0,2:0:0:0:
267,368,76420,2,0,P|262:316|271:267,1,89.9999999999999,0|0,2:3|2:0,2:0:0:0:
436,146,77420,6,0,P|444:188|421:247,1,89.9999999999999,6|2,0:3|0:3,0:0:0:0:
348,302,78087,2,0,P|303:305|262:288,1,89.9999999999999,8|0,0:0|0:3,0:0:0:0:
225,248,78587,2,0,L|228:361,2,89.9999999999999,2|2|2,0:3|0:3|0:3,0:0:0:0:
184,212,79420,2,0,L|186:153,2,45,8|0|0,0:0|0:0|0:0,0:0:0:0:
124,302,80087,6,0,P|81:309|22:286,1,89.9999999999999,2|2,0:3|0:3,0:0:0:0:
1,194,80754,2,0,P|46:190|87:207,1,89.9999999999999,8|0,0:0|0:3,0:0:0:0:
132,234,81253,2,0,L|127:111,1,89.9999999999999,2|2,0:3|0:3,0:0:0:0:
89,106,81753,1,2,0:3:0:0:
189,65,82087,1,8,0:0:0:0:
242,68,82253,1,2,0:3:0:0:
295,71,82420,1,2,0:3:0:0:
397,36,82753,6,0,P|390:79|412:138,1,89.9999999999999,2|2,0:3|0:3,0:0:0:0:
454,217,83420,2,0,P|411:229|367:222,1,89.9999999999999,8|2,0:0|0:3,0:0:0:0:
335,178,83920,2,0,L|335:278,2,89.9999999999999,2|2|2,0:3|0:3|0:3,0:0:0:0:
361,130,84753,2,0,L|363:82,1,45,8|0,0:0|0:0,0:0:0:0:
331,40,85087,1,2,0:3:0:0:
265,125,85420,6,0,P|222:132|163:109,1,89.9999999999999,2|2,0:3|0:3,0:0:0:0:
154,13,86087,2,0,P|111:6|52:28,1,89.9999999999999,8|2,0:0|0:3,0:0:0:0:
33,60,86587,2,0,L|36:181,1,89.9999999999999,2|0,0:3|0:0,0:0:0:0:
65,194,87087,2,0,L|67:256,1,45
100,280,87420,5,8,0:0:0:0:
152,267,87587,1,8,0:0:0:0:
205,273,87753,1,8,0:0:0:0:
257,261,87920,1,8,0:0:0:0:
310,269,88087,6,0,B|301:223|301:223|312:149,1,89.9999999999999,2|2,0:3|0:3,0:0:0:0:
408,142,88753,2,0,B|414:184|414:184|405:230,1,89.9999999999999,8|2,0:0|0:3,0:0:0:0:
393,283,89253,2,0,B|435:276|435:276|481:285,2,89.9999999999999,2|2|2,0:3|0:3|0:3,0:0:0:0:
354,321,90087,2,0,L|303:319,1,45,8|0,0:0|0:0,0:0:0:0:
268,283,90420,1,2,0:3:0:0:
160,281,90753,6,0,B|169:235|169:235|158:161,1,89.9999999999999,2|2,0:3|0:3,0:0:0:0:
73,131,91420,2,0,B|64:177|64:177|75:251,1,89.9999999999999,8|2,0:0|0:3,0:0:0:0:
28,253,91920,2,0,B|44:352,1,89.9999999999999,2|2,0:3|0:3,0:0:0:0:
87,371,92420,1,2,0:3:0:0:
216,357,92753,1,8,0:0:0:0:
208,303,92920,1,2,0:3:0:0:
198,249,93087,1,2,0:3:0:0:
146,154,93420,6,0,B|192:145|192:145|266:156,1,89.9999999999999,2|2,0:3|0:3,0:0:0:0:
305,232,94087,2,0,B|351:241|351:241|425:230,1,89.9999999999999,8|2,0:0|0:3,0:0:0:0:
437,203,94587,2,0,B|428:249|428:249|439:323,2,89.9999999999999,2|2|2,0:3|0:3|0:3,0:0:0:0:
469,159,95420,2,0,L|397:155,1,45,8|0,0:0|0:0,0:0:0:0:
385,118,95753,1,2,0:3:0:0:
280,144,96087,6,0,B|289:98|289:98|278:24,1,89.9999999999999,2|2,0:3|0:3,0:0:0:0:
178,27,96754,2,0,B|169:73|169:73|180:147,1,89.9999999999999,8|2,0:0|0:3,0:0:0:0:
128,143,97254,2,0,B|144:242,1,89.9999999999999,2|2,0:3|0:3,0:0:0:0:
118,280,97754,1,2,0:3:0:0:
223,259,98087,1,8,0:0:0:0:
271,282,98253,1,8,0:0:0:0:
322,265,98420,1,8,0:0:0:0:
372,284,98587,1,8,0:0:0:0:
423,267,98753,6,0,B|418:207,1,45,2|0,0:3|0:0,0:0:0:0:
460,186,99087,2,0,B|455:126,1,45,2|0,0:3|0:0,0:0:0:0:
425,96,99420,2,0,B|365:101,1,45,2|0,0:3|0:0,0:0:0:0:
345,141,99754,2,0,B|285:146,1,45,2|0,0:3|0:0,0:0:0:0:
249,164,100087,6,0,L|247:100,2,45,2|2|2,0:3|0:3|0:3,0:3:0:0:
193,256,100753,1,8,0:0:0:0:
241,279,100920,1,8,0:0:0:0:
293,267,101087,1,8,0:0:0:0:
341,290,101253,1,8,0:0:0:0:
393,277,101420,5,0,0:0:0:0:
