osu file format v14

[General]
AudioFilename: audio.mp3
AudioLeadIn: 0
PreviewTime: 35585
Countdown: 0
SampleSet: Soft
StackLeniency: 0.6
Mode: 0
LetterboxInBreaks: 0
WidescreenStoryboard: 1

[Editor]
DistanceSpacing: 1.4
BeatDivisor: 4
GridSize: 32
TimelineZoom: 2.5

[Metadata]
Title:Forget About Me (Cut Ver.)
TitleUnicode:Forget About Me (Cut Ver.)
Artist:Escape The Fate
ArtistUnicode:Escape The Fate
Creator:paperoni17
Version:Shakumiro's Insane
Source:
Tags:rock post-hardcore post hardcore hard rock metalcore screamo emo heavy metal english Ungrateful Eleven Seven shakumiro snowowy synaelle akane-_
BeatmapID:2944126
BeatmapSetID:1429757

[Difficulty]
HPDrainRate:5
CircleSize:4
OverallDifficulty:7.8
ApproachRate:9
SliderMultiplier:1.7
SliderTickRate:1

[Events]
//Background and Video events
0,0,"bg.jpg",0,0
//Break Periods
//Storyboard Layer 0 (Background)
//Storyboard Layer 1 (Fail)
//Storyboard Layer 2 (Pass)
//Storyboard Layer 3 (Foreground)
//Storyboard Layer 4 (Overlay)
//Storyboard Sound Samples

[TimingPoints]
224,315.789473684211,4,2,1,60,1,0
224,-105.263157894737,4,2,1,60,0,0
10645,-105.263157894737,4,2,1,5,0,0
12224,-200,4,2,1,50,0,0
12618,-200,4,2,1,5,0,0
12697,-125,4,2,1,50,0,0
30539,-125,4,2,1,50,0,0
35513,-125,4,2,1,5,0,0
35592,-95.2380952380952,4,2,1,70,0,0
45697,-86.9565217391304,4,2,1,70,0,0
54539,-86.9565217391304,4,2,1,60,0,0
55802,-90.9090909090909,4,2,1,75,0,0
56434,-90.9090909090909,4,2,1,75,0,0
60855,-95.2380952380952,4,2,1,75,0,0
64329,-95.2380952380952,4,2,1,70,0,0
66066,-153.846153846155,4,2,1,70,0,0

[Colours]
Combo1 : 255,0,0
Combo2 : 192,192,192
Combo3 : 157,9,31
Combo4 : 124,124,124
SliderBorder : 180,100,100

[HitObjects]
331,118,224,5,2,3:2:0:0:
434,27,381,1,2,3:2:0:0:
396,164,539,1,10,1:2:0:0:
323,31,697,2,0,B|271:21|256:61|255:62|254:64|239:119|164:107,1,161.499995687485,2|2,2:0|3:2,0:0:0:0:
101,53,1171,5,10,1:2:0:0:
171,173,1329,2,0,B|131:188|131:188|106:327,1,161.499995687485,2|2,3:2|3:2,0:0:0:0:
49,384,1802,2,0,P|37:333|26:297,1,80.7499978437424,10|2,1:2|2:0,0:0:0:0:
62,186,2118,1,2,3:2:0:0:
139,293,2276,1,2,3:2:0:0:
196,176,2434,2,0,P|240:157|287:149,1,80.7499978437424,10|2,1:2|2:0,0:0:0:0:
457,316,2750,5,2,3:2:0:0:
413,163,2908,1,2,3:2:0:0:
512,247,3066,1,8,1:2:0:0:
341,256,3224,2,0,B|294:243|256:307|288:288|273:358|189:347,1,161.499995687485,2|0,0:0|0:0,0:0:0:0:
162,303,3697,5,10,1:2:0:0:
255,197,3855,2,0,P|310:210|426:228,1,161.499995687485,2|2,3:2|3:2,0:0:0:0:
465,350,4329,1,10,1:2:0:0:
334,271,4487,1,2,3:2:0:0:
456,184,4645,2,0,P|444:240|438:280,1,80.7499978437424,2|2,3:2|3:2,0:0:0:0:
309,176,4960,2,0,P|321:232|327:272,1,80.7499978437424,10|2,1:2|2:0,0:0:0:0:
422,158,5276,5,2,3:2:0:0:
278,101,5434,1,2,3:2:0:0:
440,57,5592,1,8,1:2:0:0:
309,176,5750,2,0,B|257:166|242:206|241:207|240:209|225:264|150:252,1,161.499995687485,2|2,2:0|3:2,0:0:0:0:
91,172,6224,5,10,1:2:0:0:
232,180,6381,2,0,B|272:195|272:195|297:334,1,161.499995687485,2|2,3:2|3:2,0:0:0:0:
355,380,6855,2,0,P|369:332|385:294,1,80.7499978437424,10|2,1:2|2:0,0:0:0:0:
471,195,7171,1,2,3:2:0:0:
498,292,7329,1,2,3:2:0:0:
357,215,7487,2,0,P|306:214|272:254,1,80.7499978437424,10|0,1:2|2:0,0:0:0:0:
164,358,7802,6,0,P|127:339|68:324,1,80.7499978437424,2|0,3:0|0:0,0:0:0:0:
0,271,8118,2,0,P|37:252|96:237,1,80.7499978437424,10|0,1:3|3:2,0:0:0:0:
149,107,8434,6,0,P|131:163|126:207,1,80.7499978437424,2|0,3:0|3:2,0:0:0:0:
44,94,8750,2,0,P|36:54|22:16,1,80.7499978437424,10|0,1:3|3:2,0:0:0:0:
149,107,9066,5,10,1:2:0:0:
22,181,9224,1,10,0:0:0:0:
149,107,9381,1,2,3:2:0:0:
203,250,9539,5,10,0:0:0:0:
60,115,9855,5,10,1:2:0:0:
303,73,10171,5,6,0:2:0:0:
327,275,12224,6,0,P|293:275|261:327,1,85,2|0,2:3|0:0,0:0:0:0:
74,377,12697,6,0,B|114:384|125:350|126:349|127:348|143:311|187:316,1,136,4|0,3:2|3:2,0:0:0:0:
32,276,13171,2,0,P|15:323|9:358,1,68,10|0,2:0|2:0,0:0:0:0:
98,200,13487,2,0,P|115:247|121:282,1,68,2|0,3:2|3:2,0:0:0:0:
187,317,13802,2,0,P|170:364|164:399,1,68,10|0,2:0|3:2,0:0:0:0:
269,246,14118,6,0,P|306:260|345:265,1,68,2|0,3:2|2:2,0:0:0:0:
281,105,14434,2,0,P|250:130|226:161,1,68,10|0,2:0|2:0,0:0:0:0:
444,45,14750,2,0,P|407:31|368:26,1,68,2|0,3:2|2:2,0:0:0:0:
432,186,15066,2,0,P|463:161|487:130,1,68,10|0,2:0|2:2,0:0:0:0:
380,27,15381,6,0,P|362:81|357:119,1,68,0|0,3:2|3:2,0:0:0:0:
331,217,15697,2,0,P|364:200|417:190,1,68,10|0,2:0|2:2,0:0:0:0:
241,84,16013,2,0,P|239:121|221:171,1,68,2|2,2:2|3:2,0:0:0:0:
359,91,16329,1,10,2:0:0:0:
359,91,16487,1,2,2:2:0:0:
266,0,16645,6,0,P|213:16|183:19,1,68,2|0,3:2|0:0,0:0:0:0:
359,91,16960,2,0,P|412:107|442:110,1,68,10|0,2:0|2:2,0:0:0:0:
231,150,17276,2,0,P|178:166|148:169,1,68,2|0,3:2|3:2,0:0:0:0:
324,244,17592,2,0,P|364:256|409:261,1,68,10|0,2:0|2:2,0:0:0:0:
187,317,17908,6,0,P|202:279|210:236,1,68,0|0,3:2|3:2,0:0:0:0:
93,360,18224,1,10,2:0:0:0:
93,360,18381,1,2,3:2:0:0:
20,273,18539,2,0,P|5:235|-3:192,1,68,2|0,2:2|3:2,0:0:0:0:
123,134,18855,2,0,P|115:167|102:198,1,68,10|0,2:0|2:2,0:0:0:0:
12,45,19171,6,0,P|52:57|101:60,1,68,2|0,3:2|0:0,0:0:0:0:
123,134,19487,2,0,P|163:122|212:119,1,68,10|0,2:0|2:2,0:0:0:0:
288,15,19802,2,0,P|272:62|272:95,1,68,2|0,3:2|3:2,0:0:0:0:
311,167,20118,2,0,P|327:214|327:247,1,68,14|0,1:2|0:0,0:0:0:0:
264,342,20434,5,4,3:2:0:0:
264,342,20592,1,0,0:0:0:0:
369,295,20750,1,8,2:0:0:0:
369,295,20908,1,0,3:2:0:0:
241,241,21066,2,0,B|197:235|181:268|180:270|179:273|170:308|115:306,1,136,2|8,2:0|2:0,0:0:0:0:
29,223,21539,1,0,2:0:0:0:
86,168,21697,2,0,P|71:227|58:319,1,136,2|8,3:2|2:0,0:0:0:0:
150,375,22171,1,2,2:0:0:0:
204,320,22329,2,0,B|248:314|264:347|265:349|266:352|275:387|330:385,1,136,2|8,3:2|2:0,0:0:0:0:
403,290,22802,1,2,2:0:0:0:
403,290,22960,6,0,P|387:242|383:194,1,68,2|0,3:2|0:0,0:0:0:0:
394,135,23276,1,10,2:0:0:0:
315,255,23434,2,0,B|271:249|255:282|254:284|253:287|244:322|189:320,1,136,2|0,3:2|3:2,0:0:0:0:
116,244,23908,1,10,2:0:0:0:
179,196,24066,2,0,P|134:161|158:93,1,136,2|0,2:0|3:2,0:0:0:0:
253,124,24539,1,10,2:0:0:0:
317,81,24697,2,0,P|300:154|295:237,1,136,2|0,2:0|3:2,0:0:0:0:
232,312,25171,1,10,2:0:0:0:
232,312,25329,1,0,2:0:0:0:
317,237,25487,5,2,3:2:0:0:
317,237,25645,1,0,3:2:0:0:
405,352,25802,2,0,P|391:313|385:267,1,68,10|2,2:0|2:0,0:0:0:0:
475,228,26118,2,0,P|489:189|495:143,1,68,2|2,2:0|3:2,0:0:0:0:
415,98,26434,2,0,P|401:59|395:13,1,68,10|2,2:0|2:0,0:0:0:0:
324,153,26750,5,2,3:2:0:0:
324,153,26908,2,0,P|310:203|301:242,1,68,0|8,3:0|2:0,0:0:0:0:
342,312,27224,1,2,2:0:0:0:
342,312,27381,2,0,P|369:282|409:275,2,68,2|0|8,3:2|0:0|2:0,0:0:0:0:
145,316,27855,5,2,2:0:0:0:
145,316,28013,2,0,P|154:276|156:240,1,68,2|2,3:2|3:2,0:0:0:0:
232,189,28329,2,0,P|223:149|221:113,1,68,10|2,2:0|3:2,0:0:0:0:
140,73,28645,2,0,P|149:33|151:-3,1,68,2|2,2:0|3:2,0:0:0:0:
53,151,28960,1,10,2:0:0:0:
53,151,29118,1,2,2:0:0:0:
147,208,29276,6,0,P|175:190|231:194,1,68,2|0,2:0|3:2,0:0:0:0:
94,309,29592,2,0,P|60:305|32:287,1,68,10|0,2:0|2:0,0:0:0:0:
201,326,29908,1,2,3:2:0:0:
201,326,30066,1,2,3:2:0:0:
289,227,30224,2,0,P|271:285|265:320,1,68,14|0,1:3|0:0,0:0:0:0:
174,131,30539,5,4,3:2:0:0:
174,131,30855,1,10,1:3:0:0:
174,131,31487,1,10,1:3:0:0:
174,131,32118,1,10,1:3:0:0:
304,24,32592,5,0,3:2:0:0:
267,97,32750,2,0,P|277:138|282:187,1,68,12|0,1:2|3:2,0:0:0:0:
396,278,33066,5,4,3:2:0:0:
396,278,33381,1,10,0:0:0:0:
396,278,34013,1,14,0:0:0:0:
455,246,35592,6,0,B|439:232|394:234|382:276|381:277|380:278|369:323|308:323|292:302,1,178.499994552612,6|8,3:2|0:0,0:0:0:0:
210,353,36066,1,0,0:0:0:0:
210,353,36224,2,0,P|232:293|244:170,1,178.499994552612,2|8,3:2|0:0,0:0:0:0:
313,109,36697,1,0,0:0:0:0:
313,109,36855,2,0,B|329:95|374:97|386:139|387:140|388:141|399:186|460:186|476:165,1,178.499994552612,2|8,3:2|1:2,0:0:0:0:
345,19,37329,2,0,P|288:-3|237:89,1,178.499994552612,2|0,3:2|3:2,0:0:0:0:
313,109,37802,2,0,P|328:165|331:211,1,89.2499972763062,10|0,1:2|2:0,0:0:0:0:
296,277,38118,6,0,P|281:333|278:379,1,89.2499972763062,6|0,3:2|0:0,0:0:0:0:
244,179,38434,2,0,B|199:151|172:185|171:186|170:186|144:241|82:221,2,178.499994552612,10|2|10,1:2|3:2|1:2,0:0:0:0:
296,277,39224,1,0,2:0:0:0:
296,277,39381,2,0,P|342:254|395:242,1,89.2499972763062,2|0,3:2|0:0,0:0:0:0:
507,171,39697,2,0,P|461:148|408:136,1,89.2499972763062,10|0,1:2|3:2,0:0:0:0:
273,88,40013,2,0,P|319:65|372:53,1,89.2499972763062,2|0,2:0|0:0,0:0:0:0:
502,32,40329,2,0,P|456:9|403:-3,1,89.2499972763062,10|0,1:2|2:0,0:0:0:0:
268,73,40645,6,0,B|252:59|207:61|195:103|194:104|193:105|182:150|121:150|105:129,1,178.499994552612,6|8,3:2|1:2,0:0:0:0:
36,54,41118,1,0,2:0:0:0:
36,54,41276,2,0,P|63:141|73:241,1,178.499994552612,2|8,3:2|1:2,0:0:0:0:
14,320,41750,1,0,2:0:0:0:
14,320,41908,2,0,B|30:306|75:308|87:350|88:351|89:352|100:397|161:397|177:376,1,178.499994552612,2|8,3:2|1:2,0:0:0:0:
255,321,42381,2,0,P|280:256|385:298,1,178.499994552612,2|0,3:2|3:2,0:0:0:0:
435,341,42855,5,10,1:2:0:0:
454,325,43013,1,0,3:2:0:0:
502,218,43171,5,12,3:2:0:0:
418,182,43329,1,0,3:2:0:0:
458,41,43487,5,14,1:2:0:0:
360,117,43645,1,0,3:2:0:0:
436,111,43802,5,14,1:2:0:0:
280,91,43960,1,0,3:2:0:0:
338,35,44118,5,14,1:2:0:0:
171,139,44276,1,0,3:2:0:0:
97,112,44434,6,0,P|80:154|77:184,3,44.6249986381531,10|8|8|8,1:2|1:2|1:2|1:2,0:0:0:0:
108,175,44750,6,0,P|125:217|128:247,3,44.6249986381531,0|0|0|0,1:2|1:2|1:0|1:0,0:0:0:0:
160,278,45066,5,8,1:2:0:0:
46,245,45224,1,0,3:2:0:0:
181,254,45381,5,8,1:2:0:0:
64,274,45539,1,0,3:2:0:0:
214,351,45697,6,0,P|265:331|311:324,1,97.7500018644333,14|0,1:2|0:0,0:0:0:0:
418,266,46013,2,0,P|367:246|321:239,1,97.7500018644333,8|0,1:2|3:2,0:0:0:0:
218,141,46329,5,10,1:2:0:0:
247,248,46487,1,0,3:2:0:0:
328,119,46645,5,8,1:2:0:0:
142,120,46802,1,0,3:2:0:0:
33,10,46960,6,0,P|54:65|59:111,1,97.7500018644333,10|0,1:2|0:0,0:0:0:0:
25,192,47276,2,0,P|4:247|-1:293,1,97.7500018644333,8|2,1:2|3:2,0:0:0:0:
173,340,47592,5,8,1:2:0:0:
109,227,47750,1,0,3:2:0:0:
46,359,47908,5,10,1:2:0:0:
198,247,48066,1,0,0:0:0:0:
85,132,48224,6,0,P|102:185|109:235,1,97.7500018644333,12|0,1:2|0:0,0:0:0:0:
225,52,48539,2,0,P|208:105|201:155,1,97.7500018644333,10|0,1:2|3:2,0:0:0:0:
362,228,48855,5,10,1:2:0:0:
308,116,49013,1,0,3:2:0:0:
240,250,49171,5,10,1:2:0:0:
391,152,49329,1,0,3:2:0:0:
391,152,49408,1,2,3:2:0:0:
391,152,49487,5,10,1:2:0:0:
434,346,49645,1,0,1:2:0:0:
322,225,49802,1,10,1:2:0:0:
322,225,49881,1,10,1:2:0:0:
322,225,49960,5,10,1:2:0:0:
491,198,50118,1,10,1:2:0:0:
491,198,50276,1,0,3:2:0:0:
346,384,50434,1,10,1:2:0:0:
396,269,50592,1,0,3:2:0:0:
202,244,50750,6,0,P|232:323|234:353,1,97.7500018644333,14|0,3:2|0:0,0:0:0:0:
337,169,51066,2,0,P|307:248|305:278,1,97.7500018644333,8|0,1:2|3:2,0:0:0:0:
494,339,51381,5,14,3:2:0:0:
443,212,51539,1,0,3:2:0:0:
371,352,51697,5,8,1:2:0:0:
510,262,51855,1,0,3:2:0:0:
337,169,52013,6,0,P|286:143|233:189,1,97.7500018644333,14|0,1:2|0:0,0:0:0:0:
443,212,52329,2,0,P|491:180|477:111,1,97.7500018644333,14|0,1:2|0:0,0:0:0:0:
320,74,52645,6,0,P|264:92|216:101,1,97.7500018644333,14|0,1:2|3:2,0:0:0:0:
150,190,52960,2,0,P|94:172|46:163,1,97.7500018644333,10|0,1:2|3:2,0:0:0:0:
136,30,53276,6,0,P|203:48|243:54,1,97.7500018644333,14|0,1:2|1:2,0:0:0:0:
443,169,53592,1,10,1:2:0:0:
335,21,53750,1,10,1:2:0:0:
264,258,53908,1,14,1:2:0:0:
368,140,54066,1,10,1:2:0:0:
206,174,54224,1,10,1:2:0:0:
364,286,54381,1,10,1:2:0:0:
208,146,54539,1,14,0:0:0:0:
39,316,55802,5,6,3:2:0:0:
109,235,55960,2,0,B|135:214|170:218|195:250|196:251|197:252|217:299|262:291|297:262,1,187.000005706787,2|0,3:2|0:0,0:0:0:0:
297,199,56434,1,10,1:2:0:0:
297,199,56513,1,2,1:2:0:0:
297,199,56592,1,2,1:2:0:0:
297,199,57224,5,2,3:2:0:0:
157,146,57382,1,2,3:2:0:0:
299,79,57539,1,2,3:2:0:0:
186,220,57697,1,10,1:2:0:0:
126,71,57855,1,2,3:2:0:0:
126,71,58171,1,2,3:2:0:0:
126,71,58487,5,2,3:2:0:0:
67,127,58645,1,2,3:2:0:0:
72,137,58724,1,2,3:2:0:0:
77,149,58802,1,2,3:2:0:0:
135,226,58960,1,10,3:2:0:0:
130,236,59039,1,2,3:2:0:0:
125,248,59117,1,2,3:2:0:0:
39,316,59592,5,2,2:0:0:0:
39,316,59750,1,2,2:0:0:0:
129,273,60066,5,0,0:0:0:0:
129,273,60224,1,10,1:2:0:0:
222,342,60539,5,2,2:0:0:0:
222,342,60855,5,2,3:2:0:0:
296,293,61013,2,0,P|272:352|267:382,2,89.2499972763062,2|0|0,3:2|3:2|3:2,0:0:0:0:
366,249,61487,1,10,3:2:0:0:
366,249,61566,1,2,3:2:0:0:
366,249,61645,2,0,P|361:204|344:163,1,89.2499972763062,2|2,3:2|3:2,0:0:0:0:
289,109,61960,2,0,P|293:64|310:23,1,89.2499972763062,0|0,3:2|2:0,0:0:0:0:
418,22,62276,5,2,3:2:0:0:
365,94,62434,1,2,3:2:0:0:
237,24,62592,1,2,3:2:0:0:
131,159,62750,1,0,1:2:0:0:
207,107,62908,2,0,P|194:156|188:207,1,89.2499972763062,2|0,3:2|3:2,0:0:0:0:
244,279,63224,2,0,P|257:328|263:379,1,89.2499972763062,2|0,3:2|3:2,0:0:0:0:
344,192,63539,1,2,3:2:0:0:
344,192,63697,6,0,P|331:241|325:292,1,89.2499972763062,2|2,3:2|3:2,0:0:0:0:
262,366,64013,1,10,1:2:0:0:
262,366,64092,1,2,3:2:0:0:
262,366,64171,1,2,3:2:0:0:
142,226,64329,1,2,3:2:0:0:
242,271,64487,1,2,3:2:0:0:
127,237,64645,6,0,B|181:222|197:265|198:265|199:266|203:328|295:303,1,178.499994552612,0|2,3:0|3:2,0:0:0:0:
361,209,65118,1,2,3:2:0:0:
268,129,65276,2,0,P|284:184|295:238,1,89.2499972763062,10|2,1:2|3:2,0:0:0:0:
354,78,65592,1,2,3:2:0:0:
195,164,65750,1,0,3:0:0:0:
91,62,65908,1,10,1:2:0:0:
91,62,66066,6,0,B|131:86|131:86|106:224,1,165.749992412568,6|10,3:2|1:2,0:0:0:0:
110,204,66618,1,10,3:2:0:0:
110,204,66697,1,10,3:2:0:0:
