osu file format v14

[General]
AudioFilename: audio.mp3
AudioLeadIn: 0
PreviewTime: 35585
Countdown: 0
SampleSet: Soft
StackLeniency: 0.3
Mode: 0
LetterboxInBreaks: 0
WidescreenStoryboard: 1

[Editor]
Bookmarks: 217,5111,12217,20111,35585,45690,55795,62111
DistanceSpacing: 0.8
BeatDivisor: 4
GridSize: 4
TimelineZoom: 1.8

[Metadata]
Title:Forget About Me (Cut Ver.)
TitleUnicode:Forget About Me (Cut Ver.)
Artist:Escape The Fate
ArtistUnicode:Escape The Fate
Creator:paperoni17
Version:Collab Another
Source:
Tags:rock post-hardcore post hardcore hard rock metalcore screamo emo heavy metal english Ungrateful Eleven Seven shakumiro snowowy synaelle akane-_
BeatmapID:2945175
BeatmapSetID:1429757

[Difficulty]
HPDrainRate:5.5
CircleSize:3.8
OverallDifficulty:8
ApproachRate:9
SliderMultiplier:1.4
SliderTickRate:1

[Events]
//Background and Video events
0,0,"bg.jpg",0,0
//Break Periods
//Storyboard Layer 0 (Background)
//Storyboard Layer 1 (Fail)
//Storyboard Layer 2 (Pass)
//Storyboard Layer 3 (Foreground)
//Storyboard Layer 4 (Overlay)
//Storyboard Sound Samples

[TimingPoints]
224,315.789473684211,4,2,1,60,1,0
10645,-100,4,2,1,5,0,0
12224,-166.666666666667,4,2,1,50,0,0
12539,-166.666666666667,4,2,1,5,0,0
12618,-166.666666666667,4,2,1,5,0,0
12697,-125,4,2,1,50,0,0
20118,-83.3333333333333,4,2,1,50,0,0
20434,-100,4,2,1,50,0,0
30539,-100,4,2,1,50,0,0
35513,-100,4,2,1,5,0,0
35592,-66.6666666666667,4,2,1,70,0,1
44434,-66.6666666666667,4,2,1,70,0,1
45066,-66.6666666666667,4,2,1,70,0,0
45697,-62.5,4,2,1,70,0,1
45934,-62.5,4,2,1,70,0,1
46013,-71.4285714285714,4,2,1,70,0,1
46960,-62.5,4,2,1,70,0,1
47592,-71.4285714285714,4,2,1,70,0,1
48224,-62.5,4,2,1,70,0,1
48855,-66.6666666666667,4,2,1,70,0,1
50750,-62.5,4,2,1,70,0,1
51381,-66.6666666666667,4,2,1,70,0,1
53908,-66.6666666666667,4,2,1,65,0,1
54539,-62.5,4,2,1,70,0,0
55802,-83.3333333333333,4,2,1,75,0,0
56276,-83.3333333333333,4,2,1,5,0,0
56355,-83.3333333333333,4,2,1,65,0,0
62276,-100,4,2,1,65,0,0
64329,-100,4,2,1,60,0,0
66066,-111.111111111111,4,2,1,60,0,0

[Colours]
Combo1 : 255,0,0
Combo2 : 192,192,192
Combo3 : 157,9,31
Combo4 : 124,124,124
SliderBorder : 180,100,100

[HitObjects]
75,283,224,6,0,L|-16:302,1,70,2|2,3:2|3:2,0:0:0:0:
84,147,539,1,10,1:2:0:0:
195,268,697,2,0,B|249:279|258:306|242:304|263:334|311:342,1,140,2|2,2:0|3:2,0:0:0:0:
408,219,1171,1,10,1:2:0:0:
441,349,1329,2,0,P|447:249|459:186,1,140,2|2,3:2|3:2,0:0:0:0:
353,81,1802,5,10,1:2:0:0:
408,219,1960,1,2,2:0:0:0:
298,151,2118,2,0,P|257:161|218:177,1,70,2|2,3:2|3:2,0:0:0:0:
68,118,2434,2,0,P|114:129|154:133,1,70,10|2,1:2|2:0,0:0:0:0:
221,249,2750,6,0,L|210:332,1,70,2|2,3:2|3:2,0:0:0:0:
324,241,3066,1,8,1:2:0:0:
211,318,3224,2,0,B|164:330|164:330|143:365|143:365|81:376,1,140,2|0,0:0|0:0,0:0:0:0:
0,233,3697,1,10,1:2:0:0:
117,126,3855,6,0,B|87:172|87:172|110:269,1,140,2|2,3:2|3:2,0:0:0:0:
199,167,4329,1,10,1:2:0:0:
128,47,4487,1,2,3:2:0:0:
252,88,4645,2,0,L|335:77,1,70,2|2,3:2|3:2,0:0:0:0:
475,136,4960,2,0,L|394:122,1,70,10|2,1:2|2:0,0:0:0:0:
263,191,5276,6,0,P|237:231|230:267,1,70,2|2,3:2|3:2,0:0:0:0:
295,364,5592,1,8,1:2:0:0:
173,323,5750,2,0,B|138:309|109:316|109:316|84:330|84:330|72:332|30:331,1,140,2|2,2:0|3:2,0:0:0:0:
0,208,6224,1,10,1:2:0:0:
120,141,6381,6,0,B|159:150|185:142|183:135|200:124|236:130|236:130|203:158,1,140,2|2,3:2|3:2,0:0:0:0:
140,225,6855,1,10,1:2:0:0:
171,62,7013,1,2,2:0:0:0:
272,207,7171,2,0,P|318:211|346:202,1,70,2|2,3:2|3:2,0:0:0:0:
478,136,7487,2,0,P|433:131|395:145,1,70,10|0,1:2|2:0,0:0:0:0:
274,206,7802,6,0,B|245:247|265:290|270:277|282:301|261:358,1,140,2|10,3:0|1:3,0:0:0:0:
345,249,8276,1,0,3:2:0:0:
195,312,8435,2,0,P|149:308|108:305,1,70,2|0,3:0|3:2,0:0:0:0:
108,156,8750,1,10,1:3:0:0:
43,331,8908,1,0,3:2:0:0:
0,121,9066,5,10,1:2:0:0:
128,189,9224,2,0,L|205:182,1,70,10|2,0:0|3:2,0:0:0:0:
291,15,9539,6,0,P|240:13|202:36,1,70,10|0,0:0|0:0,0:0:0:0:
350,215,9855,2,0,P|398:209|419:190,1,70,10|0,1:2|3:2,0:0:0:0:
449,39,10171,6,0,B|378:67|378:67|417:207,1,210,6|0,0:2|0:0,0:0:0:0:
51,272,12224,6,0,B|114:277|84:307|148:316,1,104.999996795654,2|0,2:3|0:0,0:0:0:0:
236,312,12697,6,0,B|179:322|172:358|119:369,1,112,4|0,3:2|3:2,0:0:0:0:
25,173,13171,2,0,P|16:132|7:100,1,56,10|0,2:0|2:0,0:0:0:0:
116,234,13487,2,0,P|125:193|134:161,1,56,2|0,3:2|3:2,0:0:0:0:
229,88,13802,2,0,P|235:115|241:142,1,56,10|0,2:0|3:2,0:0:0:0:
313,228,14118,6,0,P|352:248|379:248,1,56,2|0,3:2|3:2,0:0:0:0:
471,168,14434,2,0,P|441:191|432:214,1,56,10|0,2:0|2:0,0:0:0:0:
464,356,14750,2,0,P|470:324|476:297,1,56,2|0,3:2|3:0,0:0:0:0:
364,317,15066,2,0,P|358:285|352:258,1,56,8|0,2:0|2:2,0:0:0:0:
217,268,15381,5,0,3:2:0:0:
206,353,15539,1,0,3:2:0:0:
107,270,15697,2,0,P|98:232|89:204,1,56,10|0,2:0|2:2,0:0:0:0:
177,109,16013,2,0,P|164:152|159:185,1,56,2|2,2:2|3:2,0:0:0:0:
286,228,16329,2,0,P|299:271|304:304,1,56,10|2,2:0|2:2,0:0:0:0:
296,92,16645,6,0,P|333:108|365:109,1,56,2|0,3:2|0:0,0:0:0:0:
472,199,16960,2,0,P|449:203|419:216,1,56,10|0,2:0|2:2,0:0:0:0:
330,349,17276,2,0,P|323:305|313:271,1,56,2|0,3:2|3:2,0:0:0:0:
191,214,17592,2,0,P|180:245|176:276,1,56,10|0,2:0|2:2,0:0:0:0:
116,363,17908,5,0,3:2:0:0:
80,254,18066,1,0,3:2:0:0:
218,356,18224,2,0,P|248:364|285:364,1,56,10|2,2:0|3:2,0:0:0:0:
401,249,18539,2,0,P|390:284|383:318,1,56,2|0,2:2|3:2,0:0:0:0:
269,226,18855,2,0,P|265:196|248:154,1,56,10|0,2:0|2:2,0:0:0:0:
183,24,19171,6,0,B|254:46|218:60|296:87,1,112,2|10,3:2|2:0,0:0:0:0:
423,50,19645,1,0,2:2:0:0:
409,198,19802,2,0,P|376:218|335:219,1,56,2|0,3:2|3:2,0:0:0:0:
262,372,20118,6,0,L|236:214,1,125.999996154785,14|0,1:2|0:0,0:0:0:0:
168,322,20434,5,4,3:2:0:0:
168,322,20592,1,0,0:0:0:0:
325,272,20750,1,8,2:0:0:0:
325,272,20908,1,0,3:2:0:0:
206,384,21066,2,0,P|193:306|174:218,1,140,2|8,2:0|2:0,0:0:0:0:
303,138,21539,1,0,2:0:0:0:
116,158,21697,6,0,B|54:166|54:213|-6:232,1,140,2|8,3:2|2:0,0:0:0:0:
9,132,22171,1,2,2:0:0:0:
116,235,22329,2,0,P|106:294|106:332,1,70,2|0,3:2|0:0,0:0:0:0:
204,236,22645,1,8,2:0:0:0:
177,115,22802,1,2,2:0:0:0:
177,115,22960,6,0,B|233:129|230:165|298:183,1,140,2|10,3:2|2:0,0:0:0:0:
423,291,23434,2,0,P|367:299|334:380,1,140,2|0,3:2|3:2,0:0:0:0:
495,343,23908,1,10,2:0:0:0:
379,211,24066,6,0,P|390:136|410:60,1,140,2|0,2:0|3:2,0:0:0:0:
266,152,24539,1,10,2:0:0:0:
194,54,24697,2,0,B|164:31|127:35|127:35|102:68|55:75,1,140,2|0,2:0|3:2,0:0:0:0:
31,193,25171,2,0,P|49:236|55:278,1,70,10|0,2:0|2:0,0:0:0:0:
159,359,25487,6,0,P|209:363|239:352,1,70,2|0,3:2|3:2,0:0:0:0:
353,228,25802,1,10,2:0:0:0:
189,278,25960,1,2,2:0:0:0:
291,175,26118,1,2,2:0:0:0:
250,341,26276,1,2,3:2:0:0:
106,242,26434,2,0,P|108:193|122:156,1,70,10|2,2:0|2:0,0:0:0:0:
211,50,26750,6,0,P|224:89|234:133,1,70,2|0,3:2|3:0,0:0:0:0:
131,18,27066,1,8,2:0:0:0:
310,73,27224,1,2,2:0:0:0:
222,153,27381,2,0,B|195:163|167:170|167:170|177:202|195:260,1,140,2|8,3:2|2:0,0:0:0:0:
228,373,27855,1,2,2:0:0:0:
350,341,28013,5,2,3:2:0:0:
208,250,28171,1,2,3:2:0:0:
417,293,28329,1,10,2:0:0:0:
239,341,28486,1,2,3:2:0:0:
343,184,28645,2,0,L|352:284,1,70,2|2,2:0|3:2,0:0:0:0:
421,107,28960,1,10,2:0:0:0:
349,253,29118,1,2,2:0:0:0:
162,163,29276,6,0,P|182:201|191:242,1,70,2|0,2:0|3:2,0:0:0:0:
290,91,29592,2,0,P|270:129|261:170,1,70,10|0,2:0|2:0,0:0:0:0:
188,41,29908,2,0,P|147:65|105:65,1,70,2|2,3:2|3:2,0:0:0:0:
301,14,30224,2,0,B|339:-2|369:20|369:20|387:55|442:65,1,140,14|4,1:3|3:2,0:0:0:0:
400,283,30855,5,10,1:3:0:0:
400,283,31487,1,10,1:3:0:0:
400,283,32118,1,10,1:3:0:0:
123,350,32592,5,0,3:2:0:0:
146,262,32750,1,12,1:2:0:0:
210,325,32908,1,0,3:2:0:0:
205,153,33066,5,4,3:2:0:0:
205,153,33381,2,0,P|252:132|281:130,1,70,10|0,0:0|0:0,0:0:0:0:
185,252,33697,1,0,0:0:0:0:
185,252,34013,2,0,P|171:289|166:322,1,70,14|0,0:0|0:0,0:0:0:0:
279,224,34329,1,2,0:0:0:0:
264,119,35592,6,0,B|313:140|341:149|341:149|328:208|318:275,1,210.000008010865,6|8,3:2|0:0,0:0:0:0:
194,152,36066,1,0,0:0:0:0:
311,53,36224,2,0,P|368:35|424:25,1,105.000004005432,2|0,3:2|3:2,0:0:0:0:
512,169,36539,2,0,P|457:153|405:148,1,105.000004005432,8|0,0:0|0:0,0:0:0:0:
278,220,36855,5,2,3:2:0:0:
363,324,37013,1,0,3:0:0:0:
330,161,37171,1,8,1:2:0:0:
217,273,37329,2,0,B|117:267|122:347|24:358,1,210.000008010865,2|0,3:2|3:2,0:0:0:0:
141,129,37802,2,0,P|191:156|222:204,1,105.000004005432,10|0,1:2|2:0,0:0:0:0:
180,356,38118,5,6,3:2:0:0:
125,206,38276,1,0,0:0:0:0:
279,322,38434,2,0,P|223:340|177:357,1,105.000004005432,10|0,1:2|2:0,0:0:0:0:
346,173,38750,2,0,P|289:158|244:138,1,105.000004005432,2|0,3:2|3:2,0:0:0:0:
353,295,39066,2,0,P|381:321|452:339,1,105.000004005432,10|0,1:2|2:0,0:0:0:0:
270,376,39381,6,0,B|175:368|207:273|91:262,1,210.000008010865,2|10,3:2|1:2,0:0:0:0:
122,362,39855,1,0,3:2:0:0:
200,193,40013,2,0,P|274:193|321:308,1,210.000008010865,2|10,2:0|1:2,0:0:0:0:
211,341,40487,1,0,2:0:0:0:
91,163,40645,6,0,B|42:184|14:193|14:193|27:252|37:319,1,210.000008010865,6|8,3:2|1:2,0:0:0:0:
184,189,41118,1,0,2:0:0:0:
74,86,41276,1,2,3:2:0:0:
103,239,41434,1,0,3:0:0:0:
245,98,41592,2,0,P|194:67|147:74,1,105.000004005432,8|0,1:2|2:0,0:0:0:0:
176,193,41908,6,0,P|198:245|215:306,1,105.000004005432,2|0,3:2|3:0,0:0:0:0:
331,383,42224,1,8,1:2:0:0:
463,277,42381,2,0,P|360:232|295:290,1,210.000008010865,2|0,3:2|3:2,0:0:0:0:
164,372,42855,2,0,P|105:365|67:329,1,105.000004005432,10|0,1:2|3:2,0:0:0:0:
89,158,43171,5,12,3:2:0:0:
128,288,43329,1,0,3:2:0:0:
208,98,43487,5,14,1:2:0:0:
170,220,43645,1,0,3:2:0:0:
306,281,43802,5,14,1:2:0:0:
283,149,43960,1,0,3:2:0:0:
435,206,44118,5,14,1:2:0:0:
397,350,44276,1,0,3:2:0:0:
304,120,44434,5,10,1:2:0:0:
283,149,44513,1,8,1:2:0:0:
275,190,44592,1,8,1:2:0:0:
292,224,44671,1,8,1:2:0:0:
324,248,44750,2,0,L|388:240,3,52.5000020027161,0|0|0|0,1:2|1:2|1:0|1:0,0:0:0:0:
187,270,45066,5,8,1:2:0:0:
378,331,45224,1,0,3:2:0:0:
141,340,45381,5,8,1:2:0:0:
327,260,45539,1,0,3:2:0:0:
256,75,45697,6,0,P|192:42|93:80,1,168,14|0,1:2|0:0,0:0:0:0:
92,104,46013,2,0,P|97:161|92:219,1,97.9999970092774,8|0,1:2|3:2,0:0:0:0:
241,324,46329,2,0,P|309:341|353:325,1,97.9999970092774,10|0,1:2|3:2,0:0:0:0:
484,148,46645,2,0,P|412:141|368:180,1,97.9999970092774,8|0,1:2|3:2,0:0:0:0:
241,324,46960,6,0,B|165:300|120:344|140:334|94:391|17:382,1,224,10|8,1:2|1:2,0:0:0:0:
71,143,47434,1,2,3:2:0:0:
251,239,47592,2,0,P|317:232|376:221,1,97.9999970092774,8|0,1:2|3:2,0:0:0:0:
490,51,47908,2,0,P|422:67|386:83,1,97.9999970092774,10|0,1:2|0:0,0:0:0:0:
202,6,48224,6,0,B|238:70|238:70|211:226,1,224,12|10,1:2|1:2,0:0:0:0:
147,352,48697,1,0,3:2:0:0:
134,78,48855,2,0,L|115:198,1,105.000004005432,10|0,1:2|3:2,0:0:0:0:
301,341,49171,2,0,B|360:349|360:349|417:331,1,105.000004005432,10|0,1:2|3:2,0:0:0:0:
403,335,49408,1,2,3:2:0:0:
403,335,49487,5,10,1:2:0:0:
505,177,49645,1,0,1:2:0:0:
380,232,49802,1,10,1:2:0:0:
380,232,49881,1,8,1:2:0:0:
380,232,49960,1,8,1:2:0:0:
296,132,50118,2,0,L|180:120,1,105.000004005432,10|0,1:2|3:2,0:0:0:0:
18,250,50434,2,0,P|-7:193|1:148,1,105.000004005432,10|0,1:2|3:2,0:0:0:0:
36,40,50671,1,2,2:0:0:0:
36,40,50750,6,0,B|104:63|173:32|112:32|203:0|262:25,1,224,14|8,3:2|1:2,0:0:0:0:
452,184,51224,1,0,3:2:0:0:
245,123,51381,2,0,P|213:180|218:238,1,105.000004005432,14|0,3:2|3:2,0:0:0:0:
426,384,51697,2,0,P|428:321|393:269,1,105.000004005432,8|0,1:2|3:2,0:0:0:0:
213,219,52013,6,0,B|159:204|109:242|109:242|64:208|-12:249,1,210.000008010865,14|12,1:2|1:2,0:0:0:0:
211,345,52487,1,0,3:2:0:0:
104,152,52645,2,0,P|9:144|-19:138,1,105.000004005432,14|0,1:2|3:2,0:0:0:0:
177,32,52960,2,0,P|257:28|304:20,1,105.000004005432,10|0,1:2|3:2,0:0:0:0:
475,26,53276,6,0,L|447:153,1,105.000004005432,14|0,1:2|1:2,0:0:0:0:
355,335,53592,1,10,1:2:0:0:
448,146,53750,1,10,1:2:0:0:
426,384,53908,1,14,1:2:0:0:
318,126,54066,1,10,1:2:0:0:
503,314,54224,1,10,1:2:0:0:
191,233,54381,1,10,1:2:0:0:
381,11,54539,5,14,0:0:0:0:
94,244,55802,5,6,3:2:0:0:
149,360,55960,2,0,L|118:119,1,209.999993591309,2|0,3:2|0:0,0:0:0:0:
60,97,56434,1,10,1:2:0:0:
60,97,56513,1,2,1:2:0:0:
60,97,56592,1,2,1:2:0:0:
198,158,57224,5,2,3:2:0:0:
121,202,57381,1,2,3:2:0:0:
198,246,57539,1,2,3:2:0:0:
77,276,57697,1,10,1:2:0:0:
54,146,57855,1,2,3:2:0:0:
54,146,58171,6,0,B|138:165|113:218|208:253,1,167.999994873047,2|2,3:2|3:2,0:0:0:0:
166,110,58645,1,2,3:2:0:0:
166,110,58724,1,2,3:2:0:0:
166,110,58802,1,2,3:2:0:0:
77,269,58960,1,10,3:2:0:0:
77,269,59039,1,2,3:2:0:0:
77,269,59118,1,2,3:2:0:0:
442,361,59592,5,2,2:0:0:0:
379,238,59750,2,0,L|360:353,1,83.9999974365235,2|2,2:0|2:0,0:0:0:0:
504,202,60066,1,0,0:0:0:0:
404,64,60224,2,0,B|418:168,1,83.9999974365235,10|0,1:2|2:0,0:0:0:0:
278,113,60539,1,2,2:0:0:0:
278,113,60855,5,2,3:2:0:0:
223,201,61013,1,2,3:2:0:0:
326,290,61171,1,0,3:2:0:0:
334,195,61329,1,0,3:2:0:0:
196,306,61487,1,10,3:2:0:0:
196,306,61566,1,2,3:2:0:0:
196,306,61645,1,2,3:2:0:0:
100,240,61802,1,2,3:2:0:0:
100,240,61960,2,0,P|94:188|79:152,1,83.9999974365235,0|0,3:2|2:0,0:0:0:0:
87,19,62276,5,2,3:2:0:0:
146,75,62434,2,0,P|182:97|220:89,1,70,2|2,3:2|3:2,0:0:0:0:
302,4,62750,1,0,1:2:0:0:
387,87,62908,2,0,L|370:164,1,70,2|0,3:2|3:2,0:0:0:0:
289,252,63224,6,0,L|371:240,1,70,2|0,3:2|3:2,0:0:0:0:
264,340,63539,1,2,3:2:0:0:
196,281,63697,2,0,L|104:291,1,70,2|2,3:2|3:2,0:0:0:0:
31,210,64013,1,10,1:2:0:0:
31,210,64092,1,2,3:2:0:0:
31,210,64171,1,2,3:2:0:0:
139,101,64329,1,2,3:2:0:0:
139,101,64487,2,0,P|197:103|245:181,1,140,2|0,3:2|3:2,0:0:0:0:
190,267,64960,5,2,3:2:0:0:
244,164,65118,1,2,3:2:0:0:
303,285,65276,2,0,L|388:274,1,70,10|2,1:2|3:2,0:0:0:0:
507,365,65592,2,0,L|410:345,1,70,2|0,3:2|3:0,0:0:0:0:
343,182,65908,1,10,1:2:0:0:
188,335,66066,6,0,B|115:349|115:349|84:322|84:322|-4:341,1,188.999994232178,6|10,3:2|1:2,0:0:0:0:
12,337,66618,1,10,3:2:0:0:
12,337,66697,1,10,3:2:0:0:
