osu file format v14

[General]
AudioFilename: audio.mp3
AudioLeadIn: 0
PreviewTime: 35585
Countdown: 0
SampleSet: Soft
StackLeniency: 0.3
Mode: 0
LetterboxInBreaks: 0
WidescreenStoryboard: 1

[Editor]
DistanceSpacing: 1.3
BeatDivisor: 4
GridSize: 32
TimelineZoom: 2.5

[Metadata]
Title:Forget About Me (Cut Ver.)
TitleUnicode:Forget About Me (Cut Ver.)
Artist:Escape The Fate
ArtistUnicode:Escape The Fate
Creator:paperoni17
Version:Akane-_'s Hard
Source:
Tags:rock post-hardcore post hardcore hard rock metalcore screamo emo heavy metal english Ungrateful Eleven Seven shakumiro snowowy synaelle akane-_
BeatmapID:2971871
BeatmapSetID:1429757

[Difficulty]
HPDrainRate:4.5
CircleSize:3.5
OverallDifficulty:6
ApproachRate:8
SliderMultiplier:1.4
SliderTickRate:1

[Events]
//Background and Video events
0,0,"bg.jpg",0,0
//Break Periods
//Storyboard Layer 0 (Background)
//Storyboard Layer 1 (Fail)
//Storyboard Layer 2 (Pass)
//Storyboard Layer 3 (Foreground)
//Storyboard Layer 4 (Overlay)
//Storyboard Sound Samples

[TimingPoints]
224,315.789473684211,4,2,1,60,1,0
224,-100,4,2,1,60,0,0
10645,-100,4,2,1,5,0,0
12224,-100,4,2,1,50,0,0
12697,-111.111111111111,4,2,1,50,0,0
20355,-111.111111111111,4,2,1,5,0,0
20434,-111.111111111111,4,2,1,50,0,0
22881,-111.111111111111,4,2,1,5,0,0
22960,-111.111111111111,4,2,1,50,0,0
30460,-111.111111111111,4,2,1,5,0,0
30539,-125,4,2,1,50,0,0
35592,-90.9090909090909,4,2,1,70,0,1
36776,-90.9090909090909,4,2,1,5,0,1
36855,-90.9090909090909,4,2,1,70,0,1
38671,-90.9090909090909,4,2,1,5,0,1
38750,-90.9090909090909,4,2,1,70,0,1
40329,-90.9090909090909,4,2,1,70,0,0
40645,-90.9090909090909,4,2,1,70,0,1
41829,-90.9090909090909,4,2,1,5,0,1
41908,-90.9090909090909,4,2,1,70,0,1
43408,-90.9090909090909,4,2,1,5,0,1
43487,-90.9090909090909,4,2,1,70,0,1
45381,-90.9090909090909,4,2,1,70,0,0
45697,-90.9090909090909,4,2,1,70,0,1
50434,-90.9090909090909,4,2,1,70,0,0
50750,-90.9090909090909,4,2,1,70,0,1
54539,-90.9090909090909,4,2,1,70,0,0
55802,-100,4,2,1,65,0,0
56355,-100,4,2,1,5,0,0
56434,-100,4,2,1,65,0,0
60776,-100,4,2,1,5,0,0
60855,-100,4,2,1,65,0,0
61408,-100,4,2,1,5,0,0
61487,-100,4,2,1,65,0,0
65829,-100,4,2,1,5,0,0
65908,-100,4,2,1,65,0,0

[Colours]
Combo1 : 255,0,0
Combo2 : 192,192,192
Combo3 : 157,9,31
Combo4 : 124,124,124
SliderBorder : 180,100,100

[HitObjects]
35,35,224,6,0,P|45:77|47:114,1,70,2|2,3:2|3:2,0:0:0:0:
113,176,539,1,10,1:2:0:0:
194,120,697,2,0,B|284:123|242:164|321:178,1,140,2|2,2:0|3:2,0:0:0:0:
395,117,1171,1,10,1:2:0:0:
471,177,1329,2,0,P|466:253|468:333,1,140,2|2,3:2|3:2,0:0:0:0:
377,356,1802,2,0,P|341:349|302:347,1,70,10|2,1:2|2:0,0:0:0:0:
235,280,2118,1,2,3:2:0:0:
235,280,2276,1,2,3:2:0:0:
286,196,2434,2,0,P|291:146|295:116,1,70,10|2,1:2|2:0,0:0:0:0:
228,52,2750,6,0,P|188:59|152:63,1,70,2|2,3:2|3:2,0:0:0:0:
68,22,3066,1,8,1:2:0:0:
11,101,3224,2,0,P|20:177|17:248,1,140,2|0,0:0|0:0,0:0:0:0:
71,322,3697,1,10,1:2:0:0:
160,281,3855,2,0,P|192:312|288:299,1,140,2|2,3:2|3:2,0:0:0:0:
347,231,4329,2,0,P|344:190|344:153,1,70,10|2,1:2|3:2,0:0:0:0:
275,89,4645,1,2,3:2:0:0:
275,89,4802,1,2,3:2:0:0:
349,25,4960,2,0,P|400:33|438:34,1,70,10|2,1:2|2:0,0:0:0:0:
493,98,5276,6,0,B|506:136|506:136|493:176,1,70,0|2,0:0|3:2,0:0:0:0:
507,262,5592,1,8,1:2:0:0:
425,317,5750,2,0,P|379:308|275:301,1,140,2|2,2:0|3:2,0:0:0:0:
212,235,6224,1,10,1:2:0:0:
285,170,6381,2,0,P|302:131|253:50,1,140,2|2,3:2|3:2,0:0:0:0:
171,3,6855,2,0,P|134:10|96:15,1,70,10|2,1:2|2:0,0:0:0:0:
26,77,7171,1,2,3:2:0:0:
26,77,7329,1,2,3:2:0:0:
85,155,7487,2,0,P|80:201|77:252,1,70,10|0,1:2|2:0,0:0:0:0:
3,271,7802,6,0,B|95:274|52:315|146:323,1,140,2|10,3:0|1:3,0:0:0:0:
221,357,8276,1,0,3:2:0:0:
277,276,8434,2,0,P|272:232|272:190,1,70,2|0,3:2|3:0,0:0:0:0:
195,143,8750,2,0,P|198:104|197:65,1,70,10|0,1:3|3:2,0:0:0:0:
282,23,9066,1,10,1:2:0:0:
347,94,9224,1,10,0:0:0:0:
347,94,9381,1,2,3:2:0:0:
435,50,9539,2,0,P|473:57|517:64,1,70,10|0,0:0|0:0,0:0:0:0:
507,160,9855,6,0,P|502:196|501:241,2,70,10|0|6,1:2|3:2|0:2,0:0:0:0:
507,160,12224,2,0,P|504:199|503:305,1,140,2|0,2:3|0:0,0:0:0:0:
390,319,12697,6,0,B|319:319|354:354|271:363,1,125.999996154785,4|0,3:2|3:2,0:0:0:0:
207,315,13171,2,0,P|212:276|211:242,1,62.9999980773926,10|0,2:0|2:0,0:0:0:0:
270,194,13487,2,0,P|263:128|266:62,1,125.999996154785,2|10,3:2|2:0,0:0:0:0:
194,27,13960,1,0,3:2:0:0:
123,69,14118,2,0,P|91:80|18:25,2,125.999996154785,2|10|2,3:2|2:0|3:2,0:0:0:0:
194,27,14908,1,0,0:0:0:0:
250,85,15066,2,0,P|287:77|322:71,1,62.9999980773926,8|0,2:0|2:2,0:0:0:0:
380,28,15381,5,0,3:2:0:0:
502,137,15697,2,0,P|497:206|499:271,1,125.999996154785,10|2,2:0|2:2,0:0:0:0:
461,336,16171,1,2,3:2:0:0:
461,336,16329,2,0,P|428:330|396:328,1,62.9999980773926,10|2,2:0|2:2,0:0:0:0:
316,329,16645,2,0,P|301:289|354:216,1,125.999996154785,2|10,3:2|2:0,0:0:0:0:
383,152,17118,1,0,2:2:0:0:
343,80,17276,2,0,B|274:82|309:129|217:129,1,125.999996154785,2|10,3:2|2:0,0:0:0:0:
175,68,17750,1,0,2:2:0:0:
105,110,17908,5,0,3:2:0:0:
17,249,18224,1,10,2:0:0:0:
17,249,18381,1,2,3:2:0:0:
71,310,18539,2,0,B|127:317|127:317|144:332|144:332|204:342,1,125.999996154785,2|10,2:2|2:0,0:0:0:0:
269,361,19013,1,0,2:2:0:0:
326,302,19171,2,0,P|322:264|323:228,1,62.9999980773926,2|0,3:2|0:0,0:0:0:0:
260,184,19487,2,0,P|267:116|266:50,1,125.999996154785,10|2,2:0|3:2,0:0:0:0:
334,12,19960,1,0,3:2:0:0:
398,62,20118,2,0,P|434:42|486:58,1,94.4999971160889,14|0,1:2|0:0,0:0:0:0:
506,93,20434,6,0,P|502:129|502:159,1,62.9999980773926,4|0,3:2|0:0,0:0:0:0:
454,224,20750,1,8,2:0:0:0:
454,224,20908,1,0,3:2:0:0:
385,178,21066,2,0,B|312:182|350:222|270:237,1,125.999996154785,2|8,2:0|2:0,0:0:0:0:
179,104,21697,2,0,P|144:95|73:159,1,125.999996154785,2|8,3:2|2:0,0:0:0:0:
21,205,22171,1,2,2:0:0:0:
21,205,22329,2,0,P|31:251|31:281,1,62.9999980773926,2|0,3:2|0:0,0:0:0:0:
75,336,22645,2,0,P|108:348|171:312,1,94.4999971160889,8|0,2:0|0:0,0:0:0:0:
191,301,22960,6,0,P|235:306|263:308,1,62.9999980773926,2|0,3:2|3:2,0:0:0:0:
322,352,23276,1,10,2:0:0:0:
391,308,23434,2,0,B|408:279|426:252|426:252|411:227|391:174,1,125.999996154785,2|0,3:2|3:2,0:0:0:0:
457,138,23908,1,10,2:0:0:0:
419,65,24066,2,0,P|385:54|310:110,1,125.999996154785,2|0,2:0|3:2,0:0:0:0:
245,143,24539,1,10,2:0:0:0:
179,93,24697,2,0,B|97:91|143:51|52:48,1,125.999996154785,2|0,2:0|3:2,0:0:0:0:
17,116,25171,1,10,2:0:0:0:
25,279,25487,6,0,P|70:273|95:271,1,62.9999980773926,2|0,3:2|3:2,0:0:0:0:
145,328,25802,2,0,P|183:331|217:334,1,62.9999980773926,10|2,2:0|2:0,0:0:0:0:
266,275,26118,1,2,2:0:0:0:
266,275,26276,1,2,3:2:0:0:
226,203,26434,2,0,P|223:163|217:129,1,62.9999980773926,10|2,2:0|2:0,0:0:0:0:
258,67,26750,1,2,3:2:0:0:
339,77,26908,2,0,P|385:82|442:23,1,125.999996154785,0|2,3:0|2:0,0:0:0:0:
490,111,27381,2,0,P|486:146|487:190,1,62.9999980773926,2|0,3:2|0:0,0:0:0:0:
479,255,27697,1,8,2:0:0:0:
315,240,28013,6,0,P|309:286|308:316,2,62.9999980773926,2|2|10,3:2|3:2|2:0,0:0:0:0:
268,171,28487,1,2,3:2:0:0:
182,183,28645,2,0,P|150:176|114:172,1,62.9999980773926,2|2,2:0|3:2,0:0:0:0:
52,127,28960,2,0,P|45:89|57:61,1,62.9999980773926,10|2,2:0|2:0,0:0:0:0:
120,173,29276,2,0,P|116:210|115:241,1,62.9999980773926,2|0,2:0|3:2,0:0:0:0:
34,254,29592,2,0,P|41:295|41:331,1,62.9999980773926,10|0,2:0|2:0,0:0:0:0:
114,364,29908,1,2,3:2:0:0:
114,364,30066,1,2,3:2:0:0:
192,331,30224,2,0,P|265:342|300:348,1,94.499997116089,14|0,1:3|0:0,0:0:0:0:
319,350,30539,6,0,P|327:289|331:231,2,112,4|10|0,3:2|1:3|0:0,0:0:0:0:
418,228,31487,1,10,1:3:0:0:
307,117,31802,2,0,P|247:131|192:143,2,112,0|10|0,0:0|1:3|0:0,0:0:0:0:
435,25,32750,2,0,P|431:68|429:99,1,56,12|0,1:2|3:2,0:0:0:0:
483,138,33066,5,4,3:2:0:0:
501,293,33381,2,0,P|440:280|384:270,1,112,10|0,0:0|0:0,0:0:0:0:
262,361,34013,1,14,0:0:0:0:
120,292,34329,1,2,0:0:0:0:
262,361,35592,6,0,P|257:316|256:267,1,77.0000023498536,6|0,3:2|0:0,0:0:0:0:
199,200,35908,2,0,P|205:152|205:117,1,77.0000023498536,8|0,0:0|0:0,0:0:0:0:
268,45,36224,1,2,3:2:0:0:
268,45,36381,1,0,3:2:0:0:
356,92,36539,2,0,P|394:73|466:100,1,115.50000352478,8|0,0:0|0:0,0:0:0:0:
488,128,36855,6,0,P|485:167|488:218,1,77.0000023498536,2|0,3:2|0:0,0:0:0:0:
494,305,37171,1,8,1:2:0:0:
394,297,37329,2,0,B|302:303|358:353|249:362,1,154.000004699707,2|0,3:2|3:2,0:0:0:0:
192,291,37802,2,0,B|179:252|179:252|192:208,1,77.0000023498536,10|0,1:2|2:0,0:0:0:0:
262,148,38118,6,0,P|256:103|256:69,1,77.0000023498536,6|0,3:2|0:0,0:0:0:0:
168,21,38434,2,0,P|120:11|58:61,1,115.50000352478,10|0,1:2|0:0,0:0:0:0:
37,64,38750,2,0,P|41:105|39:153,1,77.0000023498536,2|0,3:2|3:2,0:0:0:0:
104,218,39066,2,0,P|144:227|194:210,1,77.0000023498536,10|0,1:2|2:0,0:0:0:0:
258,159,39381,1,2,3:2:0:0:
258,159,39539,1,0,3:2:0:0:
325,232,39697,2,0,P|320:278|318:318,1,77.0000023498536,10|0,1:2|3:2,0:0:0:0:
406,357,40013,2,0,P|448:364|514:282,1,154.000004699707,2|10,2:0|1:2,0:0:0:0:
485,190,40487,1,0,2:0:0:0:
492,90,40645,6,0,B|397:97|446:145|341:160,1,154.000004699707,6|8,3:2|1:2,0:0:0:0:
274,101,41118,1,0,2:0:0:0:
203,171,41276,2,0,P|213:216|213:264,1,77.0000023498536,2|0,3:2|3:0,0:0:0:0:
300,299,41592,2,0,P|254:287|198:335,1,115.50000352478,8|2,1:2|0:0,0:0:0:0:
189,351,41908,6,0,P|140:343|103:341,1,77.0000023498536,2|0,3:2|0:0,0:0:0:0:
35,276,42224,1,8,1:2:0:0:
90,193,42381,2,0,P|84:146|83:107,1,77.0000023498536,2|0,3:2|2:0,0:0:0:0:
8,48,42697,1,0,3:2:0:0:
101,12,42855,2,0,P|143:18|187:21,1,77.0000023498536,10|0,1:2|3:2,0:0:0:0:
237,101,43171,6,0,P|280:108|337:58,1,115.50000352478,12|0,3:2|0:0,0:0:0:0:
345,40,43487,2,0,P|392:48|426:50,1,77.0000023498536,14|0,1:2|3:2,0:0:0:0:
491,120,43802,2,0,B|505:160|505:160|491:200,1,77.0000023498536,14|0,1:2|3:2,0:0:0:0:
501,293,44118,2,0,P|453:284|410:281,1,77.0000023498536,14|0,1:2|3:2,0:0:0:0:
345,218,44434,2,0,L|302:226,3,38.5000011749268,10|8|8|8,1:2|1:2|1:2|1:2,0:0:0:0:
282,261,44750,2,0,L|238:252,3,38.5000011749268,0|0|0|0,1:2|1:2|1:0|1:0,0:0:0:0:
218,216,45066,2,0,P|222:176|223:134,1,77.0000023498536,8|0,1:2|3:2,0:0:0:0:
171,53,45381,2,0,P|210:37|257:46,1,77.0000023498536,8|0,1:2|3:2,0:0:0:0:
124,146,45697,6,0,P|82:138|39:130,1,77.0000023498536,14|0,1:2|0:0,0:0:0:0:
10,225,46013,2,0,P|18:275|17:310,1,77.0000023498536,8|0,1:2|3:2,0:0:0:0:
105,351,46329,2,0,P|147:362|186:347,1,77.0000023498536,10|0,1:2|3:2,0:0:0:0:
255,287,46645,2,0,P|302:295|346:296,1,77.0000023498536,8|0,1:2|3:2,0:0:0:0:
404,364,46960,6,0,P|375:328|417:234,1,154.000004699707,10|8,1:2|1:2,0:0:0:0:
495,182,47434,1,2,3:2:0:0:
495,182,47592,2,0,P|489:135|491:96,1,77.0000023498536,8|0,1:2|3:2,0:0:0:0:
413,39,47908,1,10,1:2:0:0:
413,39,48066,1,0,0:0:0:0:
334,101,48224,6,0,P|293:93|250:87,1,77.0000023498536,12|0,1:2|3:2,0:0:0:0:
178,27,48539,2,0,P|136:21|76:102,1,154.000004699707,10|10,1:2|1:2,0:0:0:0:
18,184,49013,1,0,3:2:0:0:
81,261,49171,1,10,1:2:0:0:
162,200,49329,1,0,3:2:0:0:
162,200,49408,1,2,3:2:0:0:
162,200,49487,6,0,P|204:206|254:208,1,77.0000023498536,10|0,1:2|1:2,0:0:0:0:
261,305,49802,2,0,P|218:303|196:303,2,38.5000011749268,10|8|8,1:2|1:2|1:2,0:0:0:0:
345,359,50118,2,0,B|412:353|412:353|441:367|441:367|511:356,1,154.000004699707,10|10,1:2|1:2,0:0:0:0:
507,265,50592,1,0,3:2:0:0:
507,265,50671,1,2,2:0:0:0:
507,265,50750,6,0,P|507:214|510:172,1,77.0000023498536,14|0,3:2|0:0,0:0:0:0:
457,101,51066,2,0,P|415:97|379:119,1,77.0000023498536,8|0,1:2|3:2,0:0:0:0:
290,146,51381,2,0,P|246:136|202:131,1,77.0000023498536,14|0,3:2|3:2,0:0:0:0:
152,52,51697,2,0,P|111:64|73:73,1,77.0000023498536,8|0,1:2|3:2,0:0:0:0:
14,150,52013,2,0,P|22:197|22:238,1,77.0000023498536,14|0,1:2|3:2,0:0:0:0:
88,302,52329,2,0,P|128:309|166:289,1,77.0000023498536,12|0,1:2|3:2,0:0:0:0:
245,348,52645,2,0,P|295:355|334:364,1,77.0000023498536,14|0,1:2|3:2,0:0:0:0:
383,283,52960,1,10,1:2:0:0:
383,283,53118,1,0,3:2:0:0:
309,214,53276,6,0,P|302:170|293:132,1,77.0000023498536,14|0,1:2|1:2,0:0:0:0:
348,53,53592,2,0,P|400:62|434:65,1,77.0000023498536,10|10,1:2|1:2,0:0:0:0:
498,132,53908,2,0,P|493:179|492:222,1,77.0000023498536,14|10,1:2|1:2,0:0:0:0:
404,259,54224,1,10,1:2:0:0:
404,259,54381,1,10,1:2:0:0:
451,345,54539,1,14,0:0:0:0:
452,346,55802,6,0,P|414:340|373:338,1,70,6|0,3:2|0:0,0:0:0:0:
306,275,56118,2,0,P|263:304|188:289,1,105,0|0,0:0|0:0,0:0:0:0:
181,274,56434,1,10,1:2:0:0:
101,331,56592,1,2,1:2:0:0:
101,331,57224,1,2,3:2:0:0:
36,258,57381,2,0,P|31:206|26:178,1,70,2|2,3:2|3:2,0:0:0:0:
95,116,57697,1,10,1:2:0:0:
95,116,57855,1,2,3:2:0:0:
273,196,58171,2,0,P|350:180|419:169,1,140,2|2,3:2|3:2,0:0:0:0:
450,79,58645,6,0,L|443:36,2,35,2|2|2,3:2|3:2|3:2,0:0:0:0:
508,158,58960,2,0,L|503:213,2,35,10|2|2,3:2|3:2|3:2,0:0:0:0:
240,358,59592,1,2,2:0:0:0:
162,297,59750,2,0,P|145:258|200:179,1,140,2|0,2:0|0:0,0:0:0:0:
280,138,60224,2,0,P|284:91|288:58,1,70,10|0,1:2|2:0,0:0:0:0:
209,8,60539,2,0,P|173:37|103:26,1,105,2|0,2:0|0:0,0:0:0:0:
79,14,60855,5,2,3:2:0:0:
3,76,61013,1,2,3:2:0:0:
59,155,61171,2,0,P|55:201|59:274,1,105,0|0,3:2|0:0,0:0:0:0:
44,296,61487,1,10,3:2:0:0:
110,368,61645,1,2,3:2:0:0:
196,322,61802,2,0,P|238:330|280:335,1,70,2|0,3:2|3:2,0:0:0:0:
325,270,62118,1,0,2:0:0:0:
325,270,62276,6,0,P|320:225|318:190,1,70,2|2,3:2|3:2,0:0:0:0:
244,134,62592,1,2,3:2:0:0:
244,134,62750,1,0,1:2:0:0:
319,71,62908,2,0,B|409:68|363:28|457:21,1,140,2|2,3:2|3:2,0:0:0:0:
509,94,63381,1,0,3:2:0:0:
443,167,63539,1,2,3:2:0:0:
506,241,63697,2,0,P|501:279|500:327,1,70,2|2,3:2|3:2,0:0:0:0:
404,335,64013,2,0,L|412:394,2,35,10|2|2,1:2|3:2|3:2,0:0:0:0:
316,289,64329,1,2,3:2:0:0:
249,352,64487,6,0,P|212:343|100:329,1,140,2|0,3:2|3:2,0:0:0:0:
24,284,64960,2,0,B|9:321|9:321|24:361,1,70,2|2,3:2|3:2,0:0:0:0:
116,238,65276,2,0,P|111:196|111:159,1,70,10|2,1:2|3:2,0:0:0:0:
18,160,65592,2,0,P|26:112|27:48,1,105,2|0,3:2|0:0,0:0:0:0:
49,29,65908,1,10,1:2:0:0:
137,70,66066,6,0,P|182:63|295:46,1,140,6|0,3:2|0:0,0:0:0:0:
356,104,66539,2,0,L|352:158,2,35,10|10|10,1:2|3:2|3:2,0:0:0:0:
