osu file format v14

[General]
AudioFilename: Eru.mp3
AudioLeadIn: 2000
PreviewTime: 145886
Countdown: 0
SampleSet: Normal
StackLeniency: 0.7
Mode: 0
LetterboxInBreaks: 0
WidescreenStoryboard: 0

[Editor]
DistanceSpacing: 1.1
BeatDivisor: 4
GridSize: 4
TimelineZoom: 1

[Metadata]
Title:Heian no Alien
TitleUnicode:平安のエイリアン
Artist:Eru
ArtistUnicode:Eru
Creator:Vass_Bass
Version:Hard
Source:東方星蓮船 ~ Undefined Fantastic Object.
Tags:フレンジー Frenzy comiket 83 c83 埼玉最終兵器 & Aether ssh touhou 東方Project Seirensen UFO Saitama Saisyu Heiki Aether Nue Houjuu Reiji-RJ Reiji dubstep
BeatmapID:792642
BeatmapSetID:116669

[Difficulty]
HPDrainRate:5.5
CircleSize:3.7
OverallDifficulty:6
ApproachRate:8
SliderMultiplier:1.3
SliderTickRate:1

[Events]
//Background and Video events
0,0,"nue.jpg",0,0
//Break Periods
2,55177,67940
2,107686,118536
//Storyboard Layer 0 (Background)
//Storyboard Layer 1 (Fail)
//Storyboard Layer 2 (Pass)
//Storyboard Layer 3 (Foreground)
//Storyboard Sound Samples

[TimingPoints]
120,428.571428571429,4,1,1,60,1,0
6227,-100,4,1,1,40,0,0
6441,-100,4,1,1,60,0,0
13834,-83.3333333333333,4,1,1,60,0,0
14477,-100,4,1,1,60,0,0
15548,-83.3333333333333,4,1,1,60,0,0
16191,-100,4,1,1,60,0,0
17262,-83.3333333333333,4,1,1,60,0,0
17905,-100,4,1,1,60,0,0
18977,-83.3333333333333,4,1,1,60,0,0
19620,-100,4,1,1,60,0,0
20691,-83.3333333333333,4,1,1,60,0,0
21548,-100,4,1,1,60,0,0
22405,-83.3333333333333,4,1,1,60,0,0
23262,-100,4,1,1,60,0,0
24120,-83.3333333333333,4,1,1,60,0,0
24977,-100,4,1,1,60,0,0
27548,-100,4,1,1,60,0,0
33548,-66.6666666666667,4,1,1,65,0,0
34405,-100,4,1,1,65,0,0
41262,-100,4,1,1,60,0,0
68690,419.58041958042,4,1,0,30,1,0
75394,405.405405405405,4,1,0,50,1,0
81886,400,4,1,1,60,1,1
81886,-83.3333333333333,4,1,1,60,0,1
83486,-83.3333333333333,4,1,1,45,0,1
84286,-100,4,1,1,50,0,1
85086,-83.3333333333333,4,1,1,60,0,1
86686,-83.3333333333333,4,1,1,50,0,1
87486,-66.6666666666667,4,1,1,60,0,1
88086,-66.6666666666667,4,1,1,50,0,1
88286,-83.3333333333333,4,1,1,60,0,1
89386,-83.3333333333333,4,1,1,60,0,1
89686,-100,4,1,1,50,0,1
89886,-83.3333333333333,4,1,1,45,0,1
90686,-100,4,1,1,50,0,1
91486,-66.6666666666667,4,1,1,60,0,1
92486,-83.3333333333333,4,1,1,50,0,1
93886,-66.6666666666667,4,1,1,60,0,1
94586,-66.6666666666667,4,1,1,60,0,0
94686,-83.3333333333333,4,1,1,60,0,1
95486,-100,4,1,1,60,0,1
96286,-83.3333333333333,4,1,1,50,0,1
97886,-83.3333333333333,4,1,1,60,0,1
98686,-66.6666666666667,4,1,1,50,0,1
99486,-83.3333333333333,4,1,1,50,0,1
100286,-100,4,1,1,60,0,1
101086,-83.3333333333333,4,1,1,60,0,1
101886,-83.3333333333333,4,1,1,50,0,1
102686,-83.3333333333333,4,1,1,45,0,1
103486,-66.6666666666667,4,1,1,60,0,1
104286,-83.3333333333333,4,1,1,60,0,1
105086,-100,4,1,1,50,0,1
105886,-83.3333333333333,4,1,1,45,0,1
106686,-66.6666666666667,4,1,1,60,0,1
107486,-100,4,1,0,50,0,0
119286,-100,4,2,0,50,0,0
120286,-100,4,1,1,60,0,0
121886,-100,4,1,1,50,0,0
122686,-100,4,1,1,60,0,0
123486,-83.3333333333333,4,1,1,60,0,0
124086,-100,4,1,1,60,0,0
125886,-83.3333333333333,4,1,1,60,0,0
126686,-100,4,1,1,60,0,0
127486,-83.3333333333333,4,1,1,60,0,0
128286,-100,4,1,1,60,0,0
129086,-76.9230769230769,4,1,1,60,0,0
129886,-100,4,1,1,60,0,0
130886,-76.9230769230769,4,1,1,60,0,0
131486,-100,4,1,1,60,0,0
137086,-83.3333333333333,4,1,1,60,0,0
137686,-100,4,1,1,60,0,0
138686,-66.6666666666667,4,1,1,65,0,0
139486,-100,4,1,1,60,0,0
141086,-100,4,1,1,50,0,0
141886,-83.3333333333333,4,1,1,60,0,0
142686,-100,4,1,1,60,0,0
144286,-100,4,1,1,50,0,0
145086,-66.6666666666667,4,1,1,60,0,0
145886,-83.3333333333333,4,1,1,60,0,1
147486,-83.3333333333333,4,1,1,50,0,1
148286,-100,4,1,1,60,0,1
149086,-83.3333333333333,4,1,1,60,0,1
150686,-58.8235294117647,4,1,1,60,0,1
151486,-100,4,1,1,60,0,1
152286,-83.3333333333333,4,1,1,60,0,1
154686,-100,4,1,1,60,0,1
155486,-83.3333333333333,4,1,1,60,0,1
157886,-66.6666666666667,4,1,1,60,0,1
158686,-83.3333333333333,4,1,1,60,0,0
159486,-100,4,1,1,60,0,0
160286,-83.3333333333333,4,1,1,60,0,0
161086,-100,4,1,1,60,0,0
161886,-83.3333333333333,4,1,1,60,0,0
162686,-66.6666666666667,4,1,1,60,0,0
163486,-83.3333333333333,4,1,1,60,0,0
164286,-100,4,1,1,60,0,0
165086,-83.3333333333333,4,1,1,60,0,0
165886,-100,4,1,1,60,0,0
166686,-83.3333333333333,4,1,1,50,0,0
167486,-66.6666666666667,4,1,1,60,0,0
168286,-83.3333333333333,4,1,1,60,0,0
169086,-100,4,1,1,60,0,0
169886,-83.3333333333333,4,1,1,50,0,0
170686,-66.6666666666667,4,1,1,60,0,1
171486,-100,4,1,1,60,0,0
177086,-100,4,1,1,50,0,0
177886,-100,4,1,1,60,0,0
184286,-83.3333333333333,4,1,1,60,0,0
184886,-100,4,1,1,60,0,0
185886,-83.3333333333333,4,1,1,60,0,0
186486,-100,4,1,1,60,0,0
187486,-83.3333333333333,4,1,1,60,0,0
188286,-100,4,1,1,60,0,0
190686,-83.3333333333333,4,1,1,60,0,0
191486,-100,4,1,1,60,0,0
192286,-83.3333333333333,4,1,1,60,0,0
193086,-100,4,1,1,60,0,0
193886,-83.3333333333333,4,1,1,60,0,0
194686,-100,4,1,1,60,0,0
195486,-83.3333333333333,4,1,1,60,0,0
196286,-100,4,1,1,60,0,0
197186,-100,4,1,1,20,0,0

[Colours]
Combo1 : 192,192,192
Combo2 : 69,173,168
Combo3 : 53,153,191

[HitObjects]
312,120,120,6,0,P|336:172|324:252,1,130,4|2,0:0|2:0,0:0:0:0:
200,260,762,1,0,0:0:0:0:
200,260,977,2,0,P|176:208|188:128,1,130,8|2,0:0|2:0,0:0:0:0:
236,20,1620,1,0,0:0:0:0:
236,20,1834,1,0,0:0:0:0:
456,60,2155,1,0,0:0:0:0:
236,20,2477,1,0,0:0:0:0:
160,128,2691,2,0,B|120:148|120:148|8:132,1,130,8|2,0:0|2:0,0:0:0:0:
4,264,3334,1,0,0:0:0:0:
4,264,3548,6,0,B|44:244|44:244|156:260,1,130,0|2,0:0|2:0,0:0:0:0:
244,316,4191,1,0,2:0:0:0:
244,316,4298,1,0,0:0:0:0:
244,316,4405,2,0,P|268:252|264:180,1,130,8|2,0:0|2:0,0:0:0:0:
216,72,5048,1,0,0:0:0:0:
216,72,5262,1,0,0:0:0:0:
20,60,5584,1,0,0:0:0:0:
216,72,5905,1,0,0:0:0:0:
340,108,6120,2,0,L|424:92,1,65,8|4,0:0|2:0,0:0:0:0:
496,208,6548,2,0,L|432:220,1,65,0|2,0:0|2:0,0:0:0:0:
420,240,6870,1,0,2:0:0:0:
408,256,6977,22,0,B|348:248|348:248|272:288,1,130,4|2,0:0|2:0,0:0:0:0:
172,344,7620,1,0,0:0:0:0:
172,344,7834,2,0,L|152:208,1,130,8|2,0:0|2:0,0:0:0:0:
72,116,8477,1,0,0:0:0:0:
72,116,8691,1,0,0:0:0:0:
252,40,9012,1,0,0:0:0:0:
72,116,9334,1,0,0:0:0:0:
153,215,9548,2,0,P|209:215|285:167,1,130,8|2,0:0|2:0,0:0:0:0:
376,100,10191,1,0,0:0:0:0:
376,100,10405,6,0,L|392:236,1,130,0|2,0:0|2:0,0:0:0:0:
324,340,11048,1,0,0:0:0:0:
324,340,11155,1,0,0:0:0:0:
324,340,11262,1,8,0:0:0:0:
68,364,11691,1,2,2:0:0:0:
120,244,11905,1,0,0:0:0:0:
120,244,12120,2,0,L|96:132,2,97.5,0|0|0,0:0|0:0|0:0,0:0:0:0:
248,256,12977,2,0,L|220:112,1,130,8|2,0:0|2:0,0:0:0:0:
223,128,13620,1,0,0:0:0:0:
356,48,13834,6,0,P|416:44|464:16,2,116.999996429443,4|0|0,0:0|0:0|0:0,0:0:0:0:
228,132,14691,6,2,P|169:108|101:132,1,130,8|0,0:0|0:0,0:0:0:0:
32,228,15334,1,2,2:0:0:0:
160,316,15548,22,0,B|176:264|176:264|160:192,2,116.999996429443,4|0|0,0:0|0:0|0:0,0:0:0:0:
280,368,16405,22,2,L|308:240,1,130,8|0,0:0|0:0,0:0:0:0:
276,112,17048,1,2,2:0:0:0:
404,200,17262,6,0,L|432:80,2,116.999996429443,4|0|0,0:0|0:0|0:0,0:0:0:0:
276,112,18120,6,2,P|216:96|160:40,1,130,8|0,0:0|0:0,0:0:0:0:
166,51,18762,1,2,2:0:0:0:
36,140,18977,22,0,L|56:268,2,116.999996429443,4|0|0,0:0|0:0|0:0,0:0:0:0:
156,188,19834,22,2,L|180:324,1,130,10|0,0:0|0:0,0:0:0:0:
296,348,20477,5,2,2:0:0:0:
296,348,20584,1,0,0:0:0:0:
296,348,20691,2,0,P|352:348|412:320,2,116.999996429443,4|0|0,0:0|0:0|0:0,0:0:0:0:
332,224,21548,6,2,P|304:176|300:100,1,130,12|0,0:0|0:0,0:0:0:0:
392,12,22191,1,2,2:0:0:0:
460,132,22405,21,4,0:0:0:0:
264,116,22727,1,0,0:0:0:0:
80,100,23048,1,0,0:0:0:0:
12,212,23262,6,2,P|16:280|56:336,1,130,12|0,0:0|0:0,0:0:0:0:
176,364,23905,1,2,2:0:0:0:
304,332,24120,22,0,B|348:304|348:304|416:316,2,116.999996429443,4|0|0,0:0|0:0|0:0,0:0:0:0:
292,192,24977,22,2,L|440:216,1,130,12|0,0:0|0:0,0:0:0:0:
420,212,25620,1,2,2:0:0:0:
264,104,25834,2,0,P|224:132|200:180,2,97.5,4|0|0,0:0|0:0|0:0,0:0:0:0:
264,104,26691,22,0,L|284:304,1,195,4|0,2:0|2:0,0:0:0:0:
283,298,27548,5,4,0:0:0:0:
164,352,27762,1,0,2:0:0:0:
68,264,27977,1,2,2:0:0:0:
192,224,28191,1,0,0:0:0:0:
192,224,28405,2,0,B|170:169|170:169|182:89,1,130,8|0,0:0|0:0,0:0:0:0:
296,44,29048,1,0,0:0:0:0:
296,44,29262,2,0,L|283:152,2,97.5,0|0|0,0:0|0:0|0:0,0:0:0:0:
360,220,30120,2,0,P|304:252|240:244,1,130,8|0,0:0|0:0,0:0:0:0:
112,224,30762,1,0,0:0:0:0:
112,224,30977,22,0,L|96:88,1,130,4|0,0:0|0:0,0:0:0:0:
196,12,31620,1,0,2:0:0:0:
196,12,31727,1,0,0:0:0:0:
196,12,31834,2,0,P|224:60|308:96,1,130,8|0,0:0|0:0,0:0:0:0:
416,76,32477,1,2,2:0:0:0:
416,76,32691,1,0,0:0:0:0:
368,264,33012,1,0,0:0:0:0:
416,76,33334,1,0,0:0:0:0:
280,140,33548,22,2,B|260:132|260:132|244:148|244:148|228:136|228:136|216:152|216:152|200:140|200:140|188:156|188:156|168:144|168:144|152:160|152:160|124:152,1,195.00000743866,6|6,0:0|0:0,0:0:0:0:
16,248,34191,21,0,0:0:0:0:
16,248,34298,1,0,0:0:0:0:
16,248,34405,1,4,0:0:0:0:
68,368,34620,1,0,2:0:0:0:
192,324,34834,1,2,2:0:0:0:
140,204,35049,1,0,0:0:0:0:
140,204,35262,2,0,B|168:156|168:156|152:80,1,130,8|0,0:0|0:0,0:0:0:0:
268,24,35905,1,0,0:0:0:0:
268,24,36120,21,0,0:0:0:0:
464,40,36441,1,0,0:0:0:0:
268,24,36762,1,0,0:0:0:0:
256,152,36977,2,0,P|328:144|364:92,1,130,8|0,0:0|0:0,0:0:0:0:
268,24,37620,1,0,0:0:0:0:
136,108,37834,2,0,L|156:240,1,130,4|2,0:0|2:0,0:0:0:0:
260,360,38477,1,0,0:0:0:0:
260,360,38584,1,0,0:0:0:0:
260,360,38691,2,0,P|296:336|320:288,1,97.5,8|0,0:0|2:0,0:0:0:0:
340,272,39120,2,0,L|260:244,1,65,0|2,0:0|2:0,0:0:0:0:
172,176,39548,5,0,0:0:0:0:
356,112,39870,1,0,0:0:0:0:
172,176,40191,1,0,0:0:0:0:
44,168,40405,2,0,B|24:216|24:216|52:296,1,130,8|0,0:0|0:0,0:0:0:0:
160,356,41048,21,0,0:0:0:0:
160,356,41155,1,0,0:0:0:0:
160,356,41262,1,4,0:0:0:0:
340,284,41584,1,0,2:0:0:0:
340,284,41691,2,0,L|344:200,1,65,2|0,0:0|2:0,0:0:0:0:
448,140,42120,2,0,L|444:276,1,130,10|2,0:0|2:0,0:0:0:0:
444,269,42762,1,0,0:0:0:0:
247,326,42977,2,0,B|199:326|199:326|151:362,2,97.5,2|2|0,0:0|0:0|0:0,0:0:0:0:
196,204,43834,2,0,L|44:200,1,130,10|2,0:0|2:0,0:0:0:0:
32,76,44477,1,0,0:0:0:0:
32,76,44691,6,0,L|161:79,1,130,6|2,0:0|0:0,0:0:0:0:
280,132,45334,1,0,0:0:0:0:
388,64,45548,2,0,B|416:104|416:104|400:192,1,130,10|2,0:0|2:0,0:0:0:0:
380,312,46191,1,0,0:0:0:0:
256,280,46405,2,0,B|200:280|160:316,2,97.5,2|2|0,0:0|0:0|0:0,0:0:0:0:
256,280,47262,2,0,L|260:136,1,130,10|2,0:0|2:0,0:0:0:0:
220,24,47905,1,0,0:0:0:0:
220,24,48120,21,4,0:0:0:0:
60,136,48441,1,0,2:0:0:0:
60,136,48548,2,0,P|88:148|124:152,1,65,2|0,0:0|2:0,0:0:0:0:
252,164,48977,2,0,B|308:144|308:144|384:164,1,130,10|2,0:0|2:0,0:0:0:0:
416,284,49620,1,0,0:0:0:0:
416,284,49834,2,0,L|312:256,2,97.5,2|2|0,0:0|0:0|0:0,0:0:0:0:
240,336,50691,2,0,P|208:280|208:212,1,130,10|2,0:0|2:0,0:0:0:0:
248,92,51334,1,0,2:0:0:0:
248,92,51548,6,0,P|184:88|116:88,1,130,6|2,0:0|0:0,0:0:0:0:
77,211,52191,1,0,0:0:0:0:
77,211,52405,2,0,P|141:214|209:215,1,130,10|2,0:0|2:0,0:0:0:0:
332,176,53048,1,0,0:0:0:0:
332,176,53262,2,0,B|436:152,2,97.5,2|2|0,0:0|0:0|0:0,0:0:0:0:
204,168,54120,2,0,B|182:225|182:225|188:296|188:296|160:360,1,195,10|0,0:0|2:0,0:0:0:0:
162,353,54977,1,4,0:0:0:0:
80,120,68690,21,0,0:0:0:0:
208,128,69109,1,0,0:0:0:0:
328,132,69529,1,0,0:0:0:0:
456,136,69948,1,0,0:0:0:0:
408,256,70368,1,0,0:0:0:0:
280,252,70787,1,0,0:0:0:0:
160,248,71207,1,0,0:0:0:0:
32,240,71626,1,0,0:0:0:0:
120,48,72046,5,0,0:0:0:0:
248,56,72465,1,0,0:0:0:0:
368,60,72885,1,0,0:0:0:0:
496,64,73304,1,0,0:0:0:0:
472,264,73724,1,0,0:0:0:0:
344,260,74143,1,0,0:0:0:0:
224,256,74563,1,0,0:0:0:0:
96,248,74982,1,0,0:0:0:0:
24,156,75394,22,0,L|100:164,1,65
212,208,75799,2,0,P|228:160|224:124,1,65,0|0,0:0|0:0,0:0:0:0:
316,36,76204,2,0,P|318:68|332:97,1,65,0|0,0:0|0:0,0:0:0:0:
423,162,76610,2,0,L|488:156,1,65,0|0,0:0|0:0,0:0:0:0:
436,276,77015,6,0,L|371:282,1,65,0|0,0:0|0:0,0:0:0:0:
240,276,77421,2,0,L|244:352,1,65,0|0,0:0|0:0,0:0:0:0:
124,292,77826,2,0,L|120:228,1,65,0|0,0:0|0:0,0:0:0:0:
80,104,78231,1,0,0:0:0:0:
212,96,78434,1,0,0:0:0:0:
80,104,78637,22,0,L|20:96,3,32.5,0|0|0|0,0:0|0:0|0:0|0:0,0:0:0:0:
160,192,79042,2,0,L|220:184,3,32.5,0|0|0|0,0:0|0:0|0:0|0:0,0:0:0:0:
212,96,79448,2,0,L|152:88,3,32.5,0|0|0|0,0:0|0:0|0:0|0:0,0:0:0:0:
292,184,79853,2,0,L|352:176,3,32.5,0|0|0|0,0:0|0:0|0:0|0:0,0:0:0:0:
424,208,80258,22,0,B|292:200|292:200|192:248|192:248|32:240,1,390,0|4,0:0|0:0,0:0:0:0:
45,240,81886,22,0,P|20:196|4:92,1,155.999995239258,4|2,0:0|2:0,0:0:0:0:
152,48,82486,1,0,0:0:0:0:
152,48,82686,2,0,P|177:91|193:196,1,155.999995239258,0|2,0:0|2:0,0:0:0:0:
164,348,83286,1,0,0:0:0:0:
164,348,83486,2,0,L|108:340,3,38.9999988098145,4|0|0|0,0:0|0:0|0:0|0:0,0:0:0:0:
232,316,83886,2,0,L|270:321,3,38.9999988098145,2|0|0|0,2:0|0:0|0:0|0:0,0:0:0:0:
344,360,84286,2,0,P|376:308|384:264,1,97.5,14|0,0:0|2:0,0:0:0:0:
383,272,84686,2,0,P|368:220|368:172,1,97.5,6|0,0:0|2:0,0:0:0:0:
367,176,85086,21,4,0:0:0:0:
480,148,85286,1,0,2:0:0:0:
452,32,85486,1,2,2:0:0:0:
336,56,85686,1,0,0:0:0:0:
208,84,85886,2,0,P|208:156|244:232,1,155.999995239258,8|2,0:0|2:0,0:0:0:0:
316,344,86486,1,0,0:0:0:0:
316,344,86686,5,0,0:0:0:0:
408,192,86986,1,0,0:0:0:0:
408,192,87086,2,0,P|364:196|324:212,1,77.999997619629,0|0,0:0|0:0,0:0:0:0:
184,264,87486,6,0,B|128:280|128:280|40:260,1,146.250005578995,6|0,0:0|2:0,0:0:0:0:
32,272,87886,2,0,P|0:208|8:128,1,146.250005578995,2|0,0:0|0:0,0:0:0:0:
5,135,88286,5,4,0:0:0:0:
120,112,88486,1,0,2:0:0:0:
228,92,88686,2,0,L|308:76,1,77.999997619629,2|0,2:0|0:0,0:0:0:0:
436,100,89086,2,0,B|448:136|448:136|432:180,1,77.999997619629,8|2,0:0|0:0,0:0:0:0:
434,173,89386,2,2,B|419:227|419:227|435:291,1,116.999996429443,0|0,2:0|0:0,0:0:0:0:
344,364,89886,2,0,L|332:312,3,38.9999988098145,4|0|0|0,0:0|0:0|0:0|0:0,0:0:0:0:
232,316,90286,2,0,L|244:356,3,38.9999988098145,2|0|0|0,2:0|0:0|0:0|0:0,0:0:0:0:
232,316,90686,22,0,P|176:312|124:288,1,97.5,14|0,0:0|2:0,0:0:0:0:
104,304,91086,2,0,L|88:192,1,97.5,6|0,0:0|2:0,0:0:0:0:
90,207,91486,21,6,0:0:0:0:
136,24,91786,1,2,0:0:0:0:
90,207,92086,1,0,0:0:0:0:
240,168,92286,1,8,0:0:0:0:
240,168,92486,2,0,L|252:272,1,77.999997619629,0|2,0:0|2:0,0:0:0:0:
396,300,92886,2,0,L|387:222,1,77.999997619629,2|0,0:0|0:0,0:0:0:0:
456,44,93386,1,0,0:0:0:0:
456,44,93486,1,0,0:0:0:0:
300,56,93686,1,0,0:0:0:0:
240,168,93886,6,0,L|252:272,1,97.50000371933,14|0,0:0|2:0,0:0:0:0:
116,364,94286,1,0,0:0:0:0:
116,364,94386,1,0,0:0:0:0:
116,364,94486,1,0,0:0:0:0:
96,208,94686,5,4,0:0:0:0:
104,76,94886,1,8,0:3:0:0:
96,208,95086,1,2,2:0:0:0:
104,76,95286,1,0,0:0:0:0:
236,92,95486,22,0,P|324:80|416:8,1,195,12|0,0:0|0:0,0:0:0:0:
408,18,96286,21,0,0:0:0:0:
444,156,96486,1,0,2:0:0:0:
444,156,96586,2,0,B|464:196|464:196|448:268,1,116.999996429443,0|0,0:0|0:0,0:0:0:0:
336,304,97086,2,0,P|284:300|192:344,1,155.999995239258,8|2,0:0|2:0,0:0:0:0:
192,343,97686,1,0,0:0:0:0:
64,316,97886,2,0,L|80:140,1,155.999995239258,4|2,0:0|2:0,0:0:0:0:
188,88,98486,1,0,0:0:0:0:
188,88,98686,6,0,B|248:80|248:80|272:88|272:88|340:76,1,146.250005578995,10|0,0:0|2:0,0:0:0:0:
320,156,99086,2,0,B|260:166|260:166|236:158|236:158|176:166,1,146.250005578995,2|0,0:0|2:0,0:0:0:0:
152,180,99486,6,0,P|152:232|196:304,2,116.999996429443,0|0|0,0:0|0:0|0:0,0:0:0:0:
180,72,100286,2,0,L|376:84,1,195,12|0,0:0|0:0,0:0:0:0:
476,168,101086,6,0,P|480:220|448:280,2,116.999996429443,4|0|0,0:0|0:0|0:0,0:0:0:0:
374,83,101886,2,2,L|132:68,1,233.999992858887,8|0,0:0|0:0,0:0:0:0:
68,160,102686,2,0,L|12:156,3,38.9999988098145,0|0|0|0,0:0|0:0|0:0|0:0,0:0:0:0:
112,248,103086,2,0,L|168:244,3,38.9999988098145,2|0|0|0,2:0|0:0|0:0|0:0,0:0:0:0:
112,248,103486,6,0,P|108:312|148:384,1,146.250005578995,10|0,0:0|2:0,0:0:0:0:
232,332,103886,2,0,P|304:332|376:376,1,146.250005578995,2|0,0:0|2:0,0:0:0:0:
367,367,104286,21,4,0:0:0:0:
468,232,104586,1,0,0:0:0:0:
468,232,104686,2,0,L|472:152,1,77.999997619629,0|0,2:0|0:0,0:0:0:0:
412,40,105086,2,2,P|384:96|252:152,1,195,8|0,0:0|0:0,0:0:0:0:
156,104,105886,2,0,L|100:100,3,38.9999988098145
230,155,106286,2,0,L|286:151,3,38.9999988098145,2|0|0|0,2:0|0:0|0:0|0:0,0:0:0:0:
230,155,106686,6,0,P|226:235|254:303,1,146.250005578995,0|0,0:0|2:0,0:0:0:0:
360,284,107086,2,0,P|364:204|336:136,1,146.250005578995,2|0,0:0|2:0,0:0:0:0:
340,143,107486,1,4,0:0:0:0:
416,188,119286,6,0,L|432:224,4,32.5,8|0|2|0|0,1:1|0:0|0:0|0:0|0:0,0:0:0:0:
440,80,119886,1,4,2:0:0:0:
440,80,120286,6,0,P|372:84|296:96,1,130,4|2,0:0|2:0,0:0:0:0:
240,180,120886,1,0,0:0:0:0:
240,180,121086,2,0,P|175:176|110:168,1,130,8|2,0:0|2:0,0:0:0:0:
60,68,121686,1,0,0:0:0:0:
60,68,121886,2,0,L|112:60,3,32.5,0|0|0|0,0:0|0:0|0:0|0:0,0:0:0:0:
104,144,122286,2,0,L|71:148,3,32.5,2|0|0|0,2:0|0:0|0:0|0:0,0:0:0:0:
104,144,122686,6,0,B|126:244,1,97.5,12|0,0:0|2:0,0:0:0:0:
150,248,123086,2,0,P|202:264|246:308,1,97.5,12|0,0:0|2:0,0:0:0:0:
234,291,123486,5,4,0:0:0:0:
408,336,123786,1,0,0:0:0:0:
236,296,124086,1,0,0:0:0:0:
316,236,124286,2,0,B|344:192|344:192|324:40,1,195,8|0,0:0|0:0,0:0:0:0:
216,40,125086,2,0,P|153:36|108:16,2,97.5,0|0|0,0:0|0:0|0:0,0:0:0:0:
344,76,125886,22,0,P|408:68|440:68,1,77.999997619629,12|0,0:0|2:0,0:0:0:0:
448,76,126186,2,0,L|432:200,1,116.999996429443,8|8,1:0|0:0,0:0:0:0:
420,204,126586,1,4,0:0:0:0:
408,216,126686,5,0,0:0:0:0:
260,320,127086,1,2,2:0:0:0:
316,224,127286,1,0,0:0:0:0:
188,232,127486,22,0,P|144:248|112:284,1,77.999997619629,12|2,0:0|0:0,0:0:0:0:
121,268,127786,2,0,L|99:143,1,116.999996429443,0|0,0:0|0:0,0:0:0:0:
152,52,128286,22,0,L|200:8,2,43.3333333333333
101,152,128686,2,0,L|48:148,2,43.3333333333333,0|0|0,0:0|0:0|0:0,0:0:0:0:
212,136,129086,6,0,P|268:128|352:124,1,126.749994197846,12|0,0:0|2:0,0:0:0:0:
352,208,129486,2,0,P|296:215|212:219,1,126.749994197846,0|0,0:0|0:0,0:0:0:0:
208,232,129886,6,0,L|224:328,2,97.5,0|0|0,0:0|0:0|0:0,0:0:0:0:
132,128,130686,1,8,0:0:0:0:
296,32,130886,22,0,L|292:120,1,84.4999961318971,2|0,0:0|0:0,0:0:0:0:
132,128,131286,2,0,L|135:43,1,84.4999961318971,2|4,0:0|0:0,0:0:0:0:
376,100,131786,5,0,0:0:0:0:
376,100,131886,2,0,L|372:172,1,65,0|0,0:0|0:0,0:0:0:0:
336,284,132286,2,0,P|304:304|272:336,1,65,8|0,0:0|0:0,0:0:0:0:
156,352,132686,1,8,0:0:0:0:
156,352,132786,1,0,0:0:0:0:
156,352,132886,1,0,0:0:0:0:
172,224,133086,6,0,P|204:244|236:276,2,65,4|4|2,0:0|3:0|2:0,0:0:0:0:
60,236,133686,1,0,0:0:0:0:
100,132,133886,2,0,B|160:124|160:124|228:72,1,130,8|2,0:0|2:0,0:0:0:0:
215,81,134486,1,0,0:0:0:0:
324,60,134686,21,0,0:0:0:0:
484,180,134986,1,0,0:0:0:0:
484,180,135086,2,0,L|480:272,1,65,0|0,2:0|0:0,0:0:0:0:
380,196,135486,2,0,L|376:344,1,130,8|2,0:0|2:0,0:0:0:0:
272,292,136086,1,0,0:0:0:0:
272,292,136286,2,0,P|208:304|144:352,1,130,0|2,0:0|2:0,0:0:0:0:
376,325,136886,1,0,0:0:0:0:
376,325,137086,22,0,L|379:207,1,116.999996429443,12|0,0:0|2:0,0:0:0:0:
336,132,137486,2,0,P|296:124|264:104,1,77.999997619629,0|0,0:0|2:0,0:0:0:0:
344,28,137886,21,0,0:0:0:0:
180,32,138186,1,0,0:0:0:0:
344,28,138486,1,0,0:0:0:0:
460,76,138686,6,0,L|460:176,1,97.50000371933,14|0,0:0|0:0,0:0:0:0:
320,296,139086,2,0,B|352:252|352:252|352:156,1,146.250005578995,2|0,0:0|2:0,0:0:0:0:
328,156,139486,6,0,P|284:152|220:116,2,97.5,4|0|0,0:0|0:0|0:0,0:0:0:0:
404,236,140286,2,0,P|344:248|256:360,1,195,12|0,0:0|0:0,0:0:0:0:
176,304,141086,2,0,L|120:300,3,32.5
259,345,141486,2,0,L|315:341,3,32.5,0|0|0|0,0:0|0:0|0:0|0:0,0:0:0:0:
248,248,141886,22,0,P|232:196|240:120,1,116.999996429443,14|0,0:0|2:0,0:0:0:0:
240,116,142286,2,0,B|280:88|280:88|296:16,1,116.999996429443,2|0,0:0|2:0,0:0:0:0:
294,21,142686,21,4,0:0:0:0:
460,44,142986,1,0,0:0:0:0:
294,21,143286,1,0,0:0:0:0:
184,44,143486,2,2,B|152:104|152:104|188:232,1,195,14|0,0:0|0:0,0:0:0:0:
280,284,144286,2,0,L|268:332,3,32.5,0|0|0|0,0:0|0:0|0:0|0:0,0:0:0:0:
186,226,144686,2,0,L|193:194,3,32.5,0|0|0|0,0:0|0:0|0:0|0:0,0:0:0:0:
164,240,145086,6,0,B|196:220|196:220|472:244,1,292.50001115799,12|0,0:0|2:0,0:0:0:0:
449,242,145886,6,0,P|475:195|491:91,1,155.999995239258,6|2,0:0|2:0,0:0:0:0:
384,20,146486,1,0,2:0:0:0:
384,20,146686,2,0,L|216:32,1,155.999995239258,12|0,0:0|2:0,0:0:0:0:
128,116,147286,1,0,2:0:0:0:
128,116,147486,2,0,P|96:112|68:104,3,38.9999988098145,0|0|0|0,0:0|0:0|0:0|0:0,0:0:0:0:
212,152,147886,2,0,P|242:142|271:138,3,38.9999988098145,0|0|0|0,2:0|0:0|0:0|0:0,0:0:0:0:
212,152,148286,22,2,P|212:200|228:256,1,97.5,14|0,0:0|2:0,0:0:0:0:
308,272,148686,2,2,B|356:280|356:280|396:328,1,97.5,0|0,0:0|2:0,0:0:0:0:
404,340,149086,22,0,L|412:176,1,155.999995239258,6|2,0:0|2:0,0:0:0:0:
316,112,149686,1,0,0:0:0:0:
316,112,149886,2,0,P|244:80|200:16,1,155.999995239258,12|2,0:0|2:0,0:0:0:0:
92,92,150486,1,0,0:0:0:0:
92,92,150686,1,6,0:0:0:0:
28,268,150986,1,2,0:0:0:0:
92,92,151286,1,0,0:0:0:0:
160,180,151486,6,2,B|179:169|179:169|196:184|196:184|211:170|211:170|224:185|224:185|239:171|239:171|253:186|253:186|271:172|271:172|289:186|289:186|308:172|308:172|321:187|321:187|340:173|340:173|361:186,1,260,6|4,0:0|0:0,0:0:0:0:
468,352,152586,5,0,2:0:0:0:
468,352,152686,2,0,L|360:348,1,77.999997619629,2|0,2:0|0:0,0:0:0:0:
272,288,153086,2,0,P|232:304|200:344,1,77.999997619629,14|0,0:0|0:0,0:0:0:0:
208,328,153386,2,0,L|64:320,1,116.999996429443,0|0,2:0|0:0,0:0:0:0:
36,200,153886,2,0,P|31:172|32:144,2,51.999998413086,0|0|0,0:0|0:0|0:0,0:0:0:0:
148,228,154286,2,0,P|147:253|143:279,2,51.999998413086,0|0|0,0:0|0:0|0:0,0:0:0:0:
148,228,154686,22,2,P|208:220|248:208,1,97.5,14|0,0:0|2:0,0:0:0:0:
228,120,155086,2,2,P|168:127|128:139,1,97.5,2|0,0:0|2:0,0:0:0:0:
132,138,155486,22,0,P|104:96|88:24,2,116.999996429443,6|2|0,0:0|0:0|0:0,0:0:0:0:
232,224,156286,1,12,0:0:0:0:
312,116,156486,2,0,L|412:104,1,77.999997619629,2|0,0:0|0:0,0:0:0:0:
309,214,156886,2,0,L|231:223,1,77.999997619629,2|4,0:0|0:0,0:0:0:0:
72,340,157386,1,0,0:0:0:0:
72,340,157486,1,0,2:0:0:0:
204,328,157686,1,0,0:0:0:0:
72,340,157886,6,0,P|56:288|48:208,1,97.50000371933,12|0,0:0|0:0,0:0:0:0:
68,80,158286,1,12,0:0:0:0:
68,80,158386,1,0,0:0:0:0:
68,80,158486,1,0,0:0:0:0:
160,176,158686,6,0,P|208:152|272:68,1,155.999995239258,4|2,0:0|2:0,0:0:0:0:
270,72,159286,1,0,0:0:0:0:
336,160,159486,2,2,B|344:232|344:232|374:272|374:272|380:352,1,195,12|0,0:0|2:0,0:0:0:0:
248,372,160286,2,0,L|240:284,1,77.999997619629,0|0,0:0|2:0,0:0:0:0:
240,294,160586,2,0,P|172:280|128:292,1,116.999996429443,0|0,0:0|0:0,0:0:0:0:
24,312,161086,22,2,B|28:212,1,97.5,14|0,0:0|2:0,0:0:0:0:
16,184,161486,2,2,P|52:152|72:100,1,97.5,2|0,0:0|2:0,0:0:0:0:
70,107,161886,22,0,L|244:100,1,155.999995239258,4|2,0:0|2:0,0:0:0:0:
332,20,162486,1,0,0:0:0:0:
428,128,162686,6,0,P|424:200|412:276,1,146.250005578995,14|0,0:0|2:0,0:0:0:0:
332,260,163086,2,0,P|336:188|348:111,1,146.250005578995,2|0,0:0|2:0,0:0:0:0:
347,114,163486,6,0,B|224:96,2,116.999996429443,0|0|0,0:0|0:0|0:0,0:0:0:0:
328,256,164286,2,2,B|260:248|260:248|200:268|200:268|132:260,1,195,14|0,0:0|2:0,0:0:0:0:
40,288,165086,6,0,P|12:248|8:176,2,116.999996429443,6|2|2,0:0|0:0|0:0,0:0:0:0:
152,288,165886,2,0,P|155:192|102:111,1,195,12|0,0:0|0:0,0:0:0:0:
40,32,166686,2,0,L|-14:25,3,38.9999988098145
136,24,167086,2,0,L|174:29,3,38.9999988098145,0|0|0|0,0:0|0:0|0:0|0:0,0:0:0:0:
174,29,167486,6,2,P|180:88|216:184,1,146.250005578995,14|0,0:0|2:0,0:0:0:0:
292,160,167886,2,2,P|286:101|250:5,1,146.250005578995,2|0,0:0|2:0,0:0:0:0:
258,19,168286,6,0,L|384:16,2,116.999996429443,6|2|2,0:0|0:0|0:0,0:0:0:0:
200,112,169086,2,2,B|176:184|176:184|216:308,1,195,12|0,0:0|0:0,0:0:0:0:
344,320,169886,2,0,L|340:368,3,38.9999988098145,0|0|0|0,0:0|0:0|0:0|0:0,0:0:0:0:
292,240,170286,2,0,L|280:200,3,38.9999988098145,0|0|0|0,0:0|0:0|0:0|0:0,0:0:0:0:
388,240,170686,22,2,P|440:224|504:156,1,146.250005578995,14|12,0:0|0:0,0:0:0:0:
484,80,171086,2,0,L|384:56,1,97.50000371933,0|14,2:0|0:0,0:0:0:0:
280,48,171486,22,0,B|296:92|296:92|268:192,1,130,4|2,0:0|2:0,0:0:0:0:
200,280,172086,1,0,0:0:0:0:
200,280,172286,2,0,L|44:268,1,130,8|2,0:0|2:0,0:0:0:0:
28,148,172886,1,0,0:0:0:0:
28,148,173086,1,0,0:0:0:0:
204,64,173386,1,0,0:0:0:0:
28,148,173686,1,0,0:0:0:0:
36,276,173886,2,0,P|100:256|140:196,1,130,8|2,0:0|2:0,0:0:0:0:
204,64,174486,1,0,0:0:0:0:
204,64,174686,22,0,L|344:72,1,130,0|2,0:0|2:0,0:0:0:0:
444,140,175286,1,0,0:0:0:0:
444,140,175386,1,0,0:0:0:0:
444,140,175486,2,0,B|464:180|464:180|448:264,1,130,8|2,0:0|2:0,0:0:0:0:
392,380,176086,1,0,0:0:0:0:
392,380,176286,1,0,0:0:0:0:
196,364,176586,1,0,0:0:0:0:
392,380,176886,1,0,0:0:0:0:
360,256,177086,1,8,3:0:0:0:
360,256,177186,1,0,0:0:0:0:
360,256,177286,1,0,0:0:0:0:
232,244,177486,2,0,L|220:172,1,65,4|0,2:0|0:0,0:0:0:0:
108,248,177886,6,0,L|84:108,1,130,4|2,0:0|2:0,0:0:0:0:
172,20,178486,1,0,0:0:0:0:
156,148,178686,2,0,P|100:128|52:56,1,130,8|2,0:0|2:0,0:0:0:0:
172,20,179286,1,0,0:0:0:0:
300,36,179486,1,0,0:0:0:0:
492,16,179786,1,0,0:0:0:0:
300,36,180086,1,0,0:0:0:0:
252,156,180286,2,0,L|268:296,1,130,8|2,0:0|2:0,0:0:0:0:
392,320,180886,1,0,0:0:0:0:
392,320,181086,22,0,L|377:190,1,130,0|2,0:0|2:0,0:0:0:0:
416,68,181686,1,0,0:0:0:0:
416,68,181786,1,0,0:0:0:0:
416,68,181886,2,0,P|352:64|284:28,1,130,8|2,0:0|2:0,0:0:0:0:
172,84,182486,1,0,0:0:0:0:
172,84,182686,2,0,P|132:60|72:56,2,97.5,0|0|0,0:0|0:0|0:0,0:0:0:0:
272,160,183486,22,2,B|258:176|258:176|268:196|268:196|252:208|252:208|263:224|263:224|247:236|247:236|258:252|258:252|241:267|241:267|251:287|251:287|233:303|233:303|245:319|245:319|227:334|227:334|236:358,1,260,10|4,0:0|0:0,0:0:0:0:
388,284,184586,21,0,0:0:0:0:
388,284,184686,2,0,L|404:200,1,77.999997619629,0|0,2:0|0:0,0:0:0:0:
336,96,185086,2,2,P|276:80|220:24,1,130,10|0,0:0|0:0,0:0:0:0:
226,35,185686,1,2,2:0:0:0:
136,160,185886,6,0,L|4:152,2,116.999996429443,4|0|0,0:0|0:0|0:0,0:0:0:0:
256,216,186686,6,2,B|308:208|308:208|328:212|328:212|388:204,1,130,10|0,0:0|0:0,0:0:0:0:
496,268,187286,1,2,2:0:0:0:
476,112,187486,22,0,B|425:118|425:118|401:114|401:114|349:122,2,116.999996429443,4|0|0,0:0|0:0|0:0,0:0:0:0:
336,208,188286,22,2,P|292:172|276:96,1,130,10|0,0:0|0:0,0:0:0:0:
372,16,188886,1,2,2:0:0:0:
372,16,189086,1,4,0:0:0:0:
176,36,189386,1,0,0:0:0:0:
372,16,189686,1,0,0:0:0:0:
312,132,189886,2,2,P|304:196|304:276,1,130,10|0,0:0|0:0,0:0:0:0:
420,316,190486,5,2,2:0:0:0:
420,316,190586,1,0,0:0:0:0:
420,316,190686,2,0,P|428:252|428:184,2,116.999996429443,4|0|0,0:0|0:0|0:0,0:0:0:0:
292,336,191486,6,2,B|240:324|240:324|152:360,1,130,14|0,0:0|0:0,0:0:0:0:
40,356,192086,1,2,2:0:0:0:
40,356,192286,22,0,L|48:228,2,116.999996429443,4|0|0,0:0|0:0|0:0,0:0:0:0:
160,232,193086,22,2,P|196:208|228:128,1,130,14|0,0:0|0:0,0:0:0:0:
228,0,193686,1,2,2:0:0:0:
76,28,193886,6,0,L|92:156,2,116.999996429443,4|0|0,0:0|0:0|0:0,0:0:0:0:
192,88,194686,6,2,B|200:136|200:136|220:164|220:164|228:212,1,130,14|0,0:0|0:0,0:0:0:0:
227,210,195286,1,2,2:0:0:0:
164,352,195486,22,0,P|108:340|56:296,2,116.999996429443,4|0|0,0:0|0:0|0:0,0:0:0:0:
164,352,196286,2,0,B|216:320|216:320|424:336,1,260,8|4,0:0|0:0,0:0:0:0:
256,192,197186,12,0,203586,0:0:0:0:
