osu file format v14

[General]
AudioFilename: audio.mp3
AudioLeadIn: 0
PreviewTime: 62776
Countdown: 0
SampleSet: Soft
StackLeniency: 0.7
Mode: 0
LetterboxInBreaks: 0
WidescreenStoryboard: 1

[Editor]
Bookmarks: 13312,33438,53863
DistanceSpacing: 1.4
BeatDivisor: 4
GridSize: 16
TimelineZoom: 1

[Metadata]
Title:Shinkai Shoujo-piano ver.-
TitleUnicode:深海少女-piano ver.-
Artist:Erosion
ArtistUnicode:Erosion
Creator:osuskrub
Version:Jennglebells' Hard
Source:
Tags:deep sea girl 小五 hatsune miku vocaloid utaite xiao wu Jennglebells
BeatmapID:1410353
BeatmapSetID:652472

[Difficulty]
HPDrainRate:5
CircleSize:4
OverallDifficulty:5.5
ApproachRate:6.5
SliderMultiplier:1.4
SliderTickRate:1

[Events]
//Background and Video events
0,0,"annie mays.jpg",0,0
//Break Periods
//Storyboard Layer 0 (Background)
//Storyboard Layer 1 (Fail)
//Storyboard Layer 2 (Pass)
//Storyboard Layer 3 (Foreground)
//Storyboard Sound Samples

[TimingPoints]
5122,545.454545454546,4,2,1,35,1,0
5394,666.666666666667,4,2,1,35,1,0
5727,610.376398779247,4,2,1,35,1,0
11220,598.205383848455,4,2,1,40,1,0
12715,545.454545454546,4,2,1,40,1,0
12987,650.759219088937,4,2,1,40,1,0
13312,595.238095238095,4,2,1,40,1,0
15097,613.496932515337,4,2,1,40,1,0
15403,613.496932515337,4,2,1,45,1,0
16016,601.202404809619,4,2,1,45,1,0
16617,595.238095238095,4,2,1,45,1,0
18997,607.287449392713,4,2,1,45,1,0
20211,601.202404809619,4,2,1,40,1,0
22615,575.815738963532,4,2,1,35,1,0
23190,623.700623700624,4,2,1,35,1,0
23813,595.238095238095,4,2,1,35,1,0
24408,722.89156626506,4,2,1,40,1,0
24769,789.473684210526,4,2,1,40,1,0
25045,599.101347978033,4,2,1,45,1,0
32833,605.143721633888,4,2,1,45,1,0
33438,607.287449392713,4,2,1,45,1,0
34045,599.101347978033,4,2,1,45,1,0
34644,599.101347978033,4,2,1,45,1,0
38238,624.349635796046,4,2,1,45,1,0
38862,821.917808219178,4,2,1,45,1,0
39135,600,4,2,1,45,1,0
39435,601.202404809619,4,2,1,45,1,0
59543,595.238095238095,4,2,1,50,1,0
60459,600,4,2,1,50,1,0
62567,571.428571428571,4,2,1,55,1,0
62852,606.060606060606,4,2,1,55,1,0
62852,-62.5,4,2,1,55,0,0
63458,600,4,2,1,60,1,1
63458,-90.9090909090909,4,2,1,60,0,1
71858,604.838709677419,4,2,1,60,1,1
72462,612.244897959184,4,2,1,60,1,1
73074,600,4,2,1,60,1,1
79674,606.060606060606,4,2,1,60,1,1
80280,600,4,2,1,60,1,1
80280,-90.9090909090909,4,2,1,60,0,1
81780,571.428571428571,4,2,1,60,1,1
81780,-90.9090909090909,4,2,1,60,0,1
82065,631.578947368421,4,2,1,60,1,1
82696,606.060606060606,4,2,1,50,1,1
83302,612.244897959184,4,2,1,50,1,1
83914,606.060606060606,4,2,1,50,1,1
84520,631.578947368421,4,2,1,50,1,1
84835,572.519083969466,4,2,1,60,1,1
84978,618.556701030928,4,2,1,60,1,1
85132,638.297872340426,4,2,1,50,1,0
86352,606.060606060606,4,2,1,50,1,0
87002,645.161290322581,4,2,1,50,1,0
87336,625,4,2,1,50,1,0
87854,659.340659340659,4,2,1,50,1,0
87856,-166.666666666667,4,2,1,50,0,0
88515,947.867298578199,4,2,1,20,1,0
89462,631.578947368421,4,2,1,30,1,0

[Colours]
Combo1 : 160,66,255
Combo2 : 10,209,238
Combo3 : 18,124,255
Combo4 : 138,153,184

[HitObjects]
19,220,5122,6,0,P|10:185|6:137,1,70,0|0,0:0|0:0,0:0:0:0:
94,272,5727,1,2,0:0:0:0:
148,176,6032,1,0,0:0:0:0:
296,215,6337,2,0,P|252:230|213:224,1,70,2|0,0:0|0:0,0:0:0:0:
95,87,6947,2,0,P|160:71|231:114,1,140,2|2,0:0|0:0,0:0:0:0:
293,161,7863,1,0,0:0:0:0:
374,110,8168,6,0,P|383:75|387:27,1,70,2|0,0:0|0:0,0:0:0:0:
288,179,8778,2,0,P|279:214|275:262,1,70,2|0,0:0|0:0,0:0:0:0:
198,321,9389,1,0,0:0:0:0:
127,247,9694,2,0,P|60:263|0:233,1,140,2|0,0:0|0:0,0:0:0:0:
72,169,10610,6,0,P|75:99|84:30,1,140,2|0,0:0|0:0,0:0:0:0:
166,160,11818,1,0,0:0:0:0:
202,61,12117,1,0,0:0:0:0:
278,123,12416,2,0,P|314:137|363:140,1,70,2|0,0:0|0:0,0:0:0:0:
434,97,12987,5,2,0:0:0:0:
498,178,13312,1,0,0:0:0:0:
442,254,13609,1,2,0:0:0:0:
349,235,13907,1,0,0:0:0:0:
256,250,14204,2,0,P|217:255|173:277,1,70,2|0,0:0|0:0,0:0:0:0:
63,180,14800,2,0,P|101:185|145:207,1,70,2|0,0:0|0:0,0:0:0:0:
189,297,15403,6,0,P|189:331|182:366,2,70,2|0|0,0:0|0:0|0:0,0:0:0:0:
129,198,16316,1,0,0:0:0:0:
32,128,16617,2,0,P|29:202|42:281,1,140,2|2,0:0|0:0,0:0:0:0:
93,344,17509,1,0,0:0:0:0:
175,284,17807,2,0,P|209:284|244:291,1,70,2|0,0:0|0:0,0:0:0:0:
359,376,18402,2,0,P|325:376|290:369,1,70,2|0,0:0|0:0,0:0:0:0:
241,254,18997,6,0,P|241:220|248:185,2,70,2|2|2,0:0|0:0|0:0,0:0:0:0:
348,227,19907,1,0,0:0:0:0:
348,227,20059,1,0,0:0:0:0:
348,227,20211,1,2,0:0:0:0:
397,312,20511,1,0,0:0:0:0:
494,294,20812,1,2,0:0:0:0:
512,198,21112,2,0,L|505:139,1,35
464,140,21413,6,0,L|455:56,1,70,2|0,0:0|0:0,0:0:0:0:
355,95,22014,2,0,P|316:90|285:67,1,70,2|0,0:0|0:0,0:0:0:0:
265,173,22615,2,0,P|220:143|114:167,1,140,2|2,0:0|0:0,0:0:0:0:
62,207,23501,1,0,0:0:0:0:
105,292,23813,2,0,P|150:322|257:317,1,140,2|2,0:0|0:0,0:0:0:0:
303,278,24769,1,0,0:0:0:0:
400,343,25045,6,0,P|443:358|478:355,1,70,2|0,0:0|0:0,0:0:0:0:
267,251,25644,2,0,P|224:236|189:239,1,70,2|2,0:0|0:0,0:0:0:0:
170,308,26243,2,0,L|166:139,1,140,2|2,0:0|0:0,0:0:0:0:
253,52,27441,6,0,P|294:63|332:93,1,70,2|0,0:0|0:0,0:0:0:0:
334,163,28040,2,0,P|366:176|400:179,1,70,2|0,0:0|0:0,0:0:0:0:
448,111,28639,2,0,L|440:258,1,140,2|0,0:0|0:0,0:0:0:0:
300,261,29837,6,0,P|242:266|184:317,1,105,2|0,0:0|0:0,0:0:0:0:
173,303,30436,2,0,P|171:259|161:209,1,70,2|0,0:0|0:0,0:0:0:0:
68,176,31036,2,0,P|70:220|80:270,1,70,2|0,0:0|0:0,0:0:0:0:
224,154,31635,2,0,P|222:110|212:60,1,70,2|0,0:0|0:0,0:0:0:0:
132,44,32234,5,2,0:0:0:0:
62,117,32533,1,0,0:0:0:0:
105,208,32833,1,2,0:0:0:0:
204,188,33135,1,0,0:0:0:0:
301,159,33438,2,0,P|346:165|377:187,1,70,2|0,0:0|0:0,0:0:0:0:
477,230,34045,6,0,P|432:236|401:258,1,70,2|0,0:0|0:0,0:0:0:0:
371,329,34644,2,0,P|340:344|305:347,2,70,2|0|2,0:0|0:0|0:0,0:0:0:0:
317,252,35542,1,0,0:0:0:0:
227,285,35842,2,0,P|183:296|89:263,1,140,2|2,0:0|0:0,0:0:0:0:
27,212,36740,1,0,0:0:0:0:
169,118,37040,6,0,L|155:206,1,70,2|0,0:0|0:0,0:0:0:0:
257,257,37639,2,0,L|246:187,1,70,0|0,0:0|0:0,0:0:0:0:
271,87,38238,2,0,P|338:70|419:104,1,140,2|2,0:0|0:0,0:0:0:0:
472,168,39135,5,0,0:0:0:0:
472,168,39285,1,0,0:0:0:0:
472,168,39435,1,2,0:0:0:0:
418,250,39735,1,0,0:0:0:0:
355,175,40036,1,2,0:0:0:0:
288,246,40336,1,0,0:0:0:0:
230,168,40637,2,0,P|187:154|153:156,1,70,2|0,0:0|0:0,0:0:0:0:
107,227,41238,2,0,P|72:225|39:213,1,70,2|0,0:0|0:0,0:0:0:0:
0,279,41839,6,0,L|2:137,1,140,2|2,0:0|0:0,0:0:0:0:
88,84,42741,1,0,0:0:0:0:
161,153,43042,2,0,P|229:168|292:129,1,140,2|0,0:0|0:0,0:0:0:0:
396,167,44244,6,0,B|430:177|430:177|486:177,1,70,2|0,0:0|0:0,0:0:0:0:
474,299,44845,2,0,B|440:309|440:309|384:309,1,70,2|0,0:0|0:0,0:0:0:0:
308,273,45447,2,0,B|235:277|235:277|163:309,1,140,2|0,0:0|0:0,0:0:0:0:
45,312,46649,6,0,L|39:216,1,70,2|0,0:0|0:0,0:0:0:0:
98,181,47250,2,0,L|93:111,1,70,2|0,0:0|0:0,0:0:0:0:
129,76,47701,1,0,0:0:0:0:
163,51,47851,2,0,B|200:49|200:49|255:62,1,70,2|0,0:0|0:0,0:0:0:0:
268,145,48453,2,0,B|300:152|300:152|337:150,1,70,2|0,0:0|0:0,0:0:0:0:
407,98,49054,5,2,0:0:0:0:
454,184,49354,1,0,0:0:0:0:
395,260,49655,2,0,L|389:344,1,70,2|0,0:0|0:0,0:0:0:0:
313,358,50256,2,0,B|259:369|259:369|204:357,1,105,2|0,0:0|0:0,0:0:0:0:
185,329,50857,2,0,B|148:325|148:325|115:331,1,70,0|2,0:0|0:0,0:0:0:0:
38,280,51459,6,0,L|32:203,1,70,2|0,0:0|0:0,0:0:0:0:
124,170,52060,2,0,L|130:247,1,70,0|0,0:0|0:0,0:0:0:0:
185,329,52661,1,2,0:0:0:0:
281,372,52962,1,2,0:0:0:0:
353,296,53262,1,2,0:0:0:0:
296,207,53563,1,0,0:0:0:0:
197,236,53863,6,0,P|151:244|102:224,1,70,2|0,0:0|0:0,0:0:0:0:
128,239,54314,1,0,0:0:0:0:
128,239,54465,1,0,0:0:0:0:
61,170,54765,1,0,0:0:0:0:
104,90,55066,2,0,P|138:89|172:99,1,70,2|0,0:0|0:0,0:0:0:0:
172,99,55517,1,0,0:0:0:0:
172,99,55667,1,0,0:0:0:0:
262,47,55968,1,0,0:0:0:0:
359,79,56268,6,0,P|393:78|427:88,2,70,2|0|0,0:0|0:0|0:0,0:0:0:0:
313,160,57170,1,0,0:0:0:0:
224,178,57471,2,0,P|178:191|141:220,1,70,2|0,0:0|0:0,0:0:0:0:
60,252,58072,2,0,P|106:265|143:294,1,70,2|0,0:0|0:0,0:0:0:0:
213,340,58673,6,0,P|263:349|338:316,1,105,2|0,0:0|0:0,0:0:0:0:
349,314,59274,1,0,0:0:0:0:
427,244,59543,2,0,L|433:160,1,70,2|0,0:0|0:0,0:0:0:0:
352,109,60138,1,0,0:0:0:0:
233,238,60459,5,0,0:0:0:0:
205,160,60759,2,0,P|240:158|274:168,1,70,2|0,0:0|0:0,0:0:0:0:
201,63,61359,1,2,0:0:0:0:
109,196,61659,1,2,0:0:0:0:
106,38,61959,1,2,0:0:0:0:
205,160,62259,1,2,0:0:0:0:
50,118,62567,1,2,0:0:0:0:
109,196,62852,6,0,B|117:244|81:269|79:299|113:317|146:287|137:257|116:255,1,112,2|0,0:0|0:0,0:0:0:0:
209,255,63458,6,0,P|251:249|313:269,1,77.0000023498536,2|0,0:0|0:0,0:0:0:0:
309,365,64058,2,0,P|346:371|384:365,1,77.0000023498536,2|0,0:0|0:0,0:0:0:0:
466,254,64658,2,0,P|393:255|352:311,1,115.50000352478,2|0,0:0|0:0,0:0:0:0:
326,274,65258,2,0,P|333:229|326:185,1,77.0000023498536,2|0,0:0|0:0,0:0:0:0:
187,162,65858,6,0,P|180:207|187:251,1,77.0000023498536,2|0,0:0|0:0,0:0:0:0:
248,320,66458,1,2,0:0:0:0:
299,235,66758,1,2,0:0:0:0:
356,309,67058,2,0,P|392:321|437:323,1,77.0000023498536,2|0,0:0|0:0,0:0:0:0:
492,235,67658,2,0,P|456:223|411:221,1,77.0000023498536,2|0,0:0|0:0,0:0:0:0:
393,124,68258,6,0,P|356:134|317:135,1,77.0000023498536,2|0,0:0|0:0,0:0:0:0:
227,164,68858,2,0,P|224:202|212:238,1,77.0000023498536,2|0,0:0|0:0,0:0:0:0:
84,204,69458,2,0,P|86:165|98:129,1,77.0000023498536,2|0,0:0|0:0,0:0:0:0:
180,82,70058,1,2,0:0:0:0:
227,164,70358,1,0,0:0:0:0:
307,113,70658,6,0,L|385:104,1,77.0000023498536,2|2,0:0|0:0,0:0:0:0:
465,209,71258,2,0,L|387:200,1,77.0000023498536,2|2,0:0|0:0,0:0:0:0:
318,254,71858,2,0,P|324:301|310:352,1,70,2|0,0:0|0:0,0:0:0:0:
198,366,72462,2,0,P|192:319|206:268,1,70,2|0,0:0|0:0,0:0:0:0:
241,222,73074,5,2,0:0:0:0:
318,254,73374,1,0,0:0:0:0:
383,196,73674,2,0,P|426:207|471:198,1,70,2|0,0:0|0:0,0:0:0:0:
382,103,74274,2,0,P|336:92|281:112,1,105,2|0,0:0|0:0,0:0:0:0:
263,133,74874,2,0,P|220:144|175:135,1,70,2|0,0:0|0:0,0:0:0:0:
115,92,75474,5,2,0:0:0:0:
43,168,75774,1,0,0:0:0:0:
96,258,76074,1,2,0:0:0:0:
198,235,76374,1,2,0:0:0:0:
286,179,76674,2,0,P|330:193|360:212,1,70,2|0,0:0|0:0,0:0:0:0:
413,269,77274,2,0,P|412:303|409:338,1,70,2|0,0:0|0:0,0:0:0:0:
328,367,77874,6,0,P|240:364|192:305,1,140,2|0,0:0|0:0,0:0:0:0:
153,260,78774,1,0,0:0:0:0:
240,221,79074,2,0,P|248:186|241:135,1,70,2|0,0:0|0:0,0:0:0:0:
172,90,79674,2,0,P|137:82|86:89,1,70
36,169,80280,5,2,0:0:0:0:
87,254,80580,1,2,0:0:0:0:
184,210,80880,2,0,L|178:295,1,77.0000023498536,2|2,0:0|0:0,0:0:0:0:
275,180,81480,1,2,0:0:0:0:
345,253,81780,2,0,L|351:338,1,77.0000023498536,2|0,0:0|0:0,0:0:0:0:
438,228,82380,1,0,0:0:0:0:
364,159,82696,5,2,0:0:0:0:
403,69,82999,1,0,0:0:0:0:
330,0,83302,1,2,0:0:0:0:
242,57,83608,1,0,0:0:0:0:
252,153,83914,2,0,P|205:167|165:162,1,70,2|0,0:0|0:0,0:0:0:0:
105,121,84520,1,0,0:0:0:0:
57,276,84835,1,0,0:0:0:0:
24,184,85132,1,2,0:0:0:0:
256,192,85291,12,2,88515,0:0:0:0:
390,132,89462,6,0,L|340:127,1,35,2|2,0:0|0:0,0:0:0:0:
