osu file format v14

[General]
AudioFilename: audio.mp3
AudioLeadIn: 0
PreviewTime: 62776
Countdown: 0
SampleSet: Soft
StackLeniency: 0.7
Mode: 0
LetterboxInBreaks: 0
WidescreenStoryboard: 0

[Editor]
DistanceSpacing: 1.1
BeatDivisor: 8
GridSize: 4
TimelineZoom: 1

[Metadata]
Title:Shinkai Shoujo-piano ver.-
TitleUnicode:深海少女-piano ver.-
Artist:Erosion
ArtistUnicode:Erosion
Creator:osuskrub
Version:Sea of Misery
Source:
Tags:deep sea girl 小五 hatsune miku vocaloid utaite xiao wu Jennglebells
BeatmapID:1383491
BeatmapSetID:652472

[Difficulty]
HPDrainRate:5.5
CircleSize:5
OverallDifficulty:6
ApproachRate:7.8
SliderMultiplier:1.6
SliderTickRate:1

[Events]
//Background and Video events
0,0,"annie mays.jpg",0,0
//Break Periods
//Storyboard Layer 0 (Background)
//Storyboard Layer 1 (Fail)
//Storyboard Layer 2 (Pass)
//Storyboard Layer 3 (Foreground)
//Storyboard Sound Samples

[TimingPoints]
5122,545.454545454546,4,2,1,35,1,0
5394,666.666666666667,4,2,1,35,1,0
5727,610.376398779247,4,2,1,35,1,0
11220,598.205383848455,4,2,1,40,1,0
12715,545.454545454546,4,2,1,40,1,0
12987,650.759219088937,4,2,1,40,1,0
13312,595.238095238095,4,2,1,40,1,0
15097,613.496932515337,4,2,1,40,1,0
15403,613.496932515337,4,2,1,45,1,0
16016,601.202404809619,4,2,1,45,1,0
16617,595.238095238095,4,2,1,45,1,0
18997,607.287449392713,4,2,1,45,1,0
20211,601.202404809619,4,2,1,40,1,0
22615,575.815738963532,4,2,1,35,1,0
23190,623.700623700624,4,2,1,35,1,0
23813,595.238095238095,4,2,1,35,1,0
24408,722.89156626506,4,2,1,40,1,0
24769,789.473684210526,4,2,1,40,1,0
25045,599.101347978033,4,2,1,45,1,0
32833,605.143721633888,4,2,1,45,1,0
33438,607.287449392713,4,2,1,45,1,0
34045,599.101347978033,4,2,1,45,1,0
34644,599.101347978033,4,2,1,45,1,0
38238,624.349635796046,4,2,1,45,1,0
38862,821.917808219178,4,2,1,45,1,0
39135,600,4,2,1,45,1,0
39435,601.202404809619,4,2,1,45,1,0
59543,595.238095238095,4,2,1,50,1,0
60459,600,4,2,1,50,1,0
62567,571.428571428571,4,2,1,55,1,0
62852,606.060606060606,4,2,1,55,1,0
62852,-76.9230769230769,4,2,1,55,0,0
63458,600,4,2,1,60,1,1
63458,-66.6666666666667,4,2,1,60,0,1
71858,604.838709677419,4,2,1,60,1,1
71858,-55.5555555555556,4,2,1,60,0,1
72462,612.244897959184,4,2,1,60,1,1
73074,600,4,2,1,60,1,1
73074,-66.6666666666667,4,2,1,60,0,1
79674,606.060606060606,4,2,1,60,1,1
79674,-66.6666666666667,4,2,1,60,0,1
80280,600,4,2,1,60,1,1
81480,-66.6666666666667,4,2,1,60,0,1
81780,571.428571428571,4,2,1,60,1,1
82065,631.578947368421,4,2,1,60,1,1
82065,-66.6666666666667,4,2,1,60,0,1
82696,606.060606060606,4,2,1,50,1,1
83302,612.244897959184,4,2,1,50,1,1
83914,606.060606060606,4,2,1,50,1,1
84520,631.578947368421,4,2,1,50,1,1
84835,572.519083969466,4,2,1,60,1,1
84978,618.556701030928,4,2,1,60,1,1
85132,638.297872340426,4,2,1,50,1,0
86352,606.060606060606,4,2,1,50,1,0
87002,645.161290322581,4,2,1,50,1,0
87336,625,4,2,1,50,1,0
87854,659.340659340659,4,2,1,50,1,0
88515,947.867298578199,4,2,1,20,1,0
89462,631.578947368421,4,2,1,30,1,0

[Colours]
Combo1 : 160,66,255
Combo2 : 10,209,238
Combo3 : 18,124,255
Combo4 : 138,153,184

[HitObjects]
87,302,5122,6,0,P|78:259|92:214,1,80,0|0,0:0|0:0,0:0:0:0:
219,213,5727,2,0,P|263:221|315:205,2,80,2|0|0,0:0|0:0|0:0,0:0:0:0:
146,179,6642,1,0,0:0:0:0:
189,322,6947,2,0,P|267:342|364:303,1,160,2|2,0:0|0:0,0:0:0:0:
406,271,7863,1,0,0:0:0:0:
304,191,8168,6,0,P|260:196|217:186,1,80,2|0,0:0|0:0,0:0:0:0:
159,114,8778,1,2,0:0:0:0:
109,216,9084,1,0,0:0:0:0:
225,189,9389,1,2,0:0:0:0:
159,114,9999,1,2,0:0:0:0:
225,189,10304,1,0,0:0:0:0:
287,42,10610,6,0,P|362:25|445:74,1,160,2|0,0:0|0:0,0:0:0:0:
380,214,11818,2,0,P|371:263|386:323,1,80,2|0,0:0|0:0,0:0:0:0:
499,221,12416,2,0,P|508:172|493:112,1,80,2|0,0:0|0:0,0:0:0:0:
465,71,12987,1,2,0:0:0:0:
401,26,13312,5,0,0:0:0:0:
303,21,13609,1,2,0:0:0:0:
216,90,13907,1,0,0:0:0:0:
189,223,14204,1,2,0:0:0:0:
467,358,14800,6,0,P|472:316|466:272,1,80,2|0,0:0|0:0,0:0:0:0:
294,177,15403,2,0,P|287:218|292:262,1,80,2|0,0:0|0:0,0:0:0:0:
320,369,16016,1,0,0:0:0:0:
195,264,16316,1,0,0:0:0:0:
402,192,16617,6,0,P|423:115|377:36,1,160,2|2,0:0|0:0,0:0:0:0:
340,124,17509,1,0,0:0:0:0:
444,249,17807,2,0,P|404:261|361:254,1,80,2|0,0:0|0:0,0:0:0:0:
211,206,18402,2,0,P|249:197|288:204,1,80,2|0,0:0|0:0,0:0:0:0:
138,283,18997,5,2,0:0:0:0:
134,164,19300,1,2,0:0:0:0:
254,266,19604,1,2,0:0:0:0:
225,87,19907,1,0,0:0:0:0:
190,59,20059,1,0,0:0:0:0:
149,41,20211,6,0,P|92:45|68:64,1,80,2|0,0:0|0:0,0:0:0:0:
3,159,20812,1,2,0:0:0:0:
113,244,21112,1,0,0:0:0:0:
151,266,21264,1,0,0:0:0:0:
193,277,21413,2,0,P|248:264|269:241,1,80,2|0,0:0|0:0,0:0:0:0:
414,281,22014,2,0,P|359:268|338:245,1,80,2|0,0:0|0:0,0:0:0:0:
242,97,22615,6,0,B|206:64|206:64|346:60,1,160,2|0,0:0|0:0,0:0:0:0:
447,99,23501,1,0,0:0:0:0:
493,178,23813,1,2,0:0:0:0:
416,333,24408,1,2,0:0:0:0:
383,186,24769,5,0,0:0:0:0:
313,236,25045,2,0,P|263:241|214:225,1,80,2|0,0:0|0:0,0:0:0:0:
59,228,25644,2,0,P|109:233|158:217,1,80,2|2,0:0|0:0,0:0:0:0:
190,19,26243,2,0,P|214:90|183:193,1,160,2|2,0:0|0:0,0:0:0:0:
352,119,27441,6,0,P|396:113|436:125,1,80,2|0,0:0|0:0,0:0:0:0:
481,290,28040,2,0,P|487:246|475:206,1,80,2|0,0:0|0:0,0:0:0:0:
348,41,28639,2,0,P|342:85|354:125,1,80,2|0,0:0|0:0,0:0:0:0:
379,198,29237,1,0,0:0:0:0:
264,48,29537,1,2,0:0:0:0:
78,142,29837,6,0,P|148:106|224:124,1,160,2|2,0:0|0:0,0:0:0:0:
230,333,31036,2,0,P|286:335|315:333,1,80,2|0,0:0|0:0,0:0:0:0:
512,231,31635,2,0,P|456:229|427:231,1,80,2|0,0:0|0:0,0:0:0:0:
284,244,32234,5,2,0:0:0:0:
309,333,32533,1,0,0:0:0:0:
394,172,32833,1,2,0:0:0:0:
458,302,33135,1,2,0:0:0:0:
286,140,33438,2,0,P|241:137|197:145,1,80,2|0,0:0|0:0,0:0:0:0:
64,295,34045,2,0,P|61:340|69:384,1,80,2|0,0:0|0:0,0:0:0:0:
293,292,34644,6,0,P|296:247|288:203,1,80,2|0,0:0|0:0,0:0:0:0:
226,121,35243,1,2,0:0:0:0:
157,303,35542,1,0,0:0:0:0:
370,248,35842,2,0,P|408:186|362:116,1,160,2|2,0:0|0:0,0:0:0:0:
243,86,36740,1,0,0:0:0:0:
191,218,37040,6,0,P|184:267|191:303,1,80,2|0,0:0|0:0,0:0:0:0:
269,343,37639,2,0,P|309:346|347:334,1,80
274,220,38238,1,2,0:0:0:0:
99,256,38550,1,0,0:0:0:0:
189,358,38862,1,2,0:0:0:0:
274,220,39135,5,0,0:0:0:0:
314,203,39285,1,0,0:0:0:0:
357,200,39435,2,0,P|403:206|439:223,1,80,2|0,0:0|0:0,0:0:0:0:
486,363,40036,2,0,P|490:303|487:267,1,80,2|0,0:0|0:0,0:0:0:0:
465,157,40637,1,2,0:0:0:0:
374,249,40938,1,0,0:0:0:0:
326,101,41238,2,0,P|317:56|327:0,1,80,2|0,0:0|0:0,0:0:0:0:
208,185,41839,6,0,P|131:170|58:226,1,160,2|2,0:0|0:0,0:0:0:0:
67,64,42741,1,0,0:0:0:0:
186,17,43342,5,0,0:0:0:0:
199,80,43643,1,0,0:0:0:0:
217,140,43944,1,0,0:0:0:0:
109,51,44244,6,0,P|66:48|26:60,1,80,2|0,0:0|0:0,0:0:0:0:
30,57,44695,1,0,0:0:0:0:
30,57,44845,1,2,0:0:0:0:
123,144,45146,1,0,0:0:0:0:
26,240,45447,2,0,P|76:246|134:230,1,80,2|0,0:0|0:0,0:0:0:0:
213,226,46048,1,2,0:0:0:0:
181,338,46348,1,0,0:0:0:0:
104,241,46649,6,0,P|99:194|114:140,1,80,2|0,0:0|0:0,0:0:0:0:
245,75,47250,2,0,P|250:122|235:176,1,80,2|0,0:0|0:0,0:0:0:0:
244,153,47701,1,0,0:0:0:0:
244,153,47851,1,2,0:0:0:0:
180,242,48152,1,0,0:0:0:0:
174,112,48453,1,2,0:0:0:0:
180,242,48753,1,0,0:0:0:0:
286,316,49054,6,0,P|335:319|377:309,1,80,2|0,0:0|0:0,0:0:0:0:
192,356,49655,2,0,P|143:359|101:349,1,80,2|0,0:0|0:0,0:0:0:0:
79,174,50256,2,0,P|73:214|78:254,1,80,2|0,0:0|0:0,0:0:0:0:
112,353,50856,1,0,0:0:0:0:
11,264,51157,1,2,0:0:0:0:
218,204,51459,6,0,P|218:154|196:94,1,80,2|0,0:0|0:0,0:0:0:0:
119,66,52060,1,0,0:0:0:0:
210,125,52360,1,0,0:0:0:0:
308,15,52661,2,0,P|354:-2|399:3,1,80,2|2,0:0|0:0,0:0:0:0:
512,61,53262,1,2,0:0:0:0:
512,61,53563,1,0,0:0:0:0:
330,160,53863,6,0,P|283:155|237:179,1,80,2|0,0:0|0:0,0:0:0:0:
216,183,54314,2,0,P|169:188|123:164,1,80,2|0,0:0|0:0,0:0:0:0:
104,156,54765,1,0,0:0:0:0:
247,302,55066,2,0,P|256:339|250:388,1,80,2|0,0:0|0:0,0:0:0:0:
252,380,55517,1,0,0:0:0:0:
252,380,55667,1,2,0:0:0:0:
118,278,55968,1,0,0:0:0:0:
308,323,56268,6,0,P|348:325|386:313,1,80,2|0,0:0|0:0,0:0:0:0:
414,162,56869,1,0,0:0:0:0:
308,223,57170,1,0,0:0:0:0:
214,99,57471,2,0,P|165:93|130:105,2,80,2|0|2,0:0|0:0|0:0,0:0:0:0:
308,223,58372,1,0,0:0:0:0:
491,158,58673,6,0,P|491:113|482:72,1,80,2|0,0:0|0:0,0:0:0:0:
410,0,59274,1,0,0:0:0:0:
295,95,59543,2,0,P|244:98|205:91,1,80,2|0,0:0|0:0,0:0:0:0:
132,70,60138,1,0,0:0:0:0:
231,210,60459,5,2,0:0:0:0:
299,0,60759,1,2,0:0:0:0:
366,197,61359,5,2,0:0:0:0:
283,284,61659,1,2,0:0:0:0:
193,366,61959,1,2,0:0:0:0:
128,125,62259,1,2,0:0:0:0:
283,284,62559,1,2,0:0:0:0:
132,243,62852,6,0,B|179:266|179:266|229:251,1,103.999995239258,2|0,0:0|0:0,0:0:0:0:
512,315,63458,6,0,P|467:339|388:312,1,120.000004577637,2|0,0:0|0:0,0:0:0:0:
264,169,64058,2,0,P|209:147|139:161,2,120.000004577637,2|0|2,0:0|0:0|0:0,0:0:0:0:
200,241,65258,5,2,0:0:0:0:
66,175,65558,1,0,0:0:0:0:
103,285,65858,5,2,0:0:0:0:
171,126,66158,1,0,0:0:0:0:
27,253,66458,5,2,0:0:0:0:
251,139,66758,1,2,0:0:0:0:
30,150,67058,2,0,P|5:108|18:39,1,120.000004577637,2|0,0:0|0:0,0:0:0:0:
251,139,67658,2,0,P|276:181|263:250,1,120.000004577637,2|0,0:0|0:0,0:0:0:0:
115,342,68258,6,0,P|113:225|120:95,1,240.000009155274,2|2,0:0|0:0,0:0:0:0:
29,221,69158,1,0,0:0:0:0:
229,172,69458,2,0,B|291:161|291:161|360:182,1,120.000004577637,2|0,0:0|0:0,0:0:0:0:
512,320,70058,2,0,B|457:336|457:336|395:325,1,120.000004577637,2|0,0:0|0:0,0:0:0:0:
266,296,70658,5,2,0:0:0:0:
394,165,70958,1,2,0:0:0:0:
218,215,71258,1,2,0:0:0:0:
432,258,71558,1,2,0:0:0:0:
296,79,71858,6,0,B|253:70|253:70|156:110,1,143.999995605469,2|0,0:0|0:0,0:0:0:0:
167,381,72462,2,0,P|172:303|160:269,1,80,2|0,0:0|0:0,0:0:0:0:
24,75,73074,6,0,P|4:138|30:225,1,120.000004577637,2|0,0:0|0:0,0:0:0:0:
171,302,73674,2,0,P|234:309|304:280,2,120.000004577637,2|0|2,0:0|0:0|0:0,0:0:0:0:
215,103,74874,1,2,0:0:0:0:
295,62,75174,1,0,0:0:0:0:
364,113,75474,6,0,P|382:182|368:235,1,120.000004577637,2|0,0:0|0:0,0:0:0:0:
126,202,76074,2,0,P|195:184|248:198,1,120.000004577637,2|0,0:0|0:0,0:0:0:0:
371,228,76674,1,2,0:0:0:0:
244,287,76974,1,0,0:0:0:0:
242,121,77274,1,2,0:0:0:0:
242,121,77574,1,0,0:0:0:0:
462,194,77874,6,0,P|400:211|329:179,1,120.000004577637,2|0,0:0|0:0,0:0:0:0:
100,121,78474,2,0,P|162:104|207:41,1,120.000004577637,2|0,0:0|0:0,0:0:0:0:
321,284,79074,2,0,P|275:238|267:161,1,120.000004577637,2|0,0:0|0:0,0:0:0:0:
315,0,79674,2,0,P|269:46|261:123,1,120.000004577637,2|2,0:0|0:0,0:0:0:0:
348,261,80280,5,2,0:0:0:0:
400,79,80580,1,2,0:0:0:0:
237,231,80880,5,2,0:0:0:0:
288,19,81180,1,2,0:0:0:0:
130,209,81480,2,0,P|110:149|141:85,1,120.000004577637,2|2,0:0|0:0,0:0:0:0:
343,220,82065,2,0,P|363:160|332:96,1,120.000004577637,2|2,0:0|0:0,0:0:0:0:
292,47,82696,5,2,0:0:0:0:
213,36,82999,1,0,0:0:0:0:
140,66,83302,1,2,0:0:0:0:
90,128,83608,1,0,0:0:0:0:
78,206,83914,5,2,0:0:0:0:
105,280,84217,1,0,0:0:0:0:
165,332,84520,1,2,0:0:0:0:
243,347,84835,1,0,0:0:0:0:
289,328,85055,6,0,L|309:330,1,20,0|2,0:0|0:0,0:0:0:0:
294,239,85451,1,0,0:0:0:0:
222,206,85770,1,2,0:0:0:0:
143,215,86089,5,2,0:0:0:0:
107,249,86352,5,2,0:0:0:0:
53,337,86655,5,0,0:0:0:0:
132,308,87002,5,0,0:0:0:0:
248,350,87336,5,0,0:0:0:0:
352,221,87854,5,0,0:0:0:0:
196,82,88515,5,2,0:0:0:0:
413,39,89462,6,0,L|459:41,1,40,2|2,0:0|0:0,0:0:0:0:
