osu file format v14

[General]
AudioFilename: audio.mp3
AudioLeadIn: 0
PreviewTime: 62776
Countdown: 0
SampleSet: Soft
StackLeniency: 0.7
Mode: 0
LetterboxInBreaks: 0
WidescreenStoryboard: 1

[Editor]
DistanceSpacing: 1.5
BeatDivisor: 4
GridSize: 4
TimelineZoom: 2.2

[Metadata]
Title:Shinkai Shoujo-piano ver.-
TitleUnicode:深海少女-piano ver.-
Artist:Erosion
ArtistUnicode:Erosion
Creator:osuskrub
Version:Normal
Source:
Tags:deep sea girl 小五 hatsune miku vocaloid utaite xiao wu Jennglebells
BeatmapID:1383541
BeatmapSetID:652472

[Difficulty]
HPDrainRate:4
CircleSize:3.5
OverallDifficulty:4
ApproachRate:4.5
SliderMultiplier:1.1
SliderTickRate:1

[Events]
//Background and Video events
0,0,"annie mays.jpg",0,0
//Break Periods
//Storyboard Layer 0 (Background)
//Storyboard Layer 1 (Fail)
//Storyboard Layer 2 (Pass)
//Storyboard Layer 3 (Foreground)
//Storyboard Sound Samples

[TimingPoints]
5122,545.454545454546,4,2,1,35,1,0
5394,666.666666666667,4,2,1,35,1,0
5727,610.376398779247,4,2,1,35,1,0
11220,598.205383848455,4,2,1,40,1,0
12715,545.454545454546,4,2,1,40,1,0
12715,-99.502487562189,4,2,1,40,0,0
12987,650.759219088937,4,2,1,40,1,0
13312,595.238095238095,4,2,1,40,1,0
13609,-100,4,2,1,40,0,0
15097,613.496932515337,4,2,1,40,1,0
15403,613.496932515337,4,2,1,45,1,0
16016,601.202404809619,4,2,1,45,1,0
16617,595.238095238095,4,2,1,45,1,0
18997,607.287449392713,4,2,1,45,1,0
20211,601.202404809619,4,2,1,40,1,0
22615,575.815738963532,4,2,1,35,1,0
23190,623.700623700624,4,2,1,35,1,0
23813,595.238095238095,4,2,1,35,1,0
24408,722.89156626506,4,2,1,40,1,0
24769,789.473684210526,4,2,1,40,1,0
25045,599.101347978033,4,2,1,45,1,0
32833,605.143721633888,4,2,1,45,1,0
33438,607.287449392713,4,2,1,45,1,0
34045,599.101347978033,4,2,1,45,1,0
34644,599.101347978033,4,2,1,45,1,0
38238,624.349635796046,4,2,1,45,1,0
38862,821.917808219178,4,2,1,45,1,0
39135,600,4,2,1,45,1,0
39435,601.202404809619,4,2,1,45,1,0
59543,595.238095238095,4,2,1,50,1,0
60459,600,4,2,1,50,1,0
62567,571.428571428571,4,2,1,55,1,0
62852,606.060606060606,4,2,1,55,1,0
63458,600,4,2,1,60,1,1
71858,604.838709677419,4,2,1,60,1,1
72462,612.244897959184,4,2,1,60,1,1
73074,600,4,2,1,60,1,1
79674,606.060606060606,4,2,1,60,1,1
80280,600,4,2,1,60,1,1
81780,571.428571428571,4,2,1,60,1,1
82065,631.578947368421,4,2,1,60,1,1
82696,606.060606060606,4,2,1,50,1,1
83302,612.244897959184,4,2,1,50,1,1
83914,606.060606060606,4,2,1,50,1,1
84520,631.578947368421,4,2,1,50,1,1
84835,572.519083969466,4,2,1,60,1,1
84978,618.556701030928,4,2,1,60,1,1
85132,638.297872340426,4,2,1,50,1,0
86352,606.060606060606,4,2,1,50,1,0
87002,645.161290322581,4,2,1,50,1,0
87336,625,4,2,1,50,1,0
87854,659.340659340659,4,2,1,50,1,0
88515,947.867298578199,4,2,1,20,1,0
89462,631.578947368421,4,2,1,30,1,0

[Colours]
Combo1 : 160,66,255
Combo2 : 10,209,238
Combo3 : 18,124,255
Combo4 : 138,153,184

[HitObjects]
52,283,5122,6,0,P|51:244|58:210,1,55,0|0,0:0|0:0,0:0:0:0:
137,197,5727,2,0,P|138:158|131:124,1,55,2|0,0:0|0:0,0:0:0:0:
55,122,6337,2,0,P|54:83|61:49,1,55,2|0,0:0|0:0,0:0:0:0:
128,27,6947,2,0,P|186:16|259:34,1,110,2|2,0:0|0:0,0:0:0:0:
305,174,8168,2,0,P|365:177|424:156,1,110,2|2,0:0|0:0,0:0:0:0:
460,95,9084,1,0,0:0:0:0:
507,162,9389,2,0,P|508:203|499:241,1,55,2|0,0:0|0:0,0:0:0:0:
375,317,10304,1,0,0:0:0:0:
297,346,10610,6,0,B|253:361|253:361|183:339,1,110,2|0,0:0|0:0,0:0:0:0:
70,230,11818,2,0,P|118:226|140:229,1,55,2|0,0:0|0:0,0:0:0:0:
182,284,12416,2,0,P|230:288|252:285,1,55,2|0,0:0|0:0,0:0:0:0:
286,215,12987,2,0,P|334:211|356:214,1,55,2|0,0:0|0:0,0:0:0:0:
422,213,13609,2,0,P|422:170|413:138,1,55,2|0,0:0|0:0,0:0:0:0:
409,76,14204,1,2,0:0:0:0:
243,69,14800,2,0,P|235:119|239:149,1,55,2|0,0:0|0:0,0:0:0:0:
273,195,15403,6,0,P|277:245|273:273,2,55,2|0|2,0:0|0:0|0:0,0:0:0:0:
235,123,16316,1,0,0:0:0:0:
192,194,16617,2,0,P|141:207|80:186,1,110,2|2,0:0|0:0,0:0:0:0:
62,112,17509,1,0,0:0:0:0:
131,67,17807,2,0,P|182:62|207:65,2,55,2|0|2,0:0|0:0|0:0,0:0:0:0:
62,112,18700,1,0,0:0:0:0:
124,163,18997,2,0,P|188:170|247:148,1,110,2|2,0:0|0:0,0:0:0:0:
398,144,20211,6,0,B|447:135|447:135|521:150,1,110,2|2,0:0|0:0,0:0:0:0:
490,66,21112,1,0,0:0:0:0:
412,37,21413,2,0,B|379:25|379:25|342:25,2,55,2|0|2,0:0|0:0|0:0,0:0:0:0:
490,66,22315,1,0,0:0:0:0:
424,121,22615,2,0,P|377:132|301:124,1,110,2|2,0:0|0:0,0:0:0:0:
233,127,23501,1,0,0:0:0:0:
195,204,23813,2,0,P|190:253|192:284,1,55,2|0,0:0|0:0,0:0:0:0:
212,337,24408,1,2,0:0:0:0:
375,375,25045,6,0,P|385:342|378:300,1,55,2|0,0:0|0:0,0:0:0:0:
323,265,25644,2,0,P|317:220|323:192,1,55,2|2,0:0|0:0,0:0:0:0:
387,165,26243,2,0,P|392:104|372:50,1,110,2|2,0:0|0:0,0:0:0:0:
212,49,27441,2,0,P|178:45|136:50,1,55,2|0,0:0|0:0,0:0:0:0:
121,120,28040,2,0,P|69:126|42:123,1,55,2|0,0:0|0:0,0:0:0:0:
12,188,28639,2,0,P|-3:239|3:307,1,110,2|2,0:0|0:0,0:0:0:0:
56,355,29538,1,0,0:0:0:0:
134,330,29837,6,0,P|206:335|261:319,1,110,2|2,0:0|0:0,0:0:0:0:
347,198,31036,2,0,P|346:152|339:126,1,55,2|0,0:0|0:0,0:0:0:0:
282,88,31635,2,0,P|238:85|213:90,1,55,2|0,0:0|0:0,0:0:0:0:
159,132,32234,2,0,P|150:172|152:211,2,55,2|0|2,0:0|0:0|0:0,0:0:0:0:
227,86,33135,1,0,0:0:0:0:
279,149,33438,2,0,P|337:155|406:133,1,110,2|2,0:0|0:0,0:0:0:0:
444,83,34344,1,0,0:0:0:0:
502,140,34644,6,0,P|512:189|509:219,1,55,2|0,0:0|0:0,0:0:0:0:
433,220,35243,2,0,P|424:255|427:286,1,55,2|0,0:0|0:0,0:0:0:0:
459,359,35842,2,0,P|398:348|332:363,1,110,2|2,0:0|0:0,0:0:0:0:
268,355,36740,1,0,0:0:0:0:
186,365,37040,2,0,P|134:370|114:365,1,55,2|0,0:0|0:0,0:0:0:0:
57,332,37639,1,0,0:0:0:0:
12,262,37939,1,0,0:0:0:0:
24,178,38238,2,0,P|37:151|59:124,2,55,2|0|2,0:0|0:0|0:0,0:0:0:0:
177,266,39435,6,0,P|237:258|288:279,1,110,2|2,0:0|0:0,0:0:0:0:
355,313,40336,1,0,0:0:0:0:
434,336,40637,2,0,P|486:327|508:321,1,55,2|0,0:0|0:0,0:0:0:0:
503,246,41238,2,0,P|504:207|494:178,1,55,2|0,0:0|0:0,0:0:0:0:
426,153,41839,2,0,P|420:97|434:26,1,110,2|2,0:0|0:0,0:0:0:0:
346,55,42741,2,0,P|244:79|183:62,1,165,0|2,0:0|0:0,0:0:0:0:
113,27,43944,1,0,0:0:0:0:
75,100,44244,6,0,P|66:143|66:170,2,55,2|0|2,0:0|0:0|0:0,0:0:0:0:
113,27,45146,1,0,0:0:0:0:
183,70,45447,2,0,P|239:83|296:66,1,110,2|2,0:0|0:0,0:0:0:0:
365,39,46348,1,0,0:0:0:0:
435,81,46649,2,0,P|462:128|449:197,1,110,2|2,0:0|0:0,0:0:0:0:
395,236,47551,1,0,0:0:0:0:
319,204,47851,2,0,P|268:197|243:202,2,55,2|0|2,0:0|0:0|0:0,0:0:0:0:
395,236,48753,1,0,0:0:0:0:
476,221,49054,6,0,P|507:172|492:106,1,110
430,80,49956,1,0,0:0:0:0:
369,136,50256,2,0,P|304:147|251:136,1,110,2|0,0:0|0:0,0:0:0:0:
195,87,51158,1,2,0:0:0:0:
184,169,51459,2,0,P|179:207|189:242,1,55,2|0,0:0|0:0,0:0:0:0:
262,204,52060,2,0,P|266:161|260:129,1,55
222,78,52661,2,0,P|163:58|105:69,1,110,2|2,0:0|0:0,0:0:0:0:
45,106,53563,1,0,0:0:0:0:
110,155,53863,6,0,P|121:212|103:273,1,110
76,337,54765,1,0,0:0:0:0:
156,355,55066,2,0,P|213:359|284:337,1,110,2|2,0:0|0:0,0:0:0:0:
339,313,55968,1,0,0:0:0:0:
369,236,56268,2,0,P|378:193|372:159,1,55,2|0,0:0|0:0,0:0:0:0:
315,127,56869,2,0,P|270:125|244:132,1,55
202,185,57471,2,0,P|159:187|131:178,2,55,2|0|2,0:0|0:0|0:0,0:0:0:0:
260,126,58372,1,0,0:0:0:0:
265,43,58673,6,0,P|208:40|148:56,1,110,2|0,0:0|0:0,0:0:0:0:
92,113,59543,2,0,P|79:151|85:191,1,55,2|0,0:0|0:0,0:0:0:0:
92,247,60138,1,0,0:0:0:0:
163,298,60459,2,0,P|210:309|241:305,1,55,2|2,0:0|0:0,0:0:0:0:
373,256,61359,6,0,P|425:251|449:258,2,55
296,287,62259,2,0,P|293:236|298:209,1,55,2|2,0:0|0:0,0:0:0:0:
353,180,62852,2,0,P|356:129|351:102,1,55,2|0,0:0|0:0,0:0:0:0:
294,69,63458,2,0,B|237:63|237:63|176:83,1,110,2|2,0:0|0:0,0:0:0:0:
110,111,64358,1,0,0:0:0:0:
68,182,64658,2,0,P|76:245|80:261,1,55,2|0,0:0|0:0,0:0:0:0:
130,297,65258,2,0,P|177:299|206:298,1,55,2|0,0:0|0:0,0:0:0:0:
248,245,65858,6,0,P|294:239|324:245,2,55,2|0|2,0:0|0:0|0:0,0:0:0:0:
184,298,66758,1,2,0:0:0:0:
159,219,67058,2,0,P|151:159|171:105,1,110,2|2,0:0|0:0,0:0:0:0:
297,13,68258,2,0,B|359:10|359:10|421:23,1,110,2|2,0:0|0:0,0:0:0:0:
472,68,69158,1,0,0:0:0:0:
502,144,69458,2,0,P|510:182|507:215,1,55,2|0,0:0|0:0,0:0:0:0:
435,234,70058,2,0,P|428:283|432:306,1,55,2|0,0:0|0:0,0:0:0:0:
456,366,70658,6,0,P|495:369|517:365,2,55,2|2|2,0:0|0:0|0:0,0:0:0:0:
428,288,71558,1,2,0:0:0:0:
353,321,71858,2,0,P|321:328|282:317,1,55,2|0,0:0|0:0,0:0:0:0:
234,275,72462,2,0,P|202:267|163:278,1,55,2|0,0:0|0:0,0:0:0:0:
106,230,73074,6,0,P|102:180|106:159,1,55,2|0,0:0|0:0,0:0:0:0:
152,109,73674,2,0,P|201:101|227:107,2,55,2|0|2,0:0|0:0|0:0,0:0:0:0:
6,186,74874,2,0,P|0:238|6:258,1,55,2|0,0:0|0:0,0:0:0:0:
83,242,75474,2,0,P|88:296|82:322,1,55,2|0,0:0|0:0,0:0:0:0:
131,366,76074,2,0,P|172:373|205:360,2,55,2|0|2,0:0|0:0|0:0,0:0:0:0:
233,236,77274,2,0,P|280:232|310:239,1,55,2|0,0:0|0:0,0:0:0:0:
331,302,77874,6,0,B|389:312|389:312|456:281,1,110,2|2,0:0|0:0,0:0:0:0:
308,184,79074,2,0,P|251:170|193:174,1,110,2|2,0:0|0:0,0:0:0:0:
140,229,79977,1,0,0:0:0:0:
90,165,80280,2,0,P|46:160|15:169,2,55,2|2|2,0:0|0:0|0:0,0:0:0:0:
140,229,81180,1,2,0:0:0:0:
193,291,81480,2,0,P|235:299|262:296,1,55,2|2,0:0|0:0,0:0:0:0:
297,243,82065,2,0,P|341:238|373:250,1,55,2|2,0:0|0:0,0:0:0:0:
419,292,82696,6,0,P|435:220|409:176,1,110,2|2,0:0|0:0,0:0:0:0:
367,126,83608,1,0,0:0:0:0:
303,180,83914,2,0,P|242:179|190:205,1,110,2|2,0:0|0:0,0:0:0:0:
132,254,84835,1,0,0:0:0:0:
84,321,85132,1,2,0:0:0:0:
256,192,85451,12,2,88515,0:0:0:0:
256,192,89462,6,0,L|257:145,1,27.5,2|2,0:0|0:0,0:0:0:0:
