osu file format v14

[General]
AudioFilename: audio.mp3
AudioLeadIn: 0
PreviewTime: 62567
Countdown: 0
SampleSet: Soft
StackLeniency: 0.7
Mode: 2
LetterboxInBreaks: 0
WidescreenStoryboard: 1

[Editor]
DistanceSpacing: 0.4
BeatDivisor: 4
GridSize: 4
TimelineZoom: 1

[Metadata]
Title:Shinkai Shoujo-piano ver.-
TitleUnicode:深海少女-piano ver.-
Artist:Erosion
ArtistUnicode:Erosion
Creator:celerih
Version:Deep Sea Rain
Source:
Tags:deep sea girl 小五 hatsune miku vocaloid utaite xiao wu
BeatmapID:1347079
BeatmapSetID:634939

[Difficulty]
HPDrainRate:6
CircleSize:4
OverallDifficulty:8.6
ApproachRate:8.6
SliderMultiplier:2.5
SliderTickRate:1

[Events]
//Background and Video events
0,0,"Shinkai Shoujou.jpg",0,0
//Break Periods
//Storyboard Layer 0 (Background)
//Storyboard Layer 1 (Fail)
//Storyboard Layer 2 (Pass)
//Storyboard Layer 3 (Foreground)
//Storyboard Sound Samples

[TimingPoints]
5122,545.454545454546,4,2,1,35,1,0
5394,666.666666666667,4,2,1,35,1,0
5727,610.376398779247,4,2,1,35,1,0
11220,598.205383848455,4,2,1,40,1,0
12715,545.454545454546,4,2,1,40,1,0
12987,650.759219088937,4,2,1,40,1,0
13312,595.238095238095,4,2,1,40,1,0
15097,613.496932515337,4,2,1,40,1,0
15403,613.496932515337,4,2,1,45,1,0
16016,601.202404809619,4,2,1,45,1,0
16617,595.238095238095,4,2,1,45,1,0
18997,607.287449392713,4,2,1,45,1,0
20211,601.202404809619,4,2,1,40,1,0
22615,575.815738963532,4,2,1,35,1,0
23190,623.700623700624,4,2,1,35,1,0
23813,595.238095238095,4,2,1,35,1,0
24408,722.89156626506,4,2,1,40,1,0
24769,789.473684210526,4,2,1,40,1,0
25045,599.101347978033,4,2,1,45,1,0
32833,605.143721633888,4,2,1,45,1,0
33438,607.287449392713,4,2,1,45,1,0
34045,599.101347978033,4,2,1,45,1,0
34644,599.101347978033,4,2,1,45,1,0
38238,624.349635796046,4,2,1,45,1,0
38862,821.917808219178,4,2,1,45,1,0
39135,600,4,2,1,45,1,0
39435,601.202404809619,4,2,1,45,1,0
59543,595.238095238095,4,2,1,50,1,0
60467,600,4,2,1,50,1,0
62567,571.428571428571,4,2,1,55,1,0
62852,606.060606060606,4,2,1,55,1,0
63458,600,4,2,1,60,1,1
71858,604.838709677419,4,2,1,60,1,1
72462,612.244897959184,4,2,1,60,1,1
73074,600,4,2,1,60,1,1
79674,606.060606060606,4,2,1,60,1,1
80280,600,4,2,1,60,1,1
81780,571.428571428571,4,2,1,60,1,1
82065,631.578947368421,4,2,1,60,1,1
82696,606.060606060606,4,2,1,50,1,1
83302,612.244897959184,4,2,1,50,1,1
83914,606.060606060606,4,2,1,50,1,1
84520,631.578947368421,4,2,1,50,1,1
84835,572.519083969466,4,2,1,60,1,1
84978,618.556701030928,4,2,1,60,1,1
85132,638.297872340426,4,2,1,50,1,0
86360,606.060606060606,4,2,1,50,1,0
87014,645.161290322581,4,2,1,50,1,0
87336,625,4,2,1,50,1,0
87856,659.340659340659,4,2,1,50,1,0
88515,947.867298578199,4,2,1,20,1,0
89462,631.578947368421,4,2,1,30,1,0

[Colours]
Combo1 : 171,182,203
Combo2 : 13,40,115
Combo3 : 97,248,228
Combo4 : 80,67,112

[HitObjects]
192,192,5122,5,0,0:0:0:0:
52,192,5394,1,0,0:0:0:0:
344,80,5727,6,0,L|476:80,1,125,2|0,0:0|0:0,0:0:0:0:
304,192,6337,2,0,L|176:192,1,125,2|0,0:0|0:0,0:0:0:0:
456,192,6947,1,2,0:0:0:0:
276,192,7558,1,0,0:0:0:0:
440,192,7863,1,0,0:0:0:0:
176,196,8168,6,0,P|152:140|188:84,1,125,2|0,0:0|0:0,0:0:0:0:
356,192,8778,2,0,P|380:136|344:80,1,125,2|0,0:0|0:0,0:0:0:0:
100,192,9389,1,2,0:0:0:0:
252,192,9694,1,0,0:0:0:0:
88,192,9999,2,0,P|64:128|112:64,1,125,2|0,0:0|0:0,0:0:0:0:
368,192,10610,6,0,L|112:96,1,250,2|0,0:0|0:0,0:0:0:0:
428,192,11818,2,0,L|304:156,1,125,2|0,0:0|0:0,0:0:0:0:
16,192,12416,2,0,L|84:76,1,125,2|0,0:0|0:0,0:0:0:0:
332,192,12987,5,2,0:0:0:0:
456,192,13312,1,0,0:0:0:0:
308,192,13609,1,2,0:0:0:0:
484,192,13907,1,0,0:0:0:0:
104,192,14204,1,2,0:0:0:0:
320,192,14800,2,0,L|376:68,1,125,2|0,0:0|0:0,0:0:0:0:
68,192,15403,6,0,L|208:176,1,125,2|0,0:0|0:0,0:0:0:0:
344,192,16016,1,0,0:0:0:0:
488,192,16316,1,0,0:0:0:0:
124,192,16617,6,0,B|13:104,1,125,2|0,0:0|0:0,0:0:0:0:
260,192,17212,1,0,0:0:0:0:
100,192,17509,1,0,0:0:0:0:
368,192,17807,2,0,L|480:124,1,125,2|0,0:0|0:0,0:0:0:0:
184,192,18402,1,0,0:0:0:0:
24,192,18700,1,0,0:0:0:0:
388,192,18997,6,0,L|512:212,2,125,2|0|0,0:0|0:0|0:0,0:0:0:0:
236,192,19907,2,0,L|152:192,1,62.5
336,192,20211,6,0,L|472:192,1,125,2|0,0:0|0:0,0:0:0:0:
173,192,20812,1,0,0:0:0:0:
320,192,21112,2,0,L|404:192,1,62.5
220,192,21413,2,0,L|84:192,1,125,2|0,0:0|0:0,0:0:0:0:
368,192,22014,2,0,L|496:192,1,125,2|0,0:0|0:0,0:0:0:0:
116,192,22615,5,2,0:0:0:0:
256,192,22902,1,0,0:0:0:0:
88,192,23190,2,0,L|224:172,1,125
496,192,23813,1,2,0:0:0:0:
304,192,24408,5,2,0:0:0:0:
116,192,24769,1,0,0:0:0:0:
376,192,25045,6,0,L|500:185,1,125,2|0,0:0|0:0,0:0:0:0:
328,116,25644,2,0,L|452:109,1,125,2|0,0:0|0:0,0:0:0:0:
64,192,26243,2,0,L|192:208,1,125,2|0,0:0|0:0,0:0:0:0:
468,192,26842,1,2,0:0:0:0:
276,192,27441,6,0,L|416:160,1,125,2|0,0:0|0:0,0:0:0:0:
136,192,28040,2,0,L|0:184,1,125,2|0,0:0|0:0,0:0:0:0:
372,192,28639,2,0,L|500:156,2,125,2|0|2,0:0|0:0|0:0,0:0:0:0:
488,196,29538,1,0,0:0:0:0:
216,192,29837,6,0,L|72:184,1,125,2|0,0:0|0:0,0:0:0:0:
360,192,30436,2,0,P|420:136|364:64,1,187.5,2|0,0:0|0:0,0:0:0:0:
200,192,31036,2,0,L|68:192,1,125,2|0,0:0|0:0,0:0:0:0:
352,192,31635,2,0,L|492:192,1,125,2|0,0:0|0:0,0:0:0:0:
192,192,32234,5,2,0:0:0:0:
344,192,32533,1,0,0:0:0:0:
180,192,32833,1,2,0:0:0:0:
460,192,33135,1,0,0:0:0:0:
96,192,33438,6,0,L|228:160,1,125,2|0,0:0|0:0,0:0:0:0:
496,192,34045,1,2,0:0:0:0:
368,192,34344,1,0,0:0:0:0:
72,192,34644,6,0,L|208:168,1,125,2|0,0:0|0:0,0:0:0:0:
488,192,35243,2,0,L|376:124,1,125,2|0,0:0|0:0,0:0:0:0:
12,192,35842,2,0,L|48:68,1,125,2|0,0:0|0:0,0:0:0:0:
288,188,36441,1,2,0:0:0:0:
128,192,36740,1,0,0:0:0:0:
384,192,37040,6,0,L|476:72,1,125,2|0,0:0|0:0,0:0:0:0:
184,192,37639,1,2,0:0:0:0:
32,192,37939,1,0,0:0:0:0:
388,192,38238,6,0,L|512:156,2,125,2|0|2,0:0|0:0|0:0,0:0:0:0:
256,192,39135,2,0,L|340:192,1,62.5
484,192,39435,6,0,L|348:192,1,125,2|0,0:0|0:0,0:0:0:0:
100,192,40036,2,0,L|256:160,1,125,2|0,0:0|0:0,0:0:0:0:
484,192,40637,1,2,0:0:0:0:
348,192,40938,1,0,0:0:0:0:
84,192,41238,1,2,0:0:0:0:
56,88,41539,1,0,0:0:0:0:
368,72,41839,6,0,P|384:136|353:192,1,125,2|0,0:0|0:0,0:0:0:0:
108,192,42441,1,2,0:0:0:0:
376,192,42741,2,0,P|296:148|140:192,1,250,2|2,0:0|0:0,0:0:0:0:
288,192,43643,1,0,0:0:0:0:
424,192,43944,1,0,0:0:0:0:
156,192,44244,6,0,L|31:192,1,125,2|0,0:0|0:0,0:0:0:0:
116,120,44695,1,0,0:0:0:0:
276,192,44845,2,0,L|400:192,1,125,2|0,0:0|0:0,0:0:0:0:
116,192,45447,2,0,L|244:192,1,125,2|0,0:0|0:0,0:0:0:0:
496,192,46048,1,2,0:0:0:0:
364,192,46348,1,0,0:0:0:0:
88,192,46649,6,0,L|212:156,1,125,2|0,0:0|0:0,0:0:0:0:
476,192,47250,2,0,L|352:156,1,125,2|0,0:0|0:0,0:0:0:0:
284,192,47701,1,0,0:0:0:0:
432,192,47851,2,0,P|440:256|416:316,1,125,2|0,0:0|0:0,0:0:0:0:
124,192,48453,2,0,L|-12:168,1,125,2|0,0:0|0:0,0:0:0:0:
368,192,49054,5,2,0:0:0:0:
204,192,49354,1,0,0:0:0:0:
476,192,49655,1,2,0:0:0:0:
320,192,49956,1,0,0:0:0:0:
40,192,50256,2,0,L|180:164,1,125,2|0,0:0|0:0,0:0:0:0:
440,192,50857,2,0,L|300:164,1,125,2|0,0:0|0:0,0:0:0:0:
40,192,51459,5,2,0:0:0:0:
184,192,51759,1,0,0:0:0:0:
464,192,52060,2,0,L|500:68,1,125,2|0,0:0|0:0,0:0:0:0:
212,192,52661,1,2,0:0:0:0:
28,192,52962,1,0,0:0:0:0:
188,192,53262,1,2,0:0:0:0:
52,192,53563,1,0,0:0:0:0:
416,192,53863,6,0,L|500:88,1,125,2|0,0:0|0:0,0:0:0:0:
424,88,54314,1,0,0:0:0:0:
264,192,54465,2,0,L|404:192,1,125,2|0,0:0|0:0,0:0:0:0:
24,192,55066,2,0,P|4:136|28:68,1,125,2|0,0:0|0:0,0:0:0:0:
92,72,55517,1,0,0:0:0:0:
236,192,55667,2,0,L|80:192,1,125,2|0,0:0|0:0,0:0:0:0:
356,192,56268,5,2,0:0:0:0:
480,192,56569,1,0,0:0:0:0:
332,192,56869,1,2,0:0:0:0:
492,192,57170,1,0,0:0:0:0:
132,192,57471,2,0,L|8:132,1,125,2|0,0:0|0:0,0:0:0:0:
308,192,58072,1,0,0:0:0:0:
448,192,58372,1,0,0:0:0:0:
84,192,58673,5,2,0:0:0:0:
212,192,58974,1,2,0:0:0:0:
68,192,59274,1,2,0:0:0:0:
404,192,59543,2,0,B|437:140|437:140|464:88|412:44|352:8|280:68,1,250,2|0,0:0|0:0,0:0:0:0:
48,192,60467,5,2,0:0:0:0:
452,192,60767,1,2,0:0:0:0:
228,192,61367,5,0,0:0:0:0:
480,192,61667,1,2,0:0:0:0:
340,192,61967,1,0,0:0:0:0:
32,192,62267,1,2,0:0:0:0:
148,192,62567,5,0,0:0:0:0:
500,192,62852,1,2,0:0:0:0:
388,192,63155,1,2,0:0:0:0:
24,192,63458,6,0,L|76:72,1,125,2|0,0:0|0:0,0:0:0:0:
436,192,64058,2,0,L|492:68,1,125,2|0,0:0|0:0,0:0:0:0:
208,192,64658,1,2,0:0:0:0:
356,192,64958,1,0,0:0:0:0:
84,191,65258,2,0,L|50:54,1,125,2|0,0:0|0:0,0:0:0:0:
428,191,65858,6,0,L|462:54,1,125,2|0,0:0|0:0,0:0:0:0:
164,192,66458,1,2,0:0:0:0:
12,192,66758,1,0,0:0:0:0:
384,192,67058,2,0,L|512:192,1,125,2|0,0:0|0:0,0:0:0:0:
312,88,67658,1,2,0:0:0:0:
480,32,67958,1,0,0:0:0:0:
120,192,68258,6,0,L|0:152,1,125,2|0,0:0|0:0,0:0:0:0:
272,192,68858,1,2,0:0:0:0:
76,192,69158,1,0,0:0:0:0:
448,192,69458,2,0,L|316:140,1,125,2|0,0:0|0:0,0:0:0:0:
44,192,70058,2,0,L|16:64,1,125,2|0,0:0|0:0,0:0:0:0:
412,192,70658,6,0,L|264:192,1,125,2|0,0:0|0:0,0:0:0:0:
12,192,71258,2,0,L|128:136,1,125,2|0,0:0|0:0,0:0:0:0:
484,192,71858,1,2,0:0:0:0:
268,192,72462,5,2,0:0:0:0:
416,192,72768,1,2,0:0:0:0:
44,192,73074,6,0,P|64:132|132:96,1,125,2|0,0:0|0:0,0:0:0:0:
492,192,73674,2,0,L|356:164,1,125,2|0,0:0|0:0,0:0:0:0:
60,192,74274,1,2,0:0:0:0:
208,192,74574,1,0,0:0:0:0:
484,192,74874,2,0,L|432:72,1,125,2|0,0:0|0:0,0:0:0:0:
64,192,75474,6,0,L|16:72,1,125,2|0,0:0|0:0,0:0:0:0:
288,192,76074,1,2,0:0:0:0:
436,192,76374,1,2,0:0:0:0:
68,192,76674,2,0,P|40:128|96:88,1,125,2|0,0:0|0:0,0:0:0:0:
336,192,77274,1,2,0:0:0:0:
180,192,77574,1,0,0:0:0:0:
500,192,77874,6,0,L|372:144,1,125,2|0,0:0|0:0,0:0:0:0:
136,192,78474,1,2,0:0:0:0:
12,192,78774,1,0,0:0:0:0:
312,192,79074,2,0,L|440:180,1,125,2|0,0:0|0:0,0:0:0:0:
64,192,79674,2,0,L|96:68,1,125,2|0,0:0|0:0,0:0:0:0:
480,192,80280,6,0,L|344:160,1,125,2|0,0:0|0:0,0:0:0:0:
148,192,80880,2,0,L|208:80,1,125,2|0,0:0|0:0,0:0:0:0:
496,192,81480,1,2,0:0:0:0:
112,192,81780,1,2,0:0:0:0:
352,192,82065,1,2,0:0:0:0:
92,192,82380,1,2,0:0:0:0:
468,192,82696,6,0,L|344:144,1,125,2|0,0:0|0:0,0:0:0:0:
76,192,83302,2,0,L|16:80,1,125,2|0,0:0|0:0,0:0:0:0:
288,192,83914,1,0,0:0:0:0:
132,192,84217,1,0,0:0:0:0:
400,192,84520,1,2,0:0:0:0:
240,192,84835,1,0,0:0:0:0:
500,192,85132,5,2,0:0:0:0:
344,192,85451,1,0,0:0:0:0:
200,192,85770,2,0,L|288:280,1,125,2|0,0:0|0:0,0:0:0:0:
156,132,86360,6,0,L|28:112,1,125,2|0,0:0|0:0,0:0:0:0:
216,192,87014,1,0,0:0:0:0:
384,192,87336,1,0,0:0:0:0:
212,192,87856,1,2,0:0:0:0:
432,124,88515,1,0,0:0:0:0:
176,192,89462,5,2,0:0:0:0:
348,192,89619,1,2,0:0:0:0:
