osu file format v14

[General]
AudioFilename: audio.mp3
AudioLeadIn: 0
PreviewTime: 62567
Countdown: 0
SampleSet: Soft
StackLeniency: 0.7
Mode: 2
LetterboxInBreaks: 0
WidescreenStoryboard: 1

[Editor]
DistanceSpacing: 0.5
BeatDivisor: 4
GridSize: 4
TimelineZoom: 1

[Metadata]
Title:Shinkai Shoujo-piano ver.-
TitleUnicode:深海少女-piano ver.-
Artist:Erosion
ArtistUnicode:Erosion
Creator:celerih
Version:Platter
Source:
Tags:deep sea girl 小五 hatsune miku vocaloid utaite xiao wu
BeatmapID:1349180
BeatmapSetID:634939

[Difficulty]
HPDrainRate:5
CircleSize:3.5
OverallDifficulty:7.8
ApproachRate:7.8
SliderMultiplier:2.3
SliderTickRate:1

[Events]
//Background and Video events
0,0,"Shinkai Shoujou.jpg",0,0
//Break Periods
//Storyboard Layer 0 (Background)
//Storyboard Layer 1 (Fail)
//Storyboard Layer 2 (Pass)
//Storyboard Layer 3 (Foreground)
//Storyboard Sound Samples

[TimingPoints]
5122,545.454545454546,4,2,1,20,1,0
5394,666.666666666667,4,2,1,25,1,0
5727,610.376398779247,4,2,1,30,1,0
11220,598.205383848455,4,2,1,30,1,0
12715,545.454545454546,4,2,1,30,1,0
12987,650.759219088937,4,2,1,35,1,0
13312,595.238095238095,4,2,1,35,1,0
15097,613.496932515337,4,2,1,40,1,0
15403,613.496932515337,4,2,1,45,1,0
16016,601.202404809619,4,2,1,45,1,0
16617,595.238095238095,4,2,1,45,1,0
18997,607.287449392713,4,2,1,45,1,0
20211,601.202404809619,4,2,1,40,1,0
22615,575.815738963532,4,2,1,35,1,0
23190,623.700623700624,4,2,1,35,1,0
23813,595.238095238095,4,2,1,35,1,0
24408,722.89156626506,4,2,1,40,1,0
24769,789.473684210526,4,2,1,40,1,0
25045,599.101347978033,4,2,1,45,1,0
32833,605.143721633888,4,2,1,45,1,0
33438,607.287449392713,4,2,1,45,1,0
34045,599.101347978033,4,2,1,45,1,0
34644,599.101347978033,4,2,1,45,1,0
38238,624.349635796046,4,2,1,45,1,0
38862,821.917808219178,4,2,1,45,1,0
39135,600,4,2,1,45,1,0
39435,601.202404809619,4,2,1,45,1,0
59543,595.238095238095,4,2,1,50,1,0
60467,600,4,2,1,50,1,0
62567,571.428571428571,4,2,1,55,1,0
62852,606.060606060606,4,2,1,55,1,0
63458,600,4,2,1,60,1,1
71858,604.838709677419,4,2,1,60,1,1
72462,612.244897959184,4,2,1,60,1,1
73074,600,4,2,1,60,1,1
79674,606.060606060606,4,2,1,60,1,1
80280,600,4,2,1,60,1,1
81780,571.428571428571,4,2,1,60,1,1
82065,631.578947368421,4,2,1,60,1,1
82696,606.060606060606,4,2,1,50,1,1
83302,612.244897959184,4,2,1,50,1,1
83914,606.060606060606,4,2,1,50,1,1
84520,631.578947368421,4,2,1,50,1,1
84835,572.519083969466,4,2,1,60,1,1
84978,618.556701030928,4,2,1,60,1,1
85132,638.297872340426,4,2,1,50,1,0
86360,606.060606060606,4,2,1,50,1,0
87014,645.161290322581,4,2,1,50,1,0
87336,625,4,2,1,50,1,0
87856,659.340659340659,4,2,1,50,1,0
88515,947.867298578199,4,2,1,20,1,0
89462,631.578947368421,4,2,1,30,1,0

[Colours]
Combo1 : 171,182,203
Combo2 : 13,40,115
Combo3 : 97,248,228
Combo4 : 80,67,112

[HitObjects]
192,192,5122,5,0,0:0:0:0:
72,192,5394,1,0,0:0:0:0:
224,192,5727,6,0,L|356:192,1,115,2|0,0:0|0:0,0:0:0:0:
200,192,6337,2,0,L|72:192,1,115,2|0,0:0|0:0,0:0:0:0:
352,192,6947,1,2,0:0:0:0:
200,192,7558,1,0,0:0:0:0:
352,192,7863,1,0,0:0:0:0:
88,192,8168,6,0,L|220:160,1,115,2|0,0:0|0:0,0:0:0:0:
332,192,8778,2,0,L|200:160,1,115,2|0,0:0|0:0,0:0:0:0:
484,192,9389,1,2,0:0:0:0:
364,188,9694,1,0,0:0:0:0:
492,192,9999,2,0,L|364:168,1,115,2|0,0:0|0:0,0:0:0:0:
92,192,10610,6,0,L|324:136,1,230,2|0,0:0|0:0,0:0:0:0:
92,192,11818,6,0,P|32:120|132:52,1,230,2|0,0:0|0:0,0:0:0:0:
244,192,12715,1,0,0:0:0:0:
468,192,12987,5,2,0:0:0:0:
356,192,13312,1,0,0:0:0:0:
256,192,13609,1,2,0:0:0:0:
368,192,13907,1,0,0:0:0:0:
100,192,14204,1,2,0:0:0:0:
208,192,14800,2,0,L|64:192,1,115,2|0,0:0|0:0,0:0:0:0:
360,192,15403,6,0,L|484:192,1,115,2|0,0:0|0:0,0:0:0:0:
348,192,16016,1,2,0:0:0:0:
480,192,16316,1,0,0:0:0:0:
100,192,16617,6,0,P|52:180|28:88,2,115,2|0|2,0:0|0:0|0:0,0:0:0:0:
216,192,17509,1,0,0:0:0:0:
484,192,17807,2,0,L|352:192,1,115,2|0,0:0|0:0,0:0:0:0:
248,192,18402,2,0,L|376:192,1,115,2|0,0:0|0:0,0:0:0:0:
100,192,18997,6,0,L|244:164,2,115,2|0|0,0:0|0:0|0:0,0:0:0:0:
228,192,19907,2,0,L|304:192,1,57.5
368,192,20211,6,0,L|232:192,1,115,2|2,0:0|0:0,0:0:0:0:
120,192,20812,1,2,0:0:0:0:
253,192,21112,2,0,L|184:192,1,57.5
272,192,21413,2,0,L|393:192,1,115,2|0,0:0|0:0,0:0:0:0:
112,192,22014,2,0,L|44:88,1,115,2|0,0:0|0:0,0:0:0:0:
312,192,22615,5,2,0:0:0:0:
432,192,22902,1,0,0:0:0:0:
304,192,23190,2,0,L|428:172,1,115,2|0,0:0|0:0,0:0:0:0:
136,192,23813,1,2,0:0:0:0:
376,192,24408,5,2,0:0:0:0:
248,192,24769,1,0,0:0:0:0:
496,192,25045,6,0,L|382:179,1,115,2|0,0:0|0:0,0:0:0:0:
260,192,25644,2,0,L|375:179,1,115,2|0,0:0|0:0,0:0:0:0:
96,192,26243,2,0,L|216:164,2,115,2|0|2,0:0|0:0|0:0,0:0:0:0:
340,192,27441,6,0,P|344:128|292:80,1,115,2|0,0:0|0:0,0:0:0:0:
168,192,28040,1,2,0:0:0:0:
24,192,28340,1,0,0:0:0:0:
312,192,28639,2,0,L|444:160,2,115,2|0|2,0:0|0:0|0:0,0:0:0:0:
420,188,29538,1,0,0:0:0:0:
144,192,29837,6,0,L|12:164,1,115,2|0,0:0|0:0,0:0:0:0:
320,192,30436,1,2,0:0:0:0:
96,192,31036,2,0,L|224:192,1,115,2|0,0:0|0:0,0:0:0:0:
116,112,31635,2,0,L|-8:112,1,115,2|0,0:0|0:0,0:0:0:0:
288,192,32234,5,2,0:0:0:0:
400,192,32533,1,0,0:0:0:0:
268,192,32833,1,2,0:0:0:0:
420,192,33135,1,0,0:0:0:0:
40,192,33438,6,0,L|28:72,1,115,2|0,0:0|0:0,0:0:0:0:
316,192,34045,1,2,0:0:0:0:
464,192,34344,1,0,0:0:0:0:
176,192,34644,6,0,L|20:180,1,115,2|0,0:0|0:0,0:0:0:0:
192,116,35243,2,0,L|36:104,1,115,2|0,0:0|0:0,0:0:0:0:
476,192,35842,2,0,L|504:60,1,115,2|0,0:0|0:0,0:0:0:0:
224,192,36441,1,2,0:0:0:0:
340,192,36740,1,0,0:0:0:0:
48,192,37040,6,0,L|168:192,1,115,2|0,0:0|0:0,0:0:0:0:
288,192,37639,1,2,0:0:0:0:
436,192,37939,1,0,0:0:0:0:
76,192,38238,6,0,P|32:172|8:108,2,115,2|0|2,0:0|0:0|0:0,0:0:0:0:
217,192,39135,2,0,L|293:192,1,57.5
332,192,39435,6,0,L|196:192,1,115,2|0,0:0|0:0,0:0:0:0:
360,112,40036,2,0,L|488:112,1,115,2|0,0:0|0:0,0:0:0:0:
200,192,40637,1,2,0:0:0:0:
60,192,40938,1,0,0:0:0:0:
208,192,41238,1,2,0:0:0:0:
352,192,41539,1,0,0:0:0:0:
72,192,41839,6,0,L|212:192,2,115,2|0|2,0:0|0:0|0:0,0:0:0:0:
352,192,42741,2,0,L|136:108,1,230,2|2,0:0|0:0,0:0:0:0:
416,192,43643,1,0,0:0:0:0:
288,192,43944,1,0,0:0:0:0:
25,192,44244,6,0,L|140:192,1,115,2|0,0:0|0:0,0:0:0:0:
228,192,44695,1,0,0:0:0:0:
140,192,44845,2,0,L|264:192,1,115,2|0,0:0|0:0,0:0:0:0:
408,192,45447,2,0,L|284:192,1,115,2|0,0:0|0:0,0:0:0:0:
160,192,46048,1,2,0:0:0:0:
12,192,46348,1,0,0:0:0:0:
296,192,46649,6,0,L|431:192,1,115,2|0,0:0|0:0,0:0:0:0:
275,192,47250,2,0,L|160:192,1,115,2|0,0:0|0:0,0:0:0:0:
252,192,47701,1,0,0:0:0:0:
343,192,47851,2,0,L|471:192,1,115,2|0,0:0|0:0,0:0:0:0:
316,112,48453,2,0,L|436:112,1,115,2|0,0:0|0:0,0:0:0:0:
148,192,49054,5,2,0:0:0:0:
280,192,49354,1,0,0:0:0:0:
420,192,49655,1,2,0:0:0:0:
288,192,49955,1,0,0:0:0:0:
8,192,50256,2,0,L|152:176,1,115,2|0,0:0|0:0,0:0:0:0:
256,192,50857,2,0,L|112:176,1,115,2|0,0:0|0:0,0:0:0:0:
424,192,51459,5,2,0:0:0:0:
296,192,51759,1,0,0:0:0:0:
440,192,52060,2,0,L|288:192,1,115,2|0,0:0|0:0,0:0:0:0:
40,192,52661,1,2,0:0:0:0:
168,192,52962,1,0,0:0:0:0:
56,192,53262,1,2,0:0:0:0:
152,192,53563,1,0,0:0:0:0:
428,192,53863,6,0,L|296:156,1,115,2|0,0:0|0:0,0:0:0:0:
232,192,54314,1,0,0:0:0:0:
313,192,54465,2,0,L|429:192,1,115,2|0,0:0|0:0,0:0:0:0:
144,192,55066,2,0,L|32:160,1,115,2|0,0:0|0:0,0:0:0:0:
96,192,55517,1,0,0:0:0:0:
188,192,55667,2,0,L|56:192,1,115,2|0,0:0|0:0,0:0:0:0:
356,192,56268,5,2,0:0:0:0:
472,192,56569,1,0,0:0:0:0:
324,192,56869,1,2,0:0:0:0:
192,192,57170,1,0,0:0:0:0:
472,192,57471,2,0,L|348:180,1,115,2|0,0:0|0:0,0:0:0:0:
224,192,58072,1,2,0:0:0:0:
356,192,58372,1,0,0:0:0:0:
72,192,58673,5,2,0:0:0:0:
200,192,58974,1,2,0:0:0:0:
328,192,59274,1,2,0:0:0:0:
76,192,59543,6,0,L|320:192,1,230,2|0,0:0|0:0,0:0:0:0:
448,192,60467,1,2,0:0:0:0:
32,192,60767,1,2,0:0:0:0:
252,192,61367,5,2,0:0:0:0:
140,192,61667,1,0,0:0:0:0:
29,192,61967,1,0,0:0:0:0:
312,192,62267,1,2,0:0:0:0:
428,192,62567,5,0,0:0:0:0:
160,192,62852,1,2,0:0:0:0:
44,192,63155,1,2,0:0:0:0:
440,192,63458,6,0,L|464:72,1,115,2|0,0:0|0:0,0:0:0:0:
192,192,64058,2,0,L|170:79,1,115,2|0,0:0|0:0,0:0:0:0:
312,192,64658,1,2,0:0:0:0:
460,192,64958,1,0,0:0:0:0:
176,192,65258,2,0,L|36:192,1,115,2|0,0:0|0:0,0:0:0:0:
444,192,65858,6,0,L|478:55,1,115,2|0,0:0|0:0,0:0:0:0:
328,192,66458,1,2,0:0:0:0:
444,192,66758,1,0,0:0:0:0:
156,192,67058,2,0,L|28:192,1,115,2|0,0:0|0:0,0:0:0:0:
172,192,67658,1,2,0:0:0:0:
312,192,67958,1,0,0:0:0:0:
41,192,68258,6,0,L|173:192,1,115,2|0,0:0|0:0,0:0:0:0:
292,192,68858,1,2,0:0:0:0:
156,192,69158,1,0,0:0:0:0:
432,192,69458,2,0,L|292:176,1,115,2|0,0:0|0:0,0:0:0:0:
172,192,70058,2,0,L|312:176,1,115,2|0,0:0|0:0,0:0:0:0:
16,192,70658,6,0,L|56:72,1,115,2|0,0:0|0:0,0:0:0:0:
196,192,71258,2,0,L|76:192,1,115,2|0,0:0|0:0,0:0:0:0:
460,192,71858,1,2,0:0:0:0:
172,192,72462,5,2,0:0:0:0:
40,192,72768,1,2,0:0:0:0:
448,192,73074,2,0,L|484:76,1,115,2|0,0:0|0:0,0:0:0:0:
200,192,73674,2,0,L|324:168,1,115,2|0,0:0|0:0,0:0:0:0:
176,192,74274,1,2,0:0:0:0:
44,192,74574,1,0,0:0:0:0:
332,192,74874,2,0,L|448:192,1,115,2|0,0:0|0:0,0:0:0:0:
64,192,75474,6,0,L|16:72,1,115,2|0,0:0|0:0,0:0:0:0:
296,192,76074,1,2,0:0:0:0:
144,192,76374,1,2,0:0:0:0:
424,192,76674,2,0,L|305:152,1,115,2|0,0:0|0:0,0:0:0:0:
436,192,77274,1,2,0:0:0:0:
308,192,77574,1,0,0:0:0:0:
24,192,77874,6,0,P|0:136|40:68,1,115,2|0,0:0|0:0,0:0:0:0:
296,192,78474,1,2,0:0:0:0:
420,192,78774,1,0,0:0:0:0:
132,192,79074,2,0,L|0:140,1,115,2|0,0:0|0:0,0:0:0:0:
160,192,79674,2,0,L|28:140,1,115,2|0,0:0|0:0,0:0:0:0:
352,192,80280,6,0,L|488:172,1,115,2|0,0:0|0:0,0:0:0:0:
80,192,80880,2,0,L|36:72,1,115,2|0,0:0|0:0,0:0:0:0:
336,192,81480,1,2,0:0:0:0:
464,192,81780,1,2,0:0:0:0:
316,192,82065,1,2,0:0:0:0:
488,192,82380,1,2,0:0:0:0:
88,192,82696,6,0,L|4:112,1,115,2|0,0:0|0:0,0:0:0:0:
168,192,83302,2,0,L|252:112,1,115,2|0,0:0|0:0,0:0:0:0:
100,192,83914,1,2,0:0:0:0:
232,192,84217,1,0,0:0:0:0:
372,192,84520,1,2,0:0:0:0:
216,192,84835,1,0,0:0:0:0:
488,192,85132,5,2,0:0:0:0:
344,196,85451,1,0,0:0:0:0:
500,192,85770,2,0,L|376:220,1,115,2|0,0:0|0:0,0:0:0:0:
228,192,86360,6,0,L|104:192,1,115,2|0,0:0|0:0,0:0:0:0:
248,192,87014,1,0,0:0:0:0:
356,192,87336,1,0,0:0:0:0:
180,192,87856,1,2,0:0:0:0:
392,192,88515,1,0,0:0:0:0:
164,192,89462,5,2,0:0:0:0:
80,192,89619,1,2,0:0:0:0:
