osu file format v14

[General]
AudioFilename: audio.mp3
AudioLeadIn: 0
PreviewTime: 62567
Countdown: 0
SampleSet: Soft
StackLeniency: 0.7
Mode: 2
LetterboxInBreaks: 0
WidescreenStoryboard: 1

[Editor]
DistanceSpacing: 0.9
BeatDivisor: 4
GridSize: 4
TimelineZoom: 1

[Metadata]
Title:Shinkai Shoujo-piano ver.-
TitleUnicode:深海少女-piano ver.-
Artist:Erosion
ArtistUnicode:Erosion
Creator:celerih
Version:Cup
Source:
Tags:deep sea girl 小五 hatsune miku vocaloid utaite xiao wu
BeatmapID:1347078
BeatmapSetID:634939

[Difficulty]
HPDrainRate:3
CircleSize:2.5
OverallDifficulty:6
ApproachRate:6
SliderMultiplier:2.1
SliderTickRate:1

[Events]
//Background and Video events
0,0,"Shinkai Shoujou.jpg",0,0
//Break Periods
//Storyboard Layer 0 (Background)
//Storyboard Layer 1 (Fail)
//Storyboard Layer 2 (Pass)
//Storyboard Layer 3 (Foreground)
//Storyboard Sound Samples

[TimingPoints]
5122,545.454545454546,4,2,1,20,1,0
5394,666.666666666667,4,2,1,25,1,0
5727,610.376398779247,4,2,1,30,1,0
11220,598.205383848455,4,2,1,30,1,0
12715,545.454545454546,4,2,1,30,1,0
12987,650.759219088937,4,2,1,35,1,0
13312,595.238095238095,4,2,1,35,1,0
15097,613.496932515337,4,2,1,40,1,0
15403,613.496932515337,4,2,1,45,1,0
16016,601.202404809619,4,2,1,45,1,0
16617,595.238095238095,4,2,1,45,1,0
18997,607.287449392713,4,2,1,45,1,0
20211,601.202404809619,4,2,1,40,1,0
22615,575.815738963532,4,2,1,35,1,0
23190,623.700623700624,4,2,1,35,1,0
23813,595.238095238095,4,2,1,35,1,0
24408,722.89156626506,4,2,1,40,1,0
24769,789.473684210526,4,2,1,40,1,0
25045,599.101347978033,4,2,1,45,1,0
32833,605.143721633888,4,2,1,45,1,0
33438,607.287449392713,4,2,1,45,1,0
34045,599.101347978033,4,2,1,45,1,0
34644,599.101347978033,4,2,1,45,1,0
38238,624.349635796046,4,2,1,45,1,0
38862,821.917808219178,4,2,1,45,1,0
39135,600,4,2,1,45,1,0
39435,601.202404809619,4,2,1,45,1,0
59543,595.238095238095,4,2,1,50,1,0
60467,600,4,2,1,50,1,0
62567,571.428571428571,4,2,1,55,1,0
62852,606.060606060606,4,2,1,55,1,0
63458,600,4,2,1,60,1,1
71858,604.838709677419,4,2,1,60,1,1
72462,612.244897959184,4,2,1,60,1,1
73074,600,4,2,1,60,1,1
79674,606.060606060606,4,2,1,60,1,1
80280,600,4,2,1,60,1,1
81780,571.428571428571,4,2,1,60,1,1
82065,631.578947368421,4,2,1,60,1,1
82696,606.060606060606,4,2,1,50,1,1
83302,612.244897959184,4,2,1,50,1,1
83914,606.060606060606,4,2,1,50,1,1
84520,631.578947368421,4,2,1,50,1,1
84835,572.519083969466,4,2,1,60,1,1
84978,618.556701030928,4,2,1,60,1,1
85132,638.297872340426,4,2,1,50,1,0
86360,606.060606060606,4,2,1,50,1,0
87014,645.161290322581,4,2,1,50,1,0
87336,625,4,2,1,50,1,0
87856,659.340659340659,4,2,1,50,1,0
88515,947.867298578199,4,2,1,20,1,0
89462,631.578947368421,4,2,1,30,1,0

[Colours]
Combo1 : 171,182,203
Combo2 : 13,40,115
Combo3 : 97,248,228
Combo4 : 80,67,112

[HitObjects]
280,192,5727,5,2,0:0:0:0:
92,192,6947,1,2,0:0:0:0:
304,192,7558,1,0,0:0:0:0:
76,192,8168,6,0,L|300:192,1,210,2|2,0:0|0:0,0:0:0:0:
496,192,9389,2,0,L|272:192,1,210,2|2,0:0|0:0,0:0:0:0:
64,192,10610,6,0,P|12:112|108:48,1,210,2|0,0:0|0:0,0:0:0:0:
276,192,11818,2,0,L|344:96,2,105,2|0|2,0:0|0:0|0:0,0:0:0:0:
120,192,12987,5,2,0:0:0:0:
376,192,13609,2,0,L|492:160,2,105,2|0|2,0:0|0:0|0:0,0:0:0:0:
176,192,14800,2,0,L|60:164,1,105,2|0,0:0|0:0,0:0:0:0:
192,192,15403,5,2,0:0:0:0:
380,192,16016,1,0,0:0:0:0:
160,192,16617,2,0,L|384:192,1,210,2|0,0:0|0:0,0:0:0:0:
160,84,17807,2,0,L|76:284,1,210,2|0,0:0|0:0,0:0:0:0:
292,192,18997,5,2,0:0:0:0:
344,112,19300,1,0,0:0:0:0:
292,192,19604,1,0,0:0:0:0:
88,192,20211,6,0,B|304:192,1,210,2|0,0:0|0:0,0:0:0:0:
480,192,21413,2,0,P|420:100|304:128,1,210,2|2,0:0|0:0,0:0:0:0:
112,192,22615,6,0,L|84:84,1,105,2|0,0:0|0:0,0:0:0:0:
180,192,23190,2,0,L|208:84,1,105,0|0,0:0|0:0,0:0:0:0:
72,192,23813,5,2,0:0:0:0:
224,192,24408,1,2,0:0:0:0:
444,196,25045,6,0,P|376:148|228:164,1,210,2|2,0:0|0:0,0:0:0:0:
72,192,26243,2,0,P|140:144|288:160,1,210,2|2,0:0|0:0,0:0:0:0:
448,192,27441,6,0,L|236:152,2,210,2|2|2,0:0|0:0|0:0,0:0:0:0:
276,188,29238,1,2,0:0:0:0:
40,192,29837,6,0,L|112:80,2,105,2|0|2,0:0|0:0|0:0,0:0:0:0:
248,192,31036,2,0,P|344:192|424:284,1,210,2|2,0:0|0:0,0:0:0:0:
136,192,32234,5,2,0:0:0:0:
96,112,32533,1,0,0:0:0:0:
232,192,32833,2,0,L|344:176,2,105,2|0|2,0:0|0:0|0:0,0:0:0:0:
32,192,34045,6,0,L|136:184,1,105,2|0,0:0|0:0,0:0:0:0:
244,192,34644,1,2,0:0:0:0:
436,192,35243,1,2,0:0:0:0:
208,192,35842,2,0,B|128:192|128:192|232:292,1,210,2|2,0:0|0:0,0:0:0:0:
464,192,37040,6,0,P|352:180|256:220,1,210,2|2,0:0|0:0,0:0:0:0:
40,192,38238,1,2,0:0:0:0:
188,192,38862,1,2,0:0:0:0:
424,192,39435,5,2,0:0:0:0:
256,192,40036,1,2,0:0:0:0:
464,192,40637,2,0,L|220:132,1,210,2|2,0:0|0:0,0:0:0:0:
48,192,41839,6,0,L|292:132,1,210,2|2,0:0|0:0,0:0:0:0:
384,192,42741,1,2,0:0:0:0:
216,192,43342,1,2,0:0:0:0:
88,192,43643,1,0,0:0:0:0:
324,192,44244,6,0,P|384:104|308:24,1,210,2|2,0:0|0:0,0:0:0:0:
100,192,45447,1,2,0:0:0:0:
280,192,46048,1,2,0:0:0:0:
80,192,46649,6,0,L|300:160,1,210,2|2,0:0|0:0,0:0:0:0:
480,192,47851,1,2,0:0:0:0:
400,132,48152,1,0,0:0:0:0:
480,192,48453,1,2,0:0:0:0:
260,192,49054,6,0,L|32:192,1,210,2|2,0:0|0:0,0:0:0:0:
236,192,50256,1,2,0:0:0:0:
428,192,50857,1,2,0:0:0:0:
196,192,51459,6,0,P|308:184|404:216,1,210,2|2,0:0|0:0,0:0:0:0:
176,192,52661,1,2,0:0:0:0:
104,124,52962,1,0,0:0:0:0:
176,192,53262,1,2,0:0:0:0:
404,192,53863,6,0,L|228:128,2,157.5,2|0|0,0:0|0:0|0:0,0:0:0:0:
268,192,55066,2,0,P|180:176|140:76,2,157.5,2|0|0,0:0|0:0|0:0,0:0:0:0:
396,88,56268,6,0,P|332:184|208:192,1,210,2|2,0:0|0:0,0:0:0:0:
456,192,57471,1,2,0:0:0:0:
396,120,57771,1,0,0:0:0:0:
456,192,58072,1,0,0:0:0:0:
272,192,58673,6,0,L|136:168,2,105,2|2|2,0:0|0:0|0:0,0:0:0:0:
376,192,59543,2,0,L|164:192,1,210,2|0,0:0|0:0,0:0:0:0:
64,192,60467,1,2,0:0:0:0:
192,192,60767,1,2,0:0:0:0:
312,192,61367,5,0,0:0:0:0:
296,100,61667,1,2,0:0:0:0:
420,192,61967,1,0,0:0:0:0:
436,100,62267,1,2,0:0:0:0:
316,192,62567,5,0,0:0:0:0:
208,192,62852,2,0,L|100:192,1,105,2|2,0:0|0:0,0:0:0:0:
252,192,63458,6,0,L|476:192,1,210,2|2,0:0|0:0,0:0:0:0:
252,192,64658,2,0,L|40:164,1,210,2|2,0:0|0:0,0:0:0:0:
136,192,65558,1,0,0:0:0:0:
252,192,65858,5,2,0:0:0:0:
428,192,66458,1,2,0:0:0:0:
500,116,66758,1,0,0:0:0:0:
428,192,67058,1,2,0:0:0:0:
216,192,67658,1,2,0:0:0:0:
444,192,68258,6,0,L|232:176,1,210,2|2,0:0|0:0,0:0:0:0:
32,192,69458,2,0,L|244:176,1,210,2|2,0:0|0:0,0:0:0:0:
432,192,70658,5,2,0:0:0:0:
504,116,70958,1,0,0:0:0:0:
432,192,71258,1,2,0:0:0:0:
192,192,71858,5,2,0:0:0:0:
424,192,72462,2,0,L|316:192,1,105,2|2,0:0|0:0,0:0:0:0:
204,192,73074,6,0,P|152:112|224:36,1,210,2|2,0:0|0:0,0:0:0:0:
436,192,74274,2,0,L|220:172,1,210,2|2,0:0|0:0,0:0:0:0:
120,192,75174,1,0,0:0:0:0:
226,172,75474,5,2,0:0:0:0:
440,192,76074,1,2,0:0:0:0:
364,136,76374,1,2,0:0:0:0:
440,192,76674,1,2,0:0:0:0:
252,188,77274,1,2,0:0:0:0:
36,192,77874,6,0,P|40:104|156:88,1,210,2|2,0:0|0:0,0:0:0:0:
352,192,79074,1,2,0:0:0:0:
424,112,79374,1,0,0:0:0:0:
352,192,79674,2,0,L|232:192,1,105,2|0,0:0|0:0,0:0:0:0:
120,192,80280,6,0,L|336:176,1,210,2|2,0:0|0:0,0:0:0:0:
424,192,81180,1,0,0:0:0:0:
304,192,81480,1,2,0:0:0:0:
180,192,81780,2,0,L|76:192,1,105,2|2,0:0|0:0,0:0:0:0:
196,192,82380,1,2,0:0:0:0:
340,192,82696,6,0,L|399:105,2,105,2|0|2,0:0|0:0|0:0,0:0:0:0:
120,192,83914,2,0,L|61:105,2,105,0|0|2,0:0|0:0|0:0,0:0:0:0:
316,192,85132,5,2,0:0:0:0:
160,192,85770,1,2,0:0:0:0:
116,120,86089,1,0,0:0:0:0:
160,192,86360,1,2,0:0:0:0:
256,192,87014,5,0,0:0:0:0:
348,192,87336,1,0,0:0:0:0:
220,196,87856,1,2,0:0:0:0:
380,192,88515,1,0,0:0:0:0:
152,192,89462,5,2,0:0:0:0:
132,140,89619,1,2,0:0:0:0:
