osu file format v14

[General]
AudioFilename: audio.mp3
AudioLeadIn: 0
PreviewTime: -1
Countdown: 1
SampleSet: Soft
StackLeniency: 0.7
Mode: 0
LetterboxInBreaks: 0
WidescreenStoryboard: 1

[Editor]
Bookmarks: 13734
DistanceSpacing: 0.8
BeatDivisor: 2
GridSize: 32
TimelineZoom: 1

[Metadata]
Title:sensei ED [ TrySail - adrenaline!!! ]
TitleUnicode:sensei ED [ TrySail - adrenaline!!! ]
Artist:Eromanga
ArtistUnicode:Eromanga
Creator:bubblebath02
Version:Normal
Source:VeranoLuelGN
Tags:
BeatmapID:1270535
BeatmapSetID:600481

[Difficulty]
HPDrainRate:5
CircleSize:5
OverallDifficulty:7
ApproachRate:5
SliderMultiplier:1.4
SliderTickRate:1

[Events]
//Background and Video events
0,0,"thumb-1920-821002.png",0,0
//Break Periods
2,7194,15577
//Storyboard Layer 0 (Background)
//Storyboard Layer 1 (Fail)
//Storyboard Layer 2 (Pass)
//Storyboard Layer 3 (Foreground)
//Storyboard Sound Samples

[TimingPoints]
17429.922036284,434.782608695652,4,2,0,100,1,0

[HitObjects]
256,192,690,12,0,2429,0:0:0:0:
64,64,4169,6,8,L|320:64,1,210
352,64,5256,1,0,0:0:0:0:
416,64,5690,2,0,L|416:288,1,210
352,320,6777,2,0,L|256:320,1,70
32,32,16777,6,0,P|192:32|192:32,1,140
256,32,17647,1,8,0:0:0:0:
352,32,18082,2,0,L|512:32,1,140
448,96,18951,1,8,0:0:0:0:
448,192,19386,2,0,B|416:192|416:192|384:160,1,70
448,256,20038,1,0,0:0:0:0:
384,256,20256,1,0,0:0:0:0:
320,256,20690,2,0,B|224:256|192:192|192:192,1,140
160,160,21342,1,0,0:0:0:0:
32,32,21777,2,0,P|256:32|256:32,1,210
288,32,22647,5,2,0:0:0:0:
352,32,23082,2,0,B|448:32|448:32|448:160|448:160,1,210
448,192,23951,1,8,0:0:0:0:
448,320,24386,2,0,P|352:320|256:256,1,210
224,224,25256,1,8,0:0:0:0:
192,256,25690,2,0,B|128:320|0:352|0:352,1,210
32,288,26560,1,8,0:0:0:0:
32,64,26995,1,0,0:0:0:0:
96,64,27212,1,8,0:0:0:0:
160,64,27647,6,0,B|256:64|288:128|288:128,1,140
288,192,28299,1,8,0:0:0:0:
448,64,28734,2,0,L|192:64,1,210
32,128,29821,2,0,B|32:224|32:224|160:224|160:224,1,210
96,160,30690,1,8,0:0:0:0:
160,160,31125,1,0,0:0:0:0:
224,160,31560,1,8,0:0:0:0:
320,160,31995,2,0,P|320:256|448:288,1,210
384,224,32864,1,8,0:0:0:0:
32,32,33299,6,0,P|192:32|192:32,1,140
224,32,33951,1,8,0:0:0:0:
32,96,34386,2,0,P|192:96|192:96,1,140
32,160,35256,2,8,P|192:160|192:160,1,140
32,224,36125,2,0,L|192:224,1,140
192,288,36995,2,8,L|32:288,1,140
352,32,37647,2,0,B|416:32|448:96|448:96,1,140
448,192,38299,1,8,0:0:0:0:
448,256,38734,2,0,B|416:320|288:352|288:352,1,210
224,352,39603,1,8,0:0:0:0:
64,64,40038,5,0,0:0:0:0:
128,64,41125,1,8,0:0:0:0:
224,64,41995,1,0,0:0:0:0:
64,64,42647,1,8,0:0:0:0:
192,64,42864,1,0,0:0:0:0:
160,128,43516,1,0,0:0:0:0:
96,64,43734,1,8,0:0:0:0:
192,64,44386,1,0,0:0:0:0:
96,160,44603,1,8,0:0:0:0:
96,64,45038,6,0,L|192:192,1,140
256,192,45908,12,8,49169,0:0:0:0:
64,64,49603,5,0,0:0:0:0:
128,64,50038,1,8,0:0:0:0:
224,64,50473,1,0,0:0:0:0:
256,64,50908,1,8,0:0:0:0:
288,64,51342,1,0,0:0:0:0:
352,64,51777,1,8,0:0:0:0:
448,96,52647,1,8,0:0:0:0:
448,160,53082,1,0,0:0:0:0:
448,192,53516,1,8,0:0:0:0:
32,64,53951,5,0,0:0:0:0:
128,128,54603,1,8,0:0:0:0:
256,64,55473,1,0,0:0:0:0:
352,128,56125,1,8,0:0:0:0:
64,64,56995,1,0,0:0:0:0:
64,128,58082,1,8,0:0:0:0:
64,192,58516,1,0,0:0:0:0:
64,256,58951,1,8,0:0:0:0:
64,288,59386,1,0,0:0:0:0:
96,320,59821,1,0,0:0:0:0:
96,224,60690,5,8,0:0:0:0:
96,160,61560,1,0,0:0:0:0:
96,96,62429,1,0,0:0:0:0:
64,64,62864,1,0,0:0:0:0:
128,96,63082,1,8,0:0:0:0:
64,128,63951,1,0,0:0:0:0:
96,96,64603,1,8,0:0:0:0:
128,128,64821,1,0,0:0:0:0:
64,32,65038,1,0,0:0:0:0:
128,64,65473,1,8,0:0:0:0:
128,128,65908,1,0,0:0:0:0:
64,64,66342,5,0,0:0:0:0:
96,96,66995,1,4,0:0:0:0:
96,160,67429,1,0,0:0:0:0:
64,192,67864,1,0,0:0:0:0:
64,224,68299,1,4,0:0:0:0:
128,160,68734,1,0,0:0:0:0:
64,96,69603,1,4,0:0:0:0:
224,96,70038,1,0,0:0:0:0:
384,96,70473,1,4,0:0:0:0:
384,256,71342,1,0,0:0:0:0:
288,256,71777,1,0,0:0:0:0:
256,128,72212,5,0,0:0:0:0:
352,160,72864,1,0,0:0:0:0:
352,288,73299,1,0,0:0:0:0:
192,288,73734,1,0,0:0:0:0:
224,160,74169,1,4,0:0:0:0:
352,192,74821,1,0,0:0:0:0:
352,320,75038,1,0,0:0:0:0:
160,256,75690,1,0,0:0:0:0:
352,224,75908,1,4,0:0:0:0:
224,96,76560,5,0,0:0:0:0:
224,256,76777,1,0,0:0:0:0:
96,192,77212,1,0,0:0:0:0:
320,160,77647,1,8,0:0:0:0:
192,96,78082,1,0,0:0:0:0:
224,256,78516,1,0,0:0:0:0:
96,224,78951,1,8,0:0:0:0:
320,128,79386,1,0,0:0:0:0:
160,128,80038,1,8,0:0:0:0:
256,224,80473,1,0,0:0:0:0:
160,224,80690,1,0,0:0:0:0:
256,160,80908,1,8,0:0:0:0:
224,160,81125,1,0,0:0:0:0:
320,96,82212,5,0,0:0:0:0:
256,224,83082,1,8,0:0:0:0:
256,192,83299,12,4,89681,0:0:0:0:
