osu file format v14

[General]
AudioFilename: audio.mp3
AudioLeadIn: 0
PreviewTime: 28193
Countdown: 0
SampleSet: Normal
StackLeniency: 0.7
Mode: 3
LetterboxInBreaks: 0
SpecialStyle: 0
WidescreenStoryboard: 1

[Editor]
DistanceSpacing: 0.8
BeatDivisor: 4
GridSize: 32
TimelineZoom: 1

[Metadata]
Title:Scourge Sisters
TitleUnicode:Scourge Sisters
Artist:Erik Scheele
ArtistUnicode:Erik Scheele
Creator:Quedsedash
Version:Hard
Source:
Tags:
BeatmapID:3824210
BeatmapSetID:1860249

[Difficulty]
HPDrainRate:7
CircleSize:4
OverallDifficulty:7
ApproachRate:5
SliderMultiplier:1.00000000596046
SliderTickRate:1

[Events]
//Background and Video events
0,0,"scourge.png",0,0
//Break Periods
//Storyboard Layer 0 (Background)
//Storyboard Layer 1 (Fail)
//Storyboard Layer 2 (Pass)
//Storyboard Layer 3 (Foreground)
//Storyboard Layer 4 (Overlay)
//Storyboard Sound Samples

[TimingPoints]
336,194.805194805195,4,1,0,10,1,0
336,-80,4,1,0,10,0,0

[HitObjects]
192,192,141,5,0,0:0:0:0:
64,252,141,128,0,1699:0:0:0:0:
320,192,530,1,0,0:0:0:0:
448,192,920,1,0,0:0:0:0:
192,192,1115,1,0,0:0:0:0:
192,192,1699,1,0,0:0:0:0:
448,192,1699,128,0,3258:0:0:0:0:
64,192,2089,1,0,0:0:0:0:
320,192,2478,1,0,0:0:0:0:
192,192,2673,1,0,0:0:0:0:
64,192,2868,1,0,0:0:0:0:
64,192,3063,128,0,3258:0:0:0:0:
192,192,3258,128,0,4816:0:0:0:0:
320,192,3647,1,0,0:0:0:0:
320,192,4037,1,0,0:0:0:0:
448,192,4232,1,0,0:0:0:0:
64,192,4816,1,0,0:0:0:0:
320,192,4816,128,0,6374:0:0:0:0:
64,192,5206,1,0,0:0:0:0:
192,192,5595,1,0,0:0:0:0:
64,192,5790,1,0,0:0:0:0:
192,192,5985,1,0,0:0:0:0:
448,192,6374,1,0,0:0:0:0:
192,192,6374,128,0,7933:0:0:0:0:
320,192,6569,1,0,0:0:0:0:
448,192,6764,1,0,0:0:0:0:
320,192,7154,1,0,0:0:0:0:
448,192,7348,1,0,0:0:0:0:
320,192,7543,1,0,0:0:0:0:
320,192,7933,128,0,9491:0:0:0:0:
64,192,7933,1,0,0:0:0:0:
192,192,8128,1,0,0:0:0:0:
448,192,8323,1,0,0:0:0:0:
192,192,8517,1,0,0:0:0:0:
64,192,8712,1,0,0:0:0:0:
192,192,8907,1,0,0:0:0:0:
64,192,9102,1,0,0:0:0:0:
64,192,9297,128,0,9491:0:0:0:0:
192,192,9491,128,0,11050:0:0:0:0:
320,192,9686,1,0,0:0:0:0:
448,192,9881,1,0,0:0:0:0:
320,192,10271,1,0,0:0:0:0:
64,192,10465,1,0,0:0:0:0:
320,192,10660,1,0,0:0:0:0:
320,192,11050,128,0,13582:0:0:0:0:
448,192,11050,1,0,0:0:0:0:
192,192,11245,1,0,0:0:0:0:
448,192,11439,1,0,0:0:0:0:
192,192,11634,1,0,0:0:0:0:
64,192,11829,1,0,0:0:0:0:
192,192,11829,1,0,0:0:0:0:
448,192,12024,1,0,0:0:0:0:
192,192,12121,1,0,0:0:0:0:
448,192,12219,1,0,0:0:0:0:
64,192,12413,1,0,0:0:0:0:
192,192,12608,128,0,15725:0:0:0:0:
320,192,15725,1,0,0:0:0:0:
64,192,16115,1,0,0:0:0:0:
320,192,16310,1,0,0:0:0:0:
448,192,16504,1,0,0:0:0:0:
192,192,16894,1,0,0:0:0:0:
320,192,17089,1,0,0:0:0:0:
448,192,17284,1,0,0:0:0:0:
192,192,17284,1,0,0:0:0:0:
320,192,17381,1,0,0:0:0:0:
192,192,17478,1,0,0:0:0:0:
64,192,17576,1,0,0:0:0:0:
448,192,17673,1,0,0:0:0:0:
192,192,17673,1,0,0:0:0:0:
320,192,17868,1,0,0:0:0:0:
64,192,17868,1,0,0:0:0:0:
448,192,18063,1,0,0:0:0:0:
192,192,18063,1,0,0:0:0:0:
320,192,18160,1,0,0:0:0:0:
192,192,18258,1,0,0:0:0:0:
64,192,18355,1,0,0:0:0:0:
448,192,18452,1,0,0:0:0:0:
192,192,18452,1,0,0:0:0:0:
320,192,18452,1,0,0:0:0:0:
320,192,18842,1,0,0:0:0:0:
192,192,19232,1,0,0:0:0:0:
320,192,19426,1,0,0:0:0:0:
192,192,19621,1,0,0:0:0:0:
192,192,20011,1,0,0:0:0:0:
320,192,20206,1,0,0:0:0:0:
448,192,20400,1,0,0:0:0:0:
64,192,20790,1,0,0:0:0:0:
448,192,20985,1,0,0:0:0:0:
192,192,20985,1,0,0:0:0:0:
320,192,21180,1,0,0:0:0:0:
64,192,21180,1,0,0:0:0:0:
320,192,21374,1,0,0:0:0:0:
192,192,21569,1,0,0:0:0:0:
64,192,21569,1,0,0:0:0:0:
448,192,21569,1,0,0:0:0:0:
320,192,21959,1,0,0:0:0:0:
64,192,22348,1,0,0:0:0:0:
320,192,22543,1,0,0:0:0:0:
448,192,22738,1,0,0:0:0:0:
192,192,23128,1,0,0:0:0:0:
320,192,23323,1,0,0:0:0:0:
448,192,23517,1,0,0:0:0:0:
192,192,23517,1,0,0:0:0:0:
320,192,23615,1,0,0:0:0:0:
192,192,23712,1,0,0:0:0:0:
320,192,23810,1,0,0:0:0:0:
64,192,23907,1,0,0:0:0:0:
192,192,23907,1,0,0:0:0:0:
448,192,24102,1,0,0:0:0:0:
64,192,24102,1,0,0:0:0:0:
448,192,24297,1,0,0:0:0:0:
192,192,24297,1,0,0:0:0:0:
320,192,24394,1,0,0:0:0:0:
448,192,24491,1,0,0:0:0:0:
320,192,24589,1,0,0:0:0:0:
64,192,24686,1,0,0:0:0:0:
192,192,24686,1,0,0:0:0:0:
448,192,24686,1,0,0:0:0:0:
320,192,25076,1,0,0:0:0:0:
192,192,25465,1,0,0:0:0:0:
320,192,25660,1,0,0:0:0:0:
320,192,25855,1,0,0:0:0:0:
192,192,26245,1,0,0:0:0:0:
320,192,26439,1,0,0:0:0:0:
448,192,26634,1,0,0:0:0:0:
192,192,27024,1,0,0:0:0:0:
448,192,27219,1,0,0:0:0:0:
192,192,27316,1,0,0:0:0:0:
448,192,27413,1,0,0:0:0:0:
64,192,27413,1,0,0:0:0:0:
192,192,27608,1,0,0:0:0:0:
64,192,27803,1,0,0:0:0:0:
320,192,27803,1,0,0:0:0:0:
448,192,27803,1,0,0:0:0:0:
448,192,27998,1,0,0:0:0:0:
192,192,28193,1,0,0:0:0:0:
64,192,28387,1,0,0:0:0:0:
64,192,28582,1,0,0:0:0:0:
192,192,28582,1,0,0:0:0:0:
320,192,28777,1,0,0:0:0:0:
192,192,28972,1,0,0:0:0:0:
320,192,29069,1,0,0:0:0:0:
192,192,29167,1,0,0:0:0:0:
320,192,29264,1,0,0:0:0:0:
64,192,29361,1,0,0:0:0:0:
192,192,29361,1,0,0:0:0:0:
448,192,29459,1,0,0:0:0:0:
192,192,29556,1,0,0:0:0:0:
320,192,29654,1,0,0:0:0:0:
448,192,29751,128,0,30043:0:0:0:0:
192,192,30043,128,0,30433:0:0:0:0:
320,192,30141,1,0,0:0:0:0:
64,192,30433,1,0,0:0:0:0:
320,192,30530,128,0,30855:0:0:0:0:
192,192,30855,128,0,31115:0:0:0:0:
448,192,30920,1,0,0:0:0:0:
64,192,31115,1,0,0:0:0:0:
320,192,31310,1,0,0:0:0:0:
192,192,31504,1,0,0:0:0:0:
448,192,31699,1,0,0:0:0:0:
64,192,31699,1,0,0:0:0:0:
192,192,31894,1,0,0:0:0:0:
64,192,32089,1,0,0:0:0:0:
320,192,32186,1,0,0:0:0:0:
448,192,32284,1,0,0:0:0:0:
64,192,32381,1,0,0:0:0:0:
448,192,32478,1,0,0:0:0:0:
320,192,32478,1,0,0:0:0:0:
192,192,32673,1,0,0:0:0:0:
320,192,32868,1,0,0:0:0:0:
192,192,33063,1,0,0:0:0:0:
64,192,33258,1,0,0:0:0:0:
320,192,33258,1,0,0:0:0:0:
192,192,33452,1,0,0:0:0:0:
448,192,33647,1,0,0:0:0:0:
320,192,33842,1,0,0:0:0:0:
192,192,34037,1,0,0:0:0:0:
448,192,34037,1,0,0:0:0:0:
64,192,34232,1,0,0:0:0:0:
64,192,34426,1,0,0:0:0:0:
192,192,34621,1,0,0:0:0:0:
64,192,34719,1,0,0:0:0:0:
448,192,34816,1,0,0:0:0:0:
192,192,34816,1,0,0:0:0:0:
320,192,34913,1,0,0:0:0:0:
192,192,35011,128,0,35400:0:0:0:0:
64,192,35400,1,0,0:0:0:0:
192,192,35595,1,0,0:0:0:0:
448,192,35595,1,0,0:0:0:0:
320,192,35790,1,0,0:0:0:0:
192,192,35985,1,0,0:0:0:0:
448,192,36082,1,0,0:0:0:0:
192,192,36180,1,0,0:0:0:0:
64,192,36277,1,0,0:0:0:0:
448,192,36374,1,0,0:0:0:0:
192,192,36374,1,0,0:0:0:0:
192,192,36569,1,0,0:0:0:0:
448,192,36764,1,0,0:0:0:0:
320,192,36959,1,0,0:0:0:0:
192,192,37154,1,0,0:0:0:0:
448,192,37154,1,0,0:0:0:0:
64,192,37348,1,0,0:0:0:0:
448,192,37543,128,0,38517:0:0:0:0:
192,192,37933,1,0,0:0:0:0:
320,192,38517,1,0,0:0:0:0:
192,192,38615,1,0,0:0:0:0:
320,192,38712,1,0,0:0:0:0:
64,192,38712,1,0,0:0:0:0:
448,192,38810,1,0,0:0:0:0:
320,192,38907,1,0,0:0:0:0:
192,192,39004,1,0,0:0:0:0:
320,192,39102,128,0,39491:0:0:0:0:
64,192,39491,128,0,39881:0:0:0:0:
448,192,39491,1,0,0:0:0:0:
448,192,39881,128,0,40271:0:0:0:0:
192,192,40271,128,0,40660:0:0:0:0:
320,192,40271,1,0,0:0:0:0:
320,192,40660,1,0,0:0:0:0:
64,192,40758,1,0,0:0:0:0:
320,192,40855,1,0,0:0:0:0:
64,192,40952,1,0,0:0:0:0:
448,192,41050,1,0,0:0:0:0:
320,192,41050,1,0,0:0:0:0:
192,192,41147,1,0,0:0:0:0:
320,192,41245,1,0,0:0:0:0:
192,192,41342,1,0,0:0:0:0:
448,192,41439,1,0,0:0:0:0:
320,192,41537,1,0,0:0:0:0:
448,192,41634,1,0,0:0:0:0:
192,192,41732,1,0,0:0:0:0:
64,192,41829,1,0,0:0:0:0:
448,192,41829,1,0,0:0:0:0:
320,192,41926,1,0,0:0:0:0:
192,192,42024,1,0,0:0:0:0:
64,192,42121,1,0,0:0:0:0:
320,192,42219,1,0,0:0:0:0:
64,192,42316,1,0,0:0:0:0:
320,192,42413,1,0,0:0:0:0:
192,192,42511,1,0,0:0:0:0:
64,192,42608,1,0,0:0:0:0:
448,192,42608,1,0,0:0:0:0:
192,192,42706,1,0,0:0:0:0:
320,192,42803,1,0,0:0:0:0:
64,192,42900,1,0,0:0:0:0:
448,192,42998,1,0,0:0:0:0:
320,192,43095,1,0,0:0:0:0:
192,192,43193,1,0,0:0:0:0:
320,192,43290,1,0,0:0:0:0:
448,192,43387,1,0,0:0:0:0:
192,192,43387,1,0,0:0:0:0:
64,192,43485,1,0,0:0:0:0:
192,192,43582,1,0,0:0:0:0:
64,192,43680,1,0,0:0:0:0:
320,192,43777,1,0,0:0:0:0:
192,192,43874,1,0,0:0:0:0:
64,192,43972,1,0,0:0:0:0:
192,192,44069,1,0,0:0:0:0:
64,192,44167,1,0,0:0:0:0:
320,192,44167,1,0,0:0:0:0:
192,192,44264,1,0,0:0:0:0:
320,192,44361,1,0,0:0:0:0:
64,192,44459,1,0,0:0:0:0:
192,192,44556,1,0,0:0:0:0:
448,192,44654,1,0,0:0:0:0:
192,192,44751,1,0,0:0:0:0:
320,192,44848,1,0,0:0:0:0:
64,192,44946,1,0,0:0:0:0:
448,192,44946,1,0,0:0:0:0:
192,192,45043,1,0,0:0:0:0:
320,192,45141,1,0,0:0:0:0:
64,192,45238,1,0,0:0:0:0:
448,192,45336,128,0,45628:0:0:0:0:
320,192,45628,128,0,45920:0:0:0:0:
64,192,45725,1,0,0:0:0:0:
192,192,45920,128,0,46115:0:0:0:0:
64,192,46115,128,0,46894:0:0:0:0:
192,192,46504,1,0,0:0:0:0:
448,192,46894,1,0,0:0:0:0:
320,192,47089,1,0,0:0:0:0:
192,192,47186,1,0,0:0:0:0:
64,192,47284,1,0,0:0:0:0:
320,192,47284,1,0,0:0:0:0:
320,192,47478,1,0,0:0:0:0:
192,192,47576,1,0,0:0:0:0:
64,192,47673,1,0,0:0:0:0:
192,192,47771,1,0,0:0:0:0:
320,192,47868,1,0,0:0:0:0:
64,192,47965,1,0,0:0:0:0:
192,192,48063,1,0,0:0:0:0:
448,192,48063,1,0,0:0:0:0:
320,192,48160,1,0,0:0:0:0:
192,192,48258,1,0,0:0:0:0:
64,192,48355,1,0,0:0:0:0:
448,192,48452,1,0,0:0:0:0:
320,192,48745,1,0,0:0:0:0:
192,192,48842,1,0,0:0:0:0:
320,192,49037,1,0,0:0:0:0:
64,192,49134,1,0,0:0:0:0:
192,192,49232,1,0,0:0:0:0:
320,192,49556,1,0,0:0:0:0:
64,192,49621,1,0,0:0:0:0:
320,192,49816,1,0,0:0:0:0:
192,192,49913,1,0,0:0:0:0:
320,192,50011,1,0,0:0:0:0:
64,192,50108,1,0,0:0:0:0:
448,192,50206,1,0,0:0:0:0:
192,192,50303,1,0,0:0:0:0:
64,192,50400,1,0,0:0:0:0:
448,192,50400,1,0,0:0:0:0:
320,192,50498,1,0,0:0:0:0:
192,192,50595,1,0,0:0:0:0:
64,192,50693,1,0,0:0:0:0:
192,192,50790,1,0,0:0:0:0:
320,192,50887,1,0,0:0:0:0:
192,192,50985,1,0,0:0:0:0:
320,192,51082,1,0,0:0:0:0:
64,192,51180,1,0,0:0:0:0:
448,192,51180,1,0,0:0:0:0:
320,192,51277,1,0,0:0:0:0:
192,192,51374,1,0,0:0:0:0:
320,192,51472,1,0,0:0:0:0:
448,192,51569,128,0,53128:0:0:0:0:
64,192,51959,1,0,0:0:0:0:
320,192,52154,128,0,54686:0:0:0:0:
192,192,52738,1,0,0:0:0:0:
64,192,53128,1,0,0:0:0:0:
192,192,53517,1,0,0:0:0:0:
64,192,53712,1,0,0:0:0:0:
64,192,53907,1,0,0:0:0:0:
192,192,54297,1,0,0:0:0:0:
64,192,54491,1,0,0:0:0:0:
192,192,54686,1,0,0:0:0:0:
64,192,54686,1,0,0:0:0:0:
448,192,54784,1,0,0:0:0:0:
192,192,54881,1,0,0:0:0:0:
320,192,54881,1,0,0:0:0:0:
64,192,54978,1,0,0:0:0:0:
192,192,55076,1,0,0:0:0:0:
448,192,55076,1,0,0:0:0:0:
64,192,55271,1,0,0:0:0:0:
320,192,55271,1,0,0:0:0:0:
192,192,55271,1,0,0:0:0:0:
64,192,55465,1,0,0:0:0:0:
320,192,55465,1,0,0:0:0:0:
448,192,55563,1,0,0:0:0:0:
320,192,55660,1,0,0:0:0:0:
64,192,55660,1,0,0:0:0:0:
192,192,55758,1,0,0:0:0:0:
64,192,55855,1,0,0:0:0:0:
320,192,55855,1,0,0:0:0:0:
448,192,56050,1,0,0:0:0:0:
192,192,56245,1,0,0:0:0:0:
320,192,56634,1,0,0:0:0:0:
64,192,56829,1,0,0:0:0:0:
64,192,57024,1,0,0:0:0:0:
192,192,57413,1,0,0:0:0:0:
64,192,57608,1,0,0:0:0:0:
192,192,57803,1,0,0:0:0:0:
448,192,57998,1,0,0:0:0:0:
64,192,58193,1,0,0:0:0:0:
320,192,58193,1,0,0:0:0:0:
192,192,58387,1,0,0:0:0:0:
64,192,58485,1,0,0:0:0:0:
192,192,58582,1,0,0:0:0:0:
320,192,58582,1,0,0:0:0:0:
448,192,58777,1,0,0:0:0:0:
192,192,58972,1,0,0:0:0:0:
320,192,58972,1,0,0:0:0:0:
64,192,58972,1,0,0:0:0:0:
64,192,59361,1,0,0:0:0:0:
192,192,59751,1,0,0:0:0:0:
64,192,59946,1,0,0:0:0:0:
64,192,60141,1,0,0:0:0:0:
192,192,60530,1,0,0:0:0:0:
64,192,60725,1,0,0:0:0:0:
64,192,60920,1,0,0:0:0:0:
320,192,60920,1,0,0:0:0:0:
448,192,61017,1,0,0:0:0:0:
64,192,61115,1,0,0:0:0:0:
320,192,61115,1,0,0:0:0:0:
192,192,61212,1,0,0:0:0:0:
64,192,61310,1,0,0:0:0:0:
320,192,61310,1,0,0:0:0:0:
64,192,61504,1,0,0:0:0:0:
448,192,61504,1,0,0:0:0:0:
320,192,61504,1,0,0:0:0:0:
192,192,61699,1,0,0:0:0:0:
320,192,61699,1,0,0:0:0:0:
64,192,61797,1,0,0:0:0:0:
448,192,61894,1,0,0:0:0:0:
320,192,61894,1,0,0:0:0:0:
192,192,61991,1,0,0:0:0:0:
64,192,62089,1,0,0:0:0:0:
448,192,62089,1,0,0:0:0:0:
320,192,62089,1,0,0:0:0:0:
192,192,62284,1,0,0:0:0:0:
64,192,62478,1,0,0:0:0:0:
192,192,62868,1,0,0:0:0:0:
64,192,63063,1,0,0:0:0:0:
64,192,63258,1,0,0:0:0:0:
192,192,63647,1,0,0:0:0:0:
64,192,63842,1,0,0:0:0:0:
192,192,64037,1,0,0:0:0:0:
320,192,64232,1,0,0:0:0:0:
192,192,64426,1,0,0:0:0:0:
448,192,64426,1,0,0:0:0:0:
64,192,64719,1,0,0:0:0:0:
192,192,64816,1,0,0:0:0:0:
448,192,65011,1,0,0:0:0:0:
192,192,65206,1,0,0:0:0:0:
320,192,65206,1,0,0:0:0:0:
320,192,65595,1,0,0:0:0:0:
192,192,65790,1,0,0:0:0:0:
448,192,65887,1,0,0:0:0:0:
192,192,65985,1,0,0:0:0:0:
64,192,66180,1,0,0:0:0:0:
320,192,66374,1,0,0:0:0:0:
192,192,66569,1,0,0:0:0:0:
448,192,66764,1,0,0:0:0:0:
64,192,66959,1,0,0:0:0:0:
448,192,67154,1,0,0:0:0:0:
192,192,67154,1,0,0:0:0:0:
64,192,67251,1,0,0:0:0:0:
320,192,67251,1,0,0:0:0:0:
448,192,67348,1,0,0:0:0:0:
192,192,67348,1,0,0:0:0:0:
64,192,67446,1,0,0:0:0:0:
320,192,67446,1,0,0:0:0:0:
448,192,67543,1,0,0:0:0:0:
192,192,67543,1,0,0:0:0:0:
64,192,67738,1,0,0:0:0:0:
320,192,67933,1,0,0:0:0:0:
448,192,68030,1,0,0:0:0:0:
320,192,68128,1,0,0:0:0:0:
192,192,68225,1,0,0:0:0:0:
448,192,68323,1,0,0:0:0:0:
320,192,68712,1,0,0:0:0:0:
192,192,68907,1,0,0:0:0:0:
448,192,69004,1,0,0:0:0:0:
320,192,69102,1,0,0:0:0:0:
64,192,69297,1,0,0:0:0:0:
448,192,69491,1,0,0:0:0:0:
320,192,69686,1,0,0:0:0:0:
192,192,69881,1,0,0:0:0:0:
64,192,70076,1,0,0:0:0:0:
320,192,70271,1,0,0:0:0:0:
64,192,70465,1,0,0:0:0:0:
320,192,70465,1,0,0:0:0:0:
448,192,70660,1,0,0:0:0:0:
192,192,70660,1,0,0:0:0:0:
448,192,70855,1,0,0:0:0:0:
320,192,70952,1,0,0:0:0:0:
64,192,71050,128,0,71245:0:0:0:0:
192,192,71050,1,0,0:0:0:0:
320,192,71245,1,0,0:0:0:0:
320,192,71439,128,0,71634:0:0:0:0:
192,192,71439,1,0,0:0:0:0:
192,192,71829,1,0,0:0:0:0:
64,192,72024,1,0,0:0:0:0:
320,192,72121,1,0,0:0:0:0:
192,192,72219,1,0,0:0:0:0:
448,192,72267,1,0,0:0:0:0:
64,192,72316,1,0,0:0:0:0:
320,192,72413,1,0,0:0:0:0:
192,192,72511,1,0,0:0:0:0:
64,192,72608,1,0,0:0:0:0:
448,192,72706,1,0,0:0:0:0:
192,192,72803,1,0,0:0:0:0:
320,192,72998,1,0,0:0:0:0:
448,192,73095,1,0,0:0:0:0:
192,192,73193,1,0,0:0:0:0:
320,192,73387,1,0,0:0:0:0:
448,192,73485,1,0,0:0:0:0:
320,192,73582,1,0,0:0:0:0:
192,192,73680,1,0,0:0:0:0:
64,192,73777,1,0,0:0:0:0:
320,192,73777,1,0,0:0:0:0:
448,192,73972,1,0,0:0:0:0:
64,192,73972,1,0,0:0:0:0:
192,192,74167,1,0,0:0:0:0:
320,192,74264,1,0,0:0:0:0:
448,192,74361,1,0,0:0:0:0:
64,192,74459,1,0,0:0:0:0:
320,192,74556,1,0,0:0:0:0:
192,192,74946,1,0,0:0:0:0:
448,192,75043,1,0,0:0:0:0:
64,192,75141,1,0,0:0:0:0:
320,192,75238,1,0,0:0:0:0:
192,192,75336,1,0,0:0:0:0:
64,192,75530,1,0,0:0:0:0:
192,192,75725,1,0,0:0:0:0:
448,192,75920,1,0,0:0:0:0:
320,192,76115,1,0,0:0:0:0:
192,192,76310,1,0,0:0:0:0:
64,192,76504,128,0,76894:0:0:0:0:
448,192,76894,128,0,77284:0:0:0:0:
64,192,77186,1,0,0:0:0:0:
192,192,77284,128,0,77673:0:0:0:0:
320,192,77284,1,0,0:0:0:0:
448,192,77478,1,0,0:0:0:0:
320,192,77673,128,0,78063:0:0:0:0:
64,192,77673,1,0,0:0:0:0:
192,192,77868,1,0,0:0:0:0:
448,192,78063,128,0,79621:0:0:0:0:
64,192,78063,1,0,0:0:0:0:
320,192,78452,1,0,0:0:0:0:
64,192,78647,1,0,0:0:0:0:
192,192,78842,1,0,0:0:0:0:
320,192,79037,1,0,0:0:0:0:
320,192,79621,128,0,81180:0:0:0:0:
64,192,79621,1,0,0:0:0:0:
448,192,80011,1,0,0:0:0:0:
64,192,80206,1,0,0:0:0:0:
448,192,80400,1,0,0:0:0:0:
64,192,80595,1,0,0:0:0:0:
192,192,80790,1,0,0:0:0:0:
192,192,80985,128,0,81180:0:0:0:0:
448,192,81180,128,0,82738:0:0:0:0:
64,192,81180,1,0,0:0:0:0:
320,192,81569,1,0,0:0:0:0:
64,192,81569,1,0,0:0:0:0:
192,192,81764,1,0,0:0:0:0:
64,192,81861,1,0,0:0:0:0:
320,192,81959,1,0,0:0:0:0:
320,192,82154,1,0,0:0:0:0:
192,192,82154,1,0,0:0:0:0:
64,192,82348,1,0,0:0:0:0:
320,192,82738,1,0,0:0:0:0:
64,192,82738,1,0,0:0:0:0:
192,192,82738,128,0,84297:0:0:0:0:
448,192,83128,1,0,0:0:0:0:
64,192,83128,1,0,0:0:0:0:
320,192,83323,1,0,0:0:0:0:
64,192,83420,1,0,0:0:0:0:
448,192,83517,1,0,0:0:0:0:
320,192,83517,1,0,0:0:0:0:
448,192,83712,1,0,0:0:0:0:
320,192,83712,1,0,0:0:0:0:
320,192,83907,1,0,0:0:0:0:
64,192,83907,1,0,0:0:0:0:
448,192,84297,1,0,0:0:0:0:
64,192,84297,1,0,0:0:0:0:
320,192,84297,128,0,85855:0:0:0:0:
192,192,84589,1,0,0:0:0:0:
64,192,84881,1,0,0:0:0:0:
192,192,85271,1,0,0:0:0:0:
448,192,85465,1,0,0:0:0:0:
192,192,85660,1,0,0:0:0:0:
448,192,85855,128,0,87413:0:0:0:0:
64,192,85855,1,0,0:0:0:0:
192,192,86147,1,0,0:0:0:0:
320,192,86439,1,0,0:0:0:0:
64,192,86732,1,0,0:0:0:0:
320,192,87024,1,0,0:0:0:0:
192,192,87219,1,0,0:0:0:0:
320,192,87413,128,0,88972:0:0:0:0:
64,192,87413,1,0,0:0:0:0:
192,192,87706,1,0,0:0:0:0:
64,192,87998,1,0,0:0:0:0:
448,192,88387,1,0,0:0:0:0:
192,192,88582,1,0,0:0:0:0:
64,192,88777,1,0,0:0:0:0:
192,192,88972,128,0,90530:0:0:0:0:
64,192,89264,1,0,0:0:0:0:
320,192,89556,1,0,0:0:0:0:
448,192,89556,1,0,0:0:0:0:
64,192,89654,1,0,0:0:0:0:
320,192,89848,1,0,0:0:0:0:
448,192,89848,1,0,0:0:0:0:
64,192,90043,1,0,0:0:0:0:
320,192,90141,1,0,0:0:0:0:
448,192,90238,1,0,0:0:0:0:
64,192,90336,1,0,0:0:0:0:
320,192,90530,128,0,92089:0:0:0:0:
448,192,90725,1,0,0:0:0:0:
192,192,90823,1,0,0:0:0:0:
448,192,90920,1,0,0:0:0:0:
192,192,91115,1,0,0:0:0:0:
64,192,91212,1,0,0:0:0:0:
192,192,91310,1,0,0:0:0:0:
64,192,91504,1,0,0:0:0:0:
192,192,91699,1,0,0:0:0:0:
64,192,91894,1,0,0:0:0:0:
192,192,92089,1,0,0:0:0:0:
448,192,92089,128,0,93647:0:0:0:0:
64,192,92284,1,0,0:0:0:0:
320,192,92478,1,0,0:0:0:0:
192,192,92673,1,0,0:0:0:0:
64,192,92868,1,0,0:0:0:0:
192,192,93647,128,0,95206:0:0:0:0:
64,192,93647,1,0,0:0:0:0:
320,192,93745,1,0,0:0:0:0:
64,192,93842,1,0,0:0:0:0:
320,192,93939,1,0,0:0:0:0:
64,192,94037,1,0,0:0:0:0:
448,192,94134,1,0,0:0:0:0:
320,192,94232,1,0,0:0:0:0:
448,192,94329,1,0,0:0:0:0:
320,192,94426,1,0,0:0:0:0:
64,192,94621,1,0,0:0:0:0:
448,192,94816,1,0,0:0:0:0:
320,192,95011,1,0,0:0:0:0:
320,192,95206,128,0,96764:0:0:0:0:
64,192,95206,1,0,0:0:0:0:
64,192,95790,1,0,0:0:0:0:
448,192,95887,1,0,0:0:0:0:
192,192,95985,1,0,0:0:0:0:
64,192,96764,128,0,98323:0:0:0:0:
448,192,96764,1,0,0:0:0:0:
448,192,96959,1,0,0:0:0:0:
320,192,97056,1,0,0:0:0:0:
448,192,97154,1,0,0:0:0:0:
320,192,97348,1,0,0:0:0:0:
192,192,97543,1,0,0:0:0:0:
448,192,97738,1,0,0:0:0:0:
320,192,97933,1,0,0:0:0:0:
192,192,98128,1,0,0:0:0:0:
192,192,98323,128,0,99881:0:0:0:0:
448,192,98323,1,0,0:0:0:0:
320,192,98517,1,0,0:0:0:0:
64,192,98615,1,0,0:0:0:0:
320,192,98712,1,0,0:0:0:0:
64,192,98907,1,0,0:0:0:0:
320,192,99102,1,0,0:0:0:0:
448,192,99297,1,0,0:0:0:0:
320,192,99491,1,0,0:0:0:0:
64,192,99686,1,0,0:0:0:0:
448,192,99881,128,0,101439:0:0:0:0:
320,192,99881,1,0,0:0:0:0:
192,192,100173,1,0,0:0:0:0:
64,192,100465,1,0,0:0:0:0:
320,192,100660,1,0,0:0:0:0:
192,192,100952,1,0,0:0:0:0:
64,192,101245,1,0,0:0:0:0:
320,192,101439,128,0,102998:0:0:0:0:
192,192,101439,1,0,0:0:0:0:
448,192,101829,1,0,0:0:0:0:
64,192,102219,1,0,0:0:0:0:
192,192,102998,128,0,104556:0:0:0:0:
64,192,102998,1,0,0:0:0:0:
448,192,103095,1,0,0:0:0:0:
320,192,103193,1,0,0:0:0:0:
64,192,103290,1,0,0:0:0:0:
320,192,103387,1,0,0:0:0:0:
448,192,103485,1,0,0:0:0:0:
320,192,103582,1,0,0:0:0:0:
64,192,103680,1,0,0:0:0:0:
448,192,103777,1,0,0:0:0:0:
64,192,103874,1,0,0:0:0:0:
320,192,103972,1,0,0:0:0:0:
448,192,104069,1,0,0:0:0:0:
64,192,104167,1,0,0:0:0:0:
448,192,104264,1,0,0:0:0:0:
64,192,104361,1,0,0:0:0:0:
320,192,104459,1,0,0:0:0:0:
448,192,104556,128,0,106115:0:0:0:0:
64,192,104556,1,0,0:0:0:0:
320,192,104654,1,0,0:0:0:0:
64,192,104751,1,0,0:0:0:0:
192,192,104848,1,0,0:0:0:0:
320,192,104946,1,0,0:0:0:0:
192,192,105043,1,0,0:0:0:0:
64,192,105141,1,0,0:0:0:0:
192,192,105238,1,0,0:0:0:0:
320,192,105336,1,0,0:0:0:0:
64,192,105433,1,0,0:0:0:0:
192,192,105530,1,0,0:0:0:0:
64,192,105628,1,0,0:0:0:0:
320,192,105725,1,0,0:0:0:0:
192,192,105823,1,0,0:0:0:0:
64,192,105920,1,0,0:0:0:0:
320,192,106017,1,0,0:0:0:0:
192,192,106115,128,0,107673:0:0:0:0:
64,192,106115,1,0,0:0:0:0:
320,192,106212,1,0,0:0:0:0:
448,192,106310,1,0,0:0:0:0:
64,192,106407,1,0,0:0:0:0:
448,192,106504,1,0,0:0:0:0:
320,192,106602,1,0,0:0:0:0:
448,192,106699,1,0,0:0:0:0:
64,192,106797,1,0,0:0:0:0:
320,192,106894,1,0,0:0:0:0:
448,192,106991,1,0,0:0:0:0:
320,192,107089,1,0,0:0:0:0:
64,192,107186,1,0,0:0:0:0:
320,192,107284,1,0,0:0:0:0:
448,192,107381,1,0,0:0:0:0:
320,192,107478,1,0,0:0:0:0:
64,192,107576,1,0,0:0:0:0:
320,192,107673,128,0,109232:0:0:0:0:
448,192,107673,1,0,0:0:0:0:
192,192,107965,1,0,0:0:0:0:
64,192,108258,1,0,0:0:0:0:
192,192,108452,1,0,0:0:0:0:
64,192,108647,1,0,0:0:0:0:
448,192,108745,1,0,0:0:0:0:
192,192,108842,1,0,0:0:0:0:
64,192,109037,1,0,0:0:0:0:
64,192,109232,128,0,110790:0:0:0:0:
448,192,109232,1,0,0:0:0:0:
192,192,109329,1,0,0:0:0:0:
448,192,109426,1,0,0:0:0:0:
192,192,109524,1,0,0:0:0:0:
448,192,109621,1,0,0:0:0:0:
320,192,109719,1,0,0:0:0:0:
448,192,109816,1,0,0:0:0:0:
192,192,109913,1,0,0:0:0:0:
448,192,110011,1,0,0:0:0:0:
320,192,110108,1,0,0:0:0:0:
192,192,110206,1,0,0:0:0:0:
320,192,110303,1,0,0:0:0:0:
448,192,110400,1,0,0:0:0:0:
320,192,110498,1,0,0:0:0:0:
192,192,110595,1,0,0:0:0:0:
448,192,110693,1,0,0:0:0:0:
320,192,110790,128,0,112348:0:0:0:0:
192,192,110790,1,0,0:0:0:0:
64,192,110985,1,0,0:0:0:0:
192,192,111180,1,0,0:0:0:0:
448,192,111374,1,0,0:0:0:0:
192,192,111569,1,0,0:0:0:0:
448,192,111764,1,0,0:0:0:0:
192,192,111861,1,0,0:0:0:0:
64,192,111959,1,0,0:0:0:0:
192,192,112348,128,0,113907:0:0:0:0:
448,192,112348,1,0,0:0:0:0:
320,192,112641,1,0,0:0:0:0:
64,192,112933,1,0,0:0:0:0:
320,192,113128,1,0,0:0:0:0:
320,192,113712,1,0,0:0:0:0:
448,192,113810,1,0,0:0:0:0:
320,192,113907,128,0,115465:0:0:0:0:
64,192,113907,1,0,0:0:0:0:
64,192,114686,1,0,0:0:0:0:
448,192,114978,1,0,0:0:0:0:
192,192,115271,1,0,0:0:0:0:
448,192,115465,128,0,118582:0:0:0:0:
192,192,118582,1,0,0:0:0:0:
64,192,118777,1,0,0:0:0:0:
64,192,118972,1,0,0:0:0:0:
192,192,118972,1,0,0:0:0:0:
320,192,119167,1,0,0:0:0:0:
192,192,119361,1,0,0:0:0:0:
320,192,119459,1,0,0:0:0:0:
192,192,119556,1,0,0:0:0:0:
320,192,119654,1,0,0:0:0:0:
64,192,119751,1,0,0:0:0:0:
192,192,119751,1,0,0:0:0:0:
448,192,119848,1,0,0:0:0:0:
192,192,119946,1,0,0:0:0:0:
320,192,120043,1,0,0:0:0:0:
448,192,120141,128,0,120433:0:0:0:0:
192,192,120433,128,0,120725:0:0:0:0:
320,192,120530,1,0,0:0:0:0:
64,192,120725,1,0,0:0:0:0:
320,192,120920,128,0,121212:0:0:0:0:
192,192,121212,128,0,121504:0:0:0:0:
448,192,121310,1,0,0:0:0:0:
64,192,121504,1,0,0:0:0:0:
320,192,121699,1,0,0:0:0:0:
192,192,121894,1,0,0:0:0:0:
448,192,122089,1,0,0:0:0:0:
64,192,122089,1,0,0:0:0:0:
192,192,122284,1,0,0:0:0:0:
64,192,122478,1,0,0:0:0:0:
320,192,122576,1,0,0:0:0:0:
448,192,122673,1,0,0:0:0:0:
64,192,122771,1,0,0:0:0:0:
448,192,122868,1,0,0:0:0:0:
320,192,122868,1,0,0:0:0:0:
192,192,123063,1,0,0:0:0:0:
320,192,123258,1,0,0:0:0:0:
192,192,123452,1,0,0:0:0:0:
64,192,123647,1,0,0:0:0:0:
320,192,123647,1,0,0:0:0:0:
192,192,123842,1,0,0:0:0:0:
448,192,124037,1,0,0:0:0:0:
320,192,124232,1,0,0:0:0:0:
192,192,124426,1,0,0:0:0:0:
448,192,124426,1,0,0:0:0:0:
64,192,124621,1,0,0:0:0:0:
64,192,124816,1,0,0:0:0:0:
192,192,125011,1,0,0:0:0:0:
64,192,125108,1,0,0:0:0:0:
448,192,125206,1,0,0:0:0:0:
192,192,125206,1,0,0:0:0:0:
320,192,125303,1,0,0:0:0:0:
192,192,125400,128,0,125790:0:0:0:0:
64,192,125790,1,0,0:0:0:0:
192,192,125985,1,0,0:0:0:0:
448,192,125985,1,0,0:0:0:0:
320,192,126180,1,0,0:0:0:0:
192,192,126374,1,0,0:0:0:0:
448,192,126472,1,0,0:0:0:0:
192,192,126569,1,0,0:0:0:0:
64,192,126667,1,0,0:0:0:0:
448,192,126764,1,0,0:0:0:0:
192,192,126764,1,0,0:0:0:0:
192,192,126959,1,0,0:0:0:0:
448,192,127154,1,0,0:0:0:0:
320,192,127348,1,0,0:0:0:0:
192,192,127543,1,0,0:0:0:0:
448,192,127543,1,0,0:0:0:0:
64,192,127738,1,0,0:0:0:0:
448,192,127933,128,0,128907:0:0:0:0:
192,192,128323,1,0,0:0:0:0:
320,192,128907,1,0,0:0:0:0:
192,192,129004,1,0,0:0:0:0:
320,192,129102,1,0,0:0:0:0:
64,192,129102,1,0,0:0:0:0:
448,192,129199,1,0,0:0:0:0:
320,192,129297,1,0,0:0:0:0:
192,192,129394,1,0,0:0:0:0:
320,192,129491,128,0,129881:0:0:0:0:
64,192,129881,128,0,130271:0:0:0:0:
448,192,129881,1,0,0:0:0:0:
448,192,130271,128,0,130660:0:0:0:0:
192,192,130660,128,0,131050:0:0:0:0:
320,192,130660,1,0,0:0:0:0:
320,192,131050,1,0,0:0:0:0:
64,192,131147,1,0,0:0:0:0:
320,192,131245,1,0,0:0:0:0:
64,192,131342,1,0,0:0:0:0:
192,192,131439,1,0,0:0:0:0:
448,192,131439,1,0,0:0:0:0:
64,192,131537,1,0,0:0:0:0:
320,192,131634,1,0,0:0:0:0:
192,192,131732,1,0,0:0:0:0:
448,192,131829,1,0,0:0:0:0:
320,192,131926,1,0,0:0:0:0:
448,192,132024,1,0,0:0:0:0:
192,192,132121,1,0,0:0:0:0:
64,192,132219,1,0,0:0:0:0:
448,192,132219,1,0,0:0:0:0:
320,192,132316,1,0,0:0:0:0:
192,192,132413,1,0,0:0:0:0:
64,192,132511,1,0,0:0:0:0:
320,192,132608,1,0,0:0:0:0:
64,192,132706,1,0,0:0:0:0:
320,192,132803,1,0,0:0:0:0:
192,192,132900,1,0,0:0:0:0:
64,192,132998,1,0,0:0:0:0:
448,192,132998,1,0,0:0:0:0:
192,192,133095,1,0,0:0:0:0:
320,192,133193,1,0,0:0:0:0:
64,192,133290,1,0,0:0:0:0:
448,192,133387,1,0,0:0:0:0:
320,192,133485,1,0,0:0:0:0:
192,192,133582,1,0,0:0:0:0:
320,192,133680,1,0,0:0:0:0:
448,192,133777,1,0,0:0:0:0:
192,192,133777,1,0,0:0:0:0:
64,192,133874,1,0,0:0:0:0:
192,192,133972,1,0,0:0:0:0:
64,192,134069,1,0,0:0:0:0:
320,192,134167,1,0,0:0:0:0:
192,192,134264,1,0,0:0:0:0:
64,192,134361,1,0,0:0:0:0:
192,192,134459,1,0,0:0:0:0:
64,192,134556,1,0,0:0:0:0:
320,192,134556,1,0,0:0:0:0:
192,192,134654,1,0,0:0:0:0:
320,192,134751,1,0,0:0:0:0:
64,192,134848,1,0,0:0:0:0:
192,192,134946,1,0,0:0:0:0:
448,192,135043,1,0,0:0:0:0:
192,192,135141,1,0,0:0:0:0:
320,192,135238,1,0,0:0:0:0:
64,192,135336,1,0,0:0:0:0:
448,192,135336,1,0,0:0:0:0:
192,192,135433,1,0,0:0:0:0:
320,192,135530,1,0,0:0:0:0:
64,192,135628,1,0,0:0:0:0:
448,192,135725,128,0,136017:0:0:0:0:
320,192,136017,128,0,136310:0:0:0:0:
64,192,136115,1,0,0:0:0:0:
192,192,136310,128,0,136504:0:0:0:0:
64,192,136504,128,0,137284:0:0:0:0:
192,192,136894,1,0,0:0:0:0:
448,192,137284,1,0,0:0:0:0:
320,192,137478,1,0,0:0:0:0:
192,192,137576,1,0,0:0:0:0:
64,192,137673,1,0,0:0:0:0:
320,192,137673,1,0,0:0:0:0:
320,192,137868,1,0,0:0:0:0:
192,192,137965,1,0,0:0:0:0:
64,192,138063,1,0,0:0:0:0:
192,192,138160,1,0,0:0:0:0:
320,192,138258,1,0,0:0:0:0:
64,192,138355,1,0,0:0:0:0:
192,192,138452,1,0,0:0:0:0:
448,192,138452,1,0,0:0:0:0:
320,192,138550,1,0,0:0:0:0:
192,192,138647,1,0,0:0:0:0:
64,192,138745,1,0,0:0:0:0:
448,192,138842,1,0,0:0:0:0:
320,192,139134,1,0,0:0:0:0:
192,192,139232,1,0,0:0:0:0:
320,192,139426,1,0,0:0:0:0:
64,192,139524,1,0,0:0:0:0:
192,192,139621,1,0,0:0:0:0:
320,192,139962,1,0,0:0:0:0:
64,192,140011,1,0,0:0:0:0:
320,192,140206,1,0,0:0:0:0:
192,192,140303,1,0,0:0:0:0:
320,192,140400,1,0,0:0:0:0:
64,192,140498,1,0,0:0:0:0:
448,192,140595,1,0,0:0:0:0:
192,192,140693,1,0,0:0:0:0:
64,192,140790,1,0,0:0:0:0:
448,192,140790,1,0,0:0:0:0:
320,192,140887,1,0,0:0:0:0:
192,192,140985,1,0,0:0:0:0:
64,192,141082,1,0,0:0:0:0:
192,192,141180,1,0,0:0:0:0:
320,192,141277,1,0,0:0:0:0:
192,192,141374,1,0,0:0:0:0:
320,192,141472,1,0,0:0:0:0:
64,192,141569,1,0,0:0:0:0:
448,192,141569,1,0,0:0:0:0:
320,192,141667,1,0,0:0:0:0:
192,192,141764,1,0,0:0:0:0:
320,192,141861,1,0,0:0:0:0:
448,192,141959,128,0,143517:0:0:0:0:
64,192,142348,1,0,0:0:0:0:
192,192,143128,1,0,0:0:0:0:
192,192,143517,1,0,0:0:0:0:
64,192,143907,1,0,0:0:0:0:
320,192,144102,1,0,0:0:0:0:
448,192,144297,1,0,0:0:0:0:
192,192,144686,1,0,0:0:0:0:
320,192,144881,1,0,0:0:0:0:
448,192,145076,1,0,0:0:0:0:
192,192,145076,1,0,0:0:0:0:
320,192,145173,1,0,0:0:0:0:
192,192,145271,1,0,0:0:0:0:
64,192,145368,1,0,0:0:0:0:
448,192,145465,1,0,0:0:0:0:
192,192,145465,1,0,0:0:0:0:
448,192,145660,1,0,0:0:0:0:
64,192,145660,1,0,0:0:0:0:
448,192,145855,1,0,0:0:0:0:
192,192,145855,1,0,0:0:0:0:
320,192,145952,1,0,0:0:0:0:
192,192,146050,1,0,0:0:0:0:
64,192,146147,1,0,0:0:0:0:
448,192,146245,1,0,0:0:0:0:
192,192,146245,1,0,0:0:0:0:
320,192,146245,1,0,0:0:0:0:
320,192,146634,1,0,0:0:0:0:
192,192,147024,1,0,0:0:0:0:
320,192,147219,1,0,0:0:0:0:
320,192,147413,1,0,0:0:0:0:
192,192,147803,1,0,0:0:0:0:
320,192,147998,1,0,0:0:0:0:
448,192,148193,1,0,0:0:0:0:
64,192,148582,1,0,0:0:0:0:
448,192,148777,1,0,0:0:0:0:
192,192,148777,1,0,0:0:0:0:
448,192,148972,1,0,0:0:0:0:
64,192,148972,1,0,0:0:0:0:
192,192,149167,1,0,0:0:0:0:
192,192,149361,1,0,0:0:0:0:
64,192,149361,1,0,0:0:0:0:
448,192,149361,1,0,0:0:0:0:
320,192,149751,1,0,0:0:0:0:
64,192,150141,1,0,0:0:0:0:
320,192,150336,1,0,0:0:0:0:
320,192,150530,1,0,0:0:0:0:
192,192,150920,1,0,0:0:0:0:
320,192,151115,1,0,0:0:0:0:
448,192,151310,1,0,0:0:0:0:
192,192,151310,1,0,0:0:0:0:
320,192,151407,1,0,0:0:0:0:
192,192,151504,1,0,0:0:0:0:
64,192,151602,1,0,0:0:0:0:
320,192,151699,1,0,0:0:0:0:
192,192,151699,1,0,0:0:0:0:
448,192,151894,1,0,0:0:0:0:
64,192,151894,1,0,0:0:0:0:
448,192,152089,1,0,0:0:0:0:
192,192,152089,1,0,0:0:0:0:
320,192,152186,1,0,0:0:0:0:
448,192,152284,1,0,0:0:0:0:
320,192,152381,1,0,0:0:0:0:
64,192,152478,1,0,0:0:0:0:
192,192,152478,1,0,0:0:0:0:
448,192,152478,1,0,0:0:0:0:
320,192,152868,1,0,0:0:0:0:
192,192,153258,1,0,0:0:0:0:
320,192,153452,1,0,0:0:0:0:
320,192,153647,1,0,0:0:0:0:
192,192,154037,1,0,0:0:0:0:
320,192,154232,1,0,0:0:0:0:
448,192,154426,1,0,0:0:0:0:
192,192,154816,1,0,0:0:0:0:
448,192,155011,1,0,0:0:0:0:
192,192,155108,1,0,0:0:0:0:
448,192,155206,1,0,0:0:0:0:
64,192,155206,1,0,0:0:0:0:
192,192,155400,1,0,0:0:0:0:
64,192,155595,1,0,0:0:0:0:
320,192,155595,1,0,0:0:0:0:
448,192,155595,1,0,0:0:0:0:
448,192,155790,1,0,0:0:0:0:
64,192,155985,1,0,0:0:0:0:
320,192,155985,1,0,0:0:0:0:
192,192,156277,1,0,0:0:0:0:
192,192,156569,1,0,0:0:0:0:
448,192,156569,1,0,0:0:0:0:
320,192,156764,1,0,0:0:0:0:
320,192,157154,1,0,0:0:0:0:
192,192,157348,1,0,0:0:0:0:
64,192,157543,1,0,0:0:0:0:
448,192,157543,1,0,0:0:0:0:
192,192,157836,1,0,0:0:0:0:
64,192,158128,1,0,0:0:0:0:
320,192,158128,1,0,0:0:0:0:
192,192,158323,1,0,0:0:0:0:
64,192,158712,1,0,0:0:0:0:
448,192,158712,1,0,0:0:0:0:
64,192,159102,1,0,0:0:0:0:
448,192,159102,1,0,0:0:0:0:
320,192,159394,1,0,0:0:0:0:
192,192,159686,1,0,0:0:0:0:
448,192,159686,1,0,0:0:0:0:
320,192,159881,1,0,0:0:0:0:
448,192,160271,1,0,0:0:0:0:
192,192,160465,1,0,0:0:0:0:
64,192,160660,1,0,0:0:0:0:
448,192,160660,1,0,0:0:0:0:
320,192,160952,1,0,0:0:0:0:
192,192,161245,1,0,0:0:0:0:
448,192,161245,1,0,0:0:0:0:
64,192,161439,1,0,0:0:0:0:
192,192,161829,1,0,0:0:0:0:
448,192,161829,1,0,0:0:0:0:
64,192,162219,1,0,0:0:0:0:
192,192,162608,1,0,0:0:0:0:
64,192,162803,1,0,0:0:0:0:
320,192,162998,1,0,0:0:0:0:
192,192,163387,1,0,0:0:0:0:
320,192,163582,1,0,0:0:0:0:
64,192,163777,1,0,0:0:0:0:
192,192,164167,1,0,0:0:0:0:
448,192,164361,1,0,0:0:0:0:
192,192,164556,1,0,0:0:0:0:
320,192,164946,1,0,0:0:0:0:
64,192,164946,1,0,0:0:0:0:
448,192,165336,1,0,0:0:0:0:
192,192,165725,1,0,0:0:0:0:
320,192,165920,1,0,0:0:0:0:
64,192,166115,1,0,0:0:0:0:
448,192,166504,1,0,0:0:0:0:
192,192,166699,1,0,0:0:0:0:
320,192,166894,1,0,0:0:0:0:
448,192,167284,1,0,0:0:0:0:
192,192,167284,1,0,0:0:0:0:
64,192,167576,1,0,0:0:0:0:
192,192,167673,1,0,0:0:0:0:
320,192,167868,1,0,0:0:0:0:
192,192,168063,1,0,0:0:0:0:
448,192,168258,1,0,0:0:0:0:
