osu file format v14

[General]
AudioFilename: audio.mp3
AudioLeadIn: 0
PreviewTime: 67102
Countdown: 0
SampleSet: Soft
StackLeniency: 0.7
Mode: 0
LetterboxInBreaks: 0
WidescreenStoryboard: 0

[Editor]
Bookmarks: 28777,38377,67177,86377,105577,124777,143977,163177,182377,201577,220777,239977,259177,278377
DistanceSpacing: 1.4
BeatDivisor: 8
GridSize: 32
TimelineZoom: 2.2

[Metadata]
Title:Europa
TitleUnicode:Europa
Artist:Erik McClure
ArtistUnicode:Erik McClure
Creator:Hinsvar
Version:Expert
Source:
Tags:Blackhole Blackhole12 Electronic Instrumental orchestral techno trance Dreams of Distant Stars Featured Artist FA Mappers' Guild MG MPG
BeatmapID:4475183
BeatmapSetID:2128545

[Difficulty]
HPDrainRate:6
CircleSize:3.4
OverallDifficulty:9
ApproachRate:9.4
SliderMultiplier:3.35999990463257
SliderTickRate:1

[Events]
//Background and Video events
0,0,"BG.jpg",0,0
//Break Periods
2,91377,95437
2,168177,177037
2,206577,215437
//Storyboard Layer 0 (Background)
//Storyboard Layer 1 (Fail)
//Storyboard Layer 2 (Pass)
//Storyboard Layer 3 (Foreground)
//Storyboard Layer 4 (Overlay)
//Storyboard Sound Samples

[TimingPoints]
-23,600,4,2,1,60,1,0
28777,-133.333333333333,4,2,1,60,0,0
38377,-100,4,2,1,70,0,0
67177,-80,4,2,1,75,0,1
86377,-200,4,2,1,50,0,0
103177,-133.333333333333,4,2,1,60,0,0
105577,-100,4,2,1,70,0,0
119977,-133.333333333333,4,2,1,60,0,0
124777,-80,4,2,1,80,0,1
163177,-133.333333333333,4,2,1,60,0,0
182377,-100,4,2,1,70,0,0
201577,-200,4,2,1,50,0,0
220777,-100,4,2,1,70,0,0
239977,-100,4,2,1,65,0,0
259177,-133.333333333333,4,2,1,60,0,0
268777,-200,4,2,1,50,0,0
275977,-400,4,2,1,40,0,0
278377,-400,4,2,1,20,0,0

[Colours]
Combo1 : 74,97,225
Combo2 : 89,225,244
Combo3 : 112,138,218
Combo4 : 139,204,218

[HitObjects]
68,372,28777,6,0,P|26:336|8:259,1,126.000004806519,0|0,3:0|3:0,0:0:0:0:
58,202,29227,1,2,0:0:0:0:
57,201,29377,2,0,P|102:243|116:302,2,126.000004806519,0|0|0,3:0|3:0|3:0,0:0:0:0:
319,20,30427,1,2,0:0:0:0:
474,95,30727,1,2,0:0:0:0:
474,95,30877,1,0,3:0:0:0:
444,372,31177,6,0,P|485:336|503:259,1,126.000004806519,0|0,3:0|3:0,0:0:0:0:
454,202,31627,1,2,0:0:0:0:
455,201,31777,2,0,P|409:243|395:302,2,126.000004806519,0|0|0,3:0|3:0|3:0,0:0:0:0:
193,20,32827,1,2,0:0:0:0:
38,95,33127,1,2,0:0:0:0:
38,95,33277,1,0,3:0:0:0:
309,357,33577,6,0,B|264:365|248:351|252:348|234:331|186:340,1,126.000004806519,0|0,3:0|3:0,0:0:0:0:
201,253,34027,1,2,0:0:0:0:
201,253,34177,2,0,B|247:244|265:261|261:264|277:278|322:270,2,126.000004806519,0|0|0,3:0|3:0|3:0,0:0:0:0:
0,11,35227,1,2,0:0:0:0:
7,182,35527,1,2,0:0:0:0:
7,182,35677,1,0,3:0:0:0:
203,27,35977,6,0,B|248:19|264:33|260:36|278:53|326:44,1,126.000004806519,0|0,3:0|3:0,0:0:0:0:
311,131,36427,1,2,0:0:0:0:
311,131,36577,2,0,B|264:139|246:122|250:119|234:105|189:113,2,126.000004806519,0|0|0,3:0|3:0|3:0,0:0:0:0:
512,373,37627,1,2,0:0:0:0:
505,202,37927,1,2,0:0:0:0:
505,202,38077,2,0,P|470:203|453:171,1,63.0000024032594,0|0,3:0|0:0,0:0:0:0:
422,18,38377,6,0,P|501:37|504:118,1,168,6|0,3:2|3:0,0:0:0:0:
387,232,38827,1,2,0:0:0:0:
185,309,38977,2,0,P|161:231|230:187,1,168,8|0,0:0|3:0,0:0:0:0:
291,256,39427,1,2,0:0:0:0:
346,64,39577,5,0,3:0:0:0:
435,96,39727,2,0,P|435:53|425:9,1,84,2|0,0:0|3:0,0:0:0:0:
161,108,40027,2,0,P|225:96|253:-3,1,168,2|0,0:0|0:0,0:0:0:0:
82,34,40477,1,0,3:0:0:0:
82,34,40627,1,2,0:0:0:0:
256,192,40777,5,0,3:0:0:0:
166,221,40927,2,0,P|124:216|78:201,1,84,2|0,0:0|3:0,0:0:0:0:
238,284,41227,2,0,B|279:274|309:318|313:318|338:367|383:345,1,168,2|0,0:0|0:0,0:0:0:0:
499,171,41677,2,0,B|493:191|466:193|465:194|438:193|436:218,1,84,0|0,3:0|0:0,0:0:0:0:
341,220,41977,6,0,P|329:92|306:58,1,168,0|0,3:0|3:0,0:0:0:0:
434,55,42427,1,2,0:0:0:0:
247,156,42577,2,0,P|209:173|167:171,2,84,8|0|0,0:0|0:0|3:0,0:0:0:0:
190,82,43027,5,0,3:0:0:0:
190,82,43102,1,0,3:0:0:0:
190,82,43177,2,0,P|136:28|38:28,1,168,0|0,3:0|3:0,0:0:0:0:
220,262,43627,2,0,P|293:242|342:157,1,168,2|0,0:0|0:0,0:0:0:0:
49,197,44077,2,0,P|39:233|63:276,1,84,0|0,3:0|0:0,0:0:0:0:
245,176,44377,6,0,P|245:106|223:6,1,168,0|0,3:0|3:0,0:0:0:0:
479,109,44827,2,0,P|479:179|501:279,1,168,2|0,0:0|0:0,0:0:0:0:
367,377,45277,2,0,P|367:342|356:292,1,84,0|0,3:0|0:0,0:0:0:0:
250,224,45577,6,0,P|306:217|374:136,2,168,0|0|8,3:0|3:0|0:0,0:0:0:0:
240,140,46327,1,2,0:0:0:0:
106,8,46477,1,0,3:0:0:0:
58,190,46627,1,2,0:0:0:0:
1,279,46777,6,0,B|47:276|67:316|65:320|90:360|145:358,1,168,0|0,3:0|3:0,0:0:0:0:
243,339,47227,1,2,0:0:0:0:
317,166,47377,2,0,P|314:119|304:76,1,84,8|0,0:0|0:0,0:0:0:0:
190,136,47677,1,0,3:0:0:0:
445,202,47827,5,0,3:0:0:0:
445,202,47902,1,0,3:0:0:0:
445,202,47977,2,0,P|458:114|518:48,1,168,2|0,3:2|3:0,0:0:0:0:
398,24,48427,1,2,0:0:0:0:
230,19,48577,2,0,P|299:74|326:159,1,168,8|0,0:0|3:0,0:0:0:0:
352,250,49027,1,2,0:0:0:0:
507,322,49177,5,0,3:0:0:0:
323,354,49327,2,0,P|282:356|249:328,1,84,2|0,0:0|3:0,0:0:0:0:
246,191,49627,2,0,P|191:260|100:295,1,168,2|0,0:0|0:0,0:0:0:0:
8,242,50077,1,0,3:0:0:0:
8,242,50227,1,2,0:0:0:0:
120,66,50377,5,0,3:0:0:0:
218,101,50527,2,0,P|218:59|228:18,1,84,2|0,0:0|3:0,0:0:0:0:
389,153,50827,2,0,P|324:84|355:11,1,168,2|0,0:0|0:0,0:0:0:0:
485,18,51277,2,0,P|517:52|501:88,1,84,0|0,3:0|0:0,0:0:0:0:
494,233,51577,6,0,B|445:202|418:241|416:246|386:283|336:254,1,168,0|0,3:0|3:0,0:0:0:0:
172,128,52027,1,2,0:0:0:0:
82,76,52177,2,0,B|82:49|58:45|55:46|32:44|33:15,2,84,8|0|0,0:0|0:0|3:0,0:0:0:0:
292,22,52627,5,0,3:0:0:0:
292,22,52702,1,0,3:0:0:0:
292,22,52777,2,0,P|273:91|264:210,1,168,0|0,3:0|3:0,0:0:0:0:
23,215,53227,2,0,P|104:236|188:243,1,168,2|0,0:0|0:0,0:0:0:0:
357,295,53677,2,0,P|316:284|274:280,1,84,0|0,3:0|0:0,0:0:0:0:
87,315,53977,6,0,B|81:259|104:234|108:238|137:199|128:150,1,168,0|0,3:0|3:0,0:0:0:0:
237,10,54427,2,0,B|228:52|257:91|261:87|284:112|278:168,1,168,2|0,0:0|0:0,0:0:0:0:
360,363,54877,2,0,P|405:364|433:332,1,84,0|0,3:0|0:0,0:0:0:0:
508,256,55177,6,0,P|414:250|338:223,2,168,0|0|8,3:0|3:0|0:0,0:0:0:0:
442,149,55927,1,2,0:0:0:0:
232,168,56077,1,0,3:0:0:0:
251,378,56227,1,2,0:0:0:0:
362,378,56377,6,0,B|387:335|357:295|355:300|322:257|348:214,1,168,0|0,3:0|3:0,0:0:0:0:
335,114,56827,1,2,0:0:0:0:
150,6,56977,2,0,B|137:27|152:47|153:45|170:66|157:88,1,84,8|0,0:0|0:0,0:0:0:0:
38,41,57277,1,0,3:0:0:0:
214,234,57427,5,0,3:0:0:0:
214,234,57502,1,0,3:0:0:0:
214,234,57577,2,0,P|119:258|71:320,1,168,2|0,3:2|3:0,0:0:0:0:
94,162,58027,1,2,0:0:0:0:
296,313,58177,2,0,P|322:218|293:146,1,168,8|0,0:0|3:0,0:0:0:0:
189,94,58627,1,2,0:0:0:0:
5,235,58777,5,0,3:0:0:0:
16,339,58927,2,0,P|50:374|88:379,1,84,2|0,0:0|3:0,0:0:0:0:
154,240,59227,2,0,P|130:160|158:82,1,168,2|0,0:0|0:0,0:0:0:0:
260,169,59677,1,0,3:0:0:0:
260,169,59827,1,2,0:0:0:0:
450,146,59977,5,0,3:0:0:0:
512,62,60127,2,0,P|476:50|440:23,1,84,2|0,0:0|3:0,0:0:0:0:
371,234,60427,2,0,P|291:260|212:319,1,168,2|0,0:0|0:0,0:0:0:0:
260,169,60877,2,0,P|268:128|262:78,1,84,0|0,3:0|0:0,0:0:0:0:
49,42,61177,6,0,P|131:70|189:11,1,168,0|0,3:0|3:0,0:0:0:0:
359,67,61627,1,2,0:0:0:0:
442,142,61777,2,0,P|450:184|490:195,2,84,8|0|0,0:0|0:0|3:0,0:0:0:0:
344,338,62227,5,0,3:0:0:0:
344,338,62302,1,0,3:0:0:0:
344,338,62377,2,0,P|339:264|323:172,1,168,0|0,3:0|3:0,0:0:0:0:
142,64,62827,1,2,0:0:0:0:
35,193,62977,2,0,P|101:211|177:148,1,168,8|0,0:0|3:0,0:0:0:0:
370,64,63427,1,2,0:0:0:0:
174,284,63577,6,0,B|265:252|338:319|314:333|395:404|483:360,1,336,0|8,3:0|0:0,0:0:0:0:
351,222,64327,1,2,0:0:0:0:
343,96,64477,2,0,P|339:54|340:12,1,84,0|0,3:0|0:0,0:0:0:0:
423,28,64777,6,0,L|252:52,2,168,0|0|8,3:0|3:0|0:0,0:0:0:0:
353,133,65527,1,2,0:0:0:0:
215,262,65677,2,0,L|300:274,1,84,0|0,3:0|0:0,0:0:0:0:
82,143,65977,6,0,P|173:118|227:169,1,168,0|0,3:0|3:0,0:0:0:0:
143,354,66427,1,2,0:0:0:0:
42,381,66577,2,0,P|35:340|37:290,1,84,8|0,0:0|0:0,0:0:0:0:
238,282,66877,2,0,P|245:323|243:373,1,84,0|0,3:0|0:0,0:0:0:0:
459,200,67177,6,0,P|430:133|482:11,1,210,6|0,3:2|0:0,0:0:0:0:
253,18,67627,1,0,3:0:0:0:
253,18,67702,1,0,3:0:0:0:
253,18,67777,2,0,P|275:69|235:164,1,157.5,8|0,0:0|0:0,0:0:0:0:
240,159,68077,2,0,L|182:150,1,52.5,2|0,3:2|0:0,0:0:0:0:
65,85,68227,2,0,L|123:75,1,52.5,0|0,3:0|0:0,0:0:0:0:
203,242,68377,5,0,3:0:0:0:
81,291,68527,1,0,3:0:0:0:
97,162,68677,1,0,3:0:0:0:
323,191,68827,2,0,P|389:223|491:141,1,210,2|0,3:2|0:0,0:0:0:0:
383,17,69277,1,0,3:0:0:0:
189,29,69427,5,0,3:0:0:0:
189,29,69502,1,0,3:0:0:0:
189,29,69577,2,0,L|226:253,1,210,0|0,3:0|3:0,0:0:0:0:
11,382,70027,1,0,3:0:0:0:
11,382,70102,1,0,3:0:0:0:
10,382,70177,2,0,L|37:214,1,157.5,8|0,0:0|0:0,0:0:0:0:
35,226,70477,2,0,P|67:220|75:199,1,52.5,2|0,3:2|0:0,0:0:0:0:
277,262,70627,2,0,P|245:268|237:289,1,52.5,0|0,3:0|0:0,0:0:0:0:
100,295,70777,5,0,3:0:0:0:
272,361,70927,1,0,3:0:0:0:
415,245,71077,1,0,3:0:0:0:
243,179,71227,2,0,P|309:131|313:10,1,210,2|0,3:2|0:0,0:0:0:0:
78,18,71677,1,0,3:0:0:0:
42,152,71827,5,0,3:0:0:0:
42,152,71902,1,0,3:0:0:0:
42,152,71977,2,0,B|116:167|133:119|131:116|157:59|234:79,1,210,0|0,3:0|3:0,0:0:0:0:
327,304,72427,1,0,3:0:0:0:
327,304,72502,1,0,3:0:0:0:
327,303,72577,2,0,B|271:291|258:327|260:330|240:372|182:357,1,157.5,8|0,0:0|0:0,0:0:0:0:
190,359,72877,2,0,P|173:329|149:317,1,52.5,2|0,3:2|0:0,0:0:0:0:
276,204,73027,2,0,P|279:178|294:156,1,52.5,0|0,3:0|0:0,0:0:0:0:
98,243,73177,5,0,3:0:0:0:
10,145,73327,1,0,3:0:0:0:
286,11,73477,1,0,3:0:0:0:
293,156,73627,1,2,3:2:0:0:
22,22,73777,2,0,B|80:19|113:69|109:72|141:119|175:123|200:115,1,209.999994039536,8|0,0:0|3:0,0:0:0:0:
389,315,74227,5,0,3:0:0:0:
389,315,74302,1,0,3:0:0:0:
389,315,74377,2,0,P|473:294|508:184,1,210,0|0,3:0|3:0,0:0:0:0:
512,36,74827,1,0,3:0:0:0:
512,36,74902,1,0,3:0:0:0:
512,36,74977,2,0,P|456:2|379:41,1,157.5,8|0,0:0|0:0,0:0:0:0:
380,40,75277,2,0,L|325:21,1,52.5,2|0,3:2|0:0,0:0:0:0:
467,111,75427,2,0,L|409:121,1,52.5,0|0,3:0|0:0,0:0:0:0:
393,207,75577,5,0,3:0:0:0:
292,230,75727,1,0,3:0:0:0:
233,349,75877,5,0,3:0:0:0:
77,343,76027,1,0,3:0:0:0:
15,170,76177,5,8,0:0:0:0:
158,286,76327,1,0,3:0:0:0:
274,143,76477,1,0,3:0:0:0:
131,25,76627,5,0,3:0:0:0:
131,25,76702,1,0,3:0:0:0:
131,25,76777,2,0,P|159:87|101:209,1,210,0|0,3:0|3:0,0:0:0:0:
414,238,77227,1,0,3:0:0:0:
414,238,77302,1,0,3:0:0:0:
414,238,77377,2,0,P|393:191|436:99,1,157.5,8|0,0:0|0:0,0:0:0:0:
435,100,77677,2,0,L|440:44,1,52.5,2|0,3:2|0:0,0:0:0:0:
285,8,77827,2,0,L|289:64,1,52.5,0|0,3:0|0:0,0:0:0:0:
350,122,77977,5,0,3:0:0:0:
186,98,78127,1,0,3:0:0:0:
162,262,78277,1,0,3:0:0:0:
326,286,78427,2,0,P|435:307|511:379,1,210,2|0,3:2|0:0,0:0:0:0:
456,208,78877,1,0,3:0:0:0:
216,375,79027,5,0,3:0:0:0:
216,375,79102,1,0,3:0:0:0:
216,375,79177,2,0,P|215:299|245:166,1,210,0|0,3:0|3:0,0:0:0:0:
478,40,79627,1,0,3:0:0:0:
478,40,79702,1,0,3:0:0:0:
478,40,79777,2,0,P|421:40|321:17,1,157.5,8|0,0:0|0:0,0:0:0:0:
323,18,80077,2,0,L|329:72,1,52.5,2|0,3:2|0:0,0:0:0:0:
160,70,80227,2,0,L|166:17,1,52.5,0|0,3:0|0:0,0:0:0:0:
246,123,80377,5,0,3:0:0:0:
149,223,80527,1,0,3:0:0:0:
49,126,80677,1,0,3:0:0:0:
58,370,80827,2,0,P|148:326|252:380,1,210,2|0,3:2|0:0,0:0:0:0:
444,228,81277,1,0,3:0:0:0:
351,273,81427,1,2,0:0:0:0:
265,214,81577,6,0,P|261:109|245:3,1,210,0|0,3:0|3:0,0:0:0:0:
86,13,82027,1,2,0:0:0:0:
356,154,82177,6,0,P|263:104|163:65,1,210,8|0,0:0|3:0,0:0:0:0:
15,252,82627,1,2,0:0:0:0:
252,289,82777,5,0,3:0:0:0:
242,185,82927,1,0,3:0:0:0:
166,349,83077,1,0,3:0:0:0:
409,220,83227,1,2,3:2:0:0:
347,333,83377,2,0,P|459:362|511:276,1,210,8|0,0:0|3:0,0:0:0:0:
355,21,83977,6,0,P|260:24|144:60,1,210,0|0,3:0|3:0,0:0:0:0:
51,196,84427,1,2,0:0:0:0:
212,368,84577,2,0,P|259:366|317:348,1,104.999997019768,8|2,0:0|0:0,0:0:0:0:
262,114,84877,1,0,3:0:0:0:
250,270,85027,1,2,0:0:0:0:
178,186,85177,5,0,3:0:0:0:
178,186,85327,1,0,3:0:0:0:
334,198,85477,1,0,3:0:0:0:
334,198,85627,1,0,3:0:0:0:
418,6,85777,5,8,0:0:0:0:
314,21,85927,1,0,3:0:0:0:
27,41,86077,5,0,3:0:0:0:
181,68,86227,1,0,3:0:0:0:
331,316,86377,5,6,3:2:0:0:
256,192,86527,12,0,91177,0:0:0:0:
256,192,95977,12,0,100477,0:0:0:0:
254,107,100777,6,0,P|253:57|264:8,2,84,2|0|2,3:2|3:0|3:2,0:0:0:0:
266,285,101677,1,2,3:2:0:0:
266,285,101827,1,2,3:2:0:0:
266,285,101977,2,0,P|266:310|261:334,1,42,2|0,3:2|0:0,0:0:0:0:
187,361,102277,2,0,P|162:361|137:356,2,42,2|0|2,0:0|0:0|3:2,0:0:0:0:
466,175,103177,5,0,3:0:0:0:
255,191,103477,1,0,3:0:0:0:
46,209,103777,2,0,B|61:168|45:145|42:150|22:128|39:81,1,126.000004806519,8|0,0:0|3:0,0:0:0:0:
157,13,104227,1,2,3:2:0:0:
222,67,104377,6,0,P|256:66|285:57,1,63.0000024032594,0|0,3:0|0:0,0:0:0:0:
448,16,104677,2,0,P|414:17|385:26,1,63.0000024032594,2|0,3:2|0:0,0:0:0:0:
346,162,104977,6,0,L|342:225,1,63.0000024032594,8|0,0:0|0:0,0:0:0:0:
257,377,105277,2,0,L|253:314,1,63.0000024032594,2|0,3:2|0:0,0:0:0:0:
59,147,105577,6,0,P|118:205|198:225,1,168,0|0,3:0|3:0,0:0:0:0:
211,113,106027,1,2,3:2:0:0:
453,237,106177,6,0,P|394:179|314:159,1,168,8|0,0:0|3:0,0:0:0:0:
301,271,106627,1,2,3:2:0:0:
187,354,106777,5,0,3:0:0:0:
102,358,106927,1,0,3:0:0:0:
56,286,107077,1,0,3:0:0:0:
169,187,107227,2,0,P|158:103|153:17,1,168,2|0,0:0|0:0,0:0:0:0:
266,13,107677,2,0,P|271:55|274:98,1,84,0|0,3:0|0:0,0:0:0:0:
460,156,107977,6,0,B|415:146|382:186|390:188|360:224|286:211,1,168,0|0,3:0|3:0,0:0:0:0:
200,301,108427,1,2,3:2:0:0:
52,156,108577,6,0,B|97:146|130:186|122:188|152:224|226:211,1,168,8|0,0:0|3:0,0:0:0:0:
312,301,109027,1,2,3:2:0:0:
503,120,109177,5,0,3:0:0:0:
426,95,109327,1,0,3:0:0:0:
401,174,109477,1,0,3:0:0:0:
409,289,109627,2,0,P|324:306|274:252,1,168,2|0,0:0|0:0,0:0:0:0:
228,62,110077,2,0,P|256:92|246:130,1,84,0|0,3:0|2:0,2:0:0:0:
198,205,110377,6,0,B|147:194|119:228|126:227|92:264|33:248,1,168,0|0,3:0|3:0,0:0:0:0:
145,328,110827,1,2,3:2:0:0:
314,179,110977,6,0,B|365:190|393:156|386:157|420:120|479:136,1,168,8|0,0:0|3:0,0:0:0:0:
367,56,111427,1,2,3:2:0:0:
256,192,111727,1,0,3:0:0:0:
260,109,111877,1,0,3:0:0:0:
167,22,112027,2,0,P|234:24|340:2,1,168,2|0,0:0|0:0,0:0:0:0:
435,146,112477,2,0,P|401:144|348:155,1,84,0|0,3:0|0:0,0:0:0:0:
160,230,112777,6,0,P|99:186|82:88,1,168,0|0,3:0|3:0,0:0:0:0:
190,77,113227,1,2,3:2:0:0:
352,154,113377,6,0,P|413:198|430:296,1,168,8|0,0:0|3:0,0:0:0:0:
322,307,113827,1,2,3:2:0:0:
142,369,113977,5,0,3:0:0:0:
63,339,114127,1,0,3:0:0:0:
128,286,114277,1,0,3:0:0:0:
43,178,114427,2,0,B|64:129|34:101|34:105|4:65|29:7,1,168,2|0,0:0|0:0,0:0:0:0:
192,61,114877,2,0,B|202:84|187:104|187:102|172:116|183:141,1,84,0|0,3:0|0:0,0:0:0:0:
251,246,115177,6,0,P|323:255|393:325,1,168,0|0,3:0|3:0,0:0:0:0:
287,344,115627,1,2,3:2:0:0:
261,138,115777,6,0,P|189:129|119:59,1,168,8|0,0:0|3:0,0:0:0:0:
225,40,116227,1,2,3:2:0:0:
435,39,116377,5,0,3:0:0:0:
352,54,116527,1,0,3:0:0:0:
367,137,116677,1,0,3:0:0:0:
512,222,116827,2,0,P|517:273|421:324,1,168,2|0,0:0|0:0,0:0:0:0:
269,376,117277,2,0,P|245:365|247:311,1,84,0|0,3:0|0:0,0:0:0:0:
207,139,117577,6,0,B|151:161|122:128|125:125|90:93|29:112,1,168,0|0,3:0|3:0,0:0:0:0:
124,236,118027,1,2,3:2:0:0:
305,245,118177,6,0,B|361:223|390:256|387:259|422:291|483:272,1,168,8|0,0:0|3:0,0:0:0:0:
388,148,118627,1,2,3:2:0:0:
393,20,118777,5,0,3:0:0:0:
316,53,118927,1,0,3:0:0:0:
248,2,119077,1,0,3:0:0:0:
141,67,119227,2,0,P|59:63|3:123,1,167.999995231629,2|0,0:0|0:0,0:0:0:0:
15,280,119677,2,0,P|48:302|87:290,1,84,0|0,3:0|0:0,0:0:0:0:
232,341,119977,6,0,P|229:285|216:208,1,126.000004806519,0|0,3:0|3:0,0:0:0:0:
136,224,120427,1,2,0:0:0:0:
136,224,120577,2,0,P|139:280|152:357,1,126.000004806519,0|0,3:0|3:0,0:0:0:0:
464,344,121177,2,0,P|417:258|329:256,1,189.000007209778,0|2,3:0|0:0,0:0:0:0:
203,39,121927,1,2,0:0:0:0:
129,79,122077,2,0,P|146:111|179:112,1,63.0000024032594,0|0,3:0|0:0,0:0:0:0:
267,157,122377,6,0,P|329:150|397:134,1,126.000004806519,0|0,3:0|3:0,0:0:0:0:
409,218,122827,1,2,0:0:0:0:
417,301,122977,2,0,P|354:307|287:324,1,126.000004806519,8|0,0:0|3:0,0:0:0:0:
275,240,123427,1,2,0:0:0:0:
267,157,123577,5,0,3:0:0:0:
267,157,123727,1,2,0:0:0:0:
155,114,123877,1,8,0:0:0:0:
155,114,124027,1,2,0:0:0:0:
309,76,124177,6,0,P|337:61|356:37,1,63.0000024032594,8|0,0:0|0:0,0:0:0:0:
113,195,124477,2,0,P|85:210|66:234,1,63.0000024032594,0|0,3:0|0:0,0:0:0:0:
262,378,124777,6,0,P|262:282|245:158,1,210,6|0,3:2|3:0,0:0:0:0:
41,19,125227,1,0,3:0:0:0:
41,19,125302,1,0,3:0:0:0:
41,19,125377,2,0,P|45:84|127:96,1,157.5,10|0,0:0|0:0,0:0:0:0:
124,97,125677,2,0,L|179:87,1,52.5,0|0,3:0|0:0,0:0:0:0:
324,30,125827,2,0,L|379:20,1,52.5,0|0,3:0|0:0,0:0:0:0:
497,150,125977,5,2,3:2:0:0:
325,123,126127,1,0,3:0:0:0:
298,295,126277,1,0,3:0:0:0:
470,322,126427,2,0,P|427:271|410:229,2,105,2|8|0,3:2|0:0|0:0,0:0:0:0:
377,374,126877,1,0,3:0:0:0:
135,374,127027,5,0,3:0:0:0:
135,374,127102,1,0,3:0:0:0:
135,374,127177,1,0,3:0:0:0:
11,240,127327,1,2,0:0:0:0:
189,199,127477,1,0,3:0:0:0:
112,274,127627,5,0,3:0:0:0:
112,274,127702,1,0,3:0:0:0:
112,274,127777,2,0,P|97:222|92:169,1,105,8|0,0:0|0:0,0:0:0:0:
258,6,128077,2,0,P|255:32|248:57,1,52.5,2|0,3:2|0:0,0:0:0:0:
134,95,128227,2,0,P|108:92|83:85,1,52.5,0|0,3:0|0:0,0:0:0:0:
284,170,128377,5,0,3:0:0:0:
374,116,128527,1,0,3:0:0:0:
466,165,128677,1,0,3:0:0:0:
300,292,128827,5,0,3:0:0:0:
154,351,128977,5,8,0:0:0:0:
160,219,129127,1,2,0:0:0:0:
352,165,129277,1,0,3:0:0:0:
358,33,129427,5,0,3:0:0:0:
358,33,129502,1,0,3:0:0:0:
358,33,129577,2,0,P|286:51|155:2,1,210,2|0,3:2|3:0,0:0:0:0:
11,192,130027,1,0,3:0:0:0:
11,192,130102,1,0,3:0:0:0:
11,192,130177,2,0,P|65:178|163:215,1,157.5,10|0,0:0|0:0,0:0:0:0:
158,211,130477,2,0,L|157:151,1,52.5,0|0,3:0|0:0,0:0:0:0:
3,41,130627,2,0,L|4:101,1,52.5,0|0,3:0|0:0,0:0:0:0:
8,274,130777,5,2,3:2:0:0:
256,192,130927,1,0,3:0:0:0:
86,94,131077,1,0,3:0:0:0:
146,281,131227,2,0,P|149:334|138:386,2,105,2|8|0,3:2|0:0|0:0,0:0:0:0:
272,317,131677,1,0,3:0:0:0:
366,103,131827,5,0,3:0:0:0:
366,103,131902,1,0,3:0:0:0:
366,103,131977,2,0,P|378:45|511:25,1,210,2|0,3:2|3:0,0:0:0:0:
462,234,132427,1,0,3:0:0:0:
462,234,132502,1,0,3:0:0:0:
462,234,132577,2,0,P|433:243|391:190,1,105,8|0,0:0|0:0,0:0:0:0:
189,73,132877,2,0,L|179:13,1,52.5,2|0,3:2|0:0,0:0:0:0:
37,39,133027,2,0,L|28:90,1,52.5,0|0,3:0|0:0,0:0:0:0:
89,140,133177,5,0,3:0:0:0:
15,213,133327,1,0,3:0:0:0:
224,198,133477,5,0,3:0:0:0:
102,265,133627,1,0,3:0:0:0:
324,369,133777,5,8,0:0:0:0:
148,356,133927,1,2,0:0:0:0:
183,114,134077,1,0,3:0:0:0:
359,127,134227,1,0,3:0:0:0:
511,319,134377,6,0,B|444:332|414:281|419:277|386:217|329:231,1,210,2|0,3:2|3:0,0:0:0:0:
53,282,134827,1,0,3:0:0:0:
53,282,134902,1,0,3:0:0:0:
53,282,134977,2,0,B|91:291|116:246|112:243|135:205|185:215,1,157.5,10|0,0:0|0:0,0:0:0:0:
184,215,135277,2,0,L|180:162,1,52.5,0|0,3:0|0:0,0:0:0:0:
48,101,135427,2,0,L|101:96,1,52.5,0|0,3:0|0:0,0:0:0:0:
246,83,135577,5,2,3:2:0:0:
167,15,135727,1,0,3:0:0:0:
376,41,135877,1,0,3:0:0:0:
350,250,136027,2,0,P|341:299|369:358,2,105,2|8|0,3:2|0:0|0:0,0:0:0:0:
451,219,136477,1,0,3:0:0:0:
281,175,136627,5,0,3:0:0:0:
281,175,136702,1,0,3:0:0:0:
281,175,136777,1,0,3:0:0:0:
180,203,136927,1,2,0:0:0:0:
108,64,137077,1,0,3:0:0:0:
284,16,137227,5,0,3:0:0:0:
284,16,137302,1,0,3:0:0:0:
284,16,137377,2,0,P|321:44|386:33,1,105,8|0,0:0|0:0,0:0:0:0:
506,189,137677,2,0,P|480:185|459:200,1,52.5,2|0,3:2|0:0,0:0:0:0:
298,135,137827,2,0,P|294:160|309:181,1,52.5,0|0,3:0|0:0,0:0:0:0:
347,373,137977,5,0,3:0:0:0:
448,347,138127,1,0,3:0:0:0:
376,273,138277,1,0,3:0:0:0:
168,239,138427,5,0,3:0:0:0:
184,370,138577,5,8,0:0:0:0:
284,216,138727,1,2,0:0:0:0:
200,52,138877,1,0,3:0:0:0:
95,46,139027,5,0,3:0:0:0:
95,46,139102,1,0,3:0:0:0:
95,46,139177,2,0,B|104:117|61:144|57:139|10:162|26:250,1,210,2|0,3:2|3:0,0:0:0:0:
244,370,139627,1,0,3:0:0:0:
244,370,139702,1,0,3:0:0:0:
244,370,139777,2,0,B|237:316|269:296|272:300|307:283|295:216,1,157.5,10|0,0:0|0:0,0:0:0:0:
297,229,140077,2,0,P|277:243|250:238,1,52.5,0|0,3:0|0:0,0:0:0:0:
111,214,140227,2,0,P|131:200|158:205,1,52.5,0|0,3:0|0:0,0:0:0:0:
151,329,140377,5,2,3:2:0:0:
6,270,140527,1,0,3:0:0:0:
16,112,140677,2,0,P|17:66|6:8,1,105,0|0,3:0|0:0,0:0:0:0:
267,29,140977,5,8,0:0:0:0:
250,238,141127,1,2,0:0:0:0:
170,170,141277,1,0,3:0:0:0:
347,97,141427,5,0,3:0:0:0:
347,97,141502,1,0,3:0:0:0:
347,97,141577,1,0,3:0:0:0:
511,183,141727,1,2,0:0:0:0:
354,282,141877,1,0,3:0:0:0:
408,196,142027,5,0,3:0:0:0:
408,196,142102,1,0,3:0:0:0:
408,196,142177,2,0,P|355:187|296:179,1,105,8|0,0:0|0:0,0:0:0:0:
118,38,142477,2,0,P|113:64|109:94,1,52.5,2|0,3:2|0:0,0:0:0:0:
213,261,142627,2,0,P|217:234|221:205,1,52.5,0|0,3:0|0:0,0:0:0:0:
27,120,142777,5,0,3:0:0:0:
41,223,142927,1,0,3:0:0:0:
186,374,143077,5,0,3:0:0:0:
323,355,143227,1,0,3:0:0:0:
471,161,143377,5,8,0:0:0:0:
366,20,143527,1,2,0:0:0:0:
191,40,143677,1,0,3:0:0:0:
296,181,143827,5,0,3:0:0:0:
296,181,143902,1,0,3:0:0:0:
296,181,143977,2,0,B|231:164|202:225|207:227|176:282|116:256,1,210,0|0,3:0|3:0,0:0:0:0:
14,70,144427,1,0,3:0:0:0:
14,70,144502,1,0,3:0:0:0:
14,70,144577,2,0,B|62:57|84:103|80:104|104:145|149:126,1,157.5,10|0,0:0|0:0,0:0:0:0:
147,126,144877,2,0,P|137:98|144:70,1,52.5,0|0,3:0|0:0,0:0:0:0:
307,30,145027,2,0,P|317:58|310:86,1,52.5,0|0,3:0|0:0,0:0:0:0:
254,183,145177,5,2,3:2:0:0:
448,215,145327,1,0,3:0:0:0:
323,367,145477,1,0,3:0:0:0:
338,263,145627,2,0,P|345:217|371:153,2,105,2|8|0,3:2|0:0|0:0,0:0:0:0:
156,229,146077,1,0,3:0:0:0:
174,343,146227,5,0,3:0:0:0:
174,343,146302,1,0,3:0:0:0:
174,343,146377,1,0,3:0:0:0:
48,187,146527,1,2,0:0:0:0:
246,155,146677,1,0,3:0:0:0:
198,57,146827,5,0,3:0:0:0:
198,57,146902,1,0,3:0:0:0:
198,57,146977,2,0,L|302:69,1,105,8|0,0:0|0:0,0:0:0:0:
494,189,147277,2,0,L|442:195,1,52.5,2|0,3:2|0:0,0:0:0:0:
255,243,147427,2,0,L|261:295,1,52.5,0|0,3:0|0:0,0:0:0:0:
354,378,147577,5,0,3:0:0:0:
457,369,147727,1,0,3:0:0:0:
502,276,147877,1,0,3:0:0:0:
334,158,148027,5,0,3:0:0:0:
456,4,148177,5,8,0:0:0:0:
435,106,148327,1,2,0:0:0:0:
228,122,148477,1,0,3:0:0:0:
207,20,148627,5,0,3:0:0:0:
207,20,148702,1,0,3:0:0:0:
207,20,148777,2,0,P|117:14|-8:59,1,210,2|0,3:2|3:0,0:0:0:0:
50,268,149227,1,0,3:0:0:0:
50,268,149302,1,0,3:0:0:0:
50,268,149377,2,0,P|87:211|105:113,1,157.5,10|0,0:0|0:0,0:0:0:0:
105,124,149677,2,0,L|163:145,1,52.5,0|0,3:0|0:0,0:0:0:0:
272,355,149827,2,0,L|261:296,1,52.5,0|0,3:0|0:0,0:0:0:0:
349,129,149977,5,2,3:2:0:0:
342,233,150127,1,0,3:0:0:0:
511,106,150277,1,0,3:0:0:0:
317,24,150427,2,0,P|270:27|225:62,2,105,2|8|0,3:2|0:0|0:0,0:0:0:0:
448,12,150877,1,0,3:0:0:0:
467,233,151027,5,0,3:0:0:0:
467,233,151102,1,0,3:0:0:0:
467,233,151177,2,0,P|468:307|332:351,1,210,2|0,3:2|3:0,0:0:0:0:
205,235,151627,1,0,3:0:0:0:
205,235,151702,1,0,3:0:0:0:
205,235,151777,2,0,P|189:187|140:180,1,105,8|0,0:0|0:0,0:0:0:0:
45,370,152077,2,0,L|99:364,1,52.5,2|0,3:2|0:0,0:0:0:0:
277,325,152227,2,0,L|223:319,1,52.5,0|0,3:0|0:0,0:0:0:0:
68,286,152377,5,0,3:0:0:0:
24,190,152527,1,0,3:0:0:0:
155,10,152677,5,0,3:0:0:0:
213,137,152827,1,0,3:0:0:0:
225,361,152977,5,8,0:0:0:0:
68,286,153127,1,2,0:0:0:0:
56,62,153277,1,0,3:0:0:0:
213,137,153427,1,0,3:0:0:0:
423,28,153577,6,0,P|363:110|396:205,1,210,2|0,3:2|3:0,0:0:0:0:
131,162,154027,1,0,3:0:0:0:
131,162,154102,1,0,3:0:0:0:
131,162,154177,2,0,P|175:100|151:28,1,157.5,10|0,0:0|0:0,0:0:0:0:
150,28,154477,2,0,L|95:39,1,52.5,0|0,3:0|0:0,0:0:0:0:
252,163,154627,2,0,L|262:218,1,52.5,0|0,3:0|0:0,0:0:0:0:
89,257,154777,5,2,3:2:0:0:
2,202,154927,1,0,3:0:0:0:
10,376,155077,1,0,3:0:0:0:
184,368,155227,2,0,P|224:338|279:312,2,105,2|8|0,3:2|0:0|0:0,0:0:0:0:
180,261,155677,1,0,3:0:0:0:
363,360,155827,5,0,3:0:0:0:
363,360,155902,1,0,3:0:0:0:
363,360,155977,1,0,3:0:0:0:
469,368,156127,1,2,0:0:0:0:
505,148,156277,1,0,3:0:0:0:
319,162,156427,5,0,3:0:0:0:
319,162,156502,1,0,3:0:0:0:
319,162,156577,2,0,P|308:109|302:50,1,105,8|0,0:0|0:0,0:0:0:0:
172,27,156877,2,0,P|198:21|228:18,1,52.5,2|0,3:2|0:0,0:0:0:0:
437,20,157027,2,0,P|410:25|381:28,1,52.5,0|0,3:0|0:0,0:0:0:0:
249,237,157177,5,0,3:0:0:0:
145,213,157327,1,0,3:0:0:0:
112,113,157477,1,0,3:0:0:0:
302,58,157627,5,0,3:0:0:0:
500,197,157777,5,8,0:0:0:0:
319,162,157927,1,2,0:0:0:0:
198,301,158077,1,0,3:0:0:0:
17,266,158227,5,0,3:0:0:0:
17,266,158302,1,0,3:0:0:0:
17,266,158377,2,0,B|55:218|32:173|30:173|1:115|47:66,1,210,2|0,3:2|3:0,0:0:0:0:
260,24,158827,1,0,3:0:0:0:
260,24,158902,1,0,3:0:0:0:
260,24,158977,2,0,B|288:60|271:93|269:93|247:137|282:174,1,157.5,10|0,0:0|0:0,0:0:0:0:
281,172,159277,2,0,P|306:179|314:217,1,52.5,0|0,3:0|0:0,0:0:0:0:
150,327,159427,2,0,P|125:320|117:282,1,52.5,0|0,3:0|0:0,0:0:0:0:
120,218,159577,5,2,3:2:0:0:
146,13,159727,1,0,3:0:0:0:
179,138,159877,2,0,P|130:117|85:74,1,105,0|0,3:0|0:0,0:0:0:0:
294,31,160177,5,8,0:0:0:0:
506,21,160327,1,2,0:0:0:0:
468,202,160477,1,0,3:0:0:0:
256,192,160627,5,0,3:0:0:0:
256,192,160702,1,0,3:0:0:0:
256,192,160777,1,0,3:0:0:0:
366,120,160927,1,2,0:0:0:0:
358,274,161077,1,0,3:0:0:0:
131,251,161227,5,0,3:0:0:0:
131,251,161302,1,0,3:0:0:0:
131,251,161377,2,0,P|120:193|119:142,1,105,8|0,0:0|0:0,0:0:0:0:
212,19,161677,2,0,P|217:48|218:73,1,52.5,2|0,3:2|0:0,0:0:0:0:
473,111,161827,2,0,P|467:82|467:56,1,52.5,0|0,3:0|0:0,0:0:0:0:
395,25,161977,5,0,3:0:0:0:
290,105,162127,1,0,3:0:0:0:
94,104,162277,5,0,3:0:0:0:
233,176,162427,1,0,3:0:0:0:
454,213,162577,5,8,0:0:0:0:
278,266,162727,1,2,0:0:0:0:
17,355,162877,5,0,3:0:0:0:
226,379,163027,1,0,3:0:0:0:
143,187,163177,5,6,3:2:0:0:
256,192,163327,12,0,167977,0:0:0:0:
256,192,177577,12,0,179677,0:0:0:0:
435,358,179977,6,0,P|462:292|461:165,1,189.000007209778,2|0,3:2|0:0,0:0:0:0:
393,128,180577,2,0,P|375:171|375:256,1,126.000004806519,8|0,0:0|0:0,0:0:0:0:
350,334,181027,5,0,3:0:0:0:
350,334,181177,2,0,L|279:346,1,63.0000024032594,0|0,3:0|0:0,0:0:0:0:
161,333,181477,2,0,L|90:345,1,63.0000024032594,8|0,0:0|0:0,0:0:0:0:
287,199,181777,6,0,L|216:187,1,63.0000024032594,8|0,0:0|0:0,0:0:0:0:
116,53,182077,2,0,L|45:41,1,63.0000024032594,0|0,3:0|0:0,0:0:0:0:
21,228,182377,6,0,P|84:244|126:142,1,168,2|0,3:2|3:0,0:0:0:0:
295,50,182827,1,2,0:0:0:0:
207,14,182977,2,0,P|207:55|216:106,1,84,8|0,0:0|0:0,0:0:0:0:
383,86,183277,2,0,P|382:44|373:-6,1,84,0|0,3:0|0:0,0:0:0:0:
312,207,183577,5,0,3:0:0:0:
312,207,183727,2,0,P|298:247|298:296,1,84,2|0,0:0|3:0,0:0:0:0:
417,329,184027,2,0,P|332:333|248:376,1,168,2|0,0:0|0:0,0:0:0:0:
50,265,184477,2,0,P|93:262|136:241,1,84,0|0,3:0|0:0,0:0:0:0:
28,87,184777,6,0,P|66:150|165:132,1,168,2|0,3:2|3:0,0:0:0:0:
256,274,185227,1,2,0:0:0:0:
180,308,185377,2,0,P|168:350|143:382,1,84,8|0,0:0|0:0,0:0:0:0:
332,240,185677,2,0,P|344:198|369:166,1,84,0|0,3:0|0:0,0:0:0:0:
256,98,185977,5,0,3:0:0:0:
256,98,186127,2,0,P|255:54|246:7,1,84,2|0,0:0|3:0,0:0:0:0:
471,44,186427,2,0,P|410:17|345:88,1,167.999995231629,2|0,0:0|0:0,0:0:0:0:
177,162,186877,2,0,P|146:175|114:140,1,84,0|0,3:0|0:0,0:0:0:0:
3,19,187177,6,0,P|12:67|26:206,1,168,2|0,3:2|3:0,0:0:0:0:
163,316,187627,1,2,0:0:0:0:
251,372,187777,2,0,P|254:330|262:288,1,84,8|0,0:0|0:0,0:0:0:0:
75,260,188077,2,0,P|71:301|63:343,1,84,0|0,3:0|0:0,0:0:0:0:
223,176,188377,5,0,3:0:0:0:
223,176,188527,2,0,P|195:208|150:205,1,84,2|0,0:0|3:0,0:0:0:0:
30,12,188827,2,0,P|93:43|155:132,1,168,2|0,0:0|0:0,0:0:0:0:
310,239,189277,2,0,P|307:203|330:154,1,84,0|0,3:0|0:0,0:0:0:0:
243,62,189577,6,0,P|323:54|423:53,1,168,2|0,3:2|3:0,0:0:0:0:
462,214,190027,1,2,0:0:0:0:
475,297,190177,2,0,P|433:296|391:292,1,84,8|0,0:0|0:0,0:0:0:0:
254,162,190477,2,0,P|253:203|249:245,1,84,0|0,3:0|0:0,0:0:0:0:
107,375,190777,5,0,3:0:0:0:
107,375,190927,2,0,P|112:337|86:297,1,84,2|0,0:0|3:0,0:0:0:0:
13,196,191227,2,0,P|89:206|169:154,1,168,2|0,0:0|0:0,0:0:0:0:
324,19,191677,2,0,P|286:14|246:40,1,84,0|0,3:0|0:0,0:0:0:0:
0,22,191977,6,0,P|85:39|168:73,1,168,2|0,3:2|3:0,0:0:0:0:
251,251,192427,1,0,3:0:0:0:
251,251,192502,1,0,3:0:0:0:
251,251,192577,2,0,P|264:292|270:336,1,84,8|0,0:0|3:0,0:0:0:0:
303,135,192877,1,0,3:0:0:0:
492,34,193027,5,0,3:0:0:0:
492,34,193102,1,0,3:0:0:0:
492,34,193177,1,0,3:0:0:0:
503,139,193327,2,0,P|464:152|409:153,1,84,2|0,3:2|3:0,0:0:0:0:
356,357,193627,1,0,3:0:0:0:
211,376,193777,2,0,P|161:329|188:222,1,168,8|0,0:0|3:0,0:0:0:0:
308,30,194227,5,0,3:0:0:0:
308,30,194302,1,0,3:0:0:0:
308,30,194377,2,0,B|326:86|256:144|284:202,1,168,2|0,3:2|3:0,0:0:0:0:
85,135,194827,1,0,3:0:0:0:
85,135,194902,1,0,3:0:0:0:
85,135,194977,2,0,B|97:110|62:81|71:53,1,84,8|0,0:0|3:0,0:0:0:0:
188,100,195277,1,0,3:0:0:0:
77,255,195427,5,0,3:0:0:0:
77,255,195502,1,0,3:0:0:0:
77,255,195577,1,0,3:0:0:0:
46,367,195727,2,0,P|79:353|136:348,1,84,2|0,3:2|3:0,0:0:0:0:
256,238,196027,1,0,3:0:0:0:
170,118,196177,2,0,P|242:131|309:58,1,168,8|0,0:0|3:0,0:0:0:0:
495,18,196627,5,0,3:0:0:0:
495,18,196702,1,0,3:0:0:0:
495,18,196777,2,0,B|516:59|486:96|481:92|448:133|470:182,1,168,2|0,3:2|3:0,0:0:0:0:
397,357,197227,1,0,3:0:0:0:
397,357,197302,1,0,3:0:0:0:
397,357,197377,2,0,B|406:335|390:314|387:316|372:298|383:277,1,84,8|0,0:0|3:0,0:0:0:0:
491,307,197677,1,0,3:0:0:0:
328,195,197827,5,0,3:0:0:0:
328,195,197902,1,0,3:0:0:0:
328,195,197977,1,0,3:0:0:0:
251,95,198127,2,0,P|297:94|326:54,1,84,2|0,3:2|3:0,0:0:0:0:
168,22,198427,1,0,3:0:0:0:
31,154,198577,2,0,B|83:146|100:188|99:192|114:240|182:227,1,168,8|0,0:0|3:0,0:0:0:0:
378,168,199027,5,0,3:0:0:0:
378,168,199102,1,0,3:0:0:0:
378,168,199177,2,0,P|364:241|363:337,1,168,2|0,3:2|3:0,0:0:0:0:
218,384,199627,1,0,3:0:0:0:
218,384,199702,1,0,3:0:0:0:
218,384,199777,2,0,P|197:347|182:308,1,84,8|0,0:0|3:0,0:0:0:0:
173,138,200077,1,0,3:0:0:0:
262,218,200227,5,0,3:0:0:0:
262,218,200302,1,0,3:0:0:0:
262,218,200377,1,0,3:0:0:0:
92,227,200527,2,0,P|70:198|59:151,1,84,2|0,3:2|3:0,0:0:0:0:
245,9,200827,2,0,P|259:43|257:91,1,84,0|8,3:0|0:0,0:0:0:0:
419,227,201127,2,0,P|414:190|428:143,2,84,0|0|0,3:0|3:0|3:0,0:0:0:0:
267,375,201577,5,6,3:2:0:0:
256,192,201727,12,0,206377,0:0:0:0:
256,192,215977,12,0,218077,0:0:0:0:
362,29,218377,6,0,P|385:82|383:163,1,126,2|0,0:0|0:0,0:0:0:0:
503,101,218977,2,0,P|497:142|476:178,1,84,8|0,0:0|0:0,0:0:0:0:
404,242,219427,1,2,0:0:0:0:
404,242,219577,1,2,0:0:0:0:
258,363,219877,2,0,P|250:338|252:305,1,42,8|0,0:0|0:0,0:0:0:0:
248,146,220177,2,0,P|261:186|259:228,1,84,8|0,0:0|0:0,0:0:0:0:
249,322,220627,1,2,0:0:0:0:
166,200,220777,6,0,B|102:220|85:181|90:179|71:135|12:150,1,168,6|0,3:2|3:0,0:0:0:0:
124,77,221227,1,2,0:0:0:0:
303,20,221377,2,0,B|367:0|384:39|379:41|398:85|457:70,1,168,8|0,0:0|3:0,0:0:0:0:
345,143,221827,1,2,0:0:0:0:
479,276,221977,5,0,3:0:0:0:
389,246,222127,2,0,P|387:295|403:333,1,84,2|0,0:0|3:0,0:0:0:0:
214,369,222427,2,0,P|259:329|279:215,1,168,2|0,0:0|0:0,0:0:0:0:
202,39,222877,1,0,3:0:0:0:
202,39,223027,1,2,0:0:0:0:
62,132,223177,5,0,3:0:0:0:
19,205,223327,2,0,P|57:216|104:202,1,84,2|0,0:0|3:0,0:0:0:0:
259,109,223627,2,0,B|284:159|262:196|254:188|234:222|259:270,1,168,2|0,0:0|0:0,0:0:0:0:
471,361,224077,2,0,B|458:336|469:317|473:321|483:304|470:280,1,84,0|0,3:0|0:0,0:0:0:0:
457,112,224377,6,0,P|436:176|346:229,1,168,0|0,3:0|3:0,0:0:0:0:
187,354,224827,1,2,0:0:0:0:
156,254,224977,2,0,P|140:215|104:196,2,84,8|0|0,0:0|0:0|3:0,0:0:0:0:
324,317,225427,5,0,3:0:0:0:
324,317,225502,1,0,3:0:0:0:
324,317,225577,2,0,P|319:228|329:138,1,168,0|0,3:0|3:0,0:0:0:0:
205,31,226027,2,0,P|116:36|26:26,1,168,2|0,0:0|0:0,0:0:0:0:
30,153,226477,2,0,P|32:197|27:242,1,84,0|0,3:0|0:0,0:0:0:0:
205,303,226777,6,0,B|163:294|129:336|133:339|101:376|55:347,1,168,0|0,3:0|3:0,0:0:0:0:
271,215,227226,2,0,B|301:184|281:134|276:135|261:89|309:64,1,168,2|0,0:0|0:0,0:0:0:0:
313,316,227677,2,0,B|319:336|346:340|346:338|370:343|369:370,1,84,0|0,3:0|0:0,0:0:0:0:
387,150,227977,6,0,P|417:79|514:72,2,168,0|0|8,3:0|3:0|0:0,0:0:0:0:
501,363,228727,1,2,0:0:0:0:
481,185,228877,1,0,3:0:0:0:
303,205,229027,1,2,0:0:0:0:
323,383,229177,6,0,B|272:384|250:345|257:338|239:295|179:292,1,168,0|0,3:0|3:0,0:0:0:0:
109,361,229627,1,2,0:0:0:0:
2,206,229777,2,0,P|34:204|74:171,1,84,8|0,0:0|0:0,0:0:0:0:
128,60,230077,1,0,3:0:0:0:
322,37,230227,5,0,3:0:0:0:
322,37,230302,1,0,3:0:0:0:
322,37,230377,2,0,P|305:126|304:220,1,168,2|0,3:2|3:0,0:0:0:0:
202,131,230827,1,2,0:0:0:0:
75,256,230977,2,0,P|164:272|258:274,1,168,8|0,0:0|3:0,0:0:0:0:
169,376,231427,1,2,0:0:0:0:
370,314,231577,5,0,3:0:0:0:
463,364,231727,2,0,P|474:327|466:276,1,84,2|0,0:0|3:0,0:0:0:0:
457,73,232027,2,0,P|451:155|392:213,1,168,2|0,0:0|0:0,0:0:0:0:
210,188,232477,1,0,3:0:0:0:
210,188,232627,1,2,0:0:0:0:
154,50,232777,5,0,3:0:0:0:
236,25,232927,2,0,P|284:17|332:19,1,84,2|0,0:0|3:0,0:0:0:0:
342,182,233227,2,0,P|438:198|534:194,1,168,2|0,0:0|0:0,0:0:0:0:
446,16,233677,2,0,P|428:53|433:95,1,84,0|0,3:0|0:0,0:0:0:0:
247,128,233977,6,0,L|78:156,1,168,0|0,3:0|3:0,0:0:0:0:
156,52,234427,1,2,0:0:0:0:
105,256,234577,2,0,L|22:242,2,84,8|0|0,0:0|0:0|3:0,0:0:0:0:
164,354,235027,5,0,3:0:0:0:
164,354,235102,1,0,3:0:0:0:
164,354,235177,2,0,P|149:295|222:217,1,168,0|0,3:0|3:0,0:0:0:0:
136,145,235627,1,2,0:0:0:0:
347,176,235777,2,0,B|388:146|426:190|422:190|460:234|502:196,1,168,8|0,0:0|3:0,0:0:0:0:
420,75,236227,1,2,0:0:0:0:
173,19,236377,6,0,P|220:80|229:331,1,336,0|8,3:0|0:0,0:0:0:0:
64,365,237127,1,2,0:0:0:0:
35,242,237277,2,0,P|15:205|20:164,1,84,0|0,3:0|0:0,0:0:0:0:
125,157,237577,6,0,P|175:106|141:26,2,168,0|0|8,3:0|3:0|0:0,0:0:0:0:
256,243,238327,1,2,0:0:0:0:
345,299,238477,2,0,P|332:336|292:338,1,84,0|0,3:0|0:0,0:0:0:0:
307,127,238777,6,0,P|379:93|472:63,1,168,0|0,3:0|3:0,0:0:0:0:
415,184,239227,1,2,0:0:0:0:
322,350,239377,2,0,P|318:314|331:267,1,84,8|0,0:0|0:0,0:0:0:0:
152,151,239677,2,0,P|156:187|143:234,1,84,0|0,3:0|0:0,0:0:0:0:
45,194,239977,6,0,B|63:145|35:118|33:121|1:82|27:23,1,168,0|0,3:0|3:0,0:0:0:0:
192,60,240427,1,2,0:0:0:0:
295,16,240577,2,0,B|312:63|284:90|282:87|250:126|272:175,1,168,8|0,0:0|3:0,0:0:0:0:
442,148,241027,1,2,0:0:0:0:
373,257,241177,5,0,3:0:0:0:
426,336,241327,2,0,P|385:345|343:343,1,84,2|0,0:0|3:0,0:0:0:0:
197,368,241627,2,0,P|153:266|21:288,1,252,2|0,0:0|3:0,0:0:0:0:
94,362,242227,1,2,0:0:0:0:
67,154,242377,5,0,3:0:0:0:
6,60,242527,2,0,P|45:60|81:21,1,84,2|0,0:0|3:0,0:0:0:0:
244,61,242827,2,0,P|244:139|322:211,1,168,2|0,0:0|0:0,0:0:0:0:
400,124,243277,2,0,P|400:85|361:49,1,84,0|0,3:0|0:0,0:0:0:0:
412,239,243577,6,0,B|462:271|460:312|457:308|454:353|506:382,1,168,0|0,3:0|3:0,0:0:0:0:
359,320,244027,1,2,0:0:0:0:
221,226,244177,2,0,P|210:266|208:308,2,84,8|0|0,0:0|0:0|3:0,0:0:0:0:
381,154,244627,5,0,3:0:0:0:
381,154,244702,1,0,3:0:0:0:
381,154,244777,2,0,P|445:147|487:56,1,168,0|0,3:0|3:0,0:0:0:0:
335,16,245227,2,0,P|271:23|229:114,1,168,2|0,0:0|0:0,0:0:0:0:
78,66,245677,2,0,P|87:105|125:120,1,84,0|0,3:0|0:0,0:0:0:0:
284,222,245977,6,0,B|303:280|271:310|267:306|237:339|252:381,1,168,0|0,3:0|3:0,0:0:0:0:
83,379,246427,2,0,B|97:338|67:305|63:309|31:279|50:221,1,168,2|0,0:0|0:0,0:0:0:0:
115,52,246877,2,0,P|148:72|167:121,1,84,0|0,3:0|0:0,0:0:0:0:
165,217,247177,6,0,P|199:148|262:75,2,168,0|0|8,3:0|3:0|0:0,0:0:0:0:
79,156,247927,1,2,0:0:0:0:
26,295,248077,2,0,P|38:331|41:379,1,84,0|0,3:0|0:0,0:0:0:0:
210,314,248377,6,0,P|291:332|390:371,1,168,0|0,3:0|3:0,0:0:0:0:
310,235,248827,1,2,0:0:0:0:
376,145,248977,2,0,P|335:136|286:116,2,84,8|0|0,0:0|0:0|3:0,0:0:0:0:
331,14,249427,5,0,3:0:0:0:
331,14,249502,1,0,3:0:0:0:
331,14,249577,2,0,P|254:15|185:81,1,168,0|0,3:0|3:0,0:0:0:0:
61,146,250027,1,2,0:0:0:0:
84,248,250177,2,0,P|161:249|230:315,1,168,8|0,0:0|3:0,0:0:0:0:
354,380,250627,1,2,0:0:0:0:
360,224,250777,5,0,3:0:0:0:
447,265,250927,2,0,P|450:228|443:181,1,84,2|0,0:0|3:0,0:0:0:0:
503,69,251227,2,0,P|423:93|287:7,1,252,2|0,0:0|3:0,0:0:0:0:
162,28,251827,1,2,0:0:0:0:
23,126,251977,5,0,3:0:0:0:
126,144,252127,2,0,P|136:189|137:230,1,84,2|0,0:0|3:0,0:0:0:0:
243,299,252427,2,0,P|223:209|221:127,1,168,2|0,0:0|0:0,0:0:0:0:
334,39,252877,2,0,P|376:39|407:8,1,84,0|0,3:0|0:0,0:0:0:0:
487,172,253177,6,0,L|312:139,1,168,0|0,3:0|3:0,0:0:0:0:
391,259,253627,1,2,0:0:0:0:
299,283,253777,2,0,L|283:365,2,84,8|0|0,0:0|0:0|3:0,0:0:0:0:
465,334,254227,5,0,3:0:0:0:
465,334,254302,1,0,3:0:0:0:
465,334,254377,2,0,P|512:294|502:191,1,168,0|0,3:0|3:0,0:0:0:0:
421,215,254827,1,2,0:0:0:0:
264,164,254977,2,0,P|217:124|227:21,1,168,8|0,0:0|3:0,0:0:0:0:
307,45,255427,1,2,0:0:0:0:
355,300,255577,6,0,B|281:284|240:338|242:342|192:402|123:377,1,251.999992847443,0|2,3:0|0:0,0:0:0:0:
153,276,256177,1,8,0:0:0:0:
30,146,256327,2,0,P|34:193|48:234,2,84,2|0|0,0:0|3:0|0:0,0:0:0:0:
188,161,256777,6,0,P|246:170|339:114,2,168,0|0|8,3:0|3:0|0:0,0:0:0:0:
242,71,257527,1,2,0:0:0:0:
75,44,257677,2,0,P|33:46|0:22,1,84,0|0,3:0|0:0,0:0:0:0:
6,170,257977,6,0,B|54:185|44:235|41:234|28:291|80:307,1,167.999995231629,0|0,3:0|3:0,0:0:0:0:
272,338,258427,2,0,B|309:305|348:338|345:340|388:380|427:343,1,167.999995231629,2|0,0:0|0:0,0:0:0:0:
488,145,258877,2,0,B|468:162|446:142|448:140|429:124|410:140,1,84,0|0,3:0|0:0,0:0:0:0:
367,234,259177,6,0,P|283:210|199:137,1,189.000007209778,0|0,3:0|0:0,0:0:0:0:
244,13,259777,1,0,3:0:0:0:
244,13,259927,1,0,3:0:0:0:
313,61,260077,2,0,P|320:89|312:125,1,63.0000024032594,0|0,3:0|0:0,0:0:0:0:
428,244,260377,6,0,P|422:154|495:75,1,189.000007209778,0|0,3:0|0:0,0:0:0:0:
423,20,260977,2,0,L|360:6,1,63.0000024032594,0|0,3:0|0:0,0:0:0:0:
223,102,261277,2,0,L|286:88,1,63.0000024032594,0|0,3:0|0:0,0:0:0:0:
108,18,261577,6,0,P|21:80|11:159,1,189.000007209778,0|0,3:0|0:0,0:0:0:0:
76,288,262177,1,0,3:0:0:0:
76,288,262327,1,0,3:0:0:0:
154,254,262477,2,0,P|150:218|129:202,1,63.0000024032594,0|0,3:0|0:0,0:0:0:0:
7,58,262777,6,0,B|66:36|99:76|95:80|132:125|190:87,1,189.000007209778,0|0,3:0|0:0,0:0:0:0:
319,18,263377,2,0,P|309:40|300:79,1,63.0000024032594,0|0,3:0|0:0,0:0:0:0:
229,219,263677,2,0,P|239:197|248:158,1,63.0000024032594,0|0,3:0|0:0,0:0:0:0:
358,222,263977,6,0,P|435:223|453:124,1,189.000007209778,0|0,3:0|0:0,0:0:0:0:
319,105,264577,1,0,3:0:0:0:
319,105,264727,1,0,3:0:0:0:
247,159,264877,2,0,P|233:181|259:202,1,63.0000024032594,0|0,3:0|0:0,0:0:0:0:
353,329,265177,6,0,P|253:343|150:375,1,189.000007209778,0|0,3:0|0:0,0:0:0:0:
31,287,265777,2,0,P|52:303|95:301,1,63.0000024032594,0|0,3:0|0:0,0:0:0:0:
121,148,266077,2,0,P|100:132|57:134,1,63.0000024032594,0|0,3:0|0:0,0:0:0:0:
76,214,266377,6,0,P|90:63|64:32,1,189.000007209778,0|0,3:0|0:0,0:0:0:0:
198,87,266977,1,0,3:0:0:0:
198,87,267127,1,0,3:0:0:0:
249,7,267277,2,0,P|290:36|303:33,1,63.0000024032594,0|0,3:0|0:0,0:0:0:0:
476,89,267577,6,0,B|425:62|390:109|394:112|359:158|292:126,1,189.000007209778,0|0,3:0|0:0,0:0:0:0:
251,197,268177,1,0,3:0:0:0:
251,197,268327,2,0,P|261:231|263:268,1,63.0000024032594,0|2,3:0|0:0,0:0:0:0:
30,368,268777,6,0,P|68:367|125:304,1,126,2|0,0:0|0:0,0:0:0:0:
97,227,269377,2,0,P|71:226|33:184,1,84,2|0,0:0|0:0,0:0:0:0:
159,16,269977,2,0,B|188:55|177:77|182:79|168:101|199:148,1,126,2|0,0:0|0:0,0:0:0:0:
321,249,270727,1,2,0:0:0:0:
321,249,270877,1,2,0:0:0:0:
482,16,271177,6,0,P|444:17|387:80,1,126,2|0,0:0|0:0,0:0:0:0:
415,157,271777,2,0,P|440:157|478:199,1,84,2|0,0:0|0:0,0:0:0:0:
353,368,272377,2,0,B|324:329|335:307|330:305|344:283|313:236,1,126,2|0,0:0|0:0,0:0:0:0:
191,135,273127,1,2,0:0:0:0:
191,135,273277,1,2,0:0:0:0:
442,111,273577,6,0,P|493:81|500:15,2,126,2|0|0,0:0|0:0|0:0,0:0:0:0:
246,37,274777,2,0,P|302:13|355:43,1,126,2|0,0:0|0:0,0:0:0:0:
388,250,275527,1,2,0:0:0:0:
388,250,275677,1,2,0:0:0:0:
339,152,275977,6,0,P|316:137|277:131,2,63,2|0|0,0:0|0:0|0:0,0:0:0:0:
283,311,277177,2,0,P|252:306|225:289,1,63,2|0,0:0|0:0,0:0:0:0:
288,226,277927,1,2,0:0:0:0:
288,226,278077,1,2,0:0:0:0:
256,192,278377,12,0,283177,0:0:0:0:
