osu file format v14

[General]
AudioFilename: audio.mp3
AudioLeadIn: 0
PreviewTime: 261903
Countdown: 0
SampleSet: Soft
StackLeniency: 0.7
Mode: 2
LetterboxInBreaks: 0
WidescreenStoryboard: 0

[Editor]
Bookmarks: 71483,116134,160785,219396,337549
DistanceSpacing: 2
BeatDivisor: 4
GridSize: 8
TimelineZoom: 3.099999

[Metadata]
Title:Negastrife
TitleUnicode:Negastrife
Artist:Erik "Jit" Scheele
ArtistUnicode:Erik "Jit" Scheele
Creator:lulu lemon
Version:Depths
Source:Homestuck
Tags:One Year Older piano webcomic soundtrack andrew hussie mspaintaventures Ascendance
BeatmapID:1385813
BeatmapSetID:653765

[Difficulty]
HPDrainRate:6
CircleSize:4
OverallDifficulty:9.3
ApproachRate:9.3
SliderMultiplier:1.8
SliderTickRate:2

[Events]
//Background and Video events
0,0,"lulubg.jpg",0,0
//Break Periods
2,5066,11410
2,16495,22840
2,205635,218796
2,312629,336949
//Storyboard Layer 0 (Background)
//Storyboard Layer 1 (Fail)
//Storyboard Layer 2 (Pass)
//Storyboard Layer 3 (Foreground)
//Storyboard Sound Samples

[TimingPoints]
581,714.285714285714,4,2,1,40,1,0
27723,-66.6666666666667,4,2,1,40,0,0
28259,-100,4,2,1,40,0,0
33438,-66.6666666666667,4,2,1,40,0,0
33973,-100,4,2,1,40,0,0
39152,-66.6666666666667,4,2,1,40,0,0
39688,-100,4,2,1,40,0,0
49158,697.674418604651,4,2,1,40,1,0
49158,-50,4,2,1,40,0,0
67297,-50,4,2,1,50,0,0
67995,-50,4,2,1,60,0,0
160785,697.674418604651,4,2,1,40,1,0
219389,-100,4,2,1,20,0,0
229854,705.882352941176,4,2,1,20,1,0
230560,689.655172413793,4,2,1,25,1,0
231939,674.157303370787,4,2,1,30,1,0
232613,666.666666666667,4,2,1,35,1,0
233279,659.340659340659,4,2,1,35,1,0
233938,645.161290322581,4,2,1,35,1,0
234583,638.297872340426,4,2,1,35,1,0
235852,625,4,2,1,35,1,0
236484,618.556701030928,4,2,1,40,1,0
237102,612.244897959184,4,2,1,40,1,0
237714,606.060606060606,4,2,1,40,1,0
238320,600,4,2,1,40,1,0
238920,588.235294117647,4,2,1,40,1,0
239508,582.52427184466,4,2,1,40,1,0
240090,576.923076923077,4,2,1,40,1,0
240666,571.428571428571,4,2,1,40,1,0
241237,560.747663551402,4,2,1,40,1,0
242358,550.45871559633,4,2,1,40,1,0
243458,545.454545454546,4,2,1,40,1,0
244003,530.973451327434,4,2,1,40,1,0
244533,528.63436123348,4,2,1,40,1,0
245061,526.315789473684,4,2,1,50,1,0
245061,-66.6666666666667,4,2,1,50,0,0
248218,-50,4,2,1,50,0,0
248745,-66.6666666666667,4,2,1,50,0,0
254534,-50,4,2,1,50,0,0
255061,-66.6666666666667,4,2,1,50,0,0
261903,-50,4,2,1,50,0,1
295587,-50,4,2,1,60,0,0
299797,-50,4,2,1,50,0,0
300850,-50,4,2,1,40,0,0
301903,-50,4,2,1,30,0,0
302955,-50,4,2,1,20,0,0
329177,697.674418604651,4,2,1,30,1,0
337549,-100,4,2,1,10,0,0
340339,-100,4,2,1,14,0,0
343130,-100,4,2,1,18,0,0
345223,-100,4,2,1,22,0,0
346618,-100,4,2,1,26,0,0
348319,-100,4,2,1,5,0,0
348406,-100,4,2,1,30,0,0
373803,697.674418604651,4,2,1,40,1,0
376593,731.707317073171,4,2,1,30,1,0
380130,746.268656716418,3,2,1,30,1,0
2434003,540.540540540541,4,2,1,40,1,0

[Colours]
Combo1 : 201,201,201
Combo2 : 22,85,250
Combo3 : 87,169,251

[HitObjects]
68,132,581,6,0,P|124:152|248:136,1,180,2|2,0:0|0:0,0:0:0:0:
444,132,2009,2,0,P|388:152|264:136,1,180,2|2,0:0|0:0,0:0:0:0:
164,56,3438,1,2,0:0:0:0:
107,116,3795,1,0,0:0:0:0:
168,200,4152,1,2,0:0:0:0:
280,200,4509,1,0,0:0:0:0:
56,200,4866,1,2,0:0:0:0:
256,152,12009,6,0,P|308:176|432:144,1,180,2|2,0:0|0:0,0:0:0:0:
255,152,13438,2,0,P|171:179|88:150,1,180,2|2,0:0|0:0,0:0:0:0:
264,72,14867,1,2,0:0:0:0:
335,118,15224,1,0,0:0:0:0:
272,200,15581,1,2,0:0:0:0:
360,248,15938,1,2,0:0:0:0:
112,248,16295,1,0,0:0:0:0:
88,140,23437,6,0,P|152:164|236:136,1,135,4|0,0:0|0:0,0:0:0:0:
72,212,24152,1,8,0:0:0:0:
268,128,24867,5,0,0:0:0:0:
152,128,25046,1,0,0:0:0:0:
316,128,25403,1,0,0:0:0:0:
128,128,25581,1,8,0:0:0:0:
424,140,26295,6,0,P|360:164|276:136,1,135
436,208,27009,1,8,0:0:0:0:
224,200,27366,1,0,0:0:0:0:
432,136,27723,6,8,L|344:136,2,67.5000025749208,8|8|0,0:0|0:0|0:0,0:0:0:0:
276,132,28259,1,0,0:0:0:0:
432,136,28438,1,8,0:0:0:0:
280,128,28795,1,0,0:0:0:0:
280,128,29152,6,0,L|128:124,1,135
288,176,29866,1,8,0:0:0:0:
124,152,30581,1,0,0:0:0:0:
240,152,30760,1,0,0:0:0:0:
64,208,31116,1,0,0:0:0:0:
232,216,31295,1,8,0:0:0:0:
344,128,32009,6,0,L|200:128,1,135
356,184,32723,1,8,0:0:0:0:
124,208,33081,1,0,0:0:0:0:
308,144,33438,6,0,L|216:144,2,67.5000025749208,8|8|0,0:0|0:0|0:0,0:0:0:0:
164,144,33973,1,0,0:0:0:0:
312,212,34152,2,0,L|192:212,1,90,8|0,0:0|0:0,0:0:0:0:
372,164,34866,6,0,L|472:164,1,90
352,264,35402,1,0,0:0:0:0:
240,216,35581,2,0,L|344:216,1,90,8|0,0:0|0:0,0:0:0:0:
168,160,36294,5,0,0:0:0:0:
304,152,36473,1,0,0:0:0:0:
144,184,36830,1,0,0:0:0:0:
328,184,37009,1,8,0:0:0:0:
156,156,37366,1,0,0:0:0:0:
344,152,37723,6,0,L|440:152,1,90
260,212,38438,2,0,L|368:212,1,90,8|0,0:0|0:0,0:0:0:0:
116,168,39152,6,0,L|208:168,2,67.5000025749208,8|8|0,0:0|0:0|0:0,0:0:0:0:
232,168,39687,1,0,0:0:0:0:
72,168,39866,1,8,0:0:0:0:
272,168,40223,1,0,0:0:0:0:
88,156,40580,6,0,L|208:156,1,90
304,160,41116,1,0,0:0:0:0:
188,220,41295,2,0,L|300:216,1,90,8|0,0:0|0:0,0:0:0:0:
56,152,42009,5,0,0:0:0:0:
180,152,42188,1,0,0:0:0:0:
368,144,42545,1,0,0:0:0:0:
216,144,42723,2,0,L|260:236,1,90,8|0,0:0|0:0,0:0:0:0:
104,152,43438,5,10,0:0:0:0:
228,152,43617,1,0,0:0:0:0:
284,152,43706,1,0,0:0:0:0:
228,108,43795,1,0,0:0:0:0:
376,112,43974,1,8,0:0:0:0:
216,112,44152,2,0,L|252:184,1,45,2|0,0:0|0:0,0:0:0:0:
376,128,44509,1,8,0:0:0:0:
368,128,44688,1,0,0:0:0:0:
228,128,44866,5,10,0:0:0:0:
336,128,45045,1,0,0:0:0:0:
381,128,45134,1,0,0:0:0:0:
436,128,45223,1,0,0:0:0:0:
244,176,45402,1,8,0:0:0:0:
256,192,46295,12,2,48796,0:0:0:0:
80,120,49158,6,0,L|192:128,1,90,4|0,0:0|0:0,0:0:0:0:
288,120,49506,1,2,0:0:0:0:
400,120,49681,1,0,0:0:0:0:
296,176,49855,2,0,L|408:176,1,90,10|0,0:0|0:0,0:0:0:0:
244,232,50204,2,0,L|340:232,1,90,2|0,0:0|0:0,0:0:0:0:
152,64,50553,5,2,0:0:0:0:
112,142,50727,1,0,0:0:0:0:
120,231,50902,1,2,0:0:0:0:
174,301,51076,1,0,0:0:0:0:
372,308,51251,2,0,P|424:244|360:236,1,180,10|2,0:0|0:0,0:0:0:0:
136,60,51948,5,2,0:0:0:0:
75,123,52122,1,0,0:0:0:0:
76,210,52296,1,2,0:0:0:0:
139,272,52471,1,0,0:0:0:0:
312,80,52646,5,10,0:0:0:0:
374,143,52820,1,0,0:0:0:0:
373,230,52994,1,2,0:0:0:0:
310,292,53169,1,0,0:0:0:0:
184,296,53344,6,0,L|94:296,2,90,2|0|2,0:0|0:0|0:0,0:0:0:0:
96,244,53867,1,0,0:0:0:0:
232,208,54041,1,10,0:0:0:0:
88,180,54216,1,8,0:0:0:0:
348,124,54390,2,0,L|464:124,1,90,2|0,0:0|0:0,0:0:0:0:
72,108,54739,6,0,L|56:220,1,90,2|0,0:0|0:0,0:0:0:0:
208,108,55088,1,2,0:0:0:0:
72,108,55262,1,0,0:0:0:0:
208,108,55437,2,0,L|304:108,1,90,10|0,0:0|0:0,0:0:0:0:
152,164,55785,2,0,L|248:164,1,90,2|0,0:0|0:0,0:0:0:0:
408,88,56134,5,2,0:0:0:0:
324,156,56309,1,0,0:0:0:0:
464,192,56483,1,2,0:0:0:0:
352,260,56658,1,0,0:0:0:0:
176,264,56832,2,0,P|136:220|208:136,1,180,10|2,0:0|0:0,0:0:0:0:
444,72,57530,5,2,0:0:0:0:
312,132,57704,1,0,0:0:0:0:
428,132,57878,1,2,0:0:0:0:
308,200,58053,1,0,0:0:0:0:
68,72,58227,5,10,0:0:0:0:
168,120,58401,1,0,0:0:0:0:
32,140,58575,1,2,0:0:0:0:
132,200,58750,1,0,0:0:0:0:
384,120,58925,6,0,L|480:128,1,90,10|0,0:0|0:0,0:0:0:0:
376,40,59274,1,2,0:0:0:0:
272,52,59448,1,0,0:0:0:0:
172,60,59622,1,2,0:0:0:0:
436,188,59797,1,8,0:0:0:0:
152,244,59971,2,0,L|132:128,1,90,2|10,0:0|0:0,0:0:0:0:
448,240,60320,6,0,L|468:124,1,90,2|0,0:0|0:0,0:0:0:0:
328,152,60669,1,2,0:0:0:0:
456,152,60844,1,0,0:0:0:0:
308,208,61018,2,0,L|398:208,1,90,2|0,0:0|0:0,0:0:0:0:
268,156,61367,2,0,L|358:156,1,90,2|0,0:0|0:0,0:0:0:0:
112,56,61716,5,2,0:0:0:0:
63,129,61890,1,0,0:0:0:0:
71,217,62064,1,2,0:0:0:0:
133,280,62239,1,0,0:0:0:0:
308,276,62413,2,0,B|428:208|428:208|376:232,1,180,10|0,0:0|0:0,0:0:0:0:
156,144,63111,5,2,0:0:0:0:
144,144,63285,1,0,0:0:0:0:
296,216,63460,1,2,0:0:0:0:
144,220,63634,1,0,0:0:0:0:
292,140,63809,5,10,0:0:0:0:
276,140,63983,1,0,0:0:0:0:
440,136,64158,1,2,0:0:0:0:
292,212,64332,1,0,0:0:0:0:
160,252,64506,6,0,L|264:248,2,90,2|0|2,0:0|0:0|0:0,0:0:0:0:
284,196,65030,1,0,0:0:0:0:
188,196,65204,1,10,0:0:0:0:
424,128,65378,1,8,0:0:0:0:
96,132,65553,2,0,L|120:256,1,90,2|0,0:0|0:0,0:0:0:0:
432,132,65902,6,0,L|432:248,1,90,2|0,0:0|0:0,0:0:0:0:
308,160,66251,1,2,0:0:0:0:
184,164,66425,1,0,0:0:0:0:
304,112,66599,2,0,L|208:112,1,90,10|0,0:0|0:0,0:0:0:0:
344,164,66948,2,0,L|240:164,1,90,2|0,0:0|0:0,0:0:0:0:
364,64,67297,5,2,0:0:0:0:
407,70,67384,1,2,0:0:0:0:
434,104,67471,1,2,0:0:0:0:
431,148,67558,1,2,0:0:0:0:
340,88,67646,5,2,0:0:0:0:
304,88,67733,1,2,0:0:0:0:
344,144,67820,1,2,0:0:0:0:
376,144,67907,1,2,0:0:0:0:
176,88,67995,2,0,P|120:124|200:180,1,180,10|0,0:0|0:0,0:0:0:0:
376,60,68692,5,2,0:0:0:0:
432,127,68866,1,0,0:0:0:0:
425,215,69040,1,2,0:0:0:0:
360,273,69215,1,0,0:0:0:0:
188,64,69390,5,10,0:0:0:0:
131,131,69564,1,0,0:0:0:0:
248,140,69738,1,2,0:0:0:0:
96,192,69913,1,0,0:0:0:0:
352,152,70088,6,0,L|356:272,1,90,10|0,0:0|0:0,0:0:0:0:
200,240,70437,1,0,0:0:0:0:
356,240,70611,1,10,0:0:0:0:
92,120,70785,2,0,P|36:160|116:220,1,180
394,330,71483,6,0,P|431:258|368:187,1,180,4|0,0:0|0:0,0:0:0:0:
256,184,72006,1,0,0:0:0:0:
139,181,72181,1,0,0:0:0:0:
407,124,72530,2,0,L|315:124,1,90
156,56,72878,6,0,P|249:79|352:37,2,180
325,330,74274,6,0,P|368:248|301:177,1,180
173,231,74797,1,0,0:0:0:0:
342,325,74971,2,0,L|459:319,1,90
247,253,75320,1,0,0:0:0:0:
109,263,75495,1,0,0:0:0:0:
473,202,75669,6,0,L|341:191,2,90,4|0|0,0:0|0:0|0:0,0:0:0:0:
160,169,76192,2,0,L|358:153,1,180,4|0,0:0|0:0,0:0:0:0:
32,80,76716,2,0,L|41:185,1,90,4|0,0:0|0:0,0:0:0:0:
215,245,77064,6,0,L|397:255,1,180
294,183,77588,1,0,0:0:0:0:
177,191,77762,1,0,0:0:0:0:
384,215,77937,1,8,0:0:0:0:
267,178,78111,2,0,L|278:73,1,90
446,32,78460,6,0,P|350:50|254:29,2,180
274,112,79332,1,8,0:0:0:0:
41,199,79855,6,0,P|129:180|222:210,1,180,0|8,0:0|0:0,0:0:0:0:
330,197,80378,1,0,0:0:0:0:
213,196,80553,1,0,0:0:0:0:
450,130,80727,1,8,0:0:0:0:
327,165,80902,1,0,0:0:0:0:
448,196,81076,1,0,0:0:0:0:
76,266,81251,6,0,L|63:68,1,180,0|8,0:0|0:0,0:0:0:0:
224,171,81774,1,0,0:0:0:0:
78,265,81948,1,0,0:0:0:0:
224,171,82123,2,0,L|333:180,1,90,8|0,0:0|0:0,0:0:0:0:
460,188,82471,1,0,0:0:0:0:
132,342,82646,6,0,L|119:136,1,180,6|8,0:0|0:0,0:0:0:0:
283,253,83169,1,0,0:0:0:0:
112,125,83344,2,0,L|219:144,1,90,2|0,0:0|0:0,0:0:0:0:
379,55,83692,2,0,L|261:73,1,90,8|0,0:0|0:0,0:0:0:0:
42,190,84041,6,0,L|250:218,2,180,2|8|2,0:0|0:0|0:0,0:0:0:0:
210,106,84913,1,0,0:0:0:0:
19,323,85088,2,0,L|10:200,1,90,8|0,0:0|0:0,0:0:0:0:
260,222,85437,6,0,L|453:238,1,180,2|8,0:0|0:0,0:0:0:0:
269,325,85960,1,0,0:0:0:0:
96,227,86134,2,0,L|108:124,1,90,2|0,0:0|0:0,0:0:0:0:
286,103,86483,2,0,L|381:62,1,90,8|0,0:0|0:0,0:0:0:0:
47,48,86832,6,0,L|149:61,2,90,6|0|8,0:0|0:0|0:0,0:0:0:0:
317,243,87355,2,0,P|364:171|285:89,1,180,4|8,0:0|0:0,0:0:0:0:
31,330,87878,2,0,L|150:318,1,90,4|8,0:0|0:0,0:0:0:0:
425,353,88227,6,0,L|451:160,1,180,2|8,0:0|0:0,0:0:0:0:
291,238,88751,1,0,0:0:0:0:
138,121,88925,2,0,L|255:124,1,90,2|0,0:0|0:0,0:0:0:0:
82,226,89274,2,0,L|186:227,1,90,8|0,0:0|0:0,0:0:0:0:
355,318,89623,6,0,L|164:318,1,180,2|8,0:0|0:0,0:0:0:0:
72,322,90146,1,0,0:0:0:0:
456,225,90320,2,0,L|475:117,1,90,2|0,0:0|0:0,0:0:0:0:
311,176,90669,2,0,L|205:166,1,90,8|0,0:0|0:0,0:0:0:0:
471,72,91018,5,2,0:0:0:0:
325,135,91192,1,0,0:0:0:0:
479,194,91367,2,0,L|473:318,1,90,8|0,0:0|0:0,0:0:0:0:
152,320,91716,1,2,0:0:0:0:
285,271,91890,1,0,0:0:0:0:
286,248,91948,1,0,0:0:0:0:
287,226,92006,1,0,0:0:0:0:
290,181,92064,1,8,0:0:0:0:
44,121,92239,1,0,0:0:0:0:
421,56,92413,5,8,0:0:0:0:
279,120,92588,2,0,L|293:186,1,45
342,189,92762,1,2,0:0:0:0:
178,284,92937,1,8,0:0:0:0:
335,355,93111,1,0,0:0:0:0:
379,347,93198,1,0,0:0:0:0:
423,339,93285,1,2,0:0:0:0:
244,271,93460,2,0,L|100:266,1,135,8|0,0:0|0:0,0:0:0:0:
408,272,93809,6,0,L|422:73,1,180,6|2,0:0|0:0,0:0:0:0:
220,184,94506,2,0,L|33:198,1,180,10|2,0:0|0:0,0:0:0:0:
295,288,95204,1,2,0:0:0:0:
204,235,95378,1,0,0:0:0:0:
207,129,95552,1,2,0:0:0:0:
306,73,95727,1,0,0:0:0:0:
457,47,95901,1,10,0:0:0:0:
162,39,96251,1,2,0:0:0:0:
319,135,96599,6,0,L|428:135,1,90,2|0,0:0|0:0,0:0:0:0:
246,69,96948,2,0,L|145:69,1,90,2|0,0:0|0:0,0:0:0:0:
300,168,97297,2,0,L|201:169,1,90,10|0,0:0|0:0,0:0:0:0:
347,295,97646,2,0,L|236:295,1,90,2|0,0:0|0:0,0:0:0:0:
428,232,97995,6,0,L|451:139,1,90,2|0,0:0|0:0,0:0:0:0:
299,160,98344,2,0,L|194:152,1,90,2|0,0:0|0:0,0:0:0:0:
365,102,98692,2,0,L|464:112,1,90,10|8,0:0|0:0,0:0:0:0:
249,247,99041,2,0,L|236:135,1,90,2|0,0:0|0:0,0:0:0:0:
439,322,99390,6,0,L|233:338,1,180,2|2,0:0|0:0,0:0:0:0:
42,196,100088,2,0,L|255:217,1,180,10|2,0:0|0:0,0:0:0:0:
391,73,100785,1,2,0:0:0:0:
301,82,100959,1,0,0:0:0:0:
212,91,101133,1,2,0:0:0:0:
122,101,101308,1,0,0:0:0:0:
212,91,101483,1,10,0:0:0:0:
451,63,101832,1,2,0:0:0:0:
219,308,102181,6,0,L|214:193,1,90,2|0,0:0|0:0,0:0:0:0:
355,173,102530,1,2,0:0:0:0:
216,92,102704,2,0,L|339:89,2,90,0|10|0,0:0|0:0|0:0,0:0:0:0:
79,181,103227,2,0,L|193:179,1,90,2|0,0:0|0:0,0:0:0:0:
336,325,103576,5,10,0:0:0:0:
270,268,103750,1,0,0:0:0:0:
281,182,103924,1,2,0:0:0:0:
358,143,104099,1,0,0:0:0:0:
203,68,104274,2,0,L|194:186,1,90,2|8,0:0|0:0,0:0:0:0:
384,239,104623,2,0,L|373:343,1,90,2|8,0:0|0:0,0:0:0:0:
73,299,104971,6,0,P|25:231|108:161,1,180,2|2,0:0|0:0,0:0:0:0:
328,71,105669,2,0,L|124:86,1,180,10|2,0:0|0:0,0:0:0:0:
364,284,106367,2,0,L|386:169,1,90,2|0,0:0|0:0,0:0:0:0:
216,158,106716,2,0,L|204:61,1,90,2|0,0:0|0:0,0:0:0:0:
367,81,107064,1,10,0:0:0:0:
104,162,107413,1,2,0:0:0:0:
329,357,107762,5,2,0:0:0:0:
269,293,107936,1,0,0:0:0:0:
277,206,108110,1,2,0:0:0:0:
348,156,108285,1,0,0:0:0:0:
218,270,108460,5,10,0:0:0:0:
277,206,108634,1,0,0:0:0:0:
269,119,108808,1,2,0:0:0:0:
198,69,108983,1,0,0:0:0:0:
87,73,109158,6,0,L|200:64,1,90,2|0,0:0|0:0,0:0:0:0:
327,117,109506,2,0,L|430:109,1,90,2|0,0:0|0:0,0:0:0:0:
115,208,109855,1,10,0:0:0:0:
383,254,110030,1,8,0:0:0:0:
100,336,110204,2,0,L|100:235,1,90,2|0,0:0|0:0,0:0:0:0:
340,77,110553,6,0,L|142:89,1,180,2|2,0:0|0:0,0:0:0:0:
480,178,111251,2,0,L|294:193,1,180,10|2,0:0|0:0,0:0:0:0:
140,331,111948,1,2,0:0:0:0:
31,332,112122,1,0,0:0:0:0:
140,331,112296,1,2,0:0:0:0:
261,335,112471,1,0,0:0:0:0:
90,252,112646,1,10,0:0:0:0:
215,141,112995,1,2,0:0:0:0:
382,84,113344,6,0,L|376:201,1,90,2|0,0:0|0:0,0:0:0:0:
226,208,113692,2,0,L|224:311,1,90,2|0,0:0|0:0,0:0:0:0:
381,265,114041,1,10,0:0:0:0:
233,122,114216,2,0,L|104:129,2,90,0|2|0,0:0|0:0|0:0,0:0:0:0:
376,80,114739,6,0,L|487:92,2,90,10|0|2,0:0|0:0|0:0,0:0:0:0:
186,62,115262,1,8,0:0:0:0:
421,308,115437,1,0,0:0:0:0:
460,286,115524,1,0,0:0:0:0:
488,251,115611,1,0,0:0:0:0:
501,208,115698,1,0,0:0:0:0:
496,164,115785,1,8,0:0:0:0:
476,124,115873,1,0,0:0:0:0:
442,95,115960,1,0,0:0:0:0:
399,81,116047,1,0,0:0:0:0:
128,60,116134,5,4,0:0:0:0:
99,93,116221,1,0,0:0:0:0:
98,138,116308,1,0,0:0:0:0:
124,173,116395,1,0,0:0:0:0:
224,184,116483,1,0,0:0:0:0:
255,215,116570,1,0,0:0:0:0:
257,259,116657,1,0,0:0:0:0:
229,293,116744,1,0,0:0:0:0:
152,296,116832,6,0,L|184:340,1,45,8|0,0:0|0:0,0:0:0:0:
232,288,117006,2,0,L|268:332,1,45
160,232,117181,1,0,0:0:0:0:
118,199,117268,1,0,0:0:0:0:
112,156,117355,1,0,0:0:0:0:
133,117,117442,1,0,0:0:0:0:
224,112,117530,6,0,L|252:156,3,45,2|0|0|0,0:0|0:0|0:0|0:0,0:0:0:0:
308,104,117878,2,0,L|328:152,3,45
256,168,118227,6,0,L|196:168,1,45,8|0,0:0|0:0,0:0:0:0:
260,208,118402,2,0,L|312:212,1,45
192,116,118576,1,0,0:0:0:0:
156,142,118663,1,0,0:0:0:0:
150,185,118750,1,0,0:0:0:0:
176,220,118837,1,0,0:0:0:0:
288,176,118925,5,2,0:0:0:0:
328,204,119012,1,0,0:0:0:0:
328,248,119099,1,0,0:0:0:0:
300,282,119186,1,0,0:0:0:0:
196,288,119274,1,0,0:0:0:0:
171,245,119361,1,0,0:0:0:0:
191,206,119448,1,0,0:0:0:0:
232,190,119535,1,0,0:0:0:0:
188,136,119623,6,0,L|140:136,1,45,8|0,0:0|0:0,0:0:0:0:
212,108,119797,2,0,L|268:108,1,45
152,76,119971,1,0,0:0:0:0:
115,99,120058,1,0,0:0:0:0:
107,142,120145,1,0,0:0:0:0:
134,177,120232,1,0,0:0:0:0:
236,192,120320,6,0,L|216:240,3,45,2|0|0|0,0:0|0:0|0:0|0:0,0:0:0:0:
320,192,120669,2,0,L|344:236,3,45
244,284,121018,6,0,L|308:288,1,45,8|0,0:0|0:0,0:0:0:0:
336,224,121192,2,0,L|280:220,1,45
208,128,121367,1,0,0:0:0:0:
252,130,121454,1,0,0:0:0:0:
308,132,121541,1,0,0:0:0:0:
352,128,121628,1,0,0:0:0:0:
120,104,121716,6,0,P|80:160|148:212,1,135,4|0,0:0|0:0,0:0:0:0:
208,212,122064,1,0,0:0:0:0:
251,187,122151,1,0,0:0:0:0:
251,144,122238,1,0,0:0:0:0:
216,119,122325,1,0,0:0:0:0:
292,84,122413,6,0,L|324:140,1,45,8|0,0:0|0:0,0:0:0:0:
216,88,122588,2,0,L|244:148,1,45
344,80,122762,1,0,0:0:0:0:
384,97,122849,1,0,0:0:0:0:
412,132,122936,1,0,0:0:0:0:
420,176,123023,1,0,0:0:0:0:
320,168,123111,5,2,0:0:0:0:
275,168,123198,1,0,0:0:0:0:
232,154,123285,1,0,0:0:0:0:
196,128,123372,1,0,0:0:0:0:
292,80,123460,1,0,0:0:0:0:
328,103,123547,1,0,0:0:0:0:
336,146,123634,1,0,0:0:0:0:
309,181,123721,1,0,0:0:0:0:
204,184,123809,6,0,L|160:184,1,45,8|0,0:0|0:0,0:0:0:0:
240,232,123983,2,0,L|288:232,1,45
200,156,124158,1,0,0:0:0:0:
155,156,124245,1,0,0:0:0:0:
121,184,124332,1,0,0:0:0:0:
113,228,124419,1,0,0:0:0:0:
208,236,124506,5,2,0:0:0:0:
253,236,124593,1,0,0:0:0:0:
328,236,124681,1,0,0:0:0:0:
373,236,124768,1,0,0:0:0:0:
280,144,124855,1,0,0:0:0:0:
246,170,124942,1,0,0:0:0:0:
280,212,125029,1,0,0:0:0:0:
319,232,125116,1,0,0:0:0:0:
220,252,125204,6,0,L|240:304,1,45,8|0,0:0|0:0,0:0:0:0:
320,252,125378,2,0,L|340:304,1,45
232,256,125553,1,0,0:0:0:0:
210,295,125640,1,0,0:0:0:0:
132,296,125727,1,0,0:0:0:0:
96,296,125814,1,0,0:0:0:0:
168,240,125902,5,2,0:0:0:0:
185,199,125989,1,0,0:0:0:0:
120,196,126076,1,0,0:0:0:0:
164,192,126163,1,0,0:0:0:0:
272,192,126251,1,0,0:0:0:0:
298,226,126338,1,0,0:0:0:0:
291,269,126425,1,0,0:0:0:0:
253,291,126512,1,0,0:0:0:0:
160,256,126599,6,0,L|220:256,1,45,8|0,0:0|0:0,0:0:0:0:
256,216,126774,2,0,L|204:216,1,45
120,216,126948,1,0,0:0:0:0:
86,188,127035,1,0,0:0:0:0:
80,144,127122,1,0,0:0:0:0:
106,109,127209,1,0,0:0:0:0:
392,84,127297,6,0,P|424:120|352:176,1,135,4|0,0:0|0:0,0:0:0:0:
268,184,127646,1,0,0:0:0:0:
208,204,127733,1,0,0:0:0:0:
224,248,127820,1,0,0:0:0:0:
259,275,127907,1,0,0:0:0:0:
352,316,127995,6,0,L|300:320,1,45,8|0,0:0|0:0,0:0:0:0:
196,300,128169,2,0,L|228:340,1,45
332,256,128344,1,0,0:0:0:0:
372,220,128431,1,0,0:0:0:0:
342,183,128518,1,0,0:0:0:0:
284,184,128605,1,0,0:0:0:0:
356,104,128692,5,2,0:0:0:0:
401,104,128779,1,0,0:0:0:0:
352,144,128867,1,0,0:0:0:0:
307,144,128954,1,0,0:0:0:0:
228,200,129041,1,0,0:0:0:0:
273,200,129128,1,0,0:0:0:0:
340,228,129216,1,0,0:0:0:0:
315,265,129303,1,0,0:0:0:0:
216,272,129390,6,0,L|172:268,1,45,8|0,0:0|0:0,0:0:0:0:
224,216,129564,2,0,L|280:216,1,45
148,92,129739,1,0,0:0:0:0:
98,108,129826,1,0,0:0:0:0:
68,152,129913,1,0,0:0:0:0:
131,175,130000,1,0,0:0:0:0:
368,176,130088,5,2,0:0:0:0:
413,182,130175,1,0,0:0:0:0:
352,208,130262,1,0,0:0:0:0:
296,208,130349,1,0,0:0:0:0:
216,208,130437,1,0,0:0:0:0:
160,192,130524,1,0,0:0:0:0:
171,147,130611,1,0,0:0:0:0:
216,120,130698,1,0,0:0:0:0:
304,104,130785,6,0,L|356:104,1,45,8|0,0:0|0:0,0:0:0:0:
260,116,130960,2,0,L|228:160,1,45
340,160,131134,2,0,L|288:164,1,45
204,192,131309,2,0,L|264:188,1,45
360,188,131483,5,2,0:0:0:0:
408,148,131570,1,0,0:0:0:0:
452,104,131658,1,0,0:0:0:0:
368,112,131745,1,0,0:0:0:0:
260,144,131832,1,0,0:0:0:0:
216,156,131919,1,0,0:0:0:0:
264,224,132006,1,0,0:0:0:0:
324,224,132094,1,0,0:0:0:0:
256,288,132181,6,0,L|200:288,1,45,8|0,0:0|0:0,0:0:0:0:
128,288,132355,2,0,L|68:288,1,45
168,256,132530,2,0,L|224:264,1,45
104,240,132704,2,0,L|32:244,1,45
384,88,132878,6,0,P|420:124|360:132,1,135,4|0,0:0|0:0,0:0:0:0:
280,128,133227,1,0,0:0:0:0:
228,132,133314,1,0,0:0:0:0:
232,180,133401,1,0,0:0:0:0:
288,200,133488,1,0,0:0:0:0:
376,208,133576,6,0,L|328:208,1,45,8|0,0:0|0:0,0:0:0:0:
240,240,133751,2,0,L|296:240,1,45
400,240,133925,1,0,0:0:0:0:
400,283,134012,1,0,0:0:0:0:
368,314,134099,1,0,0:0:0:0:
324,313,134186,1,0,0:0:0:0:
236,228,134274,5,2,0:0:0:0:
191,228,134361,1,0,0:0:0:0:
104,256,134448,1,0,0:0:0:0:
149,256,134535,1,0,0:0:0:0:
176,152,134623,1,0,0:0:0:0:
224,128,134710,1,0,0:0:0:0:
160,112,134797,1,0,0:0:0:0:
112,112,134884,1,0,0:0:0:0:
168,96,134971,6,0,L|220:96,1,45,8|0,0:0|0:0,0:0:0:0:
176,144,135146,2,0,L|116:144,1,45
220,136,135320,1,0,0:0:0:0:
176,135,135407,1,0,0:0:0:0:
146,167,135494,1,0,0:0:0:0:
150,211,135581,1,0,0:0:0:0:
368,208,135669,5,2,0:0:0:0:
428,192,135756,1,0,0:0:0:0:
476,156,135844,1,0,0:0:0:0:
424,148,135931,1,0,0:0:0:0:
343,80,136018,1,0,0:0:0:0:
298,80,136105,1,0,0:0:0:0:
208,80,136192,1,0,0:0:0:0:
253,80,136279,1,0,0:0:0:0:
304,112,136367,6,0,L|368:112,1,45,8|0,0:0|0:0,0:0:0:0:
240,120,136541,2,0,L|176:112,1,45
120,160,136716,2,0,L|180:164,1,45
248,168,136890,2,0,L|312:164,1,45
104,64,137064,5,2,0:0:0:0:
80,96,137151,1,0,0:0:0:0:
80,144,137238,1,0,0:0:0:0:
112,184,137325,1,0,0:0:0:0:
192,192,137413,1,0,0:0:0:0:
216,216,137500,1,0,0:0:0:0:
224,256,137587,1,0,0:0:0:0:
192,273,137674,1,0,0:0:0:0:
96,132,137762,5,8,0:0:0:0:
72,168,137849,1,0,0:0:0:0:
96,132,137936,1,0,0:0:0:0:
72,168,138023,1,0,0:0:0:0:
376,128,138111,1,0,0:0:0:0:
404,152,138198,1,0,0:0:0:0:
376,128,138285,1,0,0:0:0:0:
404,152,138372,1,0,0:0:0:0:
132,120,138460,5,4,0:0:0:0:
87,120,138547,1,0,0:0:0:0:
136,168,138634,1,0,0:0:0:0:
181,168,138721,1,0,0:0:0:0:
412,104,138809,1,8,0:0:0:0:
445,130,138896,1,0,0:0:0:0:
443,173,138983,1,0,0:0:0:0:
406,196,139070,1,0,0:0:0:0:
300,232,139158,6,0,L|368:236,1,45
424,272,139332,2,0,L|360:276,1,45
172,176,139506,2,0,L|120:220,1,45,8|0,0:0|0:0,0:0:0:0:
224,176,139681,2,0,L|280:176,1,45
184,72,139855,5,2,0:0:0:0:
147,94,139942,1,0,0:0:0:0:
142,137,140029,1,0,0:0:0:0:
174,167,140116,1,0,0:0:0:0:
440,88,140204,1,8,0:0:0:0:
440,133,140291,1,0,0:0:0:0:
376,140,140378,1,0,0:0:0:0:
331,143,140465,1,0,0:0:0:0:
240,224,140553,6,0,L|312:224,1,45
372,220,140727,2,0,L|320:220,1,45
72,192,140902,2,0,L|132:192,1,45,8|0,0:0|0:0,0:0:0:0:
180,196,141076,2,0,L|252:196,1,45
152,116,141251,5,2,0:0:0:0:
114,137,141338,1,0,0:0:0:0:
108,179,141425,1,0,0:0:0:0:
139,209,141512,1,0,0:0:0:0:
392,96,141599,1,8,0:0:0:0:
429,116,141686,1,0,0:0:0:0:
431,159,141773,1,0,0:0:0:0:
394,182,141860,1,0,0:0:0:0:
296,216,141948,6,0,L|296:288,1,45
364,272,142123,2,0,L|428:268,1,45
212,260,142297,2,0,L|172:316,1,45,8|0,0:0|0:0,0:0:0:0:
276,256,142471,2,0,L|280:200,1,45
200,196,142646,6,0,L|128:196,1,45,2|0,0:0|0:0,0:0:0:0:
248,184,142820,2,0,L|296:184,1,45
88,72,142995,1,8,0:0:0:0:
54,99,143082,1,0,0:0:0:0:
54,142,143169,1,0,0:0:0:0:
88,169,143256,1,0,0:0:0:0:
256,136,143344,6,0,L|304:136,1,45
252,188,143518,2,0,L|196:188,1,45
368,100,143692,2,0,L|420:96,1,45,8|0,0:0|0:0,0:0:0:0:
152,100,143867,2,0,L|100:100,1,45
412,60,144041,6,0,P|452:104|376:144,1,135,4|0,0:0|0:0,0:0:0:0:
144,84,144390,1,8,0:0:0:0:
100,92,144477,1,0,0:0:0:0:
75,128,144564,1,0,0:0:0:0:
83,171,144651,1,0,0:0:0:0:
184,188,144739,6,0,L|168:236,1,45
112,248,144913,2,0,L|56:240,1,45
328,176,145088,2,0,L|364:216,1,45,8|0,0:0|0:0,0:0:0:0:
264,172,145262,2,0,L|216:176,1,45
292,112,145437,5,2,0:0:0:0:
336,106,145524,1,0,0:0:0:0:
392,100,145611,1,0,0:0:0:0:
440,96,145698,1,0,0:0:0:0:
152,68,145785,1,8,0:0:0:0:
111,83,145872,1,0,0:0:0:0:
102,125,145959,1,0,0:0:0:0:
133,156,146046,1,0,0:0:0:0:
220,192,146134,6,0,L|168:188,1,45
92,236,146309,2,0,L|152:240,1,45
428,228,146483,1,8,0:0:0:0:
383,228,146570,1,0,0:0:0:0:
304,260,146658,1,0,0:0:0:0:
349,260,146745,1,0,0:0:0:0:
456,232,146832,5,2,0:0:0:0:
486,200,146919,1,0,0:0:0:0:
480,157,147006,1,0,0:0:0:0:
442,136,147093,1,0,0:0:0:0:
168,128,147181,1,8,0:0:0:0:
116,172,147268,1,0,0:0:0:0:
160,216,147355,1,0,0:0:0:0:
220,236,147442,1,0,0:0:0:0:
160,272,147530,6,0,L|112:276,1,45
40,224,147704,2,0,L|92:224,1,45
376,184,147878,2,0,L|312:180,1,45,8|0,0:0|0:0,0:0:0:0:
248,184,148053,2,0,L|244:244,1,45
344,264,148227,6,0,L|296:268,1,45,2|0,0:0|0:0,0:0:0:0:
208,264,148402,2,0,L|156:264,1,45
416,84,148576,1,8,0:0:0:0:
447,114,148663,1,0,0:0:0:0:
443,157,148750,1,0,0:0:0:0:
406,181,148837,1,0,0:0:0:0:
232,192,148925,6,0,L|184:192,1,45
232,248,149099,2,0,L|288:248,1,45
96,248,149274,2,0,L|48:248,1,45,8|0,0:0|0:0,0:0:0:0:
304,192,149448,2,0,L|360:192,1,45
84,84,149623,6,0,P|48:120|120:184,1,135,4|0,0:0|0:0,0:0:0:0:
388,88,149971,1,8,0:0:0:0:
427,104,150058,1,0,0:0:0:0:
434,146,150145,1,0,0:0:0:0:
402,175,150232,1,0,0:0:0:0:
312,184,150320,6,0,L|260:184,1,45
364,216,150495,2,0,L|420:216,1,45
84,144,150669,2,0,L|116:200,1,45,8|0,0:0|0:0,0:0:0:0:
172,136,150844,2,0,L|212:188,1,45
100,200,151018,5,2,0:0:0:0:
104,243,151105,1,0,0:0:0:0:
135,276,151192,1,0,0:0:0:0:
196,288,151279,1,0,0:0:0:0:
424,216,151367,1,8,0:0:0:0:
412,172,151454,1,0,0:0:0:0:
382,140,151541,1,0,0:0:0:0:
340,124,151628,1,0,0:0:0:0:
416,72,151716,6,0,L|448:112,1,45
344,80,151890,2,0,L|296:84,1,45
76,112,152064,2,0,L|100:164,1,45,8|0,0:0|0:0,0:0:0:0:
184,156,152239,2,0,L|100:156,1,45
56,188,152413,6,0,L|104:188,1,45,2|0,0:0|0:0,0:0:0:0:
184,188,152588,2,0,L|232:188,1,45
424,200,152762,1,8,0:0:0:0:
453,167,152849,1,0,0:0:0:0:
448,124,152936,1,0,0:0:0:0:
411,100,153023,1,0,0:0:0:0:
312,100,153111,6,0,L|280:144,1,45
408,108,153285,2,0,L|372:168,1,45
208,144,153460,2,0,L|208:200,1,45,8|0,0:0|0:0,0:0:0:0:
296,136,153634,2,0,L|308:192,1,45
224,176,153809,6,0,L|256:224,1,45,2|0,0:0|0:0,0:0:0:0:
320,168,153983,2,0,L|348:216,1,45
144,96,154158,1,8,0:0:0:0:
92,100,154245,1,0,0:0:0:0:
184,104,154332,1,0,0:0:0:0:
232,112,154419,1,0,0:0:0:0:
292,188,154506,6,0,L|344:188,1,45
296,228,154681,2,0,L|236:232,1,45
428,160,154855,2,0,L|476:160,1,45,8|0,0:0|0:0,0:0:0:0:
188,160,155030,2,0,L|128:160,1,45
420,188,155204,6,0,P|448:140|408:80,1,135,4|0,0:0|0:0,0:0:0:0:
236,96,155553,2,0,L|188:100,1,45,8|0,0:0|0:0,0:0:0:0:
240,144,155727,2,0,L|292:148,1,45
208,184,155902,6,0,L|180:228,1,45
312,188,156076,2,0,L|288:240,1,45
60,176,156251,2,0,L|40:232,1,45,8|0,0:0|0:0,0:0:0:0:
136,184,156425,2,0,L|184:184,1,45
72,128,156599,6,0,L|140:128,1,45,2|0,0:0|0:0,0:0:0:0:
208,120,156774,2,0,L|256:120,1,45
444,52,156948,1,8,0:0:0:0:
469,87,157035,1,0,0:0:0:0:
466,131,157122,1,0,0:0:0:0:
435,163,157209,1,0,0:0:0:0:
332,200,157297,6,0,L|392:196,1,45
484,240,157471,2,0,L|440:244,1,45
152,136,157646,2,0,L|224:140,1,45,8|0,0:0|0:0,0:0:0:0:
264,184,157820,2,0,L|208:188,1,45
148,184,157995,6,0,L|120:224,1,45,2|0,0:0|0:0,0:0:0:0:
284,188,158169,2,0,L|256:244,1,45
100,60,158344,1,8,0:0:0:0:
66,87,158431,1,0,0:0:0:0:
67,130,158518,1,0,0:0:0:0:
104,153,158605,1,0,0:0:0:0:
212,172,158692,6,0,L|184:216,1,45
112,160,158867,2,0,L|88:204,1,45
408,168,159041,2,0,L|468:168,1,45,8|0,0:0|0:0,0:0:0:0:
344,172,159216,2,0,L|296:172,1,45
464,88,159390,6,0,L|444:136,1,45,2|0,0:0|0:0,0:0:0:0:
240,104,159564,2,0,L|296:104,1,45
460,80,159739,2,0,L|436:120,1,45,8|0,0:0|0:0,0:0:0:0:
208,156,159913,2,0,L|264:156,1,45
436,156,160088,2,0,L|380:156,1,45
216,152,160262,2,0,L|244:204,1,45,8|0,0:0|0:0,0:0:0:0:
416,52,160437,5,0,0:0:0:0:
437,55,160480,1,0,0:0:0:0:
452,72,160524,1,0,0:0:0:0:
453,93,160567,1,0,0:0:0:0:
439,111,160611,1,8,0:0:0:0:
418,116,160655,1,0,0:0:0:0:
398,105,160698,1,0,0:0:0:0:
116,335,160785,6,0,P|72:260|152:206,1,180,4|2,0:0|0:0,0:0:0:0:
366,209,162180,1,2,0:0:0:0:
91,244,162878,1,2,0:0:0:0:
344,337,163575,6,0,B|248:228|269:108|269:108|338:195|391:213|391:213|275:212|210:212|159:265,1,630,2|0,0:0|0:0,0:0:0:0:
397,343,166366,6,0,P|432:275|410:168,1,180,2|2,0:0|0:0,0:0:0:0:
250,68,167761,1,2,0:0:0:0:
184,163,167935,1,0,0:0:0:0:
200,271,168110,1,0,0:0:0:0:
280,328,168284,1,0,0:0:0:0:
387,344,168459,1,2,0:0:0:0:
170,333,169157,6,0,B|237:281|276:142|276:142|222:197|141:198|141:198|273:184|397:236,1,630,2|0,0:0|0:0,0:0:0:0:
177,97,171947,5,2,0:0:0:0:
425,56,172645,2,0,P|341:49|232:92,2,180,2|2|2,0:0|0:0|0:0,0:0:0:0:
142,34,174738,5,0,0:0:0:0:
360,118,175436,2,0,L|153:150,2,180,2|2|2,0:0|0:0|0:0,0:0:0:0:
82,91,177529,6,0,B|135:136|250:126|250:126|167:151|93:189|67:234,1,360,2|2,0:0|0:0,0:0:0:0:
328,315,180319,2,0,B|256:259|254:104|254:104|294:174|392:191|392:191|321:177|307:72|451:37,1,630,2|0,0:0|0:0,0:0:0:0:
286,40,183110,6,0,P|210:68|103:28,1,180,2|2,0:0|0:0,0:0:0:0:
314,134,184505,2,0,L|307:221,1,45,2|0,0:0|0:0,0:0:0:0:
149,230,184854,2,0,L|144:308,1,45
293,332,185203,1,2,0:0:0:0:
47,283,185901,6,0,B|275:211|275:211|172:209|104:165|104:165|174:179|248:151|266:50,1,630,2|0,0:0|0:0,0:0:0:0:
369,42,188691,6,0,P|366:118|476:183,1,180,2|2,0:0|0:0,0:0:0:0:
264,208,189738,1,0,0:0:0:0:
116,315,190087,2,0,L|185:308,1,45,2|0,0:0|0:0,0:0:0:0:
298,339,190436,2,0,L|357:335,1,45
449,285,190785,1,2,0:0:0:0:
238,236,191133,1,0,0:0:0:0:
453,92,191482,6,0,L|340:102,1,90,2|0,0:0|0:0,0:0:0:0:
181,180,192180,2,0,L|307:194,1,90
91,309,192878,2,0,L|76:200,1,90,2|0,0:0|0:0,0:0:0:0:
263,156,193575,1,0,0:0:0:0:
98,122,193924,1,0,0:0:0:0:
297,142,194273,5,0,0:0:0:0:
132,297,194971,2,0,P|169:225|288:207,2,180,2|2|2,0:0|0:0|0:0,0:0:0:0:
396,335,197064,5,0,0:0:0:0:
173,237,197761,2,0,L|363:223,2,180,2|2|2,0:0|0:0|0:0,0:0:0:0:
397,52,199854,6,0,P|281:149|421:280,1,360,2|2,0:0|0:0,0:0:0:0:
75,66,202645,2,0,B|156:105|244:86|244:86|201:118|162:237|222:317|306:339|393:332|465:247|457:151|378:77,1,720,2|0,0:0|0:0,0:0:0:0:
216,152,219389,5,0,0:0:0:0:
232,152,219564,1,0,0:0:0:0:
200,160,219738,1,0,0:0:0:0:
244,152,219912,1,0,0:0:0:0:
128,152,220087,1,8,0:0:0:0:
384,132,222180,5,0,0:0:0:0:
408,128,222354,1,0,0:0:0:0:
380,124,222529,1,0,0:0:0:0:
416,128,222703,1,0,0:0:0:0:
304,128,222878,1,8,0:0:0:0:
172,64,224971,5,0,0:0:0:0:
133,81,225145,1,0,0:0:0:0:
134,124,225319,1,0,0:0:0:0:
174,139,225494,1,0,0:0:0:0:
280,140,225669,1,8,0:0:0:0:
348,140,225843,1,0,0:0:0:0:
288,184,226018,1,0,0:0:0:0:
432,184,226192,1,0,0:0:0:0:
172,72,226366,5,0,0:0:0:0:
132,85,226540,1,0,0:0:0:0:
131,127,226715,1,0,0:0:0:0:
170,142,226889,1,0,0:0:0:0:
68,156,227064,1,8,0:0:0:0:
68,156,227238,1,0,0:0:0:0:
204,156,227412,1,0,0:0:0:0:
68,156,227587,1,0,0:0:0:0:
392,80,227761,5,0,0:0:0:0:
431,93,227936,1,0,0:0:0:0:
432,135,228110,1,0,0:0:0:0:
393,150,228285,1,0,0:0:0:0:
260,156,228459,1,8,0:0:0:0:
215,157,228633,1,0,0:0:0:0:
60,160,228808,1,0,0:0:0:0:
105,161,228982,1,0,0:0:0:0:
344,92,229157,5,0,0:0:0:0:
244,92,229332,1,0,0:0:0:0:
344,92,229505,1,0,0:0:0:0:
196,92,229680,1,0,0:0:0:0:
344,68,229854,1,8,0:0:0:0:
408,152,230030,1,0,0:0:0:0:
332,220,230206,1,0,0:0:0:0:
480,304,230383,1,0,0:0:0:0:
92,64,230560,5,0,0:0:0:0:
83,106,230732,1,0,0:0:0:0:
108,142,230904,1,0,0:0:0:0:
152,147,231077,1,0,0:0:0:0:
280,196,231249,1,8,0:0:0:0:
235,196,231421,1,0,0:0:0:0:
164,200,231593,1,0,0:0:0:0:
88,200,231766,1,0,0:0:0:0:
360,48,231939,5,0,0:0:0:0:
400,60,232107,1,0,0:0:0:0:
402,102,232276,1,0,0:0:0:0:
363,119,232444,1,0,0:0:0:0:
252,160,232613,1,8,0:0:0:0:
348,164,232779,1,0,0:0:0:0:
204,212,232946,1,0,0:0:0:0:
300,216,233112,1,0,0:0:0:0:
76,116,233279,5,0,0:0:0:0:
180,120,233443,1,0,0:0:0:0:
180,120,233608,1,0,0:0:0:0:
48,120,233773,1,0,0:0:0:0:
180,120,233938,1,8,0:0:0:0:
180,120,234099,1,0,0:0:0:0:
312,120,234260,1,0,0:0:0:0:
180,120,234421,1,0,0:0:0:0:
424,112,234583,6,0,L|424:188,1,45
280,128,234902,2,0,L|352:128,1,45
168,124,235221,2,0,L|104:124,1,45,8|0,0:0|0:0,0:0:0:0:
360,104,235540,1,0,0:0:0:0:
464,104,235700,1,0,0:0:0:0:
120,96,235852,6,0,L|120:208,1,90,2|0,0:0|0:0,0:0:0:0:
368,96,236484,2,0,L|368:208,1,90,10|0,0:0|0:0,0:0:0:0:
224,72,237102,5,2,0:0:0:0:
185,89,237255,1,0,0:0:0:0:
183,132,237408,1,2,0:0:0:0:
220,153,237561,1,0,0:0:0:0:
376,200,237714,2,0,L|260:200,1,90,10|0,0:0|0:0,0:0:0:0:
148,84,238320,5,2,0:0:0:0:
232,108,238470,1,0,0:0:0:0:
148,152,238620,1,0,0:0:0:0:
252,160,238770,1,0,0:0:0:0:
104,80,238920,1,8,0:0:0:0:
67,100,239067,1,0,0:0:0:0:
73,141,239214,1,0,0:0:0:0:
114,149,239361,1,0,0:0:0:0:
256,152,239508,6,0,L|312:152,1,45
176,208,239799,2,0,L|244:208,1,45
372,204,240090,2,0,L|372:256,1,45,8|0,0:0|0:0,0:0:0:0:
228,244,240378,1,0,0:0:0:0:
336,248,240522,1,0,0:0:0:0:
80,124,240666,6,0,L|80:236,1,90,2|0,0:0|0:0,0:0:0:0:
328,124,241237,2,0,L|240:200,1,90,10|0,0:0|0:0,0:0:0:0:
116,80,241797,5,2,0:0:0:0:
72,132,241937,1,0,0:0:0:0:
112,180,242077,1,2,0:0:0:0:
156,224,242217,1,0,0:0:0:0:
344,232,242358,2,0,P|352:274|318:300,1,90,10|0,0:0|0:0,0:0:0:0:
160,80,242908,5,2,0:0:0:0:
160,144,243046,1,0,0:0:0:0:
304,144,243183,1,0,0:0:0:0:
384,144,243321,1,0,0:0:0:0:
192,80,243458,1,8,0:0:0:0:
153,97,243594,1,0,0:0:0:0:
153,140,243730,1,0,0:0:0:0:
193,156,243867,1,0,0:0:0:0:
320,136,244003,5,0,0:0:0:0:
320,136,244135,1,0,0:0:0:0:
284,180,244268,1,0,0:0:0:0:
332,184,244401,1,0,0:0:0:0:
248,224,244533,1,8,0:0:0:0:
360,228,244665,1,0,0:0:0:0:
244,264,244797,1,0,0:0:0:0:
372,272,244929,1,0,0:0:0:0:
124,280,245061,6,0,L|124:172,1,67.5000025749208,2|0,0:0|0:0,0:0:0:0:
272,240,245324,1,0,0:0:0:0:
184,240,245455,1,0,0:0:0:0:
376,156,245587,2,0,L|452:156,1,67.5000025749208,10|0,0:0|0:0,0:0:0:0:
312,212,245850,2,0,L|388:212,1,67.5000025749208
164,64,246113,5,2,0:0:0:0:
112,104,246245,1,0,0:0:0:0:
208,112,246376,1,2,0:0:0:0:
92,164,246508,1,0,0:0:0:0:
352,168,246639,2,0,P|400:204|344:252,1,135.000005149842,10|0,0:0|0:0,0:0:0:0:
168,132,247166,5,8,0:0:0:0:
72,132,247297,1,0,0:0:0:0:
168,128,247429,1,0,0:0:0:0:
368,140,247561,1,8,0:0:0:0:
464,140,247692,1,0,0:0:0:0:
368,136,247824,1,0,0:0:0:0:
156,132,247955,2,0,L|60:132,1,67.5000025749208
368,136,248218,6,0,L|444:184,3,90
176,140,248745,1,8,0:0:0:0:
220,96,248876,1,0,0:0:0:0:
280,64,249008,1,0,0:0:0:0:
344,56,249139,1,0,0:0:0:0:
112,100,249271,6,0,L|44:96,1,67.5000025749208,2|0,0:0|0:0,0:0:0:0:
352,156,249534,1,0,0:0:0:0:
440,156,249666,1,0,0:0:0:0:
224,192,249797,2,0,L|304:192,1,67.5000025749208,10|0,0:0|0:0,0:0:0:0:
144,192,250061,2,0,L|76:192,1,67.5000025749208
456,120,250324,5,2,0:0:0:0:
456,120,250455,1,0,0:0:0:0:
220,172,250587,1,2,0:0:0:0:
312,172,250718,1,0,0:0:0:0:
96,80,250850,2,0,P|60:132|128:136,1,135.000005149842,10|0,0:0|0:0,0:0:0:0:
352,120,251376,6,0,L|280:120,2,67.5000025749208,8|0|0,0:0|0:0|0:0,0:0:0:0:
212,120,251771,2,0,L|284:120,2,67.5000025749208,8|0|0,0:0|0:0|0:0,0:0:0:0:
292,120,252166,1,0,0:0:0:0:
172,120,252297,1,0,0:0:0:0:
440,116,252429,6,0,L|440:200,1,67.5000025749208
220,172,252692,1,0,0:0:0:0:
312,168,252823,1,0,0:0:0:0:
112,128,252955,2,0,L|32:128,1,67.5000025749208,8|0,0:0|0:0,0:0:0:0:
292,128,253218,1,0,0:0:0:0:
292,128,253350,1,0,0:0:0:0:
80,124,253482,6,0,L|116:216,1,67.5000025749208,2|0,0:0|0:0,0:0:0:0:
220,184,253745,1,0,0:0:0:0:
128,180,253876,1,0,0:0:0:0:
440,176,254008,2,0,L|373:176,1,67.5000025749208,10|0,0:0|0:0,0:0:0:0:
260,144,254271,2,0,L|336:144,1,67.5000025749208
78,140,254534,6,0,L|160:192,3,90,2|0|2|0,0:0|0:0|0:0|0:0,0:0:0:0:
388,84,255061,2,0,P|436:132|368:136,1,135.000005149842,10|0,0:0|0:0,0:0:0:0:
152,72,255587,5,8,0:0:0:0:
220,140,255718,1,0,0:0:0:0:
96,144,255850,1,0,0:0:0:0:
424,72,255982,1,8,0:0:0:0:
324,144,256113,1,0,0:0:0:0:
424,144,256245,1,0,0:0:0:0:
192,152,256376,2,0,L|100:152,1,67.5000025749208
356,72,256639,5,0,0:0:0:0:
415,87,256770,1,0,0:0:0:0:
408,149,256902,1,0,0:0:0:0:
347,151,257034,1,0,0:0:0:0:
432,208,257166,1,8,0:0:0:0:
320,208,257297,1,0,0:0:0:0:
436,264,257429,1,0,0:0:0:0:
320,272,257561,1,0,0:0:0:0:
64,132,257692,6,8,L|64:224,1,67.5000025749208,2|0,0:0|0:0,0:0:0:0:
196,136,257955,1,0,0:0:0:0:
196,136,258087,1,0,0:0:0:0:
320,176,258218,2,0,L|248:176,1,67.5000025749208,10|0,0:0|0:0,0:0:0:0:
392,116,258482,2,0,L|304:116,1,67.5000025749208
96,96,258745,5,2,0:0:0:0:
35,112,258876,1,0,0:0:0:0:
38,174,259008,1,2,0:0:0:0:
100,184,259139,1,0,0:0:0:0:
372,184,259271,2,0,P|404:132|344:88,1,135.000005149842,10|0,0:0|0:0,0:0:0:0:
120,80,259797,5,8,0:0:0:0:
216,80,259929,1,0,0:0:0:0:
120,144,260061,1,0,0:0:0:0:
228,140,260192,1,8,0:0:0:0:
448,76,260324,1,0,0:0:0:0:
387,92,260455,1,0,0:0:0:0:
390,154,260587,1,0,0:0:0:0:
452,164,260718,1,0,0:0:0:0:
256,192,260850,12,0,261639,0:0:0:0:
100,316,261903,5,2,0:0:0:0:
97,271,261968,1,0,0:0:0:0:
95,226,262034,1,0,0:0:0:0:
250,248,262166,2,0,L|361:234,1,90,2|0,0:0|0:0,0:0:0:0:
67,22,262429,2,0,L|80:208,1,180,10|2,0:0|0:0,0:0:0:0:
208,120,262824,1,0,0:0:0:0:
422,311,262955,5,2,0:0:0:0:
479,245,263086,1,0,0:0:0:0:
460,160,263218,1,2,0:0:0:0:
381,125,263349,1,0,0:0:0:0:
152,56,263481,2,0,L|343:68,1,180,10|2,0:0|0:0,0:0:0:0:
199,132,263876,1,0,0:0:0:0:
458,339,264008,6,0,L|444:239,1,90,2|0,0:0|0:0,0:0:0:0:
304,214,264271,2,0,L|288:113,1,90,2|0,0:0|0:0,0:0:0:0:
420,148,264534,2,0,L|527:133,1,90,10|0,0:0|0:0,0:0:0:0:
372,66,264797,2,0,L|277:76,1,90,2|0,0:0|0:0,0:0:0:0:
157,195,265060,6,0,L|282:183,1,90,2|0,0:0|0:0,0:0:0:0:
91,95,265324,2,0,L|108:216,1,90,2|0,0:0|0:0,0:0:0:0:
261,240,265587,2,0,L|270:338,1,90,10|0,0:0|0:0,0:0:0:0:
129,312,265850,2,0,L|24:318,1,90,2|0,0:0|0:0,0:0:0:0:
311,170,266113,5,2,0:0:0:0:
355,165,266178,1,0,0:0:0:0:
400,161,266244,1,0,0:0:0:0:
236,111,266376,2,0,L|123:118,1,90,2|0,0:0|0:0,0:0:0:0:
414,281,266639,2,0,P|462:208|382:146,1,180,10|2,0:0|0:0,0:0:0:0:
283,140,267034,1,0,0:0:0:0:
47,80,267166,6,0,L|153:71,1,90,2|0,0:0|0:0,0:0:0:0:
242,47,267429,2,0,L|359:35,1,90,2|0,0:0|0:0,0:0:0:0:
70,206,267692,2,0,L|271:194,1,180,10|2,0:0|0:0,0:0:0:0:
390,187,268087,1,0,0:0:0:0:
193,351,268218,5,2,0:0:0:0:
137,282,268349,1,0,0:0:0:0:
140,194,268481,1,2,0:0:0:0:
200,130,268612,1,0,0:0:0:0:
288,121,268744,1,10,0:0:0:0:
148,32,268876,2,0,L|276:43,2,90,0|2|0,0:0|0:0|0:0,0:0:0:0:
261,46,269271,5,2,0:0:0:0:
180,80,269402,1,0,0:0:0:0:
146,161,269534,1,2,0:0:0:0:
178,243,269665,1,0,0:0:0:0:
257,280,269797,1,10,0:0:0:0:
178,243,269929,1,0,0:0:0:0:
257,280,270060,2,0,L|353:289,1,90,2|0,0:0|0:0,0:0:0:0:
107,334,270324,6,0,L|31:348,2,45,2|0|0,0:0|0:0|0:0,0:0:0:0:
268,104,270587,2,0,L|165:93,1,90,2|0,0:0|0:0,0:0:0:0:
447,315,270850,2,0,L|470:125,1,180,10|2,0:0|0:0,0:0:0:0:
330,80,271245,1,0,0:0:0:0:
112,207,271376,6,0,L|214:194,1,90,2|0,0:0|0:0,0:0:0:0:
334,280,271639,2,0,L|239:265,1,90,2|0,0:0|0:0,0:0:0:0:
38,327,271903,2,0,L|34:133,1,180,10|2,0:0|0:0,0:0:0:0:
158,95,272297,1,0,0:0:0:0:
379,61,272429,6,0,L|494:71,3,90,2|0|2|0,0:0|0:0|0:0|0:0,0:0:0:0:
298,122,272955,2,0,L|186:129,3,90,10|0|2|0,0:0|0:0|0:0|0:0,0:0:0:0:
378,298,273481,5,2,0:0:0:0:
446,245,273612,1,0,0:0:0:0:
438,159,273744,1,2,0:0:0:0:
361,119,273875,1,0,0:0:0:0:
271,119,274008,2,0,L|369:119,1,90,10|0,0:0|0:0,0:0:0:0:
232,196,274271,2,0,L|124:196,1,90,2|0,0:0|0:0,0:0:0:0:
411,343,274534,5,2,0:0:0:0:
418,298,274599,1,0,0:0:0:0:
426,254,274665,1,0,0:0:0:0:
291,275,274797,2,0,L|187:266,1,90,2|0,0:0|0:0,0:0:0:0:
464,93,275060,2,0,L|274:108,1,180,10|2,0:0|0:0,0:0:0:0:
394,153,275455,1,0,0:0:0:0:
125,244,275587,6,0,L|221:242,1,90,2|0,0:0|0:0,0:0:0:0:
340,184,275850,2,0,L|355:83,1,90,2|0,0:0|0:0,0:0:0:0:
109,79,276113,2,0,P|55:128|121:216,1,180,10|2,0:0|0:0,0:0:0:0:
209,225,276508,1,0,0:0:0:0:
448,329,276639,6,0,L|456:227,1,90,2|0,0:0|0:0,0:0:0:0:
336,193,276903,2,0,L|231:187,1,90,2|0,0:0|0:0,0:0:0:0:
134,323,277166,2,0,L|126:221,1,90,10|0,0:0|0:0,0:0:0:0:
246,187,277429,2,0,L|351:181,1,90,2|0,0:0|0:0,0:0:0:0:
215,310,277692,5,2,0:0:0:0:
278,248,277823,1,0,0:0:0:0:
287,160,277955,1,2,0:0:0:0:
237,87,278086,1,0,0:0:0:0:
152,63,278218,1,10,0:0:0:0:
237,87,278350,2,0,L|334:80,2,90,0|2|0,0:0|0:0|0:0,0:0:0:0:
30,241,278745,5,2,0:0:0:0:
74,244,278810,1,0,0:0:0:0:
119,247,278876,1,0,0:0:0:0:
254,303,279008,2,0,L|365:311,1,90,2|0,0:0|0:0,0:0:0:0:
76,333,279271,2,0,L|61:148,1,180,10|2,0:0|0:0,0:0:0:0:
194,77,279666,1,0,0:0:0:0:
473,213,279797,6,0,L|367:205,1,90,2|0,0:0|0:0,0:0:0:0:
142,258,280060,2,0,L|36:249,1,90,2|0,0:0|0:0,0:0:0:0:
290,353,280324,2,0,P|328:278|261:211,1,180,10|2,0:0|0:0,0:0:0:0:
149,196,280718,1,0,0:0:0:0:
346,205,280850,6,0,L|440:186,1,90,2|0,0:0|0:0,0:0:0:0:
314,133,281113,2,0,L|213:147,1,90,2|0,0:0|0:0,0:0:0:0:
455,331,281376,2,0,L|477:278,2,45,10|0|0,0:0|0:0|0:0,0:0:0:0:
317,253,281639,2,0,L|199:259,1,90,2|0,0:0|0:0,0:0:0:0:
364,187,281903,6,0,L|472:179,1,90,2|0,0:0|0:0,0:0:0:0:
301,131,282166,2,0,L|174:140,1,90,2|0,0:0|0:0,0:0:0:0:
466,72,282429,1,10,0:0:0:0:
328,184,282560,2,0,L|442:174,2,90,0|2|0,0:0|0:0|0:0,0:0:0:0:
42,312,282955,5,2,0:0:0:0:
38,267,283020,1,0,0:0:0:0:
34,222,283086,1,0,0:0:0:0:
169,154,283218,2,0,L|63:137,1,90,2|0,0:0|0:0,0:0:0:0:
399,259,283481,2,0,L|211:269,1,180,10|2,0:0|0:0,0:0:0:0:
351,340,283876,1,0,0:0:0:0:
88,197,284008,6,0,L|198:195,1,90,2|0,0:0|0:0,0:0:0:0:
401,130,284271,2,0,L|499:127,1,90,2|0,0:0|0:0,0:0:0:0:
147,69,284534,2,0,L|332:66,1,180,10|2,0:0|0:0,0:0:0:0:
466,61,284929,1,0,0:0:0:0:
191,280,285060,6,0,L|186:174,1,90,2|0,0:0|0:0,0:0:0:0:
322,227,285324,2,0,L|444:218,1,90,2|0,0:0|0:0,0:0:0:0:
107,356,285587,1,10,0:0:0:0:
102,311,285652,1,0,0:0:0:0:
98,266,285718,1,0,0:0:0:0:
234,208,285850,1,2,0:0:0:0:
99,128,285981,1,0,0:0:0:0:
234,208,286113,6,0,L|352:207,1,90,2|0,0:0|0:0,0:0:0:0:
169,333,286376,2,0,L|152:233,1,90,2|0,0:0|0:0,0:0:0:0:
452,127,286639,1,10,0:0:0:0:
344,127,286771,1,0,0:0:0:0:
247,127,286903,1,2,0:0:0:0:
156,128,287034,1,0,0:0:0:0:
402,245,287166,6,0,L|463:245,2,45,2|0|0,0:0|0:0|0:0,0:0:0:0:
273,240,287429,2,0,L|169:240,1,90,2|0,0:0|0:0,0:0:0:0:
470,124,287692,1,10,0:0:0:0:
336,122,287824,1,0,0:0:0:0:
470,124,287955,1,2,0:0:0:0:
336,122,288087,1,0,0:0:0:0:
66,115,288218,6,0,L|75:228,1,90,2|0,0:0|0:0,0:0:0:0:
366,238,288481,2,0,L|370:338,1,90,2|0,0:0|0:0,0:0:0:0:
106,328,288745,2,0,L|291:323,1,180,10|2,0:0|0:0,0:0:0:0:
175,257,289139,1,0,0:0:0:0:
424,175,289271,6,0,L|323:189,1,90,2|0,0:0|0:0,0:0:0:0:
108,101,289534,2,0,L|214:114,1,90,2|0,0:0|0:0,0:0:0:0:
421,57,289797,2,0,L|459:52,2,22.5,10|0|0,0:0|0:0|0:0,0:0:0:0:
339,105,289929,2,0,L|314:102,2,22.5
441,174,290060,2,0,L|424:280,1,90,2|0,0:0|0:0,0:0:0:0:
191,325,290324,6,0,L|66:319,1,90,2|0,0:0|0:0,0:0:0:0:
336,225,290587,2,0,L|355:105,1,90,2|0,0:0|0:0,0:0:0:0:
93,147,290850,2,0,L|192:153,1,90,10|0,0:0|0:0,0:0:0:0:
443,156,291113,2,0,L|463:49,1,90,2|0,0:0|0:0,0:0:0:0:
176,62,291376,5,2,0:0:0:0:
385,182,291508,2,0,L|493:168,2,90,0|2|0,0:0|0:0|0:0,0:0:0:0:
88,314,291903,2,0,L|76:205,1,90,10|0,0:0|0:0,0:0:0:0:
337,306,292166,2,0,L|212:311,1,90,2|0,0:0|0:0,0:0:0:0:
449,217,292429,5,2,0:0:0:0:
205,200,292560,1,0,0:0:0:0:
449,217,292692,2,0,L|460:121,1,90,2|0,0:0|0:0,0:0:0:0:
106,42,292955,2,0,L|201:52,1,90,10|0,0:0|0:0,0:0:0:0:
293,101,293218,2,0,L|401:122,1,90,2|0,0:0|0:0,0:0:0:0:
66,297,293481,5,2,0:0:0:0:
323,292,293613,1,0,0:0:0:0:
214,285,293745,1,2,0:0:0:0:
452,281,293876,1,0,0:0:0:0:
210,187,294008,6,0,L|198:149,2,22.5,10|0|0,0:0|0:0|0:0,0:0:0:0:
296,126,294139,2,0,L|303:100,2,22.5
205,66,294271,2,0,L|80:53,1,90,2|0,0:0|0:0,0:0:0:0:
453,74,294534,5,2,0:0:0:0:
225,118,294666,1,0,0:0:0:0:
460,159,294797,2,0,L|455:265,1,90,2|0,0:0|0:0,0:0:0:0:
204,341,295060,1,10,0:0:0:0:
140,281,295191,1,0,0:0:0:0:
146,195,295323,1,2,0:0:0:0:
217,145,295454,1,0,0:0:0:0:
422,260,295587,6,0,P|464:190|382:116,1,180
174,352,296113,2,0,L|155:162,1,180
378,54,296639,1,0,0:0:0:0:
292,68,296770,1,0,0:0:0:0:
253,145,296902,1,0,0:0:0:0:
293,223,297033,1,0,0:0:0:0:
378,236,297165,1,0,0:0:0:0:
185,283,297429,1,0,0:0:0:0:
426,346,297692,5,0,0:0:0:0:
428,258,297823,1,0,0:0:0:0:
370,191,297955,1,0,0:0:0:0:
283,180,298086,1,0,0:0:0:0:
118,346,298218,5,0,0:0:0:0:
115,258,298349,1,0,0:0:0:0:
173,191,298481,1,0,0:0:0:0:
260,180,298612,1,0,0:0:0:0:
126,103,298745,6,0,L|14:114,3,90
176,41,299271,2,0,L|286:52,3,90
476,79,299797,6,0,L|479:168,1,90
381,247,300060,2,0,L|289:254,1,90
134,219,300324,2,0,L|141:314,1,90
274,337,300587,2,0,L|377:344,1,90
298,233,300850,6,0,L|190:239,1,90
92,191,301113,2,0,L|81:81,1,90
210,134,301376,2,0,L|302:126,1,90
174,222,301639,2,0,L|284:210,1,90
393,306,301903,6,0,L|387:193,1,90
244,187,302166,2,0,L|233:94,1,90
131,221,302429,2,0,L|29:234,1,90
162,303,302692,2,0,L|253:293,1,90
359,347,302955,5,0,0:0:0:0:
412,278,303086,1,0,0:0:0:0:
394,193,303218,1,0,0:0:0:0:
316,153,303349,1,0,0:0:0:0:
198,152,303481,2,0,L|100:168,3,90
459,260,304008,5,4,0:0:0:0:
256,192,304139,12,4,308218,0:0:0:0:
256,192,308350,12,4,312429,0:0:0:0:
112,64,337549,6,0,P|72:136|136:216,1,180,2|0,0:0|0:0,0:0:0:0:
232,152,338595,1,2,0:0:0:0:
296,152,338711,1,0,0:0:0:0:
232,152,338828,1,0,0:0:0:0:
132,220,338944,2,0,L|256:216,1,90,2|0,0:0|0:0,0:0:0:0:
392,168,339642,2,0,L|268:164,1,90,2|0,0:0|0:0,0:0:0:0:
152,108,340339,6,0,P|96:140|176:160,1,180,2|0,0:0|0:0,0:0:0:0:
400,152,341386,1,2,0:0:0:0:
172,80,341735,2,0,P|96:84|80:188,1,180,2|0,0:0|0:0,0:0:0:0:
240,184,342781,1,2,0:0:0:0:
440,176,343130,6,0,L|404:76,1,90,2|0,0:0|0:0,0:0:0:0:
212,176,343828,2,0,L|248:76,1,90,2|0,0:0|0:0,0:0:0:0:
456,100,344525,1,2,0:0:0:0:
200,100,344874,1,2,0:0:0:0:
152,100,344990,1,0,0:0:0:0:
200,100,345107,1,0,0:0:0:0:
328,104,345223,2,0,P|380:112|444:120,1,90,2|0,0:0|0:0,0:0:0:0:
248,92,345921,5,2,0:0:0:0:
480,88,346270,1,0,0:0:0:0:
236,152,346618,1,2,0:0:0:0:
356,152,346967,1,0,0:0:0:0:
256,192,347316,12,0,348363,0:0:0:0:
104,72,348711,6,0,P|48:88|120:148,1,180,2|0,0:0|0:0,0:0:0:0:
280,164,349758,1,2,0:0:0:0:
360,164,349874,1,0,0:0:0:0:
440,164,349991,1,0,0:0:0:0:
336,116,350107,2,0,L|228:116,1,90,2|0,0:0|0:0,0:0:0:0:
400,156,350804,1,2,0:0:0:0:
140,168,351153,1,0,0:0:0:0:
400,104,351502,6,0,L|412:212,1,90,2|0,0:0|0:0,0:0:0:0:
136,152,352200,1,2,0:0:0:0:
312,152,352549,1,0,0:0:0:0:
68,88,352897,2,0,B|44:148|44:148|176:148,1,180,2|0,0:0|0:0,0:0:0:0:
400,140,353944,5,2,0:0:0:0:
320,140,354118,1,0,0:0:0:0:
212,200,354293,2,0,L|324:200,1,90,2|0,0:0|0:0,0:0:0:0:
84,120,354990,1,2,0:0:0:0:
308,96,355339,1,2,0:0:0:0:
216,96,355514,1,0,0:0:0:0:
316,144,355688,2,0,L|428:144,1,90,2|0,0:0|0:0,0:0:0:0:
176,144,356386,2,0,L|86:144,1,90,2|0,0:0|0:0,0:0:0:0:
332,144,357083,5,0,0:0:0:0:
140,72,357432,2,0,P|92:112|172:176,1,180,2|0,0:0|0:0,0:0:0:0:
392,104,358479,2,0,L|392:208,1,90,2|0,0:0|0:0,0:0:0:0:
240,136,359177,1,0,0:0:0:0:
88,140,359525,1,0,0:0:0:0:
372,88,359874,6,0,P|428:120|352:156,1,180,2|0,0:0|0:0,0:0:0:0:
124,128,360921,1,2,0:0:0:0:
204,128,361037,1,0,0:0:0:0:
284,128,361154,1,0,0:0:0:0:
208,168,361270,2,0,L|104:164,2,90,2|0|2,0:0|0:0|0:0,0:0:0:0:
444,132,362316,1,0,0:0:0:0:
148,128,362665,6,0,L|124:232,1,90,2|0,0:0|0:0,0:0:0:0:
392,140,363363,1,2,0:0:0:0:
152,140,363711,1,0,0:0:0:0:
412,128,364060,2,0,L|304:128,2,90,2|0|2,0:0|0:0|0:0,0:0:0:0:
160,120,365107,1,0,0:0:0:0:
440,116,365456,6,0,L|436:232,1,90,2|0,0:0|0:0,0:0:0:0:
228,156,366153,2,0,L|328:156,1,90,2|0,0:0|0:0,0:0:0:0:
104,120,366851,1,2,0:0:0:0:
288,120,367200,1,2,0:0:0:0:
344,120,367316,1,0,0:0:0:0:
288,120,367433,1,0,0:0:0:0:
176,120,367549,2,0,L|72:120,1,90,2|0,0:0|0:0,0:0:0:0:
380,100,368246,6,0,L|380:192,1,90,2|0,0:0|0:0,0:0:0:0:
136,128,368944,1,2,0:0:0:0:
376,128,369293,1,0,0:0:0:0:
184,88,369642,2,0,P|96:148|216:236,1,270,2|0,0:0|0:0,0:0:0:0:
376,64,371037,5,2,0:0:0:0:
480,152,371386,1,0,0:0:0:0:
300,256,371735,1,2,0:0:0:0:
96,260,372083,1,0,0:0:0:0:
300,108,372432,2,0,P|388:168|268:256,1,270,2|0,0:0|0:0,0:0:0:0:
104,112,373803,5,2,0:0:0:0:
348,96,374151,1,0,0:0:0:0:
200,168,374500,1,2,0:0:0:0:
452,136,374849,1,0,0:0:0:0:
264,56,375198,2,0,B|192:84|192:84|324:100|324:100|236:132,1,270,2|0,0:0|0:0,0:0:0:0:
104,112,376593,5,2,0:0:0:0:
232,156,376958,1,0,0:0:0:0:
176,276,377324,1,2,0:0:0:0:
60,304,377690,1,0,0:0:0:0:
256,192,378056,12,0,380130,0:0:0:0:
120,84,380876,6,0,L|492:88,1,360,2|0,0:0|0:0,0:0:0:0:
280,40,383115,2,0,L|48:340,1,360,2|0,0:0|0:0,0:0:0:0:
268,16,385353,2,0,L|408:368,1,360,2|0,0:0|0:0,0:0:0:0:
