osu file format v14

[General]
AudioFilename: audio.mp3
AudioLeadIn: 0
PreviewTime: 2490
Countdown: 1
SampleSet: Soft
StackLeniency: 0.7
Mode: 0
LetterboxInBreaks: 0
WidescreenStoryboard: 0

[Editor]
Bookmarks: 14735
DistanceSpacing: 0.4
BeatDivisor: 4
GridSize: 4
TimelineZoom: 1

[Metadata]
Title:Granny Cream's Hot Butter Ice Cream
TitleUnicode:Granny Cream's Hot Butter Ice Cream
Artist:Erick "Chowder Man" Helman
ArtistUnicode:Erick "Chowder Man" Helman
Creator:Mismagius
Version:Gangsta
Source:Hypnospace Outlaw
Tags:granny cream butter ice cream granny cream delicious food partner brand jay tholen hot dad jingle
BeatmapID:1966832
BeatmapSetID:941908

[Difficulty]
HPDrainRate:6
CircleSize:5
OverallDifficulty:8
ApproachRate:9
SliderMultiplier:2.4
SliderTickRate:1

[Events]
//Background and Video events
0,0,"maxresdefault (1).jpg",0,0
//Break Periods
//Storyboard Layer 0 (Background)
//Storyboard Layer 1 (Fail)
//Storyboard Layer 2 (Pass)
//Storyboard Layer 3 (Foreground)
//Storyboard Sound Samples

[TimingPoints]
42,612.244897959184,4,2,0,100,1,0
2490,-76.9230769230769,4,2,0,100,0,1
4939,-76.9230769230769,4,2,0,100,0,0
13970,-76.9230769230769,4,2,0,70,0,0
14123,-76.9230769230769,4,2,0,100,0,0
14735,-76.9230769230769,4,2,0,100,0,1
19327,-76.9230769230769,4,2,0,100,0,0

[Colours]
Combo1 : 191,181,181
Combo2 : 240,255,132
Combo3 : 220,156,156

[HitObjects]
66,93,42,6,0,L|194:104,1,120,2|0,0:0|0:0,0:0:0:0:
281,112,501,1,0,0:0:0:0:
126,180,654,1,8,0:0:0:0:
417,262,960,1,0,0:0:0:0:
294,25,1266,5,2,0:0:0:0:
251,346,1572,1,0,0:0:0:0:
306,246,1725,1,0,0:0:0:0:
306,246,1802,1,0,0:0:0:0:
306,246,1878,2,0,P|235:237|184:256,1,120,8|0,0:0|0:0,0:0:0:0:
190,252,2490,6,0,P|202:180|158:83,1,155.999992858887,2|0,0:0|0:0,0:0:0:0:
64,42,2950,1,0,0:0:0:0:
256,11,3103,2,0,L|356:17,1,77.9999964294435,8|0,0:0|0:0,0:0:0:0:
457,144,3409,2,0,L|357:138,1,77.9999964294435,2|0,0:0|0:0,0:0:0:0:
497,8,3715,5,2,0:0:0:0:
430,235,3868,1,0,0:0:0:0:
497,8,4021,1,2,0:0:0:0:
309,145,4174,1,0,0:0:0:0:
309,145,4251,1,0,0:0:0:0:
309,145,4327,2,0,P|241:157|211:145,1,77.9999964294435,8|0,0:0|0:0,0:0:0:0:
112,37,4633,1,2,0:0:0:0:
95,209,4786,1,0,0:0:0:0:
225,38,4939,5,2,0:0:0:0:
240,36,5016,1,0,0:0:0:0:
255,34,5093,1,0,0:0:0:0:
270,32,5169,1,0,0:0:0:0:
285,31,5246,2,0,L|372:39,1,77.9999964294435
464,269,5552,1,8,0:0:0:0:
464,269,5858,6,0,P|416:261|380:273,1,77.9999964294435,2|0,0:0|0:0,0:0:0:0:
242,346,6164,1,2,0:0:0:0:
371,372,6317,1,0,0:0:0:0:
261,191,6470,1,0,0:0:0:0:
261,191,6776,2,0,P|277:114|237:37,1,155.999992858887,8|0,0:0|0:0,0:0:0:0:
397,127,7235,1,0,0:0:0:0:
397,127,7312,1,0,0:0:0:0:
397,127,7388,6,0,L|447:121,1,38.9999982147218,2|0,0:0|0:0,0:0:0:0:
389,56,7542,2,0,L|338:61,1,38.9999982147218
246,46,7695,2,0,L|155:55,1,77.9999964294435
57,235,8001,1,8,0:0:0:0:
57,235,8307,5,2,0:0:0:0:
15,152,8460,1,0,0:0:0:0:
150,241,8613,1,2,0:0:0:0:
5,312,8766,1,0,0:0:0:0:
69,223,8919,1,0,0:0:0:0:
140,372,9072,1,0,0:0:0:0:
208,167,9225,1,8,0:0:0:0:
281,309,9378,2,0,L|462:294,1,155.999992858887,2|2,0:0|0:0,0:0:0:0:
482,246,9761,1,0,0:0:0:0:
482,246,9837,6,0,L|490:175,1,38.9999982147218,2|0,0:0|0:0,0:0:0:0:
418,171,9990,2,0,L|413:209,1,38.9999982147218
490,138,10144,2,0,P|454:99|416:93,1,77.9999964294435,2|0,0:0|0:0,0:0:0:0:
269,131,10450,1,8,0:0:0:0:
332,39,10603,1,0,0:0:0:0:
414,210,10756,1,2,0:0:0:0:
414,210,11062,6,0,L|318:228,1,77.9999964294435,2|0,0:0|0:0,0:0:0:0:
163,252,11368,1,2,0:0:0:0:
297,302,11521,1,0,0:0:0:0:
81,342,11674,1,8,0:0:0:0:
81,342,11980,2,0,P|69:304|70:252,1,77.9999964294435,2|0,0:0|0:0,0:0:0:0:
90,199,12210,1,0,0:0:0:0:
90,199,12286,6,0,L|83:146,1,38.9999982147218,2|0,0:0|0:0,0:0:0:0:
157,213,12439,2,0,L|164:266,1,38.9999982147218
186,151,12593,2,0,L|292:137,1,77.9999964294435,2|0,0:0|0:0,0:0:0:0:
492,104,12899,1,8,0:0:0:0:
492,104,13205,5,0,0:0:0:0:
359,169,13358,1,0,0:0:0:0:
423,3,13511,1,2,0:0:0:0:
482,222,13664,1,0,0:0:0:0:
274,93,13817,2,0,L|180:105,1,77.9999964294435,2|8,0:0|0:1,0:0:0:0:
0,125,14123,1,8,0:0:0:0:
0,125,14429,1,0,0:0:0:0:
145,262,14582,1,0,0:0:0:0:
145,262,14659,1,0,0:0:0:0:
145,262,14735,6,0,P|225:249|288:305,1,155.999992858887,2|0,0:0|0:0,0:0:0:0:
199,344,15195,1,0,0:0:0:0:
121,175,15348,2,0,P|110:120|115:73,1,77.9999964294435,8|0,0:0|0:0,0:0:0:0:
331,10,15654,2,0,P|340:47|341:86,1,77.9999964294435,2|0,0:0|0:0,0:0:0:0:
59,17,15960,5,2,0:0:0:0:
441,135,16266,1,0,0:0:0:0:
214,186,16419,1,0,0:0:0:0:
214,186,16496,1,0,0:0:0:0:
214,186,16572,2,0,L|230:266,1,77.9999964294435,8|0,0:0|0:0,0:0:0:0:
249,384,16878,1,0,0:0:0:0:
249,384,17184,6,0,P|184:331|109:344,1,155.999992858887,2|0,0:0|0:0,0:0:0:0:
72,124,17644,1,0,0:0:0:0:
214,186,17797,2,0,P|259:182|308:155,1,77.9999964294435,8|0,0:0|0:0,0:0:0:0:
384,58,18103,1,2,0:0:0:0:
384,58,18409,5,2,0:0:0:0:
256,310,18562,1,0,0:0:0:0:
128,58,18715,1,0,0:0:0:0:
256,238,18868,1,0,0:0:0:0:
256,238,18945,1,0,0:0:0:0:
256,238,19021,2,0,B|279:162|228:162|256:84,1,155.999992858887,8|0,0:0|0:0,0:0:0:0:
