osu file format v14

[General]
AudioFilename: audio.mp3
AudioLeadIn: 0
PreviewTime: 10506
Countdown: 0
SampleSet: None
StackLeniency: 0.3
Mode: 0
LetterboxInBreaks: 0
WidescreenStoryboard: 1

[Editor]
Bookmarks: 10506
DistanceSpacing: 0.6
BeatDivisor: 4
GridSize: 16
TimelineZoom: 3.299999

[Metadata]
Title:F.R.E.E That Spells Free
TitleUnicode:F.R.E.E That Spells Free
Artist:Eric Violette
ArtistUnicode:Eric Violette
Creator:Geminous
Version:Cool Convertable
Source:
Tags:credit report dot com baby f r e e free
BeatmapID:1992694
BeatmapSetID:815461

[Difficulty]
HPDrainRate:2
CircleSize:5
OverallDifficulty:9
ApproachRate:10
SliderMultiplier:3
SliderTickRate:1

[Events]
//Background and Video events
0,0,"maxresdefault.jpg",0,0
//Break Periods
//Storyboard Layer 0 (Background)
//Storyboard Layer 1 (Fail)
//Storyboard Layer 2 (Pass)
//Storyboard Layer 3 (Foreground)
//Storyboard Sound Samples

[TimingPoints]
1450,566.037735849057,4,3,0,50,1,0
1450,-200,4,3,0,50,0,0
10506,283.018867924528,4,3,0,75,1,1
10506,-40,4,3,0,75,0,1
10789,-50,4,3,0,75,0,1
11638,-40,4,3,0,75,0,1
12487,-66.6666666666667,4,3,0,75,0,1
12770,-40,4,3,0,75,0,1
13053,-50,4,3,0,75,0,1
13902,-44.4444444444445,4,3,0,75,0,1
14185,-50,4,3,0,75,0,1
14751,-100,4,3,0,75,0,1
15034,-40,4,3,0,75,0,1
15317,-50,4,3,0,75,0,1
16166,-40,4,3,0,75,0,1
17015,-66.6666666666667,4,3,0,75,0,1
17298,-40,4,3,0,75,0,1
17581,-50,4,3,0,75,0,1
21826,-100,4,3,0,75,0,0
24090,-66.6666666666667,4,3,0,75,0,1
26355,-57.1428571428571,4,3,0,75,0,1
27487,-50,4,3,0,75,0,1
28619,-100,4,3,0,5,0,0

[HitObjects]
102,190,1450,6,0,L|214:159,1,112.5
210,159,2016,1,8,0:0:0:0:
102,190,2299,1,0,0:0:0:0:
210,159,2582,2,0,P|245:159|280:175,2,75
210,159,3714,6,0,L|229:278,1,112.5
227,270,4280,1,8,0:0:0:0:
210,159,4563,1,0,0:0:0:0:
227,270,4846,2,0,P|267:270|306:264,2,75
301,264,5978,6,0,L|293:216,1,50
294,196,6261,2,0,L|302:147,1,37.5
175,77,6544,2,0,L|183:125,1,50,8|0,0:0|0:0,0:0:0:0:
182,145,6827,2,0,L|173:193,1,37.5
162,257,7110,2,0,L|170:208,2,37.5
182,145,7534,2,0,P|222:140|262:145,1,75
276,148,7959,2,8,L|276:196,1,37.5,8|0,0:0|0:0,0:0:0:0:
276,40,8242,1,8,0:0:0:0:
276,40,9940,5,8,0:0:0:0:
288,50,10223,1,8,0:0:0:0:
277,95,10294,1,8,0:0:0:0:
266,140,10365,1,8,0:0:0:0:
255,185,10435,1,8,0:0:0:0:
244,230,10506,6,0,P|393:192|275:96,1,375,12|0,0:0|0:0,0:0:0:0:
132,118,10718,1,0,0:0:0:0:
132,118,10789,2,0,P|212:118|292:86,1,150,8|0,0:0|0:0,0:0:0:0:
484,31,10930,2,0,P|404:31|324:63,1,150
244,230,11072,1,8,0:0:0:0:
258,234,11142,1,0,0:0:0:0:
272,238,11213,1,0,0:0:0:0:
286,242,11284,1,0,0:0:0:0:
300,246,11355,1,8,0:0:0:0:
229,269,11425,1,0,0:0:0:0:
157,293,11496,1,0,0:0:0:0:
85,317,11567,1,0,0:0:0:0:
13,341,11638,6,0,B|13:149|13:149|82:102|82:102|82:230,1,375,8|0,0:0|0:0,0:0:0:0:
85,317,11850,1,0,0:0:0:0:
85,317,11921,2,0,B|197:349|197:349|261:317|261:317|325:349|325:349|453:317,1,375,8|0,0:0|0:0,0:0:0:0:
341,212,12133,1,0,0:0:0:0:
341,212,12204,2,0,P|321:125|341:30,1,187.5,8|0,0:0|0:0,0:0:0:0:
86,137,12345,2,0,P|106:224|86:319,1,187.5
340,30,12487,1,8,0:0:0:0:
276,56,12557,1,0,0:0:0:0:
212,83,12628,1,0,0:0:0:0:
148,110,12699,1,0,0:0:0:0:
85,137,12770,6,0,B|181:137|181:137|213:153|213:153|341:153|341:153|373:137|373:137|453:137,1,375,10|0,0:0|0:0,0:0:0:0:
85,137,13053,1,8,0:0:0:0:
68,209,13123,1,0,0:0:0:0:
85,281,13194,2,0,B|133:297|133:297|245:297,1,150
427,247,13336,1,8,0:0:0:0:
444,175,13406,1,0,0:0:0:0:
427,103,13477,2,0,B|379:87|379:87|267:87,1,150
42,303,13619,2,0,B|102:323|102:323|242:323,1,150,8|0,0:0|0:0,0:0:0:0:
469,80,13760,2,0,B|409:60|409:60|269:60,1,150,8|0,0:0|0:0,0:0:0:0:
189,323,13902,6,0,B|109:355|109:355|29:323|29:323|-3:243|-3:243|29:163|29:163|109:131|109:131|189:163|189:163,1,506.250019311906,8|0,0:0|0:0,0:0:0:0:
189,323,14185,1,8,0:0:0:0:
259,350,14255,1,0,0:0:0:0:
329,331,14326,1,0,0:0:0:0:
369,274,14397,1,0,0:0:0:0:
365,204,14468,2,0,B|317:204|317:204|293:197|293:197|270:204|270:204|218:204,1,150,8|0,0:0|0:0,0:0:0:0:
469,80,14609,2,0,B|421:80|421:80|397:87|397:87|374:80|374:80|322:80,1,150,8|0,0:0|0:0,0:0:0:0:
189,323,14751,2,0,B|269:323|269:323|301:339|301:339|413:339,1,225,8|0,0:0|0:0,0:0:0:0:
473,207,15034,6,0,B|505:111|409:47|409:47|312:111|344:207,1,375,14|0,0:0|0:0,0:0:0:0:
410,339,15246,1,0,0:0:0:0:
410,339,15317,2,0,L|410:187,1,150,8|0,0:0|0:0,0:0:0:0:
250,24,15458,2,0,L|250:176,1,150
410,339,15600,1,8,0:0:0:0:
395,341,15671,1,0,0:0:0:0:
380,343,15741,1,0,0:0:0:0:
365,345,15812,1,0,0:0:0:0:
350,347,15883,1,8,0:0:0:0:
373,275,15954,1,0,0:0:0:0:
396,204,16024,1,0,0:0:0:0:
420,132,16095,1,0,0:0:0:0:
444,60,16166,6,0,P|295:2|252:168,1,375,8|0,0:0|0:0,0:0:0:0:
154,216,16378,1,0,0:0:0:0:
154,216,16449,2,0,P|303:274|346:108,1,375,8|0,0:0|0:0,0:0:0:0:
252,168,16661,1,0,0:0:0:0:
252,168,16732,2,0,P|103:110|60:276,1,375,8|0,0:0|0:0,0:0:0:0:
444,60,17015,1,8,0:0:0:0:
420,132,17086,1,0,0:0:0:0:
396,204,17157,1,0,0:0:0:0:
373,275,17227,1,0,0:0:0:0:
350,347,17298,6,0,P|251:219|397:204,1,375,10|0,0:0|0:0,0:0:0:0:
190,346,17510,1,0,0:0:0:0:
190,346,17581,2,0,P|166:268|180:192,1,150,8|0,0:0|0:0,0:0:0:0:
444,60,17722,2,0,P|468:138|454:214,1,150
350,347,17864,1,8,0:0:0:0:
284,59,18005,1,0,0:0:0:0:
353,361,18147,2,0,L|315:194,1,150,8|0,0:0|0:0,0:0:0:0:
280,44,18289,2,0,L|318:211,1,150,8|0,0:0|0:0,0:0:0:0:
200,261,18430,6,0,P|351:295|450:199,1,300,8|0,0:0|0:0,0:0:0:0:
313,190,18642,1,0,0:0:0:0:
313,190,18713,2,0,B|207:160|207:160|169:170,1,150,8|0,0:0|0:0,0:0:0:0:
0,323,18855,2,0,B|106:353|106:353|144:343,1,150
313,190,18996,2,0,B|167:148|167:148|8:192,1,300,8|0,0:0|0:0,0:0:0:0:
311,304,19279,2,0,P|330:268|330:231,1,75,8|0,0:0|0:0,0:0:0:0:
381,281,19350,2,0,P|368:242|342:215,1,75,8|0,0:0|0:0,0:0:0:0:
423,221,19421,2,0,P|387:201|349:202,1,75,8|0,0:0|0:0,0:0:0:0:
419,147,19491,2,0,P|380:159|353:185,1,75,8|0,0:0|0:0,0:0:0:0:
371,91,19562,6,0,B|307:123|307:123|67:123,1,300,14|0,0:0|0:0,0:0:0:0:
0,126,19774,1,0,0:0:0:0:
0,126,19845,2,0,P|111:192|128:55,1,300,8|0,0:0|0:0,0:0:0:0:
317,93,20128,2,0,P|206:27|189:164,1,300,8|0,0:0|0:0,0:0:0:0:
458,152,20411,1,8,0:0:0:0:
419,214,20481,1,0,0:0:0:0:
347,219,20552,1,0,0:0:0:0:
300,163,20623,1,0,0:0:0:0:
317,93,20694,6,0,B|381:61|381:61|349:173|381:317,1,300,8|0,0:0|0:0,0:0:0:0:
394,360,20906,1,0,0:0:0:0:
394,360,20977,1,8,0:0:0:0:
146,266,21119,1,0,0:0:0:0:
458,152,21260,2,0,B|458:88|458:88|474:56|474:56|474:-8,1,150
441,147,21402,2,0,B|441:83|441:83|457:51|457:51|457:-13,1,150,8|0,0:0|0:0,0:0:0:0:
315,197,21543,2,0,B|315:261|315:261|331:293|331:293|331:357,1,150,8|0,0:0|0:0,0:0:0:0:
189,147,21685,2,0,B|189:83|189:83|205:51|205:51|205:-13,1,150,8|0,0:0|0:0,0:0:0:0:
458,152,21826,5,10,0:0:0:0:
208,242,21968,1,0,0:0:0:0:
493,202,22109,5,0,0:0:0:0:
164,230,22251,1,0,0:0:0:0:
429,336,22392,5,0,0:0:0:0:
328,55,22534,1,0,0:0:0:0:
371,375,22675,5,0,0:0:0:0:
340,6,22817,1,0,0:0:0:0:
429,336,22958,5,8,0:0:0:0:
374,348,23028,1,0,0:0:0:0:
320,333,23099,1,0,0:0:0:0:
278,297,23170,1,0,0:0:0:0:
259,244,23241,1,8,0:0:0:0:
266,189,23311,1,0,0:0:0:0:
297,143,23382,1,0,0:0:0:0:
346,116,23453,1,0,0:0:0:0:
401,116,23524,5,8,0:0:0:0:
419,201,23594,1,0,0:0:0:0:
396,286,23665,1,8,0:0:0:0:
339,350,23736,1,0,0:0:0:0:
257,380,23807,1,8,0:0:0:0:
171,369,23877,1,8,0:0:0:0:
98,322,23948,1,8,0:0:0:0:
57,244,24019,1,8,0:0:0:0:
57,159,24090,6,0,P|137:86|240:116,1,225.000008583069,14|0,0:0|0:0,0:0:0:0:
279,181,24303,1,0,0:0:0:0:
279,181,24373,2,0,P|359:254|462:224,1,225.000008583069,8|0,0:0|0:0,0:0:0:0:
399,34,24656,2,0,B|383:66|383:66|383:146,1,112.500004291535,8|0,0:0|0:0,0:0:0:0:
263,332,24798,2,0,B|279:300|279:300|279:220,1,112.500004291535,8|0,0:0|0:0,0:0:0:0:
399,34,24939,2,0,B|415:66|415:66|367:146|415:258,1,225.000008583069,8|0,0:0|0:0,0:0:0:0:
331,68,25222,5,8,0:0:0:0:
304,76,25292,1,0,0:0:0:0:
277,84,25363,1,0,0:0:0:0:
250,92,25434,1,0,0:0:0:0:
223,100,25505,1,8,0:0:0:0:
275,166,25575,1,0,0:0:0:0:
328,232,25646,1,0,0:0:0:0:
381,298,25717,1,0,0:0:0:0:
433,364,25789,2,0,B|385:364|385:364|367:356|367:356|320:356,1,112.500004291535,8|0,0:0|0:0,0:0:0:0:
164,158,25930,2,0,B|212:158|212:158|230:166|230:166|277:166,1,112.500004291535,8|0,0:0|0:0,0:0:0:0:
461,308,26072,2,0,P|313:321|274:165,1,337.500012874604,8|0,0:0|0:0,0:0:0:0:
274,165,26355,6,0,B|274:117|274:117|267:101|267:101|274:85|274:85|274:37,1,131.250001251698,10|0,0:0|0:0,0:0:0:0:
461,179,26496,2,0,B|461:227|461:227|468:243|468:243|461:259|461:259|461:307,1,131.250001251698
164,158,26638,2,0,P|213:47|339:51,1,262.500002503395,8|0,0:0|0:0,0:0:0:0:
389,103,26850,1,0,0:0:0:0:
389,103,26921,2,0,B|389:215|389:215|373:247|373:247|373:375,1,262.500002503395,8|0,0:0|0:0,0:0:0:0:
139,179,27204,1,8,0:0:0:0:
201,159,27274,1,0,0:0:0:0:
264,140,27345,1,0,0:0:0:0:
326,122,27416,1,0,0:0:0:0:
389,103,27487,6,0,P|335:216|201:158,1,300,8|0,0:0|0:0,0:0:0:0:
13,213,27770,2,0,P|67:100|201:158,1,300,8|0,0:0|0:0,0:0:0:0:
389,103,28053,1,8,0:0:0:0:
434,180,28123,1,0,0:0:0:0:
418,269,28194,1,8,0:0:0:0:
349,327,28265,1,0,0:0:0:0:
259,327,28336,2,10,P|231:298|231:257,1,75,10|10,0:0|0:0,0:0:0:0:
190,269,28406,2,10,P|187:228|213:197,1,75,10|10,0:0|0:0,0:0:0:0:
174,180,28477,2,10,P|197:147|238:140,1,75,10|10,0:0|0:0,0:0:0:0:
219,102,28548,2,10,P|258:92|293:112,1,75,10|10,0:0|0:0,0:0:0:0:
304,72,28619,1,14,0:0:0:0:
256,192,28760,12,0,30600,0:0:0:0:
