osu file format v14

[General]
AudioFilename: audio.mp3
AudioLeadIn: 0
PreviewTime: 52386
Countdown: 0
SampleSet: Soft
StackLeniency: 0.7
Mode: 0
LetterboxInBreaks: 0
WidescreenStoryboard: 0

[Editor]
Bookmarks: 16404,39261,55689,58547,61404,63547,72832,75689,78547,79975,103547,114975,126404,140689,142832,145689,148547,150689,157832,159975,162832,165689,167118,167832,174975,177832,212118,222475,223547,233011,244975,247118,249975,252832,254975,262118,264261,267118,269975,271404,279261,282118,299618
DistanceSpacing: 2
BeatDivisor: 4
GridSize: 4
TimelineZoom: 1

[Metadata]
Title:Koisuru mitai na Carameliser
TitleUnicode:恋するみたいなキャラメリゼ
Artist:Eri/Remi from STAR*ANIS
ArtistUnicode:えり・れみ from STAR☆ANIS
Creator:-soramaru-
Version:Sweeeeeeeet
Source:
Tags:Aikatsu
BeatmapID:1117894
BeatmapSetID:526858

[Difficulty]
HPDrainRate:6
CircleSize:4
OverallDifficulty:8
ApproachRate:9
SliderMultiplier:1.6
SliderTickRate:1

[Events]
//Background and Video events
0,0,"yaee.jpg",0,0
//Break Periods
//Storyboard Layer 0 (Background)
//Storyboard Layer 1 (Fail)
//Storyboard Layer 2 (Pass)
//Storyboard Layer 3 (Foreground)
//Storyboard Sound Samples

[TimingPoints]
690,357.142857142857,4,2,1,80,1,0
3011,-100,4,2,1,60,0,0
3189,-100,4,2,1,80,0,0
13368,-200,4,2,1,80,0,0
14975,-100,4,2,1,50,0,0
15511,-100,4,2,1,60,0,0
15868,-100,4,2,1,60,0,0
16047,-100,4,2,1,50,0,0
16404,-133.333333333333,4,2,2,50,0,0
25868,-133.333333333333,4,2,1,50,0,0
27118,-100,4,2,2,70,0,0
39261,-100,4,2,2,70,0,0
44439,-100,4,2,2,50,0,0
44618,-100,4,2,2,70,0,0
51225,-100,4,2,2,50,0,0
51582,-100,4,2,2,50,0,0
51939,-100,4,2,2,70,0,0
53189,-66.6666666666667,4,2,2,70,0,0
53547,-83.3333333333333,4,2,1,80,0,1
65332,-83.3333333333333,4,2,1,80,0,1
69261,-83.3333333333333,4,2,1,80,0,1
70689,-83.3333333333333,4,2,1,80,0,1
87832,-133.333333333333,4,2,1,80,0,1
89261,-133.333333333333,4,2,1,60,0,1
89975,-133.333333333333,4,2,1,70,0,1
90689,-100,4,2,1,70,0,0
100511,-200,4,2,1,70,0,0
102118,-83.3333333333333,4,2,1,70,0,0
102654,-133.333333333333,4,2,1,60,0,0
103011,-133.333333333333,4,2,1,50,0,0
103547,-133.333333333333,4,2,2,50,0,0
114975,-100,4,2,2,70,0,0
120154,-100,4,2,2,40,0,0
120332,-100,4,2,2,70,0,0
120511,-100,4,2,2,40,0,0
120689,-100,4,2,2,70,0,0
126404,-100,4,2,2,70,0,0
138457,-100,4,2,2,50,0,0
138725,-100,4,2,2,60,0,0
139082,-100,4,2,2,70,0,0
140332,-66.6666666666667,4,2,2,70,0,0
140689,-83.3333333333333,4,2,1,80,0,1
152475,-83.3333333333333,4,2,1,80,0,1
157832,-83.3333333333333,4,2,1,80,0,1
171939,-83.3333333333333,4,2,1,60,0,1
172118,-83.3333333333333,4,2,1,80,0,1
174261,-100,4,2,1,80,0,1
174618,-133.333333333333,4,2,1,80,0,1
174975,-200,4,2,1,80,0,1
176404,-100,4,2,1,70,0,1
176939,-100,4,2,1,70,0,1
177832,-100,4,2,1,50,0,0
186404,-100,4,2,1,52,0,0
186761,-100,4,2,1,54,0,0
187118,-100,4,2,1,56,0,0
187475,-100,4,2,1,58,0,0
187832,-100,4,2,1,60,0,0
188189,-100,4,2,1,62,0,0
188547,-100,4,2,1,66,0,0
188904,-100,4,2,1,68,0,0
189261,-100,4,2,1,70,0,0
199618,-100,4,2,1,50,0,0
199797,-100,4,2,1,70,0,0
199975,-100,4,2,1,50,0,0
200154,-100,4,2,1,60,0,0
200689,-100,4,2,1,70,0,0
222475,-133.333333333333,4,2,1,50,0,0
222743,-133.333333333333,4,2,1,5,0,0
222832,-133.333333333333,4,2,1,50,0,0
223100,-133.333333333333,4,2,1,5,0,0
223189,-133.333333333333,4,2,1,50,0,0
223457,-133.333333333333,4,2,1,5,0,0
223547,-166.666666666667,4,2,1,50,0,0
224797,-166.666666666667,4,2,1,50,0,0
232832,-100,4,2,2,50,0,0
235332,-100,4,2,1,60,0,0
241047,-100,4,2,1,63,0,0
243904,-100,4,2,1,65,0,0
244975,-83.3333333333333,4,2,1,85,0,1
256582,-83.3333333333333,4,2,1,85,0,1
262118,-83.3333333333333,4,2,1,85,0,1
278904,-83.3333333333333,4,2,1,65,0,1
279261,-133.333333333333,4,2,1,70,0,1
280689,-100,4,2,1,70,0,1
282118,-100,4,2,1,80,0,0
291761,-100,4,2,1,50,0,0
291939,-200,4,2,1,80,0,0
293547,-133.333333333333,4,2,1,80,0,0
299618,-100,4,2,1,5,0,0

[HitObjects]
256,192,690,12,0,2118,2:0:0:0:
252,160,2297,5,8,0:0:0:0:
252,160,2475,2,0,L|180:212,1,80,12|8,0:0|0:0,0:0:0:0:
348,184,2832,1,8,0:0:0:0:
208,96,3011,1,0,1:0:0:0:
196,92,3100,1,0,1:0:0:0:
184,92,3189,1,0,1:0:0:0:
172,96,3279,1,8,0:0:0:0:
164,104,3368,1,0,0:0:0:0:
316,228,3547,5,12,0:0:0:0:
316,228,3904,6,0,B|268:180|268:180|232:220|188:232,1,160,0|0,1:0|1:2,0:0:0:0:
180,68,4439,1,8,0:0:0:0:
316,228,4797,6,0,B|332:300|332:300|364:252|412:232,1,160,12|8,0:0|0:0,0:0:0:0:
488,192,5332,1,0,1:0:0:0:
392,64,5511,1,8,0:0:0:0:
252,140,5689,1,0,1:0:0:0:
252,140,5868,1,8,0:0:0:0:
392,64,6047,1,0,1:0:0:0:
140,76,6404,5,0,1:0:0:0:
140,76,6761,6,0,B|88:96|88:96|132:132|128:196,1,160,12|0,0:0|1:0,0:0:0:0:
104,348,7297,1,8,0:0:0:0:
140,76,7654,6,0,B|176:36|176:36|196:80|256:124,1,160,12|0,0:0|0:0,0:0:0:0:
388,184,8189,1,0,1:0:0:0:
228,192,8368,1,8,0:0:0:0:
340,76,8547,1,0,1:0:0:0:
340,76,8636,1,0,1:0:0:0:
340,76,8725,1,0,1:0:0:0:
296,228,8904,1,0,1:0:0:0:
160,144,9082,1,0,1:0:0:0:
160,144,9172,1,0,1:0:0:0:
160,144,9261,6,0,B|118:113|118:113|52:96,1,120,12|0,0:0|0:0,0:0:0:0:
80,192,9618,1,0,1:0:0:0:
212,40,9975,1,0,1:0:0:0:
228,120,10154,1,0,0:0:0:0:
228,120,10511,6,0,P|256:92|272:172,1,160,12|0,0:0|0:0,0:0:0:0:
164,268,11047,1,0,1:0:0:0:
148,108,11225,1,8,0:0:0:0:
164,268,11404,1,0,1:0:0:0:
148,108,11582,2,0,B|152:52|152:52|180:32,2,80,8|0|8,0:0|1:0|0:0,0:0:0:0:
228,204,12118,5,0,1:0:0:0:
228,204,12475,6,0,B|256:144|256:144|300:168|360:140,1,160,12|0,0:0|1:0,0:0:0:0:
300,56,13011,1,8,0:0:0:0:
148,112,13368,6,4,B|152:168|212:184|160:228|176:288|176:288|248:244|316:272,1,320,4|0,0:0|0:0,0:0:0:0:
307,268,14975,6,0,P|384:224|308:244,1,240,2|8,0:0|0:3,0:0:0:0:
322,222,15868,5,4,0:3:0:0:
272,112,16047,1,4,0:3:0:0:
204,228,16404,6,0,P|200:292|156:328,1,120.000004577637,4|8,0:0|0:0,0:0:0:0:
116,248,16939,1,0,3:0:0:0:
120,156,17118,2,0,L|172:40,1,120.000004577637,0|8,3:0|0:0,0:0:0:0:
80,68,17654,2,0,L|200:128,1,120.000004577637,0|0,3:0|3:0,0:0:0:0:
276,124,18189,1,8,0:0:0:0:
348,72,18368,1,0,3:0:0:0:
432,100,18547,2,0,P|456:120|472:148,1,60.0000022888184,0|0,3:0|0:0,0:0:0:0:
384,176,18904,2,0,P|386:207|378:238,1,60.0000022888184,8|0,0:0|0:0,0:0:0:0:
296,196,19261,6,0,B|268:152|304:116|272:72,1,120.000004577637,0|8,3:0|0:0,0:0:0:0:
196,120,19797,1,0,3:0:0:0:
220,208,19975,2,0,P|248:260|304:272,1,120.000004577637,0|8,3:0|0:0,0:0:0:0:
248,344,20511,2,0,P|220:292|164:280,1,120.000004577637,0|0,3:0|3:0,0:0:0:0:
80,312,21047,1,8,0:0:0:0:
80,312,21225,1,0,3:0:0:0:
76,220,21404,2,0,L|76:144,1,60.0000022888184,0|0,3:0|0:0,0:0:0:0:
112,76,21761,1,8,0:0:0:0:
76,220,22118,6,0,P|108:276|176:296,1,120.000004577637,0|8,3:0|0:0,0:0:0:0:
248,300,22654,1,0,3:0:0:0:
220,216,22832,2,0,L|148:216,1,60.0000022888184,0|0,3:0|0:0,0:0:0:0:
188,132,23189,1,8,0:0:0:0:
252,68,23368,2,0,P|308:48|368:72,1,120.000004577637,0|0,3:0|3:0,0:0:0:0:
308,140,23904,1,8,0:0:0:0:
356,216,24082,1,0,3:0:0:0:
300,288,24261,2,0,B|256:328|216:292|176:328,1,120.000004577637,0|8,3:0|0:0,0:0:0:0:
244,220,24975,5,0,3:0:0:0:
296,112,25154,1,2,0:0:0:0:
360,212,25332,1,10,0:0:0:0:
304,320,25511,1,2,3:2:0:0:
224,196,25689,5,2,3:2:0:0:
128,80,25868,1,10,0:0:0:0:
80,224,26047,1,10,0:0:0:0:
180,336,26225,1,6,0:0:0:0:
236,100,27118,5,0,1:0:0:0:
236,100,27207,1,0,3:0:0:0:
236,100,27297,1,0,3:0:0:0:
168,160,27475,2,0,L|168:268,1,80,2|0,3:2|0:0,0:0:0:0:
152,80,27832,6,0,P|200:20|280:32,1,160,4|0,3:2|1:0,0:0:0:0:
392,140,28368,1,0,3:0:0:0:
236,176,28547,2,0,L|152:164,1,80,0|0,3:0|0:0,0:0:0:0:
288,260,28904,1,0,1:0:0:0:
344,112,29082,6,0,P|352:72|340:32,1,80,0|0,3:0|0:0,0:0:0:0:
264,188,29439,2,0,P|272:148|260:108,1,80,0|0,3:0|1:0,0:0:0:0:
160,16,29797,1,0,3:0:0:0:
60,188,29975,5,0,3:0:0:0:
40,44,30154,1,2,0:0:0:0:
152,116,30332,1,2,1:2:0:0:
124,260,30511,1,2,0:0:0:0:
84,96,30689,6,0,L|80:8,1,80,0|0,3:0|0:0,0:0:0:0:
24,144,31047,2,0,L|28:244,1,80,0|0,1:0|3:0,0:0:0:0:
36,344,31404,1,0,3:0:0:0:
164,192,31582,1,0,0:0:0:0:
27,223,31761,1,0,1:0:0:0:
120,108,31939,6,0,P|136:60|156:28,1,80,0|0,3:0|0:0,0:0:0:0:
280,8,32297,1,0,3:0:0:0:
232,160,32475,1,0,1:0:0:0:
88,92,32654,1,0,3:0:0:0:
232,160,32832,2,0,P|280:188|312:196,1,80,0|0,3:0|0:0,0:0:0:0:
88,92,33189,2,0,P|40:64|8:56,1,80,0|0,1:0|0:0,0:0:0:0:
168,208,33547,6,0,P|152:292|208:340,1,160,0|0,3:0|1:0,0:0:0:0:
112,164,34082,1,0,3:0:0:0:
112,164,34261,2,0,L|172:112,1,80,0|0,3:0|0:0,0:0:0:0:
356,32,34618,1,0,1:0:0:0:
240,196,34797,6,0,B|200:244|136:188|88:260,1,160,0|0,3:0|3:0,0:0:0:0:
168,132,35332,1,0,1:0:0:0:
168,312,35511,1,0,3:0:0:0:
168,312,35689,2,0,L|236:364,1,80,0|0,3:0|0:0,0:0:0:0:
340,224,36047,2,0,B|327:188|348:156|336:92,1,120,0|0,1:0|0:0,0:0:0:0:
324,40,36404,6,0,L|248:64,1,80,0|2,3:0|0:0,0:0:0:0:
116,152,36761,2,0,L|192:176,1,80,2|2,1:2|3:2,0:0:0:0:
340,224,37118,1,2,3:2:0:0:
208,292,37297,1,2,0:0:0:0:
264,144,37475,1,2,1:2:0:0:
300,300,37654,6,0,B|328:364|328:364|368:332|420:348,1,160,4|0,3:2|3:0,0:0:0:0:
488,244,38189,2,0,B|484:180|484:180|444:196,1,80,0|0,1:0|3:0,0:0:0:0:
316,240,38547,1,0,3:0:0:0:
200,168,38725,1,0,1:0:0:0:
192,140,38814,1,0,1:0:0:0:
196,112,38904,1,0,3:0:0:0:
208,88,38993,1,0,3:0:0:0:
228,68,39082,1,0,3:0:0:0:
60,176,39261,6,0,P|44:212|4:236,1,80,4|0,0:0|0:0,0:0:0:0:
104,56,39618,1,0,1:0:0:0:
208,196,39797,1,0,3:0:0:0:
104,56,39975,2,0,L|20:8,1,80,0|0,3:0|0:0,0:0:0:0:
136,160,40332,1,0,1:0:0:0:
288,56,40511,6,0,P|364:32|444:60,1,160,0|0,3:0|3:0,0:0:0:0:
300,136,41047,1,0,1:0:0:0:
160,60,41225,1,0,0:0:0:0:
208,212,41404,1,0,3:0:0:0:
248,56,41582,1,0,0:0:0:0:
208,212,41761,1,0,1:0:0:0:
152,168,42118,6,0,L|76:140,1,80,0|0,3:0|0:0,0:0:0:0:
248,56,42475,1,0,1:0:0:0:
252,216,42654,1,0,3:0:0:0:
152,92,42832,2,0,L|128:0,1,80,0|0,3:0|0:0,0:0:0:0:
100,172,43189,1,0,1:0:0:0:
248,128,43368,6,0,B|292:96|344:152|404:112,1,160,0|0,3:0|3:0,0:0:0:0:
212,48,43904,2,0,L|132:44,1,80,0|0,1:0|3:0,0:0:0:0:
248,156,44261,1,0,3:0:0:0:
368,52,44439,1,0,1:0:0:0:
396,40,44529,1,0,1:0:0:0:
424,44,44618,1,0,3:0:0:0:
448,60,44707,1,0,3:0:0:0:
464,84,44797,1,0,3:0:0:0:
336,176,44975,6,0,B|280:192|264:240|264:240|200:260,1,160,4|0,0:0|1:0,0:0:0:0:
80,144,45511,1,0,0:0:0:0:
80,144,45689,2,0,L|80:56,1,80,0|0,3:0|1:0,0:0:0:0:
212,156,46047,1,0,1:0:0:0:
212,156,46225,6,0,B|256:120|256:120|308:144|368:128,1,160,4|0,0:0|3:0,0:0:0:0:
472,60,46761,1,0,1:0:0:0:
376,188,46939,1,0,3:0:0:0:
344,32,47118,1,0,3:0:0:0:
444,160,47297,1,0,3:0:0:0:
288,132,47475,2,0,P|248:132|192:152,1,80,0|0,1:0|0:0,0:0:0:0:
64,212,47832,6,0,B|88:184|88:124|88:124|116:100|176:132,1,160,4|0,0:0|1:0,0:0:0:0:
328,212,48368,1,0,0:0:0:0:
192,296,48547,2,0,P|132:312|104:312,1,80,0|0,3:0|1:0,0:0:0:0:
212,184,48904,1,0,1:0:0:0:
328,76,49082,6,0,P|408:60|480:88,1,160,4|0,0:0|3:0,0:0:0:0:
320,144,49618,2,0,P|276:152|228:148,1,80,0|0,1:0|0:0,0:0:0:0:
92,100,49975,1,0,3:0:0:0:
244,44,50154,1,0,3:0:0:0:
244,204,50332,2,0,L|244:296,1,80,0|0,1:0|3:0,0:0:0:0:
124,176,50689,5,4,1:2:0:0:
292,68,50868,1,0,3:0:0:0:
292,68,50957,1,0,3:0:0:0:
292,68,51047,1,0,3:0:0:0:
188,240,51225,1,8,3:0:0:0:
188,240,51314,1,8,3:0:0:0:
188,240,51404,1,8,3:0:0:0:
156,84,51582,1,4,3:0:0:0:
360,104,51761,1,4,3:0:0:0:
232,208,51939,6,0,B|152:276|152:276|200:292|212:356,1,200,4|0,0:0|0:0,0:0:0:0:
116,352,52475,6,0,P|72:308|72:252,1,120,2|0,0:0|0:0,0:0:0:0:
209,345,52832,6,0,P|240:372|280:372,1,80,2|4,0:0|3:0,0:0:0:0:
432,292,53189,6,0,B|376:264|372:192|372:192|308:180,1,180.000006866455,6|0,1:2|0:0,0:0:0:0:
200,164,53547,6,0,P|156:148|108:120,1,95.9999970703126,4|0,0:0|0:0,0:0:0:0:
276,32,53904,1,2,1:2:0:0:
240,268,54082,1,0,0:0:0:0:
180,80,54261,1,2,1:2:0:0:
420,96,54439,1,0,0:0:0:0:
200,164,54618,2,0,B|160:180|160:180|120:220,1,95.9999970703126,2|0,1:2|0:0,0:0:0:0:
40,332,54975,5,2,1:2:0:0:
88,96,55154,1,0,0:2:0:0:
24,248,55332,1,2,1:2:0:0:
248,332,55511,1,0,0:2:0:0:
400,148,55689,2,0,B|420:116|420:116|420:48,1,95.9999970703126,2|8,1:2|0:2,0:2:0:0:
188,128,56047,2,0,B|168:156|168:156|168:224,1,95.9999970703126,2|8,1:2|0:2,0:2:0:0:
180,364,56404,5,2,1:2:0:0:
72,152,56582,1,0,0:2:0:0:
68,348,56761,1,2,1:2:0:0:
288,252,56939,1,0,0:2:0:0:
48,268,57118,1,2,1:2:0:0:
248,136,57297,1,0,0:2:0:0:
180,364,57475,1,2,1:2:0:0:
328,164,57654,6,0,P|328:116|294:67,1,95.9999970703126,0|2,0:2|1:2,0:2:0:0:
304,252,58011,2,0,P|352:252|401:218,1,95.9999970703126,0|2,0:2|1:2,0:2:0:0:
448,56,58368,1,0,0:2:0:0:
244,184,58547,2,0,L|208:292,1,95.9999970703126,2|8,1:2|0:2,0:2:0:0:
40,360,58904,2,0,L|76:252,1,95.9999970703126,2|8,1:2|0:2,0:2:0:0:
136,88,59261,5,6,0:0:0:0:
213,275,59439,1,0,0:0:0:0:
64,152,59618,1,2,1:2:0:0:
292,72,59797,1,0,0:0:0:0:
84,224,59975,1,2,1:2:0:0:
328,136,60154,1,0,0:0:0:0:
96,296,60332,1,2,1:2:0:0:
364,204,60511,1,0,0:0:0:0:
84,224,60689,6,0,P|40:200|8:160,1,95.9999970703126,2|0,1:2|0:0,0:0:0:0:
228,340,61047,2,0,P|272:324|304:288,1,95.9999970703126,2|0,1:2|0:0,0:0:0:0:
388,64,61404,1,2,1:2:0:0:
224,256,61582,1,8,0:0:0:0:
288,64,61761,1,2,1:2:0:0:
408,256,61939,1,8,0:0:0:0:
224,148,62118,6,0,P|168:132|120:136,1,95.9999970703126,2|0,1:2|0:0,0:0:0:0:
244,296,62475,2,0,P|300:280|348:284,1,95.9999970703126,2|0,1:2|0:0,0:0:0:0:
130,133,62832,2,0,P|146:77|142:29,1,95.9999970703126,2|0,1:2|0:0,0:0:0:0:
337,281,63189,2,0,P|321:337|325:385,1,95.9999970703126,2|0,1:2|0:0,0:0:0:0:
160,144,63547,5,2,1:2:0:0:
244,296,63725,1,8,0:0:0:0:
92,224,63904,1,2,1:2:0:0:
248,44,64082,1,10,0:0:0:0:
244,296,64261,5,8,0:2:0:0:
208,308,64350,1,8,0:0:0:0:
168,308,64439,1,10,0:2:0:0:
132,292,64529,1,8,0:0:0:0:
104,264,64618,1,10,0:2:0:0:
204,132,64797,1,10,0:2:0:0:
280,184,65154,5,0,0:0:0:0:
280,184,65332,2,0,B|332:164|332:164|416:176|452:220|404:232,1,191.999994140625,12|8,0:0|0:0,0:0:0:0:
236,312,65868,1,8,0:0:0:0:
96,180,66047,2,0,P|92:128|104:76,1,95.9999970703126,0|0,1:2|0:0,0:0:0:0:
220,236,66404,6,0,B|304:224|316:308|316:308|388:296,1,191.999994140625,4|8,0:0|0:0,0:0:0:0:
292,124,66939,2,0,B|268:60|268:60|240:128|180:136|156:104|192:76,1,191.999994140625,6|8,0:0|0:0,0:0:0:0:
64,28,67475,1,0,1:0:0:0:
64,28,67564,1,8,0:0:0:0:
64,28,67654,1,8,0:0:0:0:
216,252,68011,5,0,0:0:0:0:
216,252,68189,2,0,B|252:204|308:248|308:248|256:336,1,191.999994140625,12|8,0:0|0:0,0:0:0:0:
260,128,68725,1,8,0:0:0:0:
108,244,68904,2,0,P|48:280|16:288,1,95.9999970703126,0|8,1:0|0:0,0:0:0:0:
96,108,69261,5,0,1:0:0:0:
160,208,69439,1,8,0:0:0:0:
260,44,69618,2,0,B|300:16|344:20|324:64,1,95.9999970703126,0|0,1:0|0:0,0:0:0:0:
268,192,69975,1,8,0:0:0:0:
436,92,70154,1,8,0:0:0:0:
436,92,70243,1,8,0:0:0:0:
436,92,70332,1,8,0:0:0:0:
436,92,70422,1,8,0:0:0:0:
436,92,70511,1,8,0:0:0:0:
268,192,70689,6,0,B|226:175|226:175|192:132,1,95.9999970703126,6|0,0:2|0:0,0:0:0:0:
148,12,71047,1,2,1:2:0:0:
116,248,71225,1,0,0:2:0:0:
288,80,71404,1,2,1:2:0:0:
52,128,71582,1,0,0:2:0:0:
268,236,71761,1,2,1:2:0:0:
112,56,71939,6,0,P|72:28|20:16,1,95.9999970703126,0|2,0:0|1:2,0:0:0:0:
202,119,72297,2,0,P|242:91|294:79,1,95.9999970703126,0|2,0:0|1:2,0:0:0:0:
440,56,72654,1,0,0:0:0:0:
244,196,72832,2,0,B|204:244|204:244|192:300,1,95.9999970703126,2|8,1:2|0:0,0:0:0:0:
392,136,73189,2,0,B|432:88|432:88|444:32,1,95.9999970703126,2|8,1:2|0:0,0:0:0:0:
240,152,73547,5,2,1:2:0:0:
476,200,73725,1,0,0:2:0:0:
320,76,73904,1,2,1:2:0:0:
264,308,74082,1,0,0:2:0:0:
88,144,74261,2,0,P|64:100|64:48,1,95.9999970703126,2|0,1:2|0:2,0:2:0:0:
240,152,74618,1,2,1:2:0:0:
360,276,74797,6,0,L|404:184,1,95.9999970703126,0|2,0:2|1:2,0:2:0:0:
210,60,75154,2,0,L|242:160,1,95.9999970703126,0|2,0:2|1:2,0:2:0:0:
292,304,75511,1,0,0:2:0:0:
88,180,75689,1,2,1:2:0:0:
320,116,75868,1,8,0:2:0:0:
136,68,76047,1,2,1:2:0:0:
324,220,76225,1,8,0:2:0:0:
88,180,76404,6,0,B|40:144|40:144|36:104,1,95.9999970703126,4|0,0:0|0:0,0:0:0:0:
272,148,76761,2,0,B|320:184|320:184|324:224,1,95.9999970703126,2|0,1:2|0:0,0:0:0:0:
328,360,77118,1,2,1:2:0:0:
232,224,77297,1,0,0:0:0:0:
472,220,77475,1,2,1:2:0:0:
232,224,77654,6,0,L|132:220,1,95.9999970703126,0|2,0:0|1:2,0:0:0:0:
352,116,78011,2,0,L|456:112,1,95.9999970703126,0|2,0:0|1:2,0:0:0:0:
220,40,78368,1,0,0:0:0:0:
220,40,78547,2,0,P|200:104|224:132,1,95.9999970703126,2|8,1:2|0:0,0:0:0:0:
324,336,78904,2,0,P|344:272|320:244,1,95.9999970703126,2|8,1:2|0:0,0:0:0:0:
140,108,79261,5,2,1:2:0:0:
180,344,79439,1,0,0:0:0:0:
104,192,79618,1,2,1:2:0:0:
344,164,79797,1,0,0:0:0:0:
136,280,79975,2,0,P|92:288|48:264,1,95.9999970703126,2|8,1:2|0:0,0:0:0:0:
32,72,80332,1,2,1:2:0:0:
136,236,80511,6,0,B|216:304|216:304|228:244|280:224,1,191.999994140625,4|8,0:0|0:0,0:0:0:0:
384,168,81047,1,2,1:2:0:0:
168,52,81225,2,0,L|84:108,1,95.9999970703126,8|8,0:0|0:0,0:0:0:0:
216,120,81582,1,0,1:0:0:0:
216,120,81672,1,8,0:0:0:0:
216,120,81761,1,8,0:0:0:0:
408,168,81939,1,8,0:0:0:0:
300,92,82297,5,0,0:0:0:0:
300,92,82475,2,0,B|316:176|232:216|232:216|252:260,1,191.999994140625,12|8,0:0|0:0,0:0:0:0:
288,356,83011,1,8,0:0:0:0:
132,244,83189,2,0,L|124:144,1,95.9999970703126,0|0,1:0|0:0,0:0:0:0:
204,32,83547,6,0,P|240:96|344:68,1,191.999994140625,12|0,0:0|1:0,0:0:0:0:
288,240,84082,2,0,P|234:168|150:199,1,191.999994140625,12|0,0:0|1:0,0:0:0:0:
152,344,84618,1,0,1:0:0:0:
152,344,84707,1,8,0:0:0:0:
152,344,84797,1,8,0:0:0:0:
152,76,85154,5,0,0:0:0:0:
152,76,85332,2,0,B|232:68|232:68|196:128|240:188,1,191.999994140625,12|8,0:0|0:0,0:0:0:0:
296,272,85868,1,8,0:0:0:0:
120,196,86047,2,0,L|88:104,1,95.9999970703126,0|8,1:0|0:0,0:0:0:0:
300,124,86404,1,0,1:0:0:0:
300,124,86761,6,0,L|352:216,1,95.9999970703126,2|0,1:2|0:0,0:0:0:0:
188,100,87118,2,0,B|156:40|156:40|140:96,1,95.9999970703126,2|8,0:0|0:0,0:0:0:0:
128,172,87475,1,10,0:0:0:0:
220,280,87654,1,0,0:0:0:0:
256,172,87832,6,0,B|287:130|287:130|366:136|407:61|456:90|456:90|393:211,1,360.000013732911,4|0,0:0|0:0,0:0:0:0:
248,264,89261,6,0,L|180:264,1,60.0000022888184,4|0,0:0|0:0,0:0:0:0:
92,176,89618,2,0,L|24:176,1,60.0000022888184,4|0,0:0|0:0,0:0:0:0:
184,72,89975,1,0,1:0:0:0:
212,56,90064,1,8,0:0:0:0:
244,52,90154,1,8,0:0:0:0:
276,60,90243,1,8,0:0:0:0:
304,80,90332,1,4,1:2:0:0:
200,200,90689,5,8,0:0:0:0:
200,200,91047,6,0,L|360:196,1,160,8|0,0:0|1:0,0:0:0:0:
228,108,91582,1,8,0:0:0:0:
228,108,91939,6,0,P|152:136|76:104,1,160,12|8,0:0|0:0,0:0:0:0:
152,36,92475,1,0,1:0:0:0:
156,196,92654,1,0,0:0:0:0:
152,36,92832,1,0,1:0:0:0:
156,196,93011,2,0,L|200:284,1,80,8|0,0:0|1:0,0:0:0:0:
292,140,93368,1,0,1:0:0:0:
292,140,93457,1,0,3:0:0:0:
292,140,93547,1,8,0:0:0:0:
380,184,93904,6,0,B|348:228|292:232|292:232|276:304,1,160,4|8,1:2|0:0,0:0:0:0:
292,140,94439,2,0,L|304:60,1,80,8|0,0:0|0:0,0:0:0:0:
208,192,94797,2,0,B|112:244|112:244|116:188,1,160,12|8,0:0|0:0,0:0:0:0:
152,40,95332,1,0,1:0:0:0:
80,124,95511,1,8,0:0:0:0:
232,76,95689,1,0,1:0:0:0:
116,192,95868,5,0,1:0:0:0:
100,216,95957,1,0,1:0:0:0:
88,240,96047,1,8,0:0:0:0:
76,264,96136,1,8,0:0:0:0:
64,288,96225,1,8,0:0:0:0:
188,228,96404,5,12,0:0:0:0:
188,228,96761,6,0,B|236:184|236:184|284:208|336:176,1,160,12|0,0:0|1:0,0:0:0:0:
208,64,97297,1,0,0:0:0:0:
208,64,97654,6,0,B|240:112|236:160|236:160|308:136,1,160,4|8,0:0|0:0,0:0:0:0:
152,136,98189,1,0,1:0:0:0:
296,68,98368,1,8,0:0:0:0:
244,220,98547,2,0,P|232:264|248:320,1,80,0|8,1:0|0:0,0:0:0:0:
352,184,98904,1,0,1:0:0:0:
228,84,99082,1,8,0:0:0:0:
228,84,99172,1,8,0:0:0:0:
228,84,99261,6,0,L|112:144,1,120,0|0,1:0|0:0,0:0:0:0:
212,184,99618,2,0,L|304:172,1,80,4|0,0:0|0:0,0:0:0:0:
168,276,99975,1,0,1:0:0:0:
40,176,100154,2,0,P|32:132|44:92,1,80,2|0,0:3|0:0,0:0:0:0:
121,139,100511,6,0,B|173:195|205:271|205:271|237:195|297:139,1,320
368,116,102118,6,0,B|296:140|296:140|344:220|344:220|340:264,1,191.999994140625,4|0,0:0|0:0,0:0:0:0:
392,192,102654,2,0,L|456:172,1,60.0000022888184,12|0,3:0|0:0,0:0:0:0:
360,288,103011,2,0,L|424:268,1,60.0000022888184,4|4,3:0|3:0,0:0:0:0:
276,156,103547,6,0,P|224:192|168:200,1,120.000004577637,4|8,0:0|0:0,0:0:0:0:
80,180,104082,1,0,3:0:0:0:
80,180,104261,6,0,P|56:132|92:144,1,120.000004577637,0|8,3:0|0:0,0:0:0:0:
176,152,104797,2,0,P|232:132|268:76,1,120.000004577637,0|0,3:0|3:0,0:0:0:0:
176,68,105332,1,8,0:0:0:0:
140,152,105511,1,0,3:0:0:0:
192,224,105689,2,0,P|224:240|272:240,1,60.0000022888184,0|0,3:0|0:0,0:0:0:0:
312,308,106047,2,0,P|280:324|232:324,1,60.0000022888184,8|0,0:0|0:0,0:0:0:0:
247,243,106404,6,0,B|243:175|243:175|271:195|311:191,1,120.000004577637,0|8,3:0|0:0,0:0:0:0:
296,100,106939,1,0,3:0:0:0:
228,44,107118,2,0,P|176:20|120:52,1,120.000004577637,0|8,3:0|0:0,0:0:0:0:
56,108,107654,1,0,3:0:0:0:
92,224,108011,1,0,3:0:0:0:
120,308,108189,1,8,0:0:0:0:
180,240,108368,1,0,3:0:0:0:
92,224,108547,2,0,L|28:232,1,60.0000022888184,0|0,3:0|0:0,0:0:0:0:
72,148,108904,1,12,0:0:0:0:
72,148,109261,6,0,P|128:160|192:144,1,120.000004577637,0|8,3:0|0:0,0:0:0:0:
128,76,109797,1,0,3:0:0:0:
128,76,109975,2,0,L|64:68,2,60.0000022888184,0|0|8,3:0|0:0|0:0,0:0:0:0:
216,84,110511,6,0,P|252:128|232:200,1,120.000004577637,0|0,3:0|3:0,0:0:0:0:
196,264,111047,1,8,0:0:0:0:
264,320,111225,1,0,3:0:0:0:
320,252,111404,2,0,L|312:188,1,60.0000022888184,0|0,3:0|0:0,0:0:0:0:
388,144,111761,2,0,L|400:224,1,60.0000022888184,8|0,0:2|0:2,0:2:0:0:
408,292,112118,5,0,3:2:0:0:
476,192,112297,1,2,0:2:0:0:
408,292,112475,1,10,0:2:0:0:
316,212,112654,1,2,0:2:0:0:
300,196,112743,1,0,3:2:0:0:
284,180,112832,1,2,3:2:0:0:
168,80,113011,1,2,0:2:0:0:
56,180,113189,1,10,0:2:0:0:
168,80,113368,1,6,0:2:0:0:
200,220,114261,6,0,L|268:224,1,60.0000022888184,0|0,1:0|3:0,0:0:0:0:
156,140,114618,1,6,0:0:0:0:
236,40,114797,1,2,0:0:0:0:
236,40,114886,1,2,0:0:0:0:
236,40,114975,6,0,B|252:80|252:80|312:64|376:104,1,160,4|0,3:2|0:0,0:0:0:0:
484,204,115511,1,0,3:0:0:0:
332,256,115689,2,0,B|284:252|284:252|256:232,1,80,0|0,3:0|0:0,0:0:0:0:
152,112,116047,1,0,1:0:0:0:
258,233,116225,6,0,B|312:280|320:332|320:332|362:305,1,160,0|0,3:0|3:0,0:0:0:0:
480,212,116761,1,0,1:0:0:0:
476,372,116939,1,0,0:0:0:0:
388,236,117118,2,0,B|372:184|372:184|368:152,1,80,0|2,3:0|0:0,0:0:0:0:
236,248,117475,2,0,B|252:300|252:300|256:332,1,80,0|2,1:0|0:0,0:0:0:0:
255,325,117743,1,0,0:0:0:0:
255,325,117832,6,0,L|76:332,1,160,0|0,3:0|1:0,0:0:0:0:
140,216,118368,1,0,3:0:0:0:
140,216,118547,2,0,P|196:240|248:232,1,80,0|0,3:0|0:0,0:0:0:0:
360,176,118904,1,0,1:0:0:0:
200,160,119082,6,0,L|108:144,1,80,0|0,3:0|0:0,0:0:0:0:
276,100,119439,2,0,L|368:92,1,80,0|0,3:0|1:0,0:0:0:0:
204,36,119797,1,0,0:0:0:0:
204,196,119975,2,0,B|208:252,1,40,0|0,3:0|0:0,0:0:0:0:
128,220,120154,2,0,L|88:136,1,80,2|0,0:3|1:0,0:0:0:0:
248,108,120511,1,2,0:3:0:0:
248,108,120689,6,0,B|308:152|272:216|340:256,1,160,0|0,3:0|1:0,0:0:0:0:
176,184,121225,1,0,3:0:0:0:
236,36,121404,2,0,P|308:35|400:40,1,160,0|0,3:0|1:0,0:0:0:0:
260,124,121939,2,0,P|192:128|160:140,1,80,0|0,3:0|0:0,0:0:0:0:
80,180,122297,5,0,3:0:0:0:
220,256,122475,1,0,1:0:0:0:
192,56,122654,1,0,0:0:0:0:
220,256,122832,2,0,P|224:288|248:336,1,80,0|0,3:0|0:0,0:0:0:0:
308,184,123189,1,0,1:0:0:0:
160,124,123368,1,0,0:0:0:0:
160,124,123457,1,0,0:0:0:0:
160,124,123547,6,0,L|60:128,1,80,0|2,3:0|0:0,0:0:0:0:
200,232,123904,1,2,1:2:0:0:
284,96,124082,1,2,3:2:0:0:
328,292,124261,1,2,3:2:0:0:
132,264,124439,1,2,0:0:0:0:
208,76,124618,1,2,1:2:0:0:
208,76,124797,6,0,L|360:156,1,160,4|0,0:0|3:0,0:0:0:0:
412,240,125332,1,0,1:0:0:0:
328,60,125511,1,0,3:0:0:0:
224,228,125689,1,0,1:0:0:0:
224,228,125779,1,0,3:0:0:0:
224,228,125868,1,0,3:0:0:0:
404,136,126047,1,0,1:0:0:0:
404,136,126136,1,0,3:0:0:0:
404,136,126225,1,0,3:0:0:0:
208,100,126404,6,0,B|144:88|144:88|144:128,1,80,4|0,0:0|0:0,0:0:0:0:
196,288,126761,1,0,1:0:0:0:
56,156,126939,2,0,L|40:64,1,80,0|0,3:0|3:0,0:0:0:0:
168,176,127297,1,0,0:0:0:0:
120,44,127475,1,0,1:0:0:0:
168,176,127654,6,0,P|220:232|300:232,1,160,0|0,3:0|3:0,0:0:0:0:
476,140,128189,1,0,1:0:0:0:
372,284,128368,1,0,3:0:0:0:
256,152,128547,2,0,P|232:116|220:64,1,80,0|0,3:0|0:0,0:0:0:0:
299,232,128904,1,0,1:0:0:0:
221,81,129261,6,0,L|140:92,1,80,0|0,3:0|0:0,0:0:0:0:
60,160,129618,1,0,1:0:0:0:
168,20,129797,1,0,3:0:0:0:
168,20,129975,2,0,L|256:4,1,80,0|0,3:0|0:0,0:0:0:0:
424,96,130332,1,0,1:0:0:0:
424,96,130511,6,0,B|360:80|308:132|244:112,1,160,4|0,0:0|3:0,0:0:0:0:
72,72,131047,1,0,1:0:0:0:
176,212,131225,1,0,3:0:0:0:
252,52,131404,1,0,3:0:0:0:
344,200,131582,5,0,3:0:0:0:
344,200,131672,1,0,3:0:0:0:
344,200,131761,1,0,1:0:0:0:
344,200,131850,1,0,3:0:0:0:
344,200,131939,1,0,3:0:0:0:
256,344,132118,6,0,B|200:304|232:232|168:208,1,160,4|0,0:0|1:0,0:0:0:0:
296,272,132654,1,0,0:0:0:0:
296,272,132832,2,0,L|332:192,1,80,0|0,3:0|1:0,0:0:0:0:
280,52,133189,1,0,1:0:0:0:
440,172,133368,6,0,P|464:248|424:312,1,160,4|0,0:0|3:0,0:0:0:0:
372,120,133904,1,0,1:0:0:0:
464,24,134082,1,0,0:0:0:0:
372,120,134261,2,0,P|336:144|296:160,1,80,0|0,3:0|3:0,0:0:0:0:
108,156,134618,1,0,1:0:0:0:
252,32,134797,1,0,3:0:0:0:
252,32,134886,1,0,3:0:0:0:
252,32,134975,6,0,L|256:112,1,80,4|0,0:0|0:0,0:0:0:0:
264,312,135332,1,0,1:0:0:0:
264,312,135511,1,0,0:0:0:0:
156,144,135689,2,0,L|184:60,1,80,0|0,3:0|1:0,0:0:0:0:
320,212,136047,1,0,1:0:0:0:
320,212,136225,6,0,P|244:232|176:184,1,160,4|0,0:0|3:0,0:0:0:0:
120,8,136761,1,0,1:0:0:0:
260,140,136939,1,0,3:0:0:0:
260,140,137118,2,0,L|252:240,1,80,0|0,3:0|3:0,0:0:0:0:
388,72,137475,1,4,1:2:0:0:
412,208,137654,1,0,3:0:0:0:
268,72,137832,6,0,P|224:48|180:40,1,80,4|0,0:0|3:0,0:0:0:0:
16,48,138189,1,0,1:0:0:0:
112,224,138368,1,0,3:0:0:0:
120,236,138457,1,0,1:0:0:0:
128,248,138547,1,0,1:0:0:0:
264,332,138725,1,8,3:0:0:0:
280,304,138814,1,8,3:0:0:0:
292,276,138904,1,8,3:0:0:0:
304,248,138993,1,8,3:0:0:0:
312,216,139082,2,0,P|312:132|264:60,1,160,4|0,0:0|0:0,0:0:0:0:
232,160,139618,6,0,L|360:124,1,120,2|0,0:0|0:0,0:0:0:0:
273,68,139975,6,0,L|185:80,1,80,2|4,0:0|3:0,0:0:0:0:
156,204,140332,6,0,B|184:256|184:256|248:232|312:264,1,180.000006866455,6|0,1:2|0:0,0:0:0:0:
240,332,140689,6,0,B|216:348|216:348|144:328,1,95.9999970703126,4|0,0:0|0:0,0:0:0:0:
16,244,141047,1,2,1:2:0:0:
204,100,141225,1,0,0:0:0:0:
204,100,141404,2,0,L|244:200,1,95.9999970703126,2|0,1:2|0:0,0:0:0:0:
308,360,141761,1,2,1:2:0:0:
124,204,141939,6,0,B|88:152|88:152|84:112,1,95.9999970703126,0|2,0:0|1:2,0:0:0:0:
320,184,142297,2,0,B|356:236|356:236|360:276,1,95.9999970703126,0|2,0:0|1:2,0:0:0:0:
180,112,142654,2,0,B|232:76|232:76|272:72,1,95.9999970703126,0|2,0:0|1:2,0:0:0:0:
200,308,143012,2,0,B|148:344|148:344|108:348,1,95.9999970703126,8|2,0:0|1:2,0:0:0:0:
180,112,143368,1,8,0:0:0:0:
320,244,143547,5,2,1:2:0:0:
312,52,143725,1,0,0:0:0:0:
164,224,143904,2,0,L|124:328,1,95.9999970703126,2|0,1:2|0:0,0:0:0:0:
320,168,144261,1,2,1:2:0:0:
116,40,144439,1,0,0:0:0:0:
320,168,144618,1,2,1:2:0:0:
116,40,144797,6,0,P|44:8|16:4,1,95.9999970703126,0|2,0:0|1:2,0:0:0:0:
220,152,145154,2,0,P|148:184|120:188,1,95.9999970703126,0|2,0:0|1:2,0:0:0:0:
16,168,145511,1,0,0:0:0:0:
168,32,145689,1,2,1:2:0:0:
204,268,145868,1,8,0:0:0:0:
100,116,146047,1,2,1:2:0:0:
336,76,146225,1,8,0:0:0:0:
116,176,146404,6,0,P|88:212|84:264,1,95.9999970703126,4|0,0:2|0:0,0:0:0:0:
303,160,146761,2,0,P|331:124|335:72,1,95.9999970703126,2|0,1:2|0:0,0:0:0:0:
164,184,147118,1,2,1:2:0:0:
352,32,147297,1,0,0:0:0:0:
304,268,147475,1,2,1:2:0:0:
160,76,147654,6,0,B|112:24|112:24|76:16,1,95.9999970703126,0|2,0:0|1:2,0:0:0:0:
160,248,148011,1,0,0:0:0:0:
396,216,148189,2,0,B|448:168|448:168|456:132,1,95.9999970703126,2|0,1:2|0:0,0:0:0:0:
352,32,148547,1,2,1:2:0:0:
312,224,148725,1,8,0:0:0:0:
256,72,148904,1,2,1:2:0:0:
492,108,149082,1,8,0:0:0:0:
248,160,149261,6,0,L|144:196,1,95.9999970703126,2|0,1:2|0:0,0:0:0:0:
312,304,149618,2,0,L|416:268,1,95.9999970703126,2|0,1:2|0:0,0:0:0:0:
216,236,149975,1,2,1:2:0:0:
372,120,150154,1,0,0:0:0:0:
204,28,150332,1,2,1:2:0:0:
204,28,150511,6,0,P|184:76|191:133,1,95.9999970703126,0|2,0:0|1:2,0:0:0:0:
284,284,150868,1,8,0:0:0:0:
292,92,151047,1,0,1:0:0:0:
292,92,151225,2,0,P|312:140|304:197,1,95.9999970703126,8|8,0:0|0:2,0:0:0:0:
204,344,151582,1,8,0:0:0:0:
204,344,151672,1,8,0:0:0:0:
204,344,151761,1,0,1:0:0:0:
100,120,151939,1,0,3:0:0:0:
264,264,152297,5,0,0:0:0:0:
264,264,152475,2,0,B|264:160|264:160|304:196|344:188,1,191.999994140625,4|8,3:2|0:0,0:0:0:0:
328,88,153011,1,0,0:0:0:0:
152,160,153189,2,0,L|128:272,1,95.9999970703126,0|0,1:0|0:0,0:0:0:0:
248,96,153547,6,0,P|292:16|388:40,1,191.999994140625,4|0,0:0|1:0,0:0:0:0:
436,212,154082,2,0,B|388:148|316:176|316:176|320:112,1,191.999994140625,4|0,0:0|1:0,0:0:0:0:
356,264,154618,1,0,1:0:0:0:
356,264,154707,1,8,0:0:0:0:
356,264,154797,1,8,0:0:0:0:
208,136,155154,5,0,0:0:0:0:
208,136,155332,2,0,B|184:216|80:176|64:268,1,191.999994140625,12|8,0:0|0:0,0:0:0:0:
124,104,155868,1,8,0:0:0:0:
308,48,156047,2,0,L|416:48,1,95.9999970703126,0|8,1:0|0:0,0:0:0:0:
284,180,156404,5,0,1:0:0:0:
432,200,156582,1,0,0:0:0:0:
284,180,156761,2,0,B|204:168|204:168|176:184,1,95.9999970703126,12|0,0:0|0:0,0:0:0:0:
232,80,157118,1,8,0:0:0:0:
252,272,157297,1,8,0:0:0:0:
272,304,157386,1,8,0:0:0:0:
300,328,157475,1,8,0:0:0:0:
336,340,157564,1,8,0:0:0:0:
376,344,157654,1,8,0:0:0:0:
412,336,157743,1,8,0:0:0:0:
448,320,157832,6,0,L|476:216,1,95.9999970703126,4|0,1:2|0:0,0:0:0:0:
448,72,158189,1,2,1:2:0:0:
332,224,158368,1,0,0:2:0:0:
308,12,158547,1,2,1:2:0:0:
468,148,158725,1,0,0:2:0:0:
308,12,158904,1,2,1:2:0:0:
184,216,159082,6,0,L|176:320,1,95.9999970703126,0|2,0:2|1:2,0:2:0:0:
192,72,159439,2,0,L|296:68,1,95.9999970703126,0|2,0:2|1:2,0:2:0:0:
48,84,159797,2,0,L|24:-12,1,95.9999970703126,0|2,0:2|1:2,0:2:0:0:
104,220,160154,2,0,L|24:296,1,95.9999970703126,8|2,0:2|1:2,0:2:0:0:
140,68,160511,1,8,0:0:0:0:
140,68,160689,6,0,P|224:32|320:60,1,191.999994140625,2|2,1:2|1:2,0:0:0:0:
416,144,161225,1,0,0:2:0:0:
400,20,161404,1,2,1:2:0:0:
216,172,161582,1,0,0:2:0:0:
280,288,161761,1,2,1:2:0:0:
336,164,161939,6,0,L|364:72,1,95.9999970703126,0|2,0:2|1:2,0:2:0:0:
176,220,162297,2,0,L|148:312,1,95.9999970703126,0|2,0:2|1:2,0:2:0:0:
80,80,162654,1,0,0:2:0:0:
316,44,162832,1,2,1:2:0:0:
168,24,163011,1,8,0:2:0:0:
56,236,163189,1,2,1:2:0:0:
80,80,163368,1,8,0:2:0:0:
184,268,163547,6,0,P|216:300|276:328,1,95.9999970703126,4|0,0:0|0:0,0:0:0:0:
232,168,163904,1,2,1:2:0:0:
68,340,164082,1,0,0:0:0:0:
196,96,164261,1,2,1:2:0:0:
188,336,164439,1,0,0:2:0:0:
116,108,164618,1,2,1:2:0:0:
352,156,164797,1,0,0:2:0:0:
120,220,164975,6,0,B|68:252|68:252|36:288,1,95.9999970703126,2|0,1:2|0:2,0:2:0:0:
276,214,165332,2,0,B|328:182|328:182|360:146,1,95.9999970703126,2|0,1:2|0:2,0:2:0:0:
216,36,165689,1,2,1:2:0:0:
216,36,165868,2,0,P|232:88|188:104,1,95.9999970703126,8|2,0:0|1:2,0:0:0:0:
96,40,166225,1,8,0:0:0:0:
304,164,166404,6,0,B|372:176|372:176|412:172,1,95.9999970703126,2|0,1:2|0:0,0:0:0:0:
168,240,166761,2,0,B|100:252|100:252|60:248,1,95.9999970703126,2|0,1:2|0:0,0:0:0:0:
304,320,167118,2,0,B|372:332|372:332|412:328,1,95.9999970703126,2|8,1:2|0:0,0:0:0:0:
248,140,167475,1,2,1:2:0:0:
356,36,167654,2,0,L|376:232,1,191.999994140625,12|8,0:0|0:0,0:0:0:0:
188,80,168189,1,0,1:2:0:0:
188,80,168368,6,0,P|152:124|228:212,1,191.999994140625,8|0,0:0|1:0,0:0:0:0:
224,212,168814,1,0,1:0:0:0:
224,212,168904,1,0,1:0:0:0:
272,28,169082,1,0,0:0:0:0:
384,224,169439,5,0,0:0:0:0:
384,224,169618,2,0,B|328:168|348:92|348:92|284:108,1,191.999994140625,12|8,0:0|0:0,0:0:0:0:
440,144,170154,1,8,0:0:0:0:
204,180,170332,2,0,L|104:208,1,95.9999970703126,0|0,1:0|0:0,0:0:0:0:
240,60,170689,6,0,B|304:-12|368:40|368:40|340:104,1,191.999994140625,4|0,0:0|1:0,0:0:0:0:
204,180,171225,2,0,B|140:252|76:200|76:200|104:136,1,191.999994140625,4|8,0:0|0:0,0:0:0:0:
176,24,171761,1,0,1:0:0:0:
176,24,171850,1,0,1:0:0:0:
176,24,171939,1,0,1:0:0:0:
184,308,172297,5,0,0:0:0:0:
184,308,172475,2,0,B|128:240|208:168|152:108,1,191.999994140625,4|8,0:0|0:0,0:0:0:0:
163,123,173011,1,8,0:0:0:0:
284,252,173189,2,0,L|284:360,1,95.9999970703126,0|8,1:0|0:0,0:0:0:0:
284,348,173547,1,0,1:0:0:0:
384,176,173725,1,8,0:0:0:0:
328,24,173904,6,0,L|224:24,1,95.9999970703126,12|0,0:0|0:0,0:0:0:0:
344,128,174261,2,0,P|380:144|428:124,1,80,0|8,0:0|0:0,0:0:0:0:
264,188,174618,2,0,B|220:196|220:196|196:228,1,60.0000022888184,8|8,0:0|0:0,0:0:0:0:
152,312,174975,6,0,B|104:280|44:300|44:300|24:224|66:171|44:136,1,280,4|0,0:0|0:0,0:0:0:0:
160,36,176404,5,4,0:0:0:0:
164,260,176582,1,8,0:0:0:0:
352,140,176761,1,8,0:0:0:0:
156,200,176939,5,8,0:0:0:0:
254,38,177118,1,8,0:0:0:0:
345,208,177297,1,8,0:0:0:0:
200,124,177475,5,8,0:0:0:0:
264,272,177654,1,8,0:0:0:0:
352,140,177832,1,8,1:2:0:0:
216,84,178189,5,8,0:0:0:0:
216,84,178547,1,8,0:0:0:0:
216,84,178904,1,8,0:0:0:0:
164,192,179082,2,0,L|116:200,1,40
192,284,179261,5,8,0:0:0:0:
192,284,179618,1,8,0:0:0:0:
192,284,179975,1,8,0:0:0:0:
192,284,180332,1,8,0:0:0:0:
248,160,180511,1,2,0:0:0:0:
324,272,180689,5,8,0:0:0:0:
324,272,181047,1,8,0:0:0:0:
324,272,181404,1,8,0:0:0:0:
324,272,181761,1,8,0:0:0:0:
388,172,181939,2,0,L|388:120,1,40
480,204,182118,5,8,0:0:0:0:
480,204,182475,1,8,0:0:0:0:
468,88,182654,1,2,0:0:0:0:
408,268,182832,1,8,0:0:0:0:
400,268,182922,1,0,0:0:0:0:
392,268,183011,2,0,L|312:260,1,80,2|8,0:0|0:0,0:0:0:0:
152,144,183547,5,4,0:0:0:0:
152,144,183904,1,8,0:0:0:0:
152,144,184261,1,8,0:0:0:0:
152,144,184618,1,8,0:0:0:0:
152,144,184975,5,8,0:0:0:0:
208,56,185154,1,2,0:0:0:0:
216,68,185332,1,8,0:0:0:0:
332,104,185511,1,2,0:0:0:0:
324,116,185689,1,8,0:0:0:0:
232,256,186047,1,8,0:0:0:0:
236,108,186404,6,0,L|240:20,1,80,8|0,0:0|0:0,0:0:0:0:
176,180,186761,2,0,L|180:92,1,80,8|0,0:0|0:0,0:0:0:0:
116,252,187118,2,0,L|120:164,1,80,8|0,0:0|0:0,0:0:0:0:
56,328,187475,2,0,L|60:240,1,80,8|0,0:0|0:0,0:0:0:0:
72,60,187832,5,4,0:0:0:0:
72,60,188189,5,8,0:0:0:0:
119,172,188368,1,8,0:0:0:0:
160,48,188547,1,8,0:0:0:0:
232,188,188725,1,8,0:0:0:0:
256,48,188904,1,8,0:0:0:0:
148,236,189082,1,8,0:0:0:0:
344,192,189261,6,0,P|424:200|480:264,2,160,4|0|8,0:0|1:0|0:0,0:0:0:0:
188,236,190154,1,8,0:0:0:0:
192,76,190332,1,0,1:0:0:0:
192,76,190511,2,0,L|264:232,1,160,8|8,0:0|0:0,0:0:0:0:
128,128,191047,1,0,1:0:0:0:
276,72,191225,1,0,0:0:0:0:
128,128,191404,2,0,P|72:124|44:104,1,80,8|8,0:0|0:0,0:0:0:0:
276,72,191761,2,0,P|332:76|360:96,1,80,0|8,1:0|0:0,0:0:0:0:
204,152,192118,6,0,P|160:92|184:12,2,160,8|0|8,0:0|1:0|0:0,0:0:0:0:
348,224,193011,1,8,0:0:0:0:
280,80,193189,1,0,1:0:0:0:
220,228,193368,2,0,B|192:264|192:264|140:220|80:236,1,160,8|8,0:0|0:0,0:0:0:0:
120,332,193904,1,0,1:0:0:0:
156,176,194082,1,8,0:0:0:0:
40,288,194261,1,8,0:0:0:0:
196,312,194439,1,8,0:0:0:0:
300,180,194618,2,0,P|304:124|288:88,1,80,0|8,1:0|0:0,0:0:0:0:
216,24,194975,6,0,P|288:-4|368:28,2,160,4|0|8,0:0|1:0|0:0,0:0:0:0:
100,136,195868,2,0,L|24:104,1,80,8|0,0:0|1:0,0:0:0:0:
92,252,196225,1,4,0:0:0:0:
232,192,196582,1,8,0:0:0:0:
232,192,196761,2,0,L|204:104,1,80,0|0,1:0|0:0,0:0:0:0:
320,232,197118,2,0,L|232:280,1,80,8|8,0:0|0:0,0:0:0:0:
356,152,197475,2,0,L|412:224,1,80,0|8,1:0|0:0,0:0:0:0:
476,316,197832,5,4,0:0:0:0:
288,72,198189,1,0,1:0:0:0:
196,204,198368,1,8,0:0:0:0:
160,72,198547,1,0,1:0:0:0:
400,68,198725,1,8,0:0:0:0:
160,72,198904,1,8,0:0:0:0:
360,176,199082,6,0,P|400:244|360:324,1,160,4|8,0:0|0:0,0:0:0:0:
284,180,199618,2,0,L|276:96,1,80,4|8,1:2|0:0,0:0:0:0:
184,232,199975,1,4,1:2:0:0:
120,120,200154,1,8,0:0:0:0:
136,88,200243,1,8,0:0:0:0:
156,60,200332,1,8,0:0:0:0:
184,36,200422,1,8,0:0:0:0:
216,20,200511,1,8,0:0:0:0:
252,12,200600,1,8,0:0:0:0:
288,12,200689,6,0,P|364:40|412:116,2,160,4|2|2,0:0|1:2|1:2,0:0:0:0:
192,140,201582,1,8,0:0:0:0:
192,140,201761,2,0,L|276:160,1,80,2|8,1:2|0:0,0:0:0:0:
424,200,202118,5,2,1:2:0:0:
324,76,202297,1,0,0:0:0:0:
304,236,202475,1,2,1:2:0:0:
404,112,202654,1,0,0:0:0:0:
304,236,202832,2,0,L|224:272,1,80,2|8,1:2|0:0,0:0:0:0:
84,208,203189,2,0,L|164:172,1,80,2|8,1:2|0:0,0:0:0:0:
304,112,203547,6,0,B|348:88|348:88|372:148|444:168,1,160,2|2,1:2|1:2,0:0:0:0:
440,60,204082,1,0,0:0:0:0:
332,180,204261,2,0,P|272:220|252:228,1,80,2|8,1:2|0:0,0:0:0:0:
208,72,204618,2,0,P|248:132|256:152,1,80,2|8,1:2|0:0,0:0:0:0:
276,296,204975,5,2,1:2:0:0:
160,184,205154,1,0,0:0:0:0:
204,264,205332,1,2,1:2:0:0:
284,124,205511,1,0,0:0:0:0:
276,216,205689,1,2,1:2:0:0:
152,116,205868,1,8,0:0:0:0:
284,24,206047,2,0,P|324:20|368:24,1,80,4|8,1:2|0:0,0:0:0:0:
241,133,206404,6,0,P|189:184|206:267,2,160,8|4|2,0:2|1:2|1:2,0:2:0:0:
400,104,207297,1,8,0:0:0:0:
276,216,207475,2,0,L|188:208,1,80,2|8,1:2|0:0,0:0:0:0:
36,196,207832,5,2,1:2:0:0:
36,196,208011,1,0,0:0:0:0:
132,68,208189,1,2,1:2:0:0:
132,68,208368,1,0,0:0:0:0:
108,228,208547,2,0,P|108:268|116:324,1,80,2|8,1:2|0:0,0:0:0:0:
200,172,208904,2,0,P|200:132|208:76,1,80,2|8,1:2|0:0,0:0:0:0:
288,228,209261,6,0,P|280:304|216:376,2,160,2|2|2,1:2|1:2|1:2,0:0:0:0:
248,72,210154,1,8,0:0:0:0:
176,216,210332,1,2,1:2:0:0:
324,156,210511,6,0,P|404:168|464:236,1,160,4|0,0:0|1:2,0:0:0:0:
376,84,211047,1,0,1:0:0:0:
360,244,211225,1,8,0:0:0:0:
376,84,211404,1,0,1:0:0:0:
232,156,211582,1,0,1:0:0:0:
212,168,211672,1,0,1:0:0:0:
192,180,211761,1,8,0:0:0:0:
172,192,211850,1,8,0:0:0:0:
152,204,211939,1,8,0:0:0:0:
132,216,212029,1,8,0:0:0:0:
112,228,212118,6,0,B|60:260|60:260|136:344,1,160,12|2,0:0|1:2,0:0:0:0:
264,252,212654,1,0,0:0:0:0:
264,252,212832,2,0,P|208:248|176:228,1,80,2|0,1:2|0:0,0:0:0:0:
320,148,213189,1,2,1:2:0:0:
180,68,213368,6,2,P|144:96|120:132,1,80,0|2,0:0|1:2,1:2:0:0:
276,76,213725,1,0,0:0:0:0:
120,44,213904,2,2,P|84:72|60:108,1,80,2|0,1:2|0:0,1:2:0:0:
4,248,214261,1,2,1:2:0:0:
160,216,214439,1,8,0:0:0:0:
20,140,214618,1,2,1:2:0:0:
72,292,214797,1,8,0:0:0:0:
140,148,214975,6,0,P|168:104|284:128,1,160,2|2,1:2|1:2,0:0:0:0:
400,196,215511,1,0,0:0:0:0:
240,216,215689,2,0,L|160:248,1,80,2|8,1:2|0:0,0:0:0:0:
316,300,216047,1,2,1:2:0:0:
328,140,216225,6,0,P|316:76|296:52,1,80,8|2,0:0|1:2,0:0:0:0:
260,216,216582,1,0,0:0:0:0:
400,136,216761,2,0,P|388:72|368:48,1,80,2|0,1:2|0:0,0:0:0:0:
224,24,217118,1,2,1:2:0:0:
168,172,217297,1,8,0:0:0:0:
144,80,217475,1,4,1:2:0:0:
252,196,217654,1,8,0:0:0:0:
312,48,217832,6,0,P|348:24|456:60,2,160,2|2|2,1:2|1:2|1:2,0:0:0:0:
380,192,218725,1,8,0:0:0:0:
308,120,218904,2,0,L|208:144,1,80,2|8,1:2|0:0,0:0:0:0:
72,172,219261,5,8,1:2:0:0:
168,236,219439,1,0,0:0:0:0:
148,76,219618,1,2,1:2:0:0:
52,204,219797,1,0,0:0:0:0:
192,128,219975,2,0,L|280:88,1,80,2|8,1:2|0:0,0:0:0:0:
216,248,220332,2,0,L|128:288,1,80,2|8,1:2|0:0,0:0:0:0:
268,180,220689,6,0,P|296:208|300:268,1,80,4|0,1:2|1:0,0:0:0:0:
304,246,220957,1,0,1:0:0:0:
304,246,221047,1,0,1:0:0:0:
412,128,221225,2,0,L|372:60,1,40,8|0,0:0|0:0,0:0:0:0:
180,120,221582,2,0,L|204:68,1,40,8|0,0:0|0:0,0:0:0:0:
292,168,221939,6,0,B|288:236|288:236|236:232|168:288,1,200,2|0,0:0|0:0,0:0:0:0:
96,252,222475,6,0,L|92:160,1,90.0000034332277,2|0,0:0|0:0,0:0:0:0:
168,72,222832,6,0,P|148:112|172:164,1,90.0000034332277,2|0,0:0|0:0,0:0:0:0:
248,76,223189,6,0,P|272:24|312:8,1,90.0000034332277,2|0,0:0|0:0,0:0:0:0:
332,88,223547,5,6,0:0:0:0:
336,184,223904,1,0,0:0:0:0:
248,144,224261,2,0,P|204:144|152:168,1,95.9999970703126
156,164,224797,1,0,0:0:0:0:
184,256,225154,1,0,0:0:0:0:
276,288,225511,2,0,P|320:288|372:264,1,95.9999970703126
376,128,226225,1,0,0:0:0:0:
376,128,226404,6,0,L|296:212,2,95.9999970703126
364,56,227297,1,0,0:0:0:0:
300,20,227475,1,0,0:0:0:0:
228,28,227654,2,0,P|176:64|140:108,1,95.9999970703126
140,232,228368,1,0,0:0:0:0:
252,144,228725,1,0,0:0:0:0:
252,144,228904,2,0,L|264:208,1,47.9999985351563
276,260,229261,5,4,0:0:0:0:
352,200,229618,1,0,0:0:0:0:
352,200,229975,2,0,P|364:248|396:280,1,95.9999970703126
468,308,230511,1,0,0:0:0:0:
432,212,230868,1,0,0:0:0:0:
432,212,231047,2,0,L|416:152,1,47.9999985351563
360,100,231404,2,0,L|352:160,1,47.9999985351563
296,236,231761,2,0,L|276:180,1,47.9999985351563
256,120,232118,1,0,0:0:0:0:
256,120,232832,5,2,0:0:0:0:
212,232,233011,1,8,3:0:0:0:
144,88,233189,1,0,1:0:0:0:
128,248,233368,6,0,P|160:304|252:304,1,160,4|0,0:0|3:0,0:0:0:0:
308,156,233904,1,8,1:2:0:0:
352,308,234082,1,0,3:0:0:0:
352,308,234172,1,0,3:0:0:0:
352,308,234261,1,0,3:0:0:0:
432,168,234439,2,0,L|360:88,1,80,0|0,3:0|1:0,0:0:0:0:
228,48,234797,1,0,1:0:0:0:
228,48,235332,6,0,P|176:92|236:152,1,160,4|8,0:0|0:0,0:0:0:0:
152,240,236047,1,0,0:0:0:0:
312,320,236404,6,0,L|312:224,1,80,0|0,1:0|0:0,0:0:0:0:
312,96,236761,1,8,0:0:0:0:
312,96,236939,2,0,B|268:112|220:100,1,80,8|8,0:0|0:0,0:0:0:0:
96,56,237297,1,8,0:0:0:0:
192,160,237475,1,8,0:0:0:0:
264,36,237654,1,0,1:0:0:0:
192,160,238189,6,0,B|144:176|144:176|156:244|228:232,1,160,4|8,0:0|0:0,0:0:0:0:
240,80,238904,1,8,0:0:0:0:
340,216,239261,2,0,L|328:304,1,80,8|0,0:0|0:0,0:0:0:0:
220,200,239618,1,0,1:0:0:0:
92,132,239797,2,0,L|108:236,1,80,0|0,1:0|0:0,0:0:0:0:
212,116,240154,1,0,1:0:0:0:
352,84,240332,2,0,L|344:176,1,80,0|8,1:0|0:0,0:0:0:0:
345,163,240600,1,8,0:0:0:0:
345,163,240689,1,4,1:2:0:0:
216,308,241047,5,0,1:0:0:0:
104,220,241225,1,8,0:0:0:0:
60,356,241404,1,8,0:0:0:0:
60,356,241493,1,8,0:0:0:0:
60,356,241582,1,0,1:0:0:0:
60,356,241672,1,0,1:0:0:0:
60,356,241761,1,0,1:0:0:0:
36,216,241939,1,12,0:0:0:0:
232,84,243904,5,2,0:0:0:0:
224,260,244261,1,2,1:2:0:0:
316,168,244439,5,8,0:0:0:0:
332,140,244529,1,8,0:0:0:0:
352,116,244618,1,0,1:0:0:0:
372,92,244707,1,8,0:0:0:0:
396,72,244797,1,8,0:0:0:0:
328,280,244975,6,0,P|272:312|232:320,1,95.9999970703126,4|0,0:0|0:0,0:0:0:0:
64,188,245332,2,0,P|120:156|160:148,1,95.9999970703126,2|0,1:2|0:0,0:0:0:0:
320,144,245689,1,2,1:2:0:0:
172,308,245868,1,0,0:2:0:0:
180,88,246047,1,2,1:2:0:0:
280,284,246225,6,0,P|316:316|368:320,1,95.9999970703126,0|2,0:2|1:2,0:2:0:0:
216,200,246582,2,0,P|184:236|180:288,1,95.9999970703126,0|2,0:2|1:2,0:2:0:0:
356,148,246939,1,0,0:2:0:0:
160,44,247118,2,0,P|104:32|64:44,1,95.9999970703126,2|8,1:2|0:2,0:2:0:0:
216,200,247475,2,0,P|272:212|312:200,1,95.9999970703126,2|8,1:2|0:2,0:2:0:0:
472,80,247832,5,2,1:2:0:0:
396,288,248011,1,0,2:2:0:0:
268,84,248189,1,2,1:2:0:0:
480,200,248368,1,0,2:2:0:0:
244,152,248547,2,0,B|204:148|204:148|136:152,1,95.9999970703126,2|0,1:2|2:2,2:2:0:0:
336,256,248904,1,2,1:2:0:0:
412,96,249082,6,0,L|400:0,1,95.9999970703126,0|2,2:2|1:2,2:2:0:0:
236,176,249439,2,0,L|248:272,1,95.9999970703126,0|2,2:2|1:2,2:2:0:0:
316,40,249797,1,0,2:2:0:0:
112,164,249975,1,2,1:2:0:0:
168,32,250154,1,8,2:2:0:0:
204,204,250332,1,2,1:2:0:0:
116,316,250511,1,8,2:2:0:0:
204,204,250689,6,0,P|248:168|308:144,1,95.9999970703126,2|0,1:2|0:2,0:2:0:0:
472,108,251047,1,2,1:2:0:0:
308,280,251225,1,0,0:2:0:0:
304,40,251404,1,2,1:2:0:0:
308,280,251582,1,0,0:2:0:0:
396,56,251761,1,2,1:2:0:0:
308,280,251939,1,0,0:2:0:0:
204,64,252118,6,0,P|160:32|120:24,1,95.9999970703126,2|0,1:2|0:2,0:2:0:0:
232,236,252475,2,0,P|276:204|316:196,1,95.9999970703126,2|0,1:2|0:2,0:2:0:0:
492,208,252832,1,2,1:2:0:0:
288,336,253011,1,8,0:2:0:0:
280,96,253189,1,2,1:2:0:0:
492,208,253368,1,8,0:2:0:0:
252,236,253547,6,0,P|164:264|144:276,1,95.9999970703126,2|0,1:2|0:2,0:2:0:0:
368,140,253904,2,0,P|280:168|260:180,1,95.9999970703126,2|0,1:2|0:2,0:2:0:0:
392,56,254261,1,2,1:2:0:0:
152,32,254439,1,0,0:2:0:0:
176,272,254618,1,2,1:2:0:0:
176,272,254797,6,0,L|204:168,1,95.9999970703126,0|2,0:2|1:2,0:2:0:0:
272,40,255154,1,8,0:2:0:0:
348,268,255332,1,2,1:2:0:0:
272,40,255511,1,0,0:2:0:0:
252,240,255689,1,0,1:2:0:0:
252,240,255779,1,8,0:2:0:0:
252,240,255868,1,8,0:2:0:0:
180,84,256047,1,0,1:2:0:0:
315,230,256225,1,12,0:2:0:0:
204,184,256582,5,0,0:0:0:0:
204,184,256761,6,0,P|244:148|304:248,1,191.999994140625,4|8,0:0|0:0,0:0:0:0:
492,152,257297,1,8,0:0:0:0:
492,152,257475,2,0,L|468:56,1,95.9999970703126,0|0,1:0|0:0,0:0:0:0:
412,244,257832,6,0,P|356:316|264:304,1,191.999994140625,4|0,0:0|1:0,0:0:0:0:
364,140,258368,2,0,B|320:232|320:232|280:192|232:204,1,191.999994140625,4|8,0:0|0:0,0:0:0:0:
92,248,258904,1,0,1:0:0:0:
92,248,258993,1,8,0:0:0:0:
92,248,259082,1,8,0:0:0:0:
128,80,259439,5,0,0:0:0:0:
128,80,259618,6,0,B|180:56|180:56|168:112|272:148,1,191.999994140625,4|8,0:0|0:0,0:0:0:0:
400,172,260154,1,8,0:0:0:0:
224,244,260332,2,0,L|128:256,1,95.9999970703126,0|0,1:0|0:0,0:0:0:0:
60,148,260689,1,0,1:0:0:0:
160,312,260868,1,8,0:0:0:0:
232,136,261047,2,0,P|272:96|312:72,1,95.9999970703126,0|8,1:0|0:0,0:0:0:0:
305,75,261314,1,8,0:0:0:0:
305,75,261404,1,0,1:0:0:0:
268,192,261582,5,8,0:0:0:0:
248,220,261672,1,8,0:0:0:0:
236,252,261761,1,0,1:0:0:0:
232,284,261850,1,8,0:0:0:0:
236,316,261939,1,8,0:0:0:0:
248,348,262029,1,8,0:0:0:0:
272,372,262118,6,0,P|320:380|376:360,1,95.9999970703126,4|0,0:2|0:0,0:0:0:0:
496,200,262475,1,2,1:2:0:0:
464,360,262654,1,0,0:2:0:0:
384,136,262832,1,2,1:2:0:0:
384,136,263011,2,0,L|288:104,1,95.9999970703126,0|2,0:2|1:2,0:2:0:0:
56,60,263368,5,0,0:2:0:0:
136,288,263547,1,2,1:2:0:0:
208,120,263725,1,0,0:2:0:0:
52,304,263904,1,2,1:2:0:0:
208,120,264082,2,0,P|248:96|308:84,1,95.9999970703126,0|2,0:2|1:2,0:2:0:0:
500,208,264439,2,0,P|460:232|400:244,1,95.9999970703126,8|2,0:2|1:2,0:2:0:0:
172,212,264797,1,8,0:0:0:0:
172,212,264975,6,0,L|276:192,1,95.9999970703126,2|0,1:2|0:2,0:2:0:0:
96,148,265332,2,0,L|60:264,1,95.9999970703126,2|0,1:2|0:2,0:2:0:0:
196,112,265689,2,0,L|112:56,1,95.9999970703126,2|0,1:2|0:2,0:2:0:0:
356,88,266047,1,2,1:2:0:0:
192,264,266225,6,0,P|152:316|136:348,1,95.9999970703126,0|2,0:2|1:2,0:2:0:0:
252,132,266582,1,0,0:2:0:0:
340,308,266761,1,2,1:2:0:0:
144,168,266939,1,0,0:2:0:0:
384,156,267118,1,2,1:2:0:0:
188,296,267297,1,8,0:2:0:0:
188,56,267475,1,2,1:2:0:0:
188,296,267654,1,8,0:2:0:0:
288,176,267832,6,0,P|316:116|340:80,1,95.9999970703126,4|0,0:2|0:2,0:2:0:0:
476,16,268189,1,2,1:2:0:0:
436,252,268368,1,0,0:2:0:0:
244,108,268547,1,2,1:2:0:0:
404,324,268725,1,0,0:2:0:0:
180,148,268904,1,2,1:2:0:0:
416,176,269082,6,0,L|520:180,1,95.9999970703126,0|2,0:2|1:2,0:2:0:0:
280,240,269439,2,0,L|184:236,1,95.9999970703126,0|2,0:2|1:2,0:2:0:0:
16,228,269797,1,0,0:0:0:0:
156,36,269975,1,2,1:2:0:0:
116,204,270154,1,8,0:0:0:0:
76,48,270332,1,2,1:2:0:0:
316,52,270511,1,8,0:0:0:0:
316,52,270689,6,0,P|300:104|320:152,1,95.9999970703126,2|0,1:2|0:2,0:2:0:0:
484,104,271047,2,0,P|432:88|384:108,1,95.9999970703126,2|0,1:2|0:2,0:2:0:0:
436,272,271404,2,0,P|452:220|432:172,1,95.9999970703126,2|8,1:2|0:2,0:2:0:0:
320,304,271761,1,0,1:2:0:0:
256,136,271939,6,0,P|208:92|140:176,1,191.999994140625,4|8,0:2|0:2,0:2:0:0:
232,284,272475,1,0,1:0:0:0:
360,112,272654,1,0,1:0:0:0:
360,112,272743,1,0,1:0:0:0:
360,112,272832,1,0,1:0:0:0:
328,276,273011,1,8,0:0:0:0:
236,56,273189,1,8,0:0:0:0:
440,184,273368,1,8,0:0:0:0:
224,168,273725,5,0,0:0:0:0:
224,168,273904,6,0,B|204:244|112:216|100:320,1,191.999994140625,4|8,0:0|0:0,0:0:0:0:
132,144,274439,1,8,0:0:0:0:
308,68,274618,2,0,L|416:92,1,95.9999970703126,0|0,1:0|0:0,0:0:0:0:
204,88,274975,6,0,P|112:60|40:136,1,191.999994140625,4|0,0:0|1:0,0:0:0:0:
212,212,275511,2,0,P|304:240|376:164,1,191.999994140625,4|8,0:0|0:0,0:0:0:0:
368,32,276047,1,0,1:0:0:0:
440,208,276225,1,8,0:0:0:0:
284,152,276582,5,0,0:0:0:0:
284,152,276761,6,0,B|248:72|248:72|208:116|136:124,1,191.999994140625,4|8,0:0|0:0,0:0:0:0:
4,96,277297,1,8,0:0:0:0:
120,248,277475,2,0,P|168:272|220:280,1,95.9999970703126,0|8,1:0|0:0,0:0:0:0:
209,279,277743,1,8,0:0:0:0:
209,279,277832,5,0,1:0:0:0:
148,92,278011,1,8,0:0:0:0:
148,92,278189,2,0,B|232:84|264:168|264:168|312:156,1,191.999994140625,0|0,1:0|0:0,0:0:0:0:
408,88,278725,1,8,0:0:0:0:
360,216,278904,1,8,0:3:0:0:
320,56,279082,1,4,0:3:0:0:
360,216,279261,6,0,B|352:284|352:284|268:216|200:288|200:288|192:208|148:164,1,360.000013732911,4|0,0:0|0:0,0:0:0:0:
104,68,280689,6,0,L|208:68,1,80,4|0,0:0|0:0,0:0:0:0:
112,212,281047,2,0,L|8:212,1,80,4|0,0:0|0:0,0:0:0:0:
168,124,281404,1,0,1:0:0:0:
200,120,281493,1,8,0:0:0:0:
232,116,281582,1,8,0:0:0:0:
264,112,281672,1,8,0:0:0:0:
296,108,281761,1,4,1:2:0:0:
260,264,282118,5,0,1:0:0:0:
260,264,282475,6,0,P|204:312|144:252,1,160,0|0,1:0|1:0,0:0:0:0:
136,108,283011,1,8,0:0:0:0:
204,200,283368,6,0,L|208:368,1,160,12|8,0:0|0:0,0:0:0:0:
328,252,283904,1,0,1:0:0:0:
328,252,284082,1,8,0:0:0:0:
268,104,284261,2,0,P|236:64|204:48,1,80,0|8,1:0|0:0,0:0:0:0:
52,24,284618,1,0,1:0:0:0:
200,228,284975,5,0,1:0:0:0:
200,228,285332,6,0,B|220:164|220:164|256:200|340:188,1,160,12|0,0:0|1:0,0:0:0:0:
304,32,285868,1,8,0:0:0:0:
156,124,286225,6,0,P|128:192|184:256,1,160,12|8,0:0|0:0,0:0:0:0:
236,104,286761,1,0,1:0:0:0:
80,76,286939,1,0,0:0:0:0:
204,180,287118,1,8,0:0:0:0:
320,72,287297,1,0,1:0:0:0:
344,52,287386,1,0,1:0:0:0:
372,36,287475,1,8,0:0:0:0:
404,28,287564,1,8,0:0:0:0:
436,24,287654,1,8,0:0:0:0:
336,160,287832,5,4,1:2:0:0:
336,160,288189,6,0,B|284:200|308:268|308:268|252:292,1,160,12|0,0:0|1:0,0:0:0:0:
204,140,288725,1,8,0:0:0:0:
92,256,289082,6,0,B|96:312|96:312|156:276|212:308,1,160,12|0,0:0|0:0,0:0:0:0:
144,148,289618,1,0,1:0:0:0:
264,40,289797,1,8,0:0:0:0:
296,196,289975,1,0,1:0:0:0:
144,148,290154,1,8,0:0:0:0:
264,40,290332,1,0,1:0:0:0:
384,180,290689,5,0,1:0:0:0:
384,180,291047,6,0,B|380:128|380:128|328:156|248:172,1,160,12|0,0:0|1:0,0:0:0:0:
312,276,291582,2,0,L|404:300,1,80,8|2,0:0|0:0,0:0:0:0:
248,316,291939,6,0,B|180:324|136:280|136:280|180:216|144:152|144:152|180:100,1,320,4|0,0:0|0:0,0:0:0:0:
244,168,293547,6,0,B|240:204|240:204|264:228|320:220,1,120,4|0,0:0|0:0,0:0:0:0:
336,132,294082,5,8,0:0:0:0:
224,228,294439,5,8,0:0:0:0:
252,80,294618,1,4,0:3:0:0:
256,192,295332,12,0,299618,0:0:0:0:
