osu file format v14

[General]
AudioFilename: .mp3
AudioLeadIn: 0
PreviewTime: 143
Countdown: 0
SampleSet: Soft
StackLeniency: 0.7
Mode: 0
LetterboxInBreaks: 0
WidescreenStoryboard: 0

[Editor]
Bookmarks: 36898,75252
DistanceSpacing: 1.5
BeatDivisor: 4
GridSize: 16
TimelineZoom: 1

[Metadata]
Title:Ring of Fortune
TitleUnicode:Ring of Fortune
Artist:Eri Sasaki
ArtistUnicode:佐々木恵梨
Creator:kpx-x
Version:Insane
Source:プラスティック・メモリーズ
Tags:Plastic Memories tv size
BeatmapID:1214549
BeatmapSetID:573291

[Difficulty]
HPDrainRate:5
CircleSize:3.6
OverallDifficulty:7.6
ApproachRate:8.6
SliderMultiplier:1.8
SliderTickRate:1

[Events]
//Background and Video events
0,0,".png",0,0
//Break Periods
//Storyboard Layer 0 (Background)
//Storyboard Layer 1 (Fail)
//Storyboard Layer 2 (Pass)
//Storyboard Layer 3 (Foreground)
//Storyboard Sound Samples

[TimingPoints]
143,405.405405405405,4,2,64,80,1,0
954,405.405405405405,4,2,64,80,1,0
954,-166.666666666667,4,2,64,80,0,0
3386,379.746835443038,4,2,64,80,1,0
3765,-62.5,4,2,64,80,0,0
4145,379.746835443038,4,2,72,50,1,0
9271,-200,4,2,72,40,0,0
11550,-200,4,2,64,40,0,0
13258,-200,4,2,65,40,0,0
16866,-200,4,2,64,40,0,0
17815,-200,4,2,65,40,0,0
29208,-100,4,2,64,50,0,0
29967,-166.666666666667,4,2,65,40,0,0
42119,-166.666666666667,4,2,64,50,0,0
47815,-250,4,2,64,60,0,0
48195,-125,4,2,65,60,0,0
51993,-125,4,2,72,40,0,0
53132,-166.666666666667,4,2,72,40,0,0
54271,-83.3333333333333,4,2,72,100,0,1
69936,-83.3333333333333,4,2,64,5,0,1
70031,-83.3333333333333,4,2,72,100,0,1
70790,-50,4,2,72,100,0,1
71075,-50,4,2,64,100,0,1
71170,-40,4,2,72,100,0,1
71455,-40,4,2,64,100,0,1
71550,-40,4,2,72,100,0,1
71834,-40,4,2,64,100,0,1
71929,-40,4,2,72,100,0,1
72309,-40,4,2,72,100,0,1
72499,-71.4285714285714,4,2,72,100,0,1
79904,-100,4,2,64,80,0,0
81613,-100,4,2,72,80,0,1
84651,-100,4,2,72,80,0,0
86360,-50,4,2,72,80,0,0
86645,-50,4,2,64,5,0,0
86739,-2000,4,2,72,80,0,0
86834,-2000,4,2,64,5,0,0

[Colours]
Combo1 : 170,238,255
Combo2 : 255,244,213
Combo3 : 255,255,255

[HitObjects]
128,128,548,5,0,0:0:0:0:
120,136,954,6,0,B|118:164|102:186|102:186|120:236|120:236|87:267|86:313|109:352|153:370|194:360|222:327,1,323.999990112305,4|0,0:0|0:0,0:0:0:0:
201,188,2575,2,0,B|217:143|210:90|210:90|256:128|320:112,1,215.999993408203,4|0,0:0|0:0,0:0:0:0:
327,120,3575,1,0,0:0:0:0:
401,256,3765,6,0,P|324:335|334:225,1,288,2|4,0:0|0:0,0:0:0:0:
113,272,4334,5,0,0:0:0:0:
208,176,4524,1,0,0:0:0:0:
334,225,4714,1,0,0:0:0:0:
113,272,4904,5,0,0:0:0:0:
297,143,5094,2,0,P|365:141|420:252,1,180
172,161,5663,5,0,0:0:0:0:
49,217,5853,1,0,0:0:0:0:
210,283,6043,5,0,0:0:0:0:
333,227,6233,2,0,P|387:127|339:61,1,180
288,291,6803,5,0,0:0:0:0:
297,143,6993,1,0,0:0:0:0:
170,16,7182,5,4,0:0:0:0:
199,239,7372,1,0,0:0:0:0:
243,64,7562,1,0,0:0:0:0:
207,331,7752,6,0,B|159:335|128:297|128:297|83:305|83:305|89:277|80:256,1,180
366,199,8512,6,0,P|287:241|198:238,1,180
179,48,9271,6,0,P|329:62|189:131,1,405,4|0,0:0|0:0,0:0:0:0:
253,81,11360,1,0,0:0:0:0:
261,85,11550,6,0,P|280:97|292:112,2,22.5
64,112,13258,5,0,0:0:0:0:
88,187,13448,1,0,0:0:0:0:
64,112,14018,1,4,0:0:0:0:
113,261,14777,1,0,0:0:0:0:
121,269,16107,5,0,0:0:0:0:
153,299,16296,1,0,0:0:0:0:
195,316,16486,1,0,0:0:0:0:
239,319,16676,1,0,0:0:0:0:
176,185,16866,2,0,P|265:159|213:235,1,225,4|0,0:0|0:0,0:0:0:0:
396,100,19334,5,0,0:0:0:0:
320,110,19524,1,0,0:0:0:0:
396,100,19904,1,0,0:0:0:0:
201,125,20853,1,0,0:0:0:0:
105,208,22182,5,0,0:0:0:0:
261,229,22372,1,0,0:0:0:0:
183,218,22562,1,0,0:0:0:0:
105,208,23132,5,0,0:0:0:0:
364,110,23322,1,8,0:0:0:0:
261,229,23512,1,0,0:0:0:0:
269,237,23891,6,0,L|340:247,1,45,0|0,0:0|0:0,0:0:0:0:
212,153,24271,2,0,L|283:143,1,45,0|0,0:0|0:0,0:0:0:0:
115,216,24651,2,0,L|202:228,2,67.5
212,153,25410,2,0,L|283:143,1,45
367,146,25790,6,0,P|407:183|424:230,2,90,0|8|0,0:0|0:0|0:0,0:0:0:0:
313,243,26929,6,0,P|256:272|176:256,1,135
235,159,27689,2,0,P|279:133|332:129,1,90,0|0,0:0|0:0,0:0:0:0:
160,188,28258,1,0,0:0:0:0:
379,189,28448,6,0,P|396:165|401:136,1,45,0|0,0:0|0:0,0:0:0:0:
259,37,28828,1,8,0:0:0:0:
187,262,29018,1,0,0:0:0:0:
114,114,29208,6,0,P|184:90|171:163,1,180,4|0,0:0|0:0,0:0:0:0:
94,194,29777,1,0,0:0:0:0:
175,302,29967,6,0,P|240:320|288:320,1,107.999996704102,0|0,0:0|0:0,0:0:0:0:
314,198,30537,1,0,0:0:0:0:
190,175,30727,1,8,0:0:0:0:
198,183,31107,5,0,0:0:0:0:
311,110,31296,2,0,P|369:129|399:177,1,107.999996704102,0|0,0:0|0:0,0:0:0:0:
264,219,31866,2,0,L|314:198,1,53.9999983520508,0|8,0:0|0:0,0:0:0:0:
321,206,32626,5,0,0:0:0:0:
325,210,32815,1,0,0:0:0:0:
191,194,33005,2,0,P|131:160|113:129,1,80.9999975280763,0|0,0:0|0:0,0:0:0:0:
106,148,33385,2,0,L|85:197,1,53.9999983520508,0|0,0:0|0:0,0:0:0:0:
207,43,33955,2,0,L|205:97,1,53.9999983520508,0|0,0:0|0:0,0:0:0:0:
298,102,34524,5,0,0:0:0:0:
302,106,34904,5,0,0:0:0:0:
259,205,35094,1,0,0:0:0:0:
388,164,35284,2,0,L|439:147,1,53.9999983520508,8|0,0:0|0:0,0:0:0:0:
181,227,35663,2,0,L|155:235,2,26.9999991760254,8|0|0,0:0|0:0|0:0,0:0:0:0:
448,276,36043,6,0,P|396:291|341:282,1,107.999996704102,4|0,0:0|0:0,0:0:0:0:
383,147,36613,1,0,0:0:0:0:
252,112,36803,1,8,0:0:0:0:
462,84,36993,2,0,B|415:98|415:98|383:147,1,107.999996704102
374,154,38132,5,0,0:0:0:0:
378,158,38227,1,0,0:0:0:0:
382,162,38322,2,0,P|322:161|277:178,1,107.999996704102,8|0,0:0|0:0,0:0:0:0:
343,282,38891,1,0,0:0:0:0:
215,239,39081,6,0,P|190:174|209:122,1,107.999996704102,4|0,0:0|0:0,0:0:0:0:
277,177,39841,5,8,0:0:0:0:
197,52,40031,2,0,P|154:65|127:95,1,80.9999975280763,0|0,0:0|0:0,0:0:0:0:
202,142,40410,6,0,P|253:124|286:66,2,107.999996704102
85,84,41360,1,8,0:0:0:0:
238,265,41550,1,0,0:0:0:0:
137,341,41739,1,4,0:0:0:0:
122,317,41833,1,0,0:0:0:0:
112,293,41928,1,0,0:0:0:0:
105,266,42023,1,0,0:0:0:0:
103,240,42119,5,2,0:0:0:0:
132,81,42309,1,0,0:0:0:0:
206,284,42499,5,2,0:0:0:0:
183,150,42689,1,0,0:0:0:0:
293,304,42879,5,2,0:0:0:0:
312,197,43069,1,0,0:0:0:0:
394,336,43258,6,0,L|380:262,1,53.9999983520508
451,80,43638,5,2,0:0:0:0:
237,42,43828,1,0,0:0:0:0:
144,97,44018,5,2,0:0:0:0:
330,64,44208,1,0,0:0:0:0:
410,137,44398,5,2,0:0:0:0:
250,108,44588,1,0,0:0:0:0:
190,196,44777,6,0,L|254:184,1,53.9999983520508
426,330,45157,5,2,0:0:0:0:
454,148,45347,1,0,0:0:0:0:
298,330,45537,2,0,L|310:252,1,53.9999983520508,2|0,0:0|0:0,0:0:0:0:
322,172,45917,1,0,0:0:0:0:
190,196,46107,1,0,0:0:0:0:
169,330,46296,2,0,L|181:252,1,53.9999983520508,2|0,0:0|0:0,0:0:0:0:
81,82,46676,6,0,L|70:145,1,53.9999983520508,2|0,0:0|0:0,0:0:0:0:
192,72,47056,2,0,L|182:125,1,53.9999983520508,2|0,0:0|0:0,0:0:0:0:
415,53,47436,2,0,L|404:116,1,53.9999983520508,2|0,0:0|0:0,0:0:0:0:
304,63,47815,6,0,L|293:126,1,53.9999983520508,2|0,0:0|0:0,0:0:0:0:
246,218,48195,6,0,P|206:236|153:232,2,72,4|0|0,0:0|0:0|0:0,0:0:0:0:
182,125,48765,2,0,P|116:144|70:212,1,144
80,210,49524,6,0,B|119:195|155:210|155:210|195:225|230:210,1,144
191,113,50094,1,0,0:0:0:0:
116,307,50284,2,0,P|191:321|280:300,1,144
191,113,50853,1,0,0:0:0:0:
330,73,51043,6,0,L|280:238,1,144,4|0,0:0|0:0,0:0:0:0:
246,42,51613,1,0,0:0:0:0:
107,82,51803,1,0,0:0:0:0:
288,210,51993,5,0,0:0:0:0:
330,73,52182,1,0,0:0:0:0:
467,190,52372,1,0,0:0:0:0:
188,89,52562,2,0,B|153:87|153:87|137:121|137:121|94:132|64:172,1,144
150,321,53132,6,0,P|209:217|230:294,1,269.999991760254,4|0,0:0|0:0,0:0:0:0:
76,156,54271,5,2,0:0:0:0:
352,108,54461,1,0,0:0:0:0:
60,172,54651,1,0,0:0:0:0:
404,203,54841,2,0,B|376:218|352:239|329:279|329:279|280:248|217:261,1,215.999993408203
152,365,55410,2,0,P|201:386|255:384,1,107.999996704102
91,244,55790,5,0,0:0:0:0:
152,365,55980,1,0,0:0:0:0:
261,179,56170,2,0,P|257:239|234:289,1,107.999996704102
300,74,56550,2,0,P|347:106|371:155,1,107.999996704102
238,282,56929,2,0,P|240:228|260:178,1,107.999996704102
386,261,57309,6,0,L|174:216,1,215.999993408203,4|0,0:0|0:0,0:0:0:0:
175,72,57879,1,0,0:0:0:0:
147,96,57974,1,0,0:0:0:0:
134,127,58069,2,0,P|133:171|193:220,1,107.999996704102
206,64,58448,1,0,0:0:0:0:
292,107,58638,2,0,B|343:136|403:116|403:116|460:96|515:134,1,215.999993408203
356,0,59208,1,0,0:0:0:0:
149,137,59398,5,0,0:0:0:0:
91,134,59492,1,0,0:0:0:0:
42,103,59588,2,0,P|39:164|73:220,1,107.999996704102
165,240,59967,2,0,P|170:186|149:137,1,107.999996704102
83,313,60347,6,0,B|125:358|178:351|178:351|242:340|286:358,1,215.999993408203,4|0,0:0|0:0,0:0:0:0:
242,203,60917,1,0,0:0:0:0:
446,276,61107,6,0,P|380:282|302:254,1,107.999996704102
144,181,61486,1,0,0:0:0:0:
242,95,61676,2,0,B|279:132|277:194|277:194|230:238|244:298,1,215.999993408203
339,272,62246,6,0,P|367:223|367:170,1,107.999996704102
307,94,62626,2,0,P|279:139|276:193,1,107.999996704102
339,272,63005,1,0,0:0:0:0:
187,126,63195,1,0,0:0:0:0:
99,238,63385,6,0,B|156:234|198:265|198:265|187:126|187:126|232:162|298:156,1,323.999990112305,4|0,0:0|0:0,0:0:0:0:
309,98,64050,1,0,0:0:0:0:
266,36,64145,2,0,P|218:11|164:6,2,107.999996704102
218,231,64714,6,0,P|198:281|158:324,2,107.999996704102
190,103,65284,1,0,0:0:0:0:
368,147,65474,2,0,B|393:152|413:167|424:179|435:199|439:220|439:220|389:245|389:245|371:238|338:233,1,215.999993408203
218,231,66043,5,4,0:0:0:0:
181,237,66138,1,0,0:0:0:0:
144,248,66233,1,0,0:0:0:0:
108,261,66328,1,0,0:0:0:0:
74,277,66423,5,2,0:0:0:0:
94,63,66613,1,0,0:0:0:0:
155,326,66803,5,0,0:0:0:0:
142,132,66993,1,0,0:0:0:0:
150,140,67372,6,0,P|183:191|232:232,1,107.999996704102
324,52,67752,2,0,B|359:124|330:212|330:212|295:196|283:154,1,215.999993408203
114,210,68322,6,0,P|164:230|217:222,1,107.999996704102
261,320,68701,2,0,P|303:287|323:238,1,107.999996704102
429,246,69081,2,0,P|421:193|388:151,1,107.999996704102
217,222,69461,6,0,B|254:255|315:260|357:233|384:195|388:151|388:151|295:138,1,269.999991760254,4|0,0:0|0:0,0:0:0:0:
282,138,70031,1,0,0:0:0:0:
151,308,70220,1,0,0:0:0:0:
429,245,70410,2,0,B|397:212|397:212|388:151,1,107.999996704102
380,159,70790,6,0,P|334:62|436:94,1,270,4|0,0:0|0:0,0:0:0:0:
378,100,71170,6,0,P|355:189|302:65,1,337.5,4|0,0:0|0:0,0:0:0:0:
317,132,71550,6,0,P|291:231|291:106,1,337.5,4|0,0:0|0:0,0:0:0:0:
254,168,71929,6,0,P|220:278|216:131,1,450,4|0,0:0|0:0,0:0:0:0:
448,189,72499,6,0,P|400:224|320:243,1,125.999996154785,4|0,0:0|0:0,0:0:0:0:
180,205,72879,1,0,0:0:0:0:
326,68,73069,2,0,B|327:150|264:206|264:206|261:151|216:129,1,251.999992309571
387,80,73828,6,0,P|357:71|326:67,1,62.9999980773926
216,129,74018,2,0,B|191:216|191:216|151:193|151:193|125:230|90:243|52:232,1,251.999992309571
77,150,74588,2,0,P|107:257|32:368,2,251.999992309571
70,259,75537,5,4,0:0:0:0:
86,70,75727,1,0,0:0:0:0:
191,299,75917,5,0,0:0:0:0:
191,122,76107,1,0,0:0:0:0:
303,333,76296,5,0,0:0:0:0:
288,169,76486,1,0,0:0:0:0:
385,374,76676,1,0,0:0:0:0:
362,206,76866,2,0,B|321:159|321:159|334:94|334:94|316:51|274:27|225:40,1,251.999992309571
251,125,77436,2,0,B|321:159|321:159|338:74,1,125.999996154785
181,90,77815,6,0,P|174:144|247:204,2,125.999996154785
103,236,78385,2,0,B|64:293|16:320|16:320|176:352,1,251.999992309571
338,205,78955,6,0,P|345:151|272:91,1,125.999996154785
254,294,79334,1,0,0:0:0:0:
62,233,79524,1,0,0:0:0:0:
338,205,79714,1,0,0:0:0:0:
34,120,79904,5,4,0:0:0:0:
27,108,80284,5,0,0:0:0:0:
23,95,80663,5,0,0:0:0:0:
21,81,81043,5,0,0:0:0:0:
21,66,81423,5,2,0:0:0:0:
27,73,81518,1,2,0:0:0:0:
34,79,81613,2,0,P|72:101|126:106,1,90,4|0,0:0|0:0,0:0:0:0:
96,227,81993,2,0,P|140:227|190:204,1,90
222,326,82372,6,0,P|260:303|292:259,2,90
182,210,82942,2,0,P|209:174|248:152,2,90
184,49,83512,2,0,P|225:32|270:32,2,90
368,175,84081,5,0,0:0:0:0:
288,268,84271,2,0,P|241:279|176:256,1,90
490,180,84651,5,4,0:0:0:0:
184,49,84841,1,0,0:0:0:0:
288,268,85031,1,0,0:0:0:0:
102,39,85220,5,0,0:0:0:0:
110,47,85600,5,0,0:0:0:0:
178,205,85980,1,0,0:0:0:0:
348,224,86360,6,0,P|373:117|272:160,1,270
350,224,86739,6,4,P|292:208|272:160,1,117,4|0,0:0|0:0,0:0:0:0:
