osu file format v14

[General]
AudioFilename: audio.ogg
AudioLeadIn: 0
PreviewTime: 70096
Countdown: 0
SampleSet: Soft
StackLeniency: 0.7
Mode: 3
LetterboxInBreaks: 0
SpecialStyle: 0
WidescreenStoryboard: 1

[Editor]
Bookmarks: 11984,21108,28703,40855,53007,65159,71235,83387,98577,113767
DistanceSpacing: 1.1
BeatDivisor: 4
GridSize: 4
TimelineZoom: 1.1

[Metadata]
Title:Ring of Fortune (Cut Ver.)
TitleUnicode:Ring of Fortune (Cut Ver.)
Artist:Eri Sasaki
ArtistUnicode:佐々木恵梨
Creator:cai_ji_ccc
Version:Insane
Source:プラスティック・メモリーズ
Tags:japanese anime plastic memories アイラ isla 雨宮天 amamiya sora opening op jpop j-pop pop female vocals ost original soundtrack 林直孝 hayashi naotaka 千葉"naotyu-"直樹 chiba"naotyu-"naoki
BeatmapID:4362651
BeatmapSetID:2083111

[Difficulty]
HPDrainRate:8
CircleSize:4
OverallDifficulty:8
ApproachRate:5
SliderMultiplier:1.60000000596046
SliderTickRate:1

[Events]
//Background and Video events
0,0,"bg.jpg",0,0
//Break Periods
//Storyboard Layer 0 (Background)
//Storyboard Layer 1 (Fail)
//Storyboard Layer 2 (Pass)
//Storyboard Layer 3 (Foreground)
//Storyboard Layer 4 (Overlay)
//Storyboard Sound Samples
Sample,20159,0,"kick.wav",25
Sample,52438,0,"kick.wav",25
Sample,64779,0,"kick.wav",25
Sample,69906,0,"kick.wav",25
Sample,76741,0,"kick.wav",25
Sample,88324,0,"snare.wav",30
Sample,88703,0,"snare.wav",30
Sample,89083,0,"snare.wav",30
Sample,92121,0,"tom3.wav",25
Sample,94969,0,"kick.wav",25
Sample,96488,0,"snare.wav",30
Sample,101045,0,"kick.wav",25

[TimingPoints]
1907,379.746835443038,4,2,1,35,1,0
2096,413.793103448276,4,2,1,35,1,0
2096,-91.7721518987341,4,2,1,35,0,0
2720,379.746835443038,4,2,1,35,1,0
2720,-100,4,2,1,35,0,0
2909,413.793103448276,4,2,1,35,1,0
2909,-91.7721518987341,4,2,1,35,0,0
3529,379.746835443038,4,2,1,35,1,0
3529,-100,4,2,1,35,0,0
3718,413.793103448276,4,2,1,35,1,0
3718,-91.7721518987341,4,2,1,35,0,0
8373,413.793103448276,4,2,1,35,1,0
8373,-91.7721518987341,4,2,1,35,0,0
9993,413.793103448276,4,2,1,35,1,0
9993,-91.7721518987341,4,2,1,35,0,0
11415,379.746835443038,4,2,1,35,1,0
11415,-100,4,2,1,35,0,0
11984,379.746835443038,4,2,1,35,1,0
15033,379.746835443038,4,2,1,35,1,0
71235,-100,4,2,1,35,0,1
83007,-100,4,2,1,35,0,0
83387,-100,4,2,1,35,0,1
98197,-100,4,2,1,35,0,0
98577,-100,4,2,1,35,0,1
106741,-100,4,2,1,35,0,0

[HitObjects]
448,192,1907,128,0,2096:0:0:0:0:
192,192,2096,128,0,2509:0:0:0:0:
448,192,2302,1,0,0:0:0:0:
64,192,2509,1,0,0:0:0:0:
320,192,2720,128,0,2909:0:0:0:0:
64,192,2909,128,0,3322:0:0:0:0:
320,192,3115,1,0,0:0:0:0:
192,192,3529,128,0,3718:0:0:0:0:
448,192,3718,128,0,4131:0:0:0:0:
192,192,3924,1,0,0:0:0:0:
320,192,4131,1,0,0:0:0:0:
64,192,4338,128,0,4545:0:0:0:0:
320,192,4545,128,0,5373:0:0:0:0:
64,192,4752,128,0,5373:0:0:0:0:
448,192,4752,1,0,0:0:0:0:
192,192,5373,1,0,0:0:0:0:
448,192,5465,1,0,0:0:0:0:
320,192,5554,1,0,0:0:0:0:
192,192,5761,1,0,0:0:0:0:
64,192,6174,1,0,0:0:0:0:
448,192,6562,1,0,0:0:0:0:
192,192,6976,1,0,0:0:0:0:
320,192,7183,1,0,0:0:0:0:
448,192,7364,1,0,0:0:0:0:
64,192,7390,1,0,0:0:0:0:
192,192,7890,1,0,0:0:0:0:
320,192,7985,1,0,0:0:0:0:
448,192,8373,128,0,8579:0:0:0:0:
320,192,8579,128,0,8786:0:0:0:0:
64,192,8786,1,0,0:0:0:0:
192,192,8786,128,0,9200:0:0:0:0:
320,192,9200,128,0,9407:0:0:0:0:
64,192,9407,1,0,0:0:0:0:
448,192,9407,128,0,9821:0:0:0:0:
64,192,9993,128,0,10199:0:0:0:0:
192,192,10199,128,0,10406:0:0:0:0:
320,192,10406,128,0,10820:0:0:0:0:
448,192,10406,1,0,0:0:0:0:
192,192,10820,128,0,11027:0:0:0:0:
64,192,11027,128,0,11415:0:0:0:0:
448,192,11027,1,0,0:0:0:0:
320,192,11415,1,0,0:0:0:25:kick.wav
448,192,11415,1,0,0:0:0:0:
192,192,11604,1,0,0:0:0:25:cymbal.wav
448,192,11604,1,0,0:0:0:30:snare.wav
64,192,11699,1,0,0:0:0:0:
320,192,11794,1,0,0:0:0:0:
192,192,11889,1,0,0:0:0:0:
64,192,11984,1,0,0:0:0:25:Hat Open.wav
320,192,11984,128,0,12363:0:0:0:30:snare.wav
448,192,11984,128,0,12363:0:0:0:0:
64,192,12173,1,0,0:0:0:25:kick.wav
192,192,12173,1,0,0:0:0:0:
64,192,12363,1,0,0:0:0:25:kick.wav
192,192,12363,1,0,0:0:0:0:
192,192,12553,1,0,0:0:0:25:Hat Open.wav
320,192,12553,128,0,12743:0:0:0:30:snare.wav
448,192,12553,128,0,12743:0:0:0:0:
64,192,12838,1,0,0:0:0:30:snare.wav
192,192,12838,1,0,0:0:0:0:
320,192,12933,1,0,0:0:0:25:kick.wav
64,192,13123,128,0,13502:0:0:0:25:Hat Open.wav
192,192,13123,128,0,13502:0:0:0:30:snare.wav
448,192,13123,1,0,0:0:0:0:
320,192,13313,1,0,0:0:0:25:kick.wav
448,192,13313,1,0,0:0:0:0:
320,192,13502,1,0,0:0:0:25:kick.wav
448,192,13502,1,0,0:0:0:0:
64,192,13692,128,0,13882:0:0:0:25:Hat Open.wav
192,192,13692,128,0,13882:0:0:0:30:snare.wav
320,192,13692,1,0,0:0:0:0:
320,192,13977,1,0,0:0:0:30:snare.wav
448,192,13977,1,0,0:0:0:0:
192,192,14072,1,0,0:0:0:25:kick.wav
64,192,14262,1,0,0:0:0:25:tom1.wav
320,192,14262,128,0,14452:0:0:0:0:
448,192,14262,128,0,14452:0:0:0:0:
64,192,14452,1,0,0:0:0:25:kick.wav
192,192,14452,1,0,0:0:0:0:
64,192,14642,128,0,14832:0:0:0:25:Hat Open.wav
192,192,14642,128,0,14832:0:0:0:30:snare.wav
448,192,14642,1,0,0:0:0:0:
320,192,14832,1,0,0:0:0:0:
64,192,15033,1,0,0:0:0:25:cymbal.wav
192,192,15033,1,0,0:0:0:25:kick.wav
448,192,15033,1,0,0:0:0:0:
320,192,15222,128,0,15507:0:0:0:0:
64,192,15412,1,0,0:0:0:15:Hat Close.wav
192,192,15412,1,0,0:0:0:30:snare.wav
448,192,15412,128,0,15507:0:0:0:0:
448,192,15602,1,0,0:0:0:15:Hat Close.wav
320,192,15697,1,0,0:0:0:30:snare.wav
64,192,15792,1,0,0:0:0:15:Hat Close.wav
192,192,15792,128,0,16077:0:0:0:25:kick.wav
320,192,15982,128,0,16077:0:0:0:15:Hat Close.wav
448,192,15982,1,0,0:0:0:25:kick.wav
64,192,16172,1,0,0:0:0:15:Hat Close.wav
192,192,16172,1,0,0:0:0:30:snare.wav
448,192,16172,1,0,0:0:0:0:
64,192,16362,128,0,16646:0:0:0:15:Hat Close.wav
320,192,16362,1,0,0:0:0:25:kick.wav
192,192,16551,128,0,16646:0:0:0:15:Hat Close.wav
320,192,16741,1,0,0:0:0:15:Hat Close.wav
448,192,16741,1,0,0:0:0:25:kick.wav
64,192,16931,1,0,0:0:0:15:Hat Close.wav
192,192,16931,1,0,0:0:0:30:snare.wav
448,192,16931,128,0,17216:0:0:0:0:
320,192,17121,128,0,17216:0:0:0:15:Hat Close.wav
192,192,17216,1,0,0:0:0:30:snare.wav
64,192,17311,1,0,0:0:0:15:Hat Close.wav
448,192,17311,1,0,0:0:0:25:kick.wav
320,192,17406,1,0,0:0:0:30:snare.wav
64,192,17501,1,0,0:0:0:15:Hat Close.wav
192,192,17501,128,0,17881:0:0:0:25:kick.wav
64,192,17691,1,0,0:0:0:25:Hat Open.wav
320,192,17691,128,0,18070:0:0:0:30:snare.wav
448,192,17691,1,0,0:0:0:0:
448,192,17881,128,0,18070:0:0:0:0:
64,192,18070,1,0,0:0:0:15:Hat Close.wav
192,192,18070,1,0,0:0:0:25:kick.wav
320,192,18260,128,0,18545:0:0:0:15:Hat Close.wav
448,192,18260,128,0,18355:0:0:0:0:
64,192,18450,128,0,18545:0:0:0:15:Hat Close.wav
192,192,18450,128,0,18545:0:0:0:30:snare.wav
448,192,18450,1,0,0:0:0:0:
192,192,18640,1,0,0:0:0:15:Hat Close.wav
64,192,18735,1,0,0:0:0:30:snare.wav
320,192,18830,128,0,19115:0:0:0:15:Hat Close.wav
448,192,18830,128,0,18925:0:0:0:25:kick.wav
64,192,19020,128,0,19115:0:0:0:15:Hat Close.wav
192,192,19020,128,0,19115:0:0:0:25:kick.wav
64,192,19210,1,0,0:0:0:15:Hat Close.wav
320,192,19210,1,0,0:0:0:30:snare.wav
448,192,19210,1,0,0:0:0:0:
64,192,19400,128,0,19779:0:0:0:15:Hat Close.wav
192,192,19400,128,0,19779:0:0:0:25:kick.wav
448,192,19589,1,0,0:0:0:15:Hat Close.wav
320,192,19779,128,0,20064:0:0:0:15:Hat Close.wav
448,192,19779,128,0,19874:0:0:0:25:kick.wav
64,192,19969,128,0,20064:0:0:0:15:Hat Close.wav
192,192,19969,128,0,20064:0:0:0:30:snare.wav
448,192,19969,1,0,0:0:0:0:
320,192,20159,1,0,0:0:0:15:Hat Close.wav
448,192,20254,1,0,0:0:0:30:snare.wav
64,192,20349,128,0,20539:0:0:0:15:Hat Close.wav
192,192,20349,128,0,20444:0:0:0:25:kick.wav
320,192,20444,1,0,0:0:0:30:snare.wav
192,192,20539,1,0,0:0:0:25:kick.wav
64,192,20634,1,0,0:0:0:30:snare.wav
320,192,20729,128,0,20824:0:0:0:30:snare.wav
448,192,20729,128,0,20919:0:0:0:0:
64,192,20824,1,0,0:0:0:30:snare.wav
320,192,20919,1,0,0:0:0:25:kick.wav
192,192,20919,1,0,0:0:0:0:
64,192,21108,1,0,0:0:0:25:cymbal.wav
320,192,21108,1,0,0:0:0:25:kick.wav
448,192,21108,1,0,0:0:0:0:
192,192,21298,128,0,21583:0:0:0:0:
64,192,21488,128,0,21583:0:0:0:15:Hat Close.wav
320,192,21488,1,0,0:0:0:30:snare.wav
448,192,21488,1,0,0:0:0:0:
64,192,21678,1,0,0:0:0:15:Hat Close.wav
192,192,21773,1,0,0:0:0:30:snare.wav
320,192,21868,128,0,22153:0:0:0:15:Hat Close.wav
448,192,21868,1,0,0:0:0:25:kick.wav
64,192,22058,1,0,0:0:0:25:Hat Open.wav
192,192,22058,128,0,22153:0:0:0:25:kick.wav
64,192,22248,1,0,0:0:0:15:Hat Close.wav
320,192,22248,1,0,0:0:0:30:snare.wav
448,192,22248,1,0,0:0:0:0:
64,192,22438,1,0,0:0:0:15:Hat Close.wav
192,192,22438,1,0,0:0:0:25:cymbal.wav
448,192,22438,128,0,22722:0:0:0:25:kick.wav
320,192,22627,128,0,22722:0:0:0:0:
64,192,22817,1,0,0:0:0:15:Hat Close.wav
192,192,22817,1,0,0:0:0:25:kick.wav
64,192,23007,128,0,23292:0:0:0:15:Hat Close.wav
320,192,23007,1,0,0:0:0:30:snare.wav
448,192,23007,1,0,0:0:0:0:
192,192,23197,128,0,23292:0:0:0:15:Hat Close.wav
320,192,23292,1,0,0:0:0:30:snare.wav
192,192,23387,1,0,0:0:0:15:Hat Close.wav
448,192,23387,1,0,0:0:0:25:kick.wav
64,192,23482,1,0,0:0:0:30:snare.wav
320,192,23577,128,0,23767:0:0:0:15:Hat Close.wav
448,192,23577,1,0,0:0:0:25:kick.wav
64,192,23767,1,0,0:0:0:25:Hat Open.wav
192,192,23767,1,0,0:0:0:30:snare.wav
320,192,23862,1,0,0:0:0:30:snare.wav
448,192,23862,1,0,0:0:0:0:
64,192,23957,1,0,0:0:0:25:tom3.wav
192,192,23957,128,0,24146:0:0:0:0:
448,192,24146,128,0,24906:0:0:0:25:cymbal.wav
320,192,24146,1,0,0:0:0:25:kick.wav
64,192,24146,1,0,0:0:0:0:
192,192,24336,1,0,0:0:0:30:snare.wav
320,192,24431,1,0,0:0:0:30:snare.wav
192,192,24526,1,0,0:0:0:15:Hat Close.wav
64,192,24526,1,0,0:0:0:30:snare.wav
320,192,24716,128,0,24906:0:0:0:25:Hat Open.wav
192,192,24716,128,0,24906:0:0:0:25:kick.wav
64,192,24716,128,0,24906:0:0:0:0:
64,192,25096,128,0,25286:0:0:0:25:Hat Open.wav
192,192,25096,128,0,25286:0:0:0:25:kick.wav
448,192,25096,128,0,25286:0:0:0:0:
64,192,25476,128,0,25665:0:0:0:25:tom3.wav
320,192,25476,128,0,25665:0:0:0:0:
448,192,25476,128,0,25665:0:0:0:0:
192,192,25665,1,0,0:0:0:15:Hat Close.wav
64,192,25855,128,0,26045:0:0:0:25:tom1.wav
192,192,25855,128,0,26045:0:0:0:0:
448,192,25855,1,0,0:0:0:0:
320,192,26045,1,0,0:0:0:15:Hat Close.wav
448,192,26045,1,0,0:0:0:25:kick.wav
64,192,26235,128,0,28324:0:0:0:25:cymbal.wav
192,192,26235,128,0,27089:0:0:0:30:snare.wav
320,192,26235,128,0,26995:0:0:0:0:
448,192,26995,1,0,0:0:0:15:Hat Close.wav
320,192,27089,1,0,0:0:0:15:Hat Close.wav
192,192,27184,128,0,27754:0:0:0:25:Hat Open.wav
448,192,27754,1,0,0:0:0:25:tom3.wav
320,192,28134,1,0,0:0:0:25:tom2.wav
192,192,28324,1,0,0:0:0:15:Hat Close.wav
448,192,28514,1,0,0:0:0:25:kick.wav
320,192,28577,1,0,0:0:0:0:
192,192,28640,1,0,0:0:0:0:
64,192,28703,1,0,0:0:0:25:cymbal.wav
448,192,28703,128,0,30602:0:0:0:0:
320,192,29273,128,0,29463:0:0:0:0:
192,192,29463,128,0,29653:0:0:0:0:
320,192,29843,128,0,30033:0:0:0:0:
64,192,30033,128,0,30602:0:0:0:0:
320,192,30792,1,0,0:0:0:0:
192,192,30982,128,0,31362:0:0:0:0:
64,192,30982,1,0,0:0:0:0:
320,192,31362,128,0,31741:0:0:0:0:
64,192,31741,128,0,31931:0:0:0:0:
448,192,31741,1,0,0:0:0:0:
192,192,31931,128,0,32121:0:0:0:0:
320,192,32121,128,0,32311:0:0:0:0:
448,192,32311,128,0,33260:0:0:0:0:
64,192,32311,1,0,0:0:0:0:
320,192,33070,1,0,0:0:0:0:
192,192,33260,1,0,0:0:0:0:
320,192,33450,1,0,0:0:0:0:
64,192,33640,1,0,0:0:0:0:
192,192,33830,1,0,0:0:0:0:
320,192,34210,1,0,0:0:0:0:
448,192,34779,128,0,34969:0:0:0:0:
64,192,34779,1,0,0:0:0:0:
320,192,34969,128,0,35159:0:0:0:0:
192,192,35159,128,0,35349:0:0:0:0:
64,192,35349,128,0,35539:0:0:0:0:
448,192,35349,1,0,0:0:0:0:
320,192,35919,128,0,36108:0:0:0:0:
448,192,36108,128,0,36678:0:0:0:0:
192,192,36298,1,0,0:0:0:0:
64,192,36298,1,0,0:0:0:0:
320,192,36488,1,0,0:0:0:0:
192,192,36678,128,0,36868:0:0:0:0:
64,192,36868,128,0,37058:0:0:0:0:
448,192,36868,1,0,0:0:0:0:
320,192,37058,1,0,0:0:0:0:
192,192,37248,128,0,37343:0:0:0:0:
320,192,37438,128,0,37627:0:0:0:0:
448,192,37627,128,0,37817:0:0:0:0:
64,192,37817,128,0,38387:0:0:0:0:
192,192,37817,1,0,0:0:0:0:
320,192,38387,128,0,38577:0:0:0:0:
448,192,38387,1,0,0:0:0:0:
192,192,38577,128,0,39146:0:0:0:0:
320,192,39146,1,0,0:0:0:0:
64,192,39336,1,0,0:0:0:0:
192,192,39336,1,0,0:0:0:0:
448,192,39526,1,0,0:0:0:0:
320,192,39716,128,0,40096:0:0:0:0:
192,192,40096,128,0,40476:0:0:0:0:
64,192,40096,1,0,0:0:0:0:
448,192,40286,1,0,0:0:0:25:tom3.wav
64,192,40476,128,0,40760:0:0:0:25:tom2.wav
320,192,40476,1,0,0:0:0:0:
192,192,40855,1,0,0:0:0:25:cymbal.wav
448,192,40855,128,0,41045:0:0:0:0:
320,192,41045,128,0,41235:0:0:0:0:
192,192,41235,128,0,41425:0:0:0:0:
64,192,41425,128,0,41615:0:0:0:0:
320,192,41615,128,0,41805:0:0:0:0:
448,192,41615,1,0,0:0:0:0:
192,192,41805,128,0,41995:0:0:0:0:
64,192,41995,1,0,0:0:0:0:
448,192,42184,128,0,42374:0:0:0:0:
320,192,42279,1,0,0:0:0:0:
192,192,42374,1,0,0:0:0:0:
320,192,42754,128,0,43039:0:0:0:0:
64,192,42944,1,0,0:0:0:0:
448,192,43134,128,0,43419:0:0:0:0:
192,192,43134,1,0,0:0:0:0:
192,192,43514,128,0,43703:0:0:0:0:
64,192,43703,1,0,0:0:0:0:
320,192,43893,128,0,44463:0:0:0:0:
192,192,44083,1,0,0:0:0:0:
64,192,44273,1,0,0:0:0:0:
448,192,44463,128,0,44653:0:0:0:0:
192,192,44653,128,0,45033:0:0:0:0:
64,192,44653,1,0,0:0:0:0:
448,192,44843,1,0,0:0:0:0:
320,192,45033,128,0,45222:0:0:0:0:
64,192,45222,128,0,45982:0:0:0:0:
448,192,45412,1,0,0:0:0:0:
192,192,45602,1,0,0:0:0:0:
448,192,45792,1,0,0:0:0:0:
320,192,45887,1,0,0:0:0:0:
192,192,45982,1,0,0:0:0:0:
320,192,46172,1,0,0:0:0:0:
448,192,46172,1,0,0:0:0:0:
64,192,46362,1,0,0:0:0:0:
192,192,46457,1,0,0:0:0:0:
448,192,46551,128,0,46741:0:0:0:0:
320,192,46741,128,0,47121:0:0:0:0:
192,192,46931,1,0,0:0:0:0:
64,192,47121,1,0,0:0:0:0:
320,192,47311,128,0,47501:0:0:0:0:
192,192,47501,128,0,47691:0:0:0:0:
448,192,47691,1,0,0:0:0:0:
64,192,47691,1,0,0:0:0:0:
320,192,47881,1,0,0:0:0:0:
64,192,48070,128,0,48260:0:0:0:0:
192,192,48260,128,0,48640:0:0:0:0:
320,192,48450,1,0,0:0:0:0:
448,192,48640,1,0,0:0:0:0:
192,192,48830,128,0,49020:0:0:0:0:
320,192,49020,128,0,49210:0:0:0:0:
64,192,49210,1,0,0:0:0:0:
448,192,49210,1,0,0:0:0:0:
192,192,49400,1,0,0:0:0:0:
448,192,49495,1,0,0:0:0:0:
320,192,49589,1,0,0:0:0:0:
192,192,49779,128,0,49969:0:0:0:0:
64,192,49969,128,0,50159:0:0:0:0:
448,192,49969,1,0,0:0:0:0:
320,192,50349,128,0,50539:0:0:0:0:
192,192,50539,128,0,50729:0:0:0:25:Hat Open.wav
448,192,50539,1,0,0:0:0:0:
64,192,50729,1,0,0:0:0:0:
448,192,50919,128,0,51108:0:0:0:0:
64,192,51108,1,0,0:0:0:25:Hat Open.wav
320,192,51108,128,0,51298:0:0:0:0:
192,192,51488,1,0,0:0:0:0:
448,192,51868,128,0,52058:0:0:0:0:
320,192,52058,1,0,0:0:0:25:kick.wav
64,192,52248,128,0,52438:0:0:0:30:snare.wav
192,192,52248,1,0,0:0:0:0:
320,192,52438,1,0,0:0:0:25:kick.wav
192,192,52627,1,0,0:0:0:30:snare.wav
448,192,52627,128,0,52817:0:0:0:0:
64,192,52722,1,0,0:0:0:30:snare.wav
320,192,52817,1,0,0:0:0:25:tom2.wav
64,192,53007,1,0,0:0:0:25:cymbal.wav
192,192,53007,128,0,53387:0:0:0:25:kick.wav
448,192,53007,1,0,0:0:0:0:
320,192,53387,128,0,53767:0:0:0:15:Hat Close.wav
448,192,53387,1,0,0:0:0:25:kick.wav
64,192,53767,128,0,53957:0:0:0:25:Hat Open.wav
192,192,53767,1,0,0:0:0:30:snare.wav
448,192,53767,1,0,0:0:0:0:
320,192,53957,1,0,0:0:0:25:kick.wav
448,192,53957,1,0,0:0:0:0:
192,192,54146,128,0,54336:0:0:0:15:Hat Close.wav
64,192,54336,1,0,0:0:0:15:Hat Close.wav
320,192,54336,128,0,54526:0:0:0:25:kick.wav
448,192,54526,128,0,54906:0:0:0:0:
64,192,54906,128,0,55096:0:0:0:0:
320,192,55096,1,0,0:0:0:25:kick.wav
192,192,55191,1,0,0:0:0:25:kick.wav
320,192,55286,128,0,55665:0:0:0:15:Hat Close.wav
448,192,55286,1,0,0:0:0:30:snare.wav
64,192,55476,1,0,0:0:0:25:kick.wav
192,192,55476,1,0,0:0:0:0:
448,192,55665,1,0,0:0:0:25:Hat Open.wav
192,192,55855,128,0,55950:0:0:0:0:
64,192,56045,1,0,0:0:0:15:Hat Close.wav
448,192,56045,128,0,56425:0:0:0:25:kick.wav
192,192,56425,128,0,56805:0:0:0:15:Hat Close.wav
320,192,56425,1,0,0:0:0:25:kick.wav
64,192,56805,1,0,0:0:0:25:Hat Open.wav
320,192,56805,128,0,56995:0:0:0:30:snare.wav
448,192,56805,1,0,0:0:0:0:
64,192,56995,1,0,0:0:0:15:Hat Close.wav
192,192,56995,1,0,0:0:0:25:kick.wav
64,192,57374,1,0,0:0:0:25:Hat Open.wav
448,192,57374,128,0,57564:0:0:0:25:kick.wav
320,192,57564,128,0,57754:0:0:0:0:
64,192,57754,1,0,0:0:0:25:Hat Open.wav
448,192,57754,1,0,0:0:0:25:kick.wav
192,192,57944,128,0,58134:0:0:0:0:
320,192,58134,1,0,0:0:0:25:tom1.wav
448,192,58134,1,0,0:0:0:0:
64,192,58324,128,0,58514:0:0:0:30:snare.wav
192,192,58324,1,0,0:0:0:0:
448,192,58324,1,0,0:0:0:0:
192,192,58514,1,0,0:0:0:25:tom1.wav
320,192,58514,1,0,0:0:0:0:
64,192,58703,1,0,0:0:0:30:snare.wav
448,192,58703,1,0,0:0:0:0:
320,192,58798,1,0,0:0:0:25:tom3.wav
192,192,58893,1,0,0:0:0:25:tom1.wav
320,192,58988,1,0,0:0:0:25:kick.wav
64,192,59083,128,0,59273:0:0:0:25:cymbal.wav
192,192,59083,1,0,0:0:0:25:kick.wav
448,192,59083,1,0,0:0:0:0:
320,192,59273,128,0,59463:0:0:0:15:Hat Close.wav
64,192,59463,1,0,0:0:0:15:Hat Close.wav
192,192,59463,128,0,59843:0:0:0:25:kick.wav
448,192,59653,128,0,59843:0:0:0:15:Hat Close.wav
64,192,59843,1,0,0:0:0:15:Hat Close.wav
320,192,59843,1,0,0:0:0:25:kick.wav
448,192,60033,128,0,60412:0:0:0:15:Hat Close.wav
64,192,60222,128,0,60412:0:0:0:15:Hat Close.wav
320,192,60222,1,0,0:0:0:25:kick.wav
192,192,60412,1,0,0:0:0:15:Hat Close.wav
320,192,60602,1,0,0:0:0:15:Hat Close.wav
448,192,60602,1,0,0:0:0:25:kick.wav
64,192,60792,1,0,0:0:0:15:Hat Close.wav
192,192,60982,1,0,0:0:0:15:Hat Close.wav
448,192,60982,1,0,0:0:0:25:kick.wav
320,192,61172,1,0,0:0:0:15:Hat Close.wav
192,192,61267,1,0,0:0:0:15:Hat Close.wav
64,192,61362,1,0,0:0:0:15:Hat Close.wav
448,192,61362,1,0,0:0:0:25:kick.wav
320,192,61551,1,0,0:0:0:15:Hat Close.wav
64,192,61741,1,0,0:0:0:25:Hat Open.wav
192,192,61741,1,0,0:0:0:30:snare.wav
448,192,61741,1,0,0:0:0:25:kick.wav
320,192,61931,128,0,62121:0:0:0:0:
64,192,62121,1,0,0:0:0:25:cymbal.wav
448,192,62121,128,0,62311:0:0:0:25:kick.wav
192,192,62311,128,0,62501:0:0:0:15:Hat Close.wav
320,192,62501,128,0,62881:0:0:0:15:Hat Close.wav
448,192,62501,1,0,0:0:0:25:kick.wav
64,192,62691,128,0,62881:0:0:0:15:Hat Close.wav
192,192,62881,1,0,0:0:0:15:Hat Close.wav
448,192,62881,1,0,0:0:0:25:kick.wav
64,192,63070,128,0,63640:0:0:0:15:Hat Close.wav
192,192,63165,1,0,0:0:0:15:Hat Close.wav
320,192,63260,1,0,0:0:0:15:Hat Close.wav
448,192,63260,1,0,0:0:0:25:kick.wav
192,192,63450,128,0,63640:0:0:0:15:Hat Close.wav
320,192,63640,1,0,0:0:0:15:Hat Close.wav
448,192,63640,1,0,0:0:0:25:kick.wav
192,192,63830,1,0,0:0:0:15:Hat Close.wav
64,192,64020,1,0,0:0:0:15:Hat Close.wav
448,192,64020,1,0,0:0:0:25:kick.wav
320,192,64210,1,0,0:0:0:15:Hat Close.wav
192,192,64305,1,0,0:0:0:15:Hat Close.wav
64,192,64400,1,0,0:0:0:15:Hat Close.wav
448,192,64400,1,0,0:0:0:25:kick.wav
64,192,64589,1,0,0:0:0:30:snare.wav
192,192,64589,1,0,0:0:0:25:tom1.wav
320,192,64779,1,0,0:0:0:30:snare.wav
448,192,64779,1,0,0:0:0:25:tom3.wav
192,192,64969,1,0,0:0:0:30:snare.wav
320,192,65064,1,0,0:0:0:30:snare.wav
64,192,65159,1,0,0:0:0:25:cymbal.wav
192,192,65159,1,0,0:0:0:25:kick.wav
448,192,65159,128,0,65349:0:0:0:0:
320,192,65349,1,0,0:0:0:30:snare.wav
192,192,65444,1,0,0:0:0:30:snare.wav
64,192,65539,128,0,65919:0:0:0:30:snare.wav
448,192,65539,1,0,0:0:0:0:
192,192,65729,128,0,65919:0:0:0:25:Hat Open.wav
320,192,65729,128,0,65919:0:0:0:25:kick.wav
448,192,65729,128,0,65919:0:0:0:0:
64,192,66108,128,0,66298:0:0:0:25:Hat Open.wav
192,192,66108,128,0,66298:0:0:0:25:kick.wav
320,192,66108,128,0,66298:0:0:0:0:
64,192,66488,128,0,66678:0:0:0:25:tom3.wav
192,192,66488,128,0,66678:0:0:0:0:
448,192,66488,128,0,66868:0:0:0:0:
64,192,66868,1,0,0:0:0:25:tom1.wav
320,192,66868,128,0,67058:0:0:0:0:
192,192,67058,128,0,67248:0:0:0:25:kick.wav
448,192,67058,1,0,0:0:0:0:
64,192,67248,128,0,67627:0:0:0:25:cymbal.wav
320,192,67248,128,0,67438:0:0:0:30:snare.wav
448,192,67248,128,0,67438:0:0:0:0:
192,192,67627,1,0,0:0:0:25:tom3.wav
320,192,67722,1,0,0:0:0:30:snare.wav
64,192,67817,1,0,0:0:0:30:snare.wav
192,192,67817,1,0,0:0:0:0:
64,192,68007,128,0,68197:0:0:0:25:cymbal.wav
320,192,68007,128,0,68197:0:0:0:25:kick.wav
448,192,68007,128,0,68387:0:0:0:0:
192,192,68387,1,0,0:0:0:25:kick.wav
320,192,68387,1,0,0:0:0:0:
64,192,68577,1,0,0:0:0:25:Hat Open.wav
320,192,68577,1,0,0:0:0:30:snare.wav
448,192,68577,1,0,0:0:0:0:
192,192,68767,128,0,68957:0:0:0:25:kick.wav
64,192,68957,128,0,69146:0:0:0:25:Hat Open.wav
320,192,68957,1,0,0:0:0:30:snare.wav
448,192,68957,1,0,0:0:0:0:
192,192,69146,1,0,0:0:0:25:kick.wav
320,192,69146,128,0,69336:0:0:0:0:
64,192,69336,1,0,0:0:0:25:Hat Open.wav
192,192,69336,128,0,69716:0:0:0:30:snare.wav
448,192,69336,1,0,0:0:0:0:
64,192,69526,128,0,69716:0:0:0:30:snare.wav
320,192,69526,128,0,69716:0:0:0:25:tom1.wav
448,192,69526,128,0,69716:0:0:0:0:
192,192,69906,1,0,0:0:0:30:snare.wav
320,192,69906,1,0,0:0:0:25:kick.wav
64,192,70096,128,0,70476:0:0:0:30:snare.wav
320,192,70096,1,0,0:0:0:25:tom1.wav
448,192,70096,1,0,0:0:0:25:kick.wav
192,192,70476,128,0,70855:0:0:0:0:
320,192,70855,128,0,71235:0:0:0:0:
448,192,70855,1,0,0:0:0:0:
64,192,71235,1,0,0:0:0:25:cymbal.wav
192,192,71235,1,0,0:0:0:25:kick.wav
448,192,71235,128,0,71425:0:0:0:0:
192,192,71425,128,0,71615:0:0:0:0:
320,192,71425,1,0,0:0:0:0:
64,192,71615,1,0,0:0:0:15:Hat Close.wav
320,192,71615,128,0,71805:0:0:0:30:snare.wav
448,192,71615,1,0,0:0:0:0:
64,192,71805,128,0,71995:0:0:0:15:Hat Close.wav
192,192,71900,1,0,0:0:0:30:snare.wav
320,192,71995,1,0,0:0:0:15:Hat Close.wav
448,192,71995,1,0,0:0:0:25:kick.wav
64,192,72184,1,0,0:0:0:15:Hat Close.wav
192,192,72184,128,0,72374:0:0:0:25:kick.wav
64,192,72374,1,0,0:0:0:15:Hat Close.wav
320,192,72374,128,0,72564:0:0:0:30:snare.wav
448,192,72374,1,0,0:0:0:0:
192,192,72564,1,0,0:0:0:15:Hat Close.wav
448,192,72564,128,0,72754:0:0:0:0:
320,192,72754,1,0,0:0:0:15:Hat Close.wav
64,192,72944,1,0,0:0:0:15:Hat Close.wav
192,192,72944,1,0,0:0:0:25:kick.wav
64,192,73134,1,0,0:0:0:15:Hat Close.wav
320,192,73134,128,0,73514:0:0:0:30:snare.wav
448,192,73134,1,0,0:0:0:0:
192,192,73324,1,0,0:0:0:15:Hat Close.wav
448,192,73419,1,0,0:0:0:30:snare.wav
64,192,73514,1,0,0:0:0:15:Hat Close.wav
192,192,73514,128,0,73893:0:0:0:25:kick.wav
320,192,73703,1,0,0:0:0:15:Hat Close.wav
448,192,73703,1,0,0:0:0:25:kick.wav
64,192,73893,128,0,74273:0:0:0:15:Hat Close.wav
320,192,73893,1,0,0:0:0:30:snare.wav
448,192,73893,1,0,0:0:0:0:
192,192,74083,1,0,0:0:0:25:Hat Open.wav
448,192,74178,1,0,0:0:0:0:
192,192,74273,128,0,74653:0:0:0:15:Hat Close.wav
320,192,74273,1,0,0:0:0:25:kick.wav
448,192,74463,1,0,0:0:0:15:Hat Close.wav
64,192,74653,1,0,0:0:0:15:Hat Close.wav
320,192,74653,1,0,0:0:0:30:snare.wav
448,192,74653,1,0,0:0:0:0:
320,192,74843,128,0,75033:0:0:0:15:Hat Close.wav
64,192,74938,1,0,0:0:0:30:snare.wav
192,192,75033,128,0,75222:0:0:0:15:Hat Close.wav
448,192,75033,128,0,75792:0:0:0:25:kick.wav
64,192,75222,128,0,75412:0:0:0:15:Hat Close.wav
320,192,75222,1,0,0:0:0:25:kick.wav
192,192,75412,1,0,0:0:0:15:Hat Close.wav
320,192,75412,128,0,75602:0:0:0:30:snare.wav
64,192,75602,1,0,0:0:0:15:Hat Close.wav
192,192,75602,128,0,75792:0:0:0:25:kick.wav
320,192,75792,1,0,0:0:0:15:Hat Close.wav
64,192,75982,1,0,0:0:0:15:Hat Close.wav
192,192,75982,1,0,0:0:0:25:kick.wav
64,192,76172,1,0,0:0:0:15:Hat Close.wav
320,192,76172,1,0,0:0:0:30:snare.wav
448,192,76172,1,0,0:0:0:0:
192,192,76362,1,0,0:0:0:15:Hat Close.wav
320,192,76457,1,0,0:0:0:30:snare.wav
64,192,76551,128,0,76741:0:0:0:15:Hat Close.wav
448,192,76551,1,0,0:0:0:25:kick.wav
320,192,76741,1,0,0:0:0:15:Hat Close.wav
192,192,76836,1,0,0:0:0:15:Hat Close.wav
64,192,76931,1,0,0:0:0:15:Hat Close.wav
448,192,76931,128,0,77121:0:0:0:30:snare.wav
320,192,77121,128,0,77311:0:0:0:15:Hat Close.wav
192,192,77121,1,0,0:0:0:0:
64,192,77311,1,0,0:0:0:25:cymbal.wav
448,192,77311,1,0,0:0:0:25:kick.wav
192,192,77311,128,0,77501:0:0:0:0:
320,192,77501,1,0,0:0:0:15:Hat Close.wav
64,192,77691,128,0,77881:0:0:0:15:Hat Close.wav
320,192,77691,1,0,0:0:0:30:snare.wav
448,192,77691,1,0,0:0:0:0:
192,192,77881,128,0,78070:0:0:0:15:Hat Close.wav
320,192,77976,1,0,0:0:0:30:snare.wav
64,192,78070,1,0,0:0:0:15:Hat Close.wav
448,192,78070,128,0,78260:0:0:0:25:kick.wav
192,192,78260,1,0,0:0:0:15:Hat Close.wav
320,192,78260,128,0,78450:0:0:0:25:kick.wav
64,192,78450,1,0,0:0:0:15:Hat Close.wav
192,192,78450,128,0,78640:0:0:0:30:snare.wav
448,192,78450,1,0,0:0:0:0:
64,192,78640,128,0,78830:0:0:0:15:Hat Close.wav
320,192,78640,1,0,0:0:0:25:kick.wav
192,192,78830,1,0,0:0:0:15:Hat Close.wav
320,192,79020,1,0,0:0:0:15:Hat Close.wav
448,192,79020,1,0,0:0:0:25:kick.wav
64,192,79210,1,0,0:0:0:15:Hat Close.wav
192,192,79210,128,0,79589:0:0:0:30:snare.wav
448,192,79210,1,0,0:0:0:0:
320,192,79400,1,0,0:0:0:15:Hat Close.wav
64,192,79495,1,0,0:0:0:30:snare.wav
320,192,79589,128,0,79969:0:0:0:15:Hat Close.wav
448,192,79589,1,0,0:0:0:25:kick.wav
64,192,79779,1,0,0:0:0:15:Hat Close.wav
192,192,79779,1,0,0:0:0:25:kick.wav
64,192,79969,1,0,0:0:0:25:Hat Open.wav
192,192,79969,1,0,0:0:0:30:snare.wav
448,192,79969,128,0,80349:0:0:0:0:
320,192,80159,1,0,0:0:0:15:Hat Close.wav
64,192,80254,1,0,0:0:0:15:Hat Close.wav
192,192,80349,1,0,0:0:0:15:Hat Close.wav
320,192,80349,128,0,80729:0:0:0:25:kick.wav
448,192,80539,1,0,0:0:0:15:Hat Close.wav
64,192,80729,1,0,0:0:0:15:Hat Close.wav
192,192,80729,1,0,0:0:0:30:snare.wav
448,192,80729,1,0,0:0:0:0:
192,192,80919,128,0,81014:0:0:0:15:Hat Close.wav
320,192,81014,128,0,81108:0:0:0:30:snare.wav
64,192,81108,128,0,81488:0:0:0:15:Hat Close.wav
448,192,81108,1,0,0:0:0:25:kick.wav
192,192,81298,1,0,0:0:0:25:Hat Open.wav
320,192,81298,1,0,0:0:0:25:kick.wav
192,192,81488,1,0,0:0:0:30:snare.wav
448,192,81488,1,0,0:0:0:0:
64,192,81678,1,0,0:0:0:25:cymbal.wav
320,192,81678,1,0,0:0:0:25:kick.wav
448,192,81678,128,0,81868:0:0:0:0:
64,192,81868,1,0,0:0:0:15:Hat Close.wav
192,192,81868,128,0,82058:0:0:0:0:
320,192,82058,128,0,82248:0:0:0:25:Hat Open.wav
448,192,82058,1,0,0:0:0:25:kick.wav
64,192,82248,128,0,82438:0:0:0:15:Hat Close.wav
192,192,82248,1,0,0:0:0:30:snare.wav
192,192,82438,128,0,82627:0:0:0:25:cymbal.wav
320,192,82438,128,0,82627:0:0:0:25:kick.wav
448,192,82438,128,0,82817:0:0:0:0:
64,192,82627,1,0,0:0:0:25:kick.wav
192,192,82817,1,0,0:0:0:25:kick.wav
320,192,82912,1,0,0:0:0:25:tom3.wav
64,192,83007,1,0,0:0:0:30:snare.wav
448,192,83007,1,0,0:0:0:0:
192,192,83102,1,0,0:0:0:30:snare.wav
320,192,83197,1,0,0:0:0:25:kick.wav
64,192,83387,1,0,0:0:0:25:cymbal.wav
192,192,83387,1,0,0:0:0:25:kick.wav
448,192,83387,128,0,83577:0:0:0:0:
192,192,83577,128,0,83767:0:0:0:0:
320,192,83577,1,0,0:0:0:0:
64,192,83767,1,0,0:0:0:15:Hat Close.wav
320,192,83767,128,0,83957:0:0:0:30:snare.wav
448,192,83767,1,0,0:0:0:0:
64,192,83957,128,0,84146:0:0:0:15:Hat Close.wav
192,192,84051,1,0,0:0:0:30:snare.wav
320,192,84146,1,0,0:0:0:15:Hat Close.wav
448,192,84146,1,0,0:0:0:25:kick.wav
64,192,84336,1,0,0:0:0:15:Hat Close.wav
192,192,84336,128,0,84526:0:0:0:25:kick.wav
64,192,84526,1,0,0:0:0:15:Hat Close.wav
320,192,84526,1,0,0:0:0:30:snare.wav
448,192,84526,1,0,0:0:0:0:
192,192,84716,1,0,0:0:0:25:Hat Open.wav
320,192,84716,128,0,84906:0:0:0:25:kick.wav
64,192,84906,1,0,0:0:0:15:Hat Close.wav
320,192,85096,1,0,0:0:0:15:Hat Close.wav
448,192,85096,1,0,0:0:0:25:kick.wav
64,192,85286,1,0,0:0:0:15:Hat Close.wav
192,192,85286,1,0,0:0:0:30:snare.wav
448,192,85286,128,0,85665:0:0:0:0:
320,192,85476,1,0,0:0:0:15:Hat Close.wav
64,192,85570,1,0,0:0:0:30:snare.wav
192,192,85665,1,0,0:0:0:15:Hat Close.wav
320,192,85665,128,0,86045:0:0:0:25:kick.wav
64,192,85855,1,0,0:0:0:15:Hat Close.wav
448,192,85855,1,0,0:0:0:25:kick.wav
64,192,86045,1,0,0:0:0:25:Hat Open.wav
192,192,86045,128,0,86425:0:0:0:30:snare.wav
448,192,86045,1,0,0:0:0:0:
320,192,86235,1,0,0:0:0:15:Hat Close.wav
64,192,86425,128,0,86805:0:0:0:15:Hat Close.wav
448,192,86425,1,0,0:0:0:25:kick.wav
320,192,86615,1,0,0:0:0:15:Hat Close.wav
192,192,86805,1,0,0:0:0:15:Hat Close.wav
320,192,86805,1,0,0:0:0:30:snare.wav
448,192,86805,1,0,0:0:0:0:
192,192,86995,128,0,87184:0:0:0:15:Hat Close.wav
448,192,87089,1,0,0:0:0:30:snare.wav
64,192,87184,1,0,0:0:0:15:Hat Close.wav
320,192,87184,128,0,87374:0:0:0:25:kick.wav
192,192,87374,1,0,0:0:0:15:Hat Close.wav
448,192,87374,128,0,87564:0:0:0:25:kick.wav
64,192,87564,1,0,0:0:0:30:snare.wav
320,192,87564,1,0,0:0:0:0:
64,192,87754,128,0,87944:0:0:0:25:cymbal.wav
192,192,87754,128,0,87944:0:0:0:25:kick.wav
448,192,87754,128,0,87944:0:0:0:0:
320,192,87944,1,0,0:0:0:15:Hat Close.wav
192,192,88134,128,0,88324:0:0:0:25:kick.wav
320,192,88134,128,0,88324:0:0:0:0:
448,192,88134,128,0,88324:0:0:0:0:
64,192,88324,1,0,0:0:0:15:Hat Close.wav
64,192,88514,128,0,88703:0:0:0:25:kick.wav
192,192,88514,128,0,88703:0:0:0:0:
320,192,88514,128,0,88703:0:0:0:0:
448,192,88703,1,0,0:0:0:25:Hat Open.wav
64,192,88893,128,0,89083:0:0:0:25:kick.wav
320,192,88893,128,0,89083:0:0:0:0:
448,192,88893,128,0,89083:0:0:0:0:
192,192,89083,1,0,0:0:0:25:Hat Open.wav
320,192,89178,1,0,0:0:0:30:snare.wav
64,192,89273,1,0,0:0:0:25:tom1.wav
192,192,89273,1,0,0:0:0:0:
64,192,89463,1,0,0:0:0:25:cymbal.wav
320,192,89463,1,0,0:0:0:25:kick.wav
448,192,89463,128,0,89653:0:0:0:0:
64,192,89653,1,0,0:0:0:25:kick.wav
192,192,89653,128,0,89843:0:0:0:0:
320,192,89843,128,0,90222:0:0:0:30:snare.wav
448,192,89843,1,0,0:0:0:0:
64,192,90033,128,0,90222:0:0:0:25:Hat Open.wav
192,192,90033,128,0,90222:0:0:0:25:kick.wav
448,192,90033,128,0,90222:0:0:0:0:
64,192,90412,1,0,0:0:0:25:cymbal.wav
320,192,90412,128,0,90602:0:0:0:25:kick.wav
448,192,90412,128,0,90602:0:0:0:0:
64,192,90602,1,0,0:0:0:30:snare.wav
192,192,90602,1,0,0:0:0:0:
320,192,90697,1,0,0:0:0:30:snare.wav
192,192,90792,1,0,0:0:0:25:tom3.wav
448,192,90887,1,0,0:0:0:25:tom1.wav
64,192,90982,128,0,91362:0:0:0:25:cymbal.wav
192,192,90982,128,0,91172:0:0:0:25:kick.wav
320,192,90982,1,0,0:0:0:0:
320,192,91172,1,0,0:0:0:25:kick.wav
448,192,91172,1,0,0:0:0:0:
192,192,91362,1,0,0:0:0:15:Hat Close.wav
448,192,91362,1,0,0:0:0:30:snare.wav
64,192,91551,128,0,91741:0:0:0:25:Hat Open.wav
320,192,91551,128,0,91931:0:0:0:25:kick.wav
448,192,91551,128,0,91741:0:0:0:0:
64,192,91931,128,0,92121:0:0:0:25:cymbal.wav
192,192,91931,128,0,92121:0:0:0:25:kick.wav
448,192,91931,128,0,92121:0:0:0:0:
320,192,92121,1,0,0:0:0:15:Hat Close.wav
64,192,92311,1,0,0:0:0:25:cymbal.wav
192,192,92311,1,0,0:0:0:25:kick.wav
448,192,92311,128,0,93830:0:0:0:0:
64,192,92691,1,0,0:0:0:25:kick.wav
320,192,92691,1,0,0:0:0:0:
64,192,92881,1,0,0:0:0:25:cymbal.wav
192,192,92881,1,0,0:0:0:30:snare.wav
320,192,93070,1,0,0:0:0:0:
64,192,93165,1,0,0:0:0:30:snare.wav
192,192,93260,1,0,0:0:0:15:Hat Close.wav
320,192,93260,1,0,0:0:0:25:kick.wav
64,192,93450,1,0,0:0:0:15:Hat Close.wav
192,192,93450,1,0,0:0:0:25:kick.wav
64,192,93640,1,0,0:0:0:15:Hat Close.wav
320,192,93640,1,0,0:0:0:30:snare.wav
64,192,93830,1,0,0:0:0:25:cymbal.wav
192,192,93830,1,0,0:0:0:25:kick.wav
320,192,93830,1,0,0:0:0:0:
192,192,94210,1,0,0:0:0:15:Hat Close.wav
448,192,94210,1,0,0:0:0:25:kick.wav
64,192,94400,1,0,0:0:0:15:Hat Close.wav
320,192,94400,1,0,0:0:0:30:snare.wav
448,192,94400,1,0,0:0:0:0:
192,192,94589,1,0,0:0:0:15:Hat Close.wav
320,192,94684,1,0,0:0:0:30:snare.wav
64,192,94779,1,0,0:0:0:15:Hat Close.wav
448,192,94779,128,0,94969:0:0:0:25:kick.wav
320,192,94969,1,0,0:0:0:15:Hat Close.wav
192,192,95064,1,0,0:0:0:30:snare.wav
64,192,95159,128,0,95539:0:0:0:15:Hat Close.wav
448,192,95159,1,0,0:0:0:30:snare.wav
192,192,95349,128,0,95539:0:0:0:25:cymbal.wav
320,192,95349,128,0,95729:0:0:0:25:kick.wav
448,192,95349,128,0,95729:0:0:0:0:
64,192,95729,1,0,0:0:0:15:Hat Close.wav
192,192,95729,1,0,0:0:0:25:kick.wav
64,192,95919,1,0,0:0:0:15:Hat Close.wav
320,192,95919,1,0,0:0:0:30:snare.wav
448,192,95919,1,0,0:0:0:0:
192,192,96108,1,0,0:0:0:15:Hat Close.wav
320,192,96203,1,0,0:0:0:30:snare.wav
64,192,96298,128,0,96678:0:0:0:15:Hat Close.wav
448,192,96298,1,0,0:0:0:25:kick.wav
192,192,96488,1,0,0:0:0:25:Hat Open.wav
448,192,96583,1,0,0:0:0:30:snare.wav
192,192,96678,1,0,0:0:0:15:Hat Close.wav
320,192,96678,1,0,0:0:0:25:kick.wav
64,192,96868,128,0,97058:0:0:0:25:Hat Open.wav
320,192,96868,128,0,97058:0:0:0:25:kick.wav
448,192,96868,128,0,97058:0:0:0:0:
64,192,97248,128,0,97438:0:0:0:25:Hat Open.wav
192,192,97248,128,0,97438:0:0:0:25:kick.wav
448,192,97248,128,0,97438:0:0:0:0:
64,192,97627,128,0,97817:0:0:0:25:Hat Open.wav
320,192,97627,128,0,97817:0:0:0:25:kick.wav
448,192,97627,128,0,97817:0:0:0:0:
192,192,98007,128,0,98197:0:0:0:25:cymbal.wav
320,192,98007,128,0,98197:0:0:0:25:kick.wav
448,192,98007,128,0,98197:0:0:0:0:
64,192,98197,1,0,0:0:0:0:
320,192,98387,1,0,0:0:0:30:snare.wav
192,192,98482,1,0,0:0:0:30:snare.wav
64,192,98577,1,0,0:0:0:25:cymbal.wav
320,192,98577,1,0,0:0:0:25:kick.wav
448,192,98577,128,0,99716:0:0:0:0:
192,192,98767,128,0,99051:0:0:0:0:
64,192,98957,1,0,0:0:0:15:Hat Close.wav
320,192,98957,128,0,99051:0:0:0:30:snare.wav
64,192,99146,1,0,0:0:0:15:Hat Close.wav
320,192,99241,1,0,0:0:0:30:snare.wav
64,192,99336,128,0,99621:0:0:0:15:Hat Close.wav
192,192,99336,1,0,0:0:0:25:kick.wav
192,192,99526,128,0,99621:0:0:0:15:Hat Close.wav
320,192,99526,1,0,0:0:0:25:kick.wav
64,192,99716,1,0,0:0:0:15:Hat Close.wav
192,192,99716,1,0,0:0:0:30:snare.wav
320,192,99716,1,0,0:0:0:0:
64,192,99906,128,0,100855:0:0:0:15:Hat Close.wav
448,192,99906,128,0,100191:0:0:0:25:kick.wav
192,192,100096,128,0,100191:0:0:0:15:Hat Close.wav
320,192,100286,1,0,0:0:0:15:Hat Close.wav
448,192,100286,1,0,0:0:0:25:kick.wav
192,192,100476,1,0,0:0:0:15:Hat Close.wav
320,192,100476,128,0,100760:0:0:0:30:snare.wav
448,192,100665,128,0,100760:0:0:0:15:Hat Close.wav
192,192,100760,1,0,0:0:0:30:snare.wav
320,192,100855,1,0,0:0:0:15:Hat Close.wav
448,192,100855,1,0,0:0:0:25:kick.wav
192,192,101045,1,0,0:0:0:15:Hat Close.wav
320,192,101140,1,0,0:0:0:0:
64,192,101235,1,0,0:0:0:25:Hat Open.wav
448,192,101235,1,0,0:0:0:30:snare.wav
192,192,101330,1,0,0:0:0:0:
320,192,101425,1,0,0:0:0:0:
192,192,101520,1,0,0:0:0:0:
64,192,101615,128,0,102754:0:0:0:15:Hat Close.wav
448,192,101615,1,0,0:0:0:25:kick.wav
320,192,101805,128,0,102089:0:0:0:15:Hat Close.wav
192,192,101995,128,0,102089:0:0:0:15:Hat Close.wav
448,192,101995,1,0,0:0:0:30:snare.wav
448,192,102184,1,0,0:0:0:15:Hat Close.wav
192,192,102279,1,0,0:0:0:30:snare.wav
320,192,102374,1,0,0:0:0:15:Hat Close.wav
448,192,102374,128,0,102659:0:0:0:25:kick.wav
192,192,102564,1,0,0:0:0:15:Hat Close.wav
320,192,102564,128,0,102659:0:0:0:25:kick.wav
192,192,102754,1,0,0:0:0:15:Hat Close.wav
320,192,102754,1,0,0:0:0:30:snare.wav
448,192,102754,1,0,0:0:0:0:
64,192,102944,128,0,103229:0:0:0:15:Hat Close.wav
448,192,102944,128,0,103893:0:0:0:25:kick.wav
320,192,103134,128,0,103229:0:0:0:15:Hat Close.wav
64,192,103324,1,0,0:0:0:15:Hat Close.wav
192,192,103324,1,0,0:0:0:25:kick.wav
192,192,103514,128,0,103798:0:0:0:15:Hat Close.wav
320,192,103514,1,0,0:0:0:30:snare.wav
64,192,103703,128,0,103798:0:0:0:15:Hat Close.wav
320,192,103798,1,0,0:0:0:30:snare.wav
64,192,103893,1,0,0:0:0:15:Hat Close.wav
192,192,103893,1,0,0:0:0:25:kick.wav
64,192,104083,1,0,0:0:0:15:Hat Close.wav
448,192,104083,1,0,0:0:0:25:kick.wav
192,192,104178,1,0,0:0:0:30:snare.wav
448,192,104273,1,0,0:0:0:25:Hat Open.wav
320,192,104273,1,0,0:0:0:25:tom2.wav
192,192,104368,1,0,0:0:0:25:tom3.wav
64,192,104368,1,0,0:0:0:0:
448,192,104463,1,0,0:0:0:25:tom1.wav
320,192,104463,1,0,0:0:0:0:
64,192,104653,128,0,104843:0:0:0:25:cymbal.wav
192,192,104653,1,0,0:0:0:25:kick.wav
448,192,104653,128,0,104843:0:0:0:0:
320,192,104843,1,0,0:0:0:30:snare.wav
192,192,104938,1,0,0:0:0:30:snare.wav
64,192,105033,1,0,0:0:0:15:Hat Close.wav
448,192,105033,1,0,0:0:0:30:snare.wav
320,192,105127,1,0,0:0:0:30:snare.wav
64,192,105222,128,0,105412:0:0:0:25:Hat Open.wav
192,192,105222,128,0,105412:0:0:0:25:kick.wav
448,192,105222,128,0,105412:0:0:0:0:
64,192,105602,128,0,105792:0:0:0:25:Hat Open.wav
320,192,105602,128,0,105792:0:0:0:25:kick.wav
448,192,105602,128,0,105792:0:0:0:0:
320,192,105982,128,0,106172:0:0:0:25:tom3.wav
192,192,105982,128,0,106172:0:0:0:25:kick.wav
64,192,105982,128,0,106172:0:0:0:0:
448,192,106172,1,0,0:0:0:15:Hat Close.wav
448,192,106362,128,0,106551:0:0:0:25:tom1.wav
320,192,106362,128,0,106551:0:0:0:0:
64,192,106362,1,0,0:0:0:0:
192,192,106551,1,0,0:0:0:15:Hat Close.wav
64,192,106551,1,0,0:0:0:25:kick.wav
448,192,106741,128,0,109210:0:0:0:25:cymbal.wav
320,192,106741,128,0,107406:0:0:0:30:snare.wav
192,192,106741,128,0,107501:0:0:0:0:
64,192,106741,128,0,107596:0:0:0:0:
320,192,107501,128,0,110729:0:0:0:15:Hat Close.wav
192,192,107596,128,0,112248:0:0:0:15:Hat Close.wav
64,192,107691,128,0,113767:0:0:0:25:Hat Open.wav
