osu file format v14

[General]
AudioFilename: audio.mp3
AudioLeadIn: 0
PreviewTime: 59039
Countdown: 0
SampleSet: Soft
StackLeniency: 0.7
Mode: 2
LetterboxInBreaks: 0
WidescreenStoryboard: 1

[Editor]
DistanceSpacing: 0.4
BeatDivisor: 4
GridSize: 32
TimelineZoom: 4.15

[Metadata]
Title:Last Diary
TitleUnicode:Last Diary
Artist:Eri Sasaki
ArtistUnicode:佐々木恵梨
Creator:-Hex-
Version:Rain
Source:プラスティック・メモリーズ
Tags:plastic memories opening video game vn visual novel op period pop japanese
BeatmapID:3552358
BeatmapSetID:1734128

[Difficulty]
HPDrainRate:5
CircleSize:3.6
OverallDifficulty:8.8
ApproachRate:8.8
SliderMultiplier:1.88
SliderTickRate:1

[Events]
//Background and Video events
0,0,"bg.jpg",0,0
//Break Periods
//Storyboard Layer 0 (Background)
//Storyboard Layer 1 (Fail)
//Storyboard Layer 2 (Pass)
//Storyboard Layer 3 (Foreground)
//Storyboard Layer 4 (Overlay)
//Storyboard Sound Samples

[TimingPoints]
530,372.670807453416,4,2,4,40,1,0
530,-100,4,2,4,40,0,0
3138,-100,4,2,4,30,0,0
3511,-100,4,2,4,40,0,0
11523,-100,4,2,1,60,0,0
12269,-100,4,2,1,60,0,0
23821,-100,4,2,2,60,0,0
24380,-100,4,2,3,40,0,0
24567,-100,4,2,4,40,0,0
24753,-100,4,2,3,40,0,0
25871,-100,4,2,1,40,0,0
26057,-100,4,2,3,40,0,0
27175,-100,4,2,4,40,0,0
27362,-100,4,2,1,40,0,0
27548,-100,4,2,4,40,0,0
27734,-100,4,2,3,40,0,0
28852,-100,4,2,1,40,0,0
29039,-100,4,2,3,40,0,0
29784,-100,4,2,4,40,0,0
29970,-100,4,2,3,40,0,0
30157,-100,4,2,4,40,0,0
30343,-100,4,2,1,40,0,0
30529,-100,4,2,4,40,0,0
30716,-100,4,2,3,40,0,0
31834,-100,4,2,1,40,0,0
32207,-100,4,2,3,40,0,0
33138,-100,4,2,4,40,0,0
33325,-100,4,2,1,40,0,0
33511,-100,4,2,4,40,0,0
33697,-100,4,2,3,40,0,0
34815,-100,4,2,69,40,0,0
35561,-100,4,2,3,40,0,0
35933,-100,4,2,1,40,0,0
36306,-100,4,2,1,50,0,0
37610,-100,4,2,4,50,0,0
37797,-100,4,2,1,50,0,0
40592,-100,4,2,4,50,0,0
40778,-100,4,2,1,50,0,0
40964,-100,4,2,4,50,0,0
41151,-100,4,2,1,50,0,0
42082,-100,4,2,4,50,0,0
42269,-100,4,2,1,50,0,0
44691,-100,4,2,4,50,0,0
44877,-100,4,2,1,50,0,0
45064,-100,4,2,4,50,0,0
45250,-100,4,2,1,50,0,0
45623,-100,4,2,1,50,0,0
45995,-100,4,2,1,50,0,0
46182,-100,4,2,1,50,0,0
47300,-100,4,2,4,50,0,0
47486,-100,4,2,1,50,0,0
48231,-100,4,2,1,50,0,0
48418,-100,4,2,4,50,0,0
48790,-100,4,2,1,50,0,0
49349,-100,4,2,4,50,0,0
49536,-100,4,2,1,40,0,0
49722,-100,4,2,1,50,0,0
51026,-100,4,2,1,40,0,0
51213,-100,4,2,1,50,0,0
51399,-100,4,2,4,50,0,0
51772,-100,4,2,1,50,0,0
52517,-100,4,2,1,40,0,0
52703,-100,4,2,99,50,0,0
52890,-100,4,2,1,50,0,0
53076,-100,4,2,99,50,0,0
53262,-100,4,2,1,50,0,0
53449,-100,4,2,99,50,0,0
53635,-100,4,2,1,50,0,0
53728,-100,4,2,1,40,0,0
53821,-100,4,2,99,50,0,0
54008,-100,4,2,1,50,0,0
54846,-100,4,2,1,40,0,0
54939,-100,4,2,1,50,0,0
55126,-100,4,2,4,50,0,0
55312,-100,4,2,1,50,0,0
55498,-100,4,2,99,50,0,0
56430,-100,4,2,1,50,0,0
59970,-90.9090909090909,4,2,1,70,0,1
60529,-90.9090909090909,4,2,1,70,0,1
60716,-90.9090909090909,4,2,1,70,0,1
62020,-90.9090909090909,4,2,1,70,0,1
62207,-90.9090909090909,4,2,1,70,0,1
62952,-90.9090909090909,4,2,1,60,0,1
63138,-90.9090909090909,4,2,1,70,0,1
65933,-90.9090909090909,4,2,1,60,0,1
66120,-90.9090909090909,4,2,1,70,0,1
68915,-90.9090909090909,4,2,1,60,0,1
69101,-90.9090909090909,4,2,1,70,0,1
71337,-90.9090909090909,4,2,1,70,0,0
71896,-90.9090909090909,4,2,1,70,0,1
72455,-90.9090909090909,4,2,1,70,0,1
72641,-90.9090909090909,4,2,1,70,0,1
74877,-90.9090909090909,4,2,1,60,0,1
75064,-90.9090909090909,4,2,1,70,0,1
77859,-90.9090909090909,4,2,1,60,0,1
78045,-90.9090909090909,4,2,1,70,0,1
79349,-90.9090909090909,4,2,1,60,0,1
79536,-90.9090909090909,4,2,1,70,0,1
79908,-90.9090909090909,4,2,3,70,0,1
80095,-90.9090909090909,4,2,1,70,0,1
80840,-90.9090909090909,4,2,1,60,0,1
81026,-90.9090909090909,4,2,1,70,0,1
83076,-100,4,2,1,70,0,0
83262,-100,4,2,1,40,0,0
84753,-100,4,2,1,60,0,0
84939,-100,4,2,1,60,0,0
85312,-100,4,2,1,70,0,0
85685,-100,4,2,1,60,0,0
97424,-100,4,2,1,40,0,0
100219,-100,4,2,1,30,0,0
100405,-100,4,2,1,40,0,0
107859,-100,4,2,69,40,0,0
108604,-100,4,2,1,40,0,0
109349,-100,4,2,1,50,0,0
110653,-100,4,2,4,50,0,0
110840,-100,4,2,1,50,0,0
113635,-100,4,2,4,50,0,0
113821,-100,4,2,1,50,0,0
114007,-100,4,2,4,50,0,0
114194,-100,4,2,1,50,0,0
115125,-100,4,2,4,50,0,0
115312,-100,4,2,1,50,0,0
117734,-100,4,2,4,50,0,0
117920,-100,4,2,1,50,0,0
118107,-100,4,2,4,50,0,0
118293,-100,4,2,1,50,0,0
118666,-100,4,2,1,50,0,0
118852,-100,4,2,1,50,0,0
119039,-100,4,2,1,50,0,0
119225,-100,4,2,1,50,0,0
120343,-100,4,2,4,50,0,0
120529,-100,4,2,1,50,0,0
121274,-100,4,2,1,50,0,0
121461,-100,4,2,4,50,0,0
121833,-100,4,2,1,50,0,0
122392,-100,4,2,4,50,0,0
122579,-100,4,2,1,40,0,0
122765,-100,4,2,1,50,0,0
124069,-100,4,2,1,40,0,0
124256,-100,4,2,1,50,0,0
124442,-100,4,2,4,50,0,0
124815,-100,4,2,1,50,0,0
125560,-100,4,2,1,40,0,0
125746,-100,4,2,99,50,0,0
125933,-100,4,2,1,50,0,0
126119,-100,4,2,99,50,0,0
126305,-100,4,2,1,50,0,0
126492,-100,4,2,99,50,0,0
126678,-100,4,2,1,50,0,0
126771,-100,4,2,1,40,0,0
126864,-100,4,2,99,50,0,0
127051,-100,4,2,1,50,0,0
127889,-100,4,2,1,40,0,0
127982,-100,4,2,1,50,0,0
128169,-100,4,2,4,50,0,0
128355,-100,4,2,1,50,0,0
128541,-100,4,2,99,50,0,0
129473,-100,4,2,1,50,0,0
133014,-90.9090909090909,4,2,1,70,0,1
133573,-90.9090909090909,4,2,1,70,0,1
133759,-90.9090909090909,4,2,1,70,0,1
135064,-90.9090909090909,4,2,1,70,0,1
135250,-90.9090909090909,4,2,1,70,0,1
135996,-90.9090909090909,4,2,1,60,0,1
136182,-90.9090909090909,4,2,1,70,0,1
138977,-90.9090909090909,4,2,1,60,0,1
139164,-90.9090909090909,4,2,1,70,0,1
141959,-90.9090909090909,4,2,1,60,0,1
142145,-90.9090909090909,4,2,1,70,0,1
144380,-90.9090909090909,4,2,1,70,0,0
144939,-90.9090909090909,4,2,1,70,0,1
145498,-90.9090909090909,4,2,1,70,0,1
145685,-90.9090909090909,4,2,1,70,0,1
147921,-90.9090909090909,4,2,1,60,0,1
148108,-90.9090909090909,4,2,1,70,0,1
150903,-90.9090909090909,4,2,1,60,0,1
151089,-90.9090909090909,4,2,1,70,0,1
152393,-90.9090909090909,4,2,1,60,0,1
152580,-90.9090909090909,4,2,1,70,0,1
152952,-90.9090909090909,4,2,1,70,0,1
153139,-90.9090909090909,4,2,1,70,0,1
153884,-90.9090909090909,4,2,1,60,0,1
154070,-90.9090909090909,4,2,1,70,0,1
156865,-100,4,2,1,60,0,0
159846,-100,4,2,1,50,0,0
160033,-100,4,2,1,60,0,0
165809,-100,4,2,1,50,0,0
165995,-100,4,2,1,60,0,0
168418,-100,4,2,1,50,0,0
168604,-100,4,2,1,60,0,0
168977,-100,4,2,4,40,0,0
174380,-100,4,2,1,40,0,0
174939,-100,4,2,1,50,0,0
177734,-100,4,2,1,60,0,0
180716,-90.9090909090909,4,2,1,70,0,1
181275,-90.9090909090909,4,2,1,70,0,1
181461,-90.9090909090909,4,2,1,70,0,1
182766,-90.9090909090909,4,2,1,70,0,1
182952,-90.9090909090909,4,2,1,70,0,1
183698,-90.9090909090909,4,2,1,60,0,1
183884,-90.9090909090909,4,2,1,70,0,1
186679,-90.9090909090909,4,2,1,60,0,1
186866,-90.9090909090909,4,2,1,70,0,1
189661,-90.9090909090909,4,2,1,60,0,1
189847,-90.9090909090909,4,2,1,70,0,1
192082,-90.9090909090909,4,2,1,70,0,0
192641,-90.9090909090909,4,2,1,70,0,1
193200,-90.9090909090909,4,2,1,70,0,1
193387,-90.9090909090909,4,2,1,70,0,1
195623,-90.9090909090909,4,2,1,60,0,1
195810,-90.9090909090909,4,2,1,70,0,1
198605,-90.9090909090909,4,2,1,60,0,1
198791,-90.9090909090909,4,2,1,70,0,1
200095,-90.9090909090909,4,2,1,60,0,1
200282,-90.9090909090909,4,2,1,70,0,1
200654,-90.9090909090909,4,2,3,70,0,1
200841,-90.9090909090909,4,2,1,70,0,1
201586,-90.9090909090909,4,2,1,60,0,1
201772,-90.9090909090909,4,2,1,70,0,1
206803,-100,4,2,1,70,0,0
206989,-100,4,2,1,40,0,0
208293,-100,4,2,1,5,0,0
208666,-100,4,3,0,50,0,0
209225,-100,4,2,1,40,0,0
210716,-100,4,2,4,40,0,0
210902,-100,4,2,1,40,0,0
215188,-100,4,2,1,30,0,0
216679,-100,4,2,1,20,0,0
218169,-100,4,2,1,10,0,0
219660,-100,4,2,1,5,0,0

[Colours]
Combo1 : 238,177,118
Combo2 : 110,105,125
Combo3 : 211,120,138

[HitObjects]
168,326,530,6,0,P|117:266|191:181,1,188,6|0,0:2|0:0,0:0:0:0:
264,178,1089,1,0,0:0:0:0:
423,32,1275,2,0,L|431:238,1,188,2|0,0:2|0:0,0:0:0:0:
334,212,1834,1,2,0:2:0:0:
174,343,2020,6,0,L|381:320,1,188,10|0,0:2|0:0,0:0:0:0:
266,252,2579,1,2,0:2:0:0:
104,256,2766,1,2,0:2:0:0:
96,117,2952,1,2,0:2:0:0:
256,28,3138,2,0,L|268:97,3,47,2|2|2|2,0:2|0:2|0:2|0:2,0:0:0:0:
96,146,3511,6,0,P|43:194|122:280,1,188,10|2,0:2|0:2,0:0:0:0:
190,282,4070,1,0,0:0:0:0:
350,283,4256,2,0,L|463:277,3,94,2|0|2|2,0:2|0:0|0:2|0:2,0:0:0:0:
190,339,5002,5,10,0:2:0:0:
172,198,5188,1,0,0:0:0:0:
267,189,5374,1,2,0:2:0:0:
287,31,5561,1,2,0:2:0:0:
126,24,5747,1,2,0:2:0:0:
210,25,5933,1,2,0:2:0:0:
370,165,6120,2,0,L|215:157,1,141,6|0,0:3|0:0,0:0:0:0:
394,280,6492,6,0,P|442:228|379:138,1,188,6|0,0:2|1:0,0:0:0:0:
296,143,7051,1,0,1:0:0:0:
202,60,7238,2,0,L|423:59,1,188,2|8,1:2|0:1,0:0:0:0:
388,105,7703,1,8,0:1:0:0:
358,140,7796,1,8,0:1:0:0:
313,148,7889,1,8,0:1:0:0:
145,142,7983,6,0,L|133:269,1,94,8|2,0:2|0:2,0:0:0:0:
204,228,8262,1,8,0:1:0:0:
134,291,8356,1,8,0:1:0:0:
390,338,8542,1,8,0:3:0:0:
237,118,8915,1,4,0:3:0:0:
396,111,9101,1,4,0:3:0:0:
113,19,9287,6,0,P|64:53|142:133,1,188,4|0,0:2|0:0,0:0:0:0:
213,135,9846,1,0,1:0:0:0:
373,239,10033,2,0,L|379:351,1,94,2|0,0:2|1:0,0:0:0:0:
218,324,10405,1,10,0:1:0:0:
379,322,10592,1,10,0:1:0:0:
125,318,10778,5,10,0:1:0:0:
78,292,10871,1,8,0:1:0:0:
61,243,10964,1,8,0:1:0:0:
82,196,11057,1,8,0:1:0:0:
128,173,11150,1,8,0:1:0:0:
292,164,11244,1,8,0:1:0:0:
349,160,11337,1,8,0:1:0:0:
292,164,11430,1,8,0:1:0:0:
100,351,11523,6,0,P|64:317|131:260,1,141,10|0,1:2|0:0,0:0:0:0:
277,251,11896,1,10,1:2:0:0:
418,246,12082,1,0,1:0:0:0:
134,77,12269,6,0,L|343:74,1,188,14|0,1:2|1:0,0:0:0:0:
162,158,12828,2,0,L|156:287,1,94,8|0,0:2|0:0,0:0:0:0:
409,338,13200,2,0,L|415:225,1,94,2|0,1:2|1:0,0:0:0:0:
255,222,13573,2,0,L|139:212,1,94,8|0,0:2|1:0,0:0:0:0:
415,337,13946,6,0,P|470:299|399:216,1,188,2|8,0:2|0:2,0:0:0:0:
255,222,14505,5,0,1:0:0:0:
208,196,14598,1,8,0:2:0:0:
191,147,14691,1,10,1:2:0:0:
212,100,14784,1,8,0:2:0:0:
258,77,14877,1,0,1:0:0:0:
417,23,15064,2,0,L|287:22,1,94,8|0,0:2|0:0,0:0:0:0:
41,167,15436,6,0,L|235:169,1,188,2|8,1:2|0:2,0:0:0:0:
68,263,15995,1,10,0:2:0:0:
16,261,16089,1,8,0:2:0:0:
68,263,16182,1,10,1:2:0:0:
217,316,16368,1,2,1:2:0:0:
70,345,16554,1,10,0:2:0:0:
326,196,16741,6,0,P|404:237|377:331,1,188,6|8,1:2|1:2,0:0:0:0:
326,327,17207,1,8,0:2:0:0:
387,322,17300,1,8,0:2:0:0:
134,242,17486,6,0,P|89:190|149:153,1,141,6|0,1:2|0:0,0:0:0:0:
298,42,17859,1,10,0:2:0:0:
355,56,17952,1,8,0:2:0:0:
355,56,18045,1,8,0:2:0:0:
298,42,18138,1,8,0:2:0:0:
109,337,18231,6,0,L|313:329,1,188,6|0,1:2|1:0,0:0:0:0:
455,327,18790,2,0,L|462:213,1,94,8|0,0:2|0:0,0:0:0:0:
206,46,19163,2,0,L|324:42,1,94,2|0,1:2|1:0,0:0:0:0:
141,136,19536,2,0,L|35:126,1,94,8|0,0:2|1:0,0:0:0:0:
303,127,19908,6,0,P|368:165|292:241,1,188,2|8,0:2|0:2,0:0:0:0:
159,326,20467,1,0,1:0:0:0:
205,320,20560,1,8,0:2:0:0:
252,315,20653,1,10,1:2:0:0:
299,310,20746,1,8,0:2:0:0:
345,304,20839,1,0,1:0:0:0:
183,224,21026,2,0,L|55:213,1,94,8|0,0:2|0:0,0:0:0:0:
375,25,21399,6,0,P|436:82|343:117,1,188,2|8,1:2|0:2,0:0:0:0:
213,133,21958,1,10,0:2:0:0:
208,179,22051,1,8,0:2:0:0:
204,226,22144,1,10,1:2:0:0:
353,327,22331,1,2,1:2:0:0:
204,336,22517,1,10,0:2:0:0:
487,104,22703,6,0,L|276:91,1,188,6|10,1:2|1:2,0:0:0:0:
361,32,23169,1,8,0:2:0:0:
422,20,23262,1,8,0:2:0:0:
166,319,23449,2,0,P|160:262|250:223,1,141,6|0,0:2|0:0,0:0:0:0:
282,208,23821,1,6,0:3:0:0:
27,197,24008,2,0,L|24:98,1,94,6|0,0:3|0:0,0:0:0:0:
278,94,24380,5,2,0:2:0:0:
373,89,24567,1,2,1:2:0:0:
278,94,24753,1,10,0:2:0:0:
118,180,24939,1,0,0:0:0:0:
278,195,25126,2,0,L|285:312,1,94,8|0,0:2|0:0,0:0:0:0:
123,345,25498,1,8,0:2:0:0:
347,191,25871,6,0,L|148:177,1,188,2|10,1:2|0:2,0:0:0:0:
321,33,26430,1,2,0:2:0:0:
160,35,26616,2,0,P|144:100|256:150,1,188,8|8,0:2|0:2,0:0:0:0:
83,259,27175,1,0,1:0:0:0:
341,287,27362,5,2,1:2:0:0:
436,281,27548,1,2,1:2:0:0:
341,287,27734,1,8,0:2:0:0:
181,282,27921,2,0,P|129:225|207:154,1,188,2|0,0:2|0:0,0:0:0:0:
349,161,28480,2,0,L|468:159,1,94,8|0,0:2|0:0,0:0:0:0:
185,19,28852,5,2,1:2:0:0:
174,110,29038,1,2,0:2:0:0:
228,184,29224,1,10,0:2:0:0:
318,202,29411,1,0,0:0:0:0:
157,326,29598,2,0,L|153:218,1,94,8|0,0:2|1:0,0:0:0:0:
305,117,29970,1,8,0:2:0:0:
152,119,30157,1,0,1:0:0:0:
409,139,30343,5,6,0:2:0:0:
503,138,30529,1,2,1:2:0:0:
409,139,30716,1,10,0:2:0:0:
249,230,30902,1,2,0:2:0:0:
412,319,31089,2,0,L|419:210,1,94,8|0,0:2|0:0,0:0:0:0:
260,120,31461,2,0,L|372:118,1,94,8|0,0:2|0:0,0:0:0:0:
99,19,31834,6,0,L|84:226,1,188,2|8,1:2|0:2,0:0:0:0:
245,263,32393,2,0,L|443:277,1,188,2|0,0:2|0:0,0:0:0:0:
283,334,32952,1,8,0:2:0:0:
431,332,33138,1,0,1:0:0:0:
175,339,33325,5,2,1:2:0:0:
81,335,33511,1,2,1:2:0:0:
175,339,33697,1,8,0:2:0:0:
334,340,33884,1,2,0:2:0:0:
174,250,34070,2,0,L|166:142,1,94,8|0,0:2|0:0,0:0:0:0:
326,73,34443,2,0,L|443:67,1,94,8|0,0:0|0:0,0:0:0:0:
164,147,34815,5,8,1:2:0:0:
232,145,35002,1,4,1:2:0:0:
401,139,35188,1,2,1:2:0:0:
401,139,35561,2,0,L|406:259,1,94,8|0,0:2|3:0,0:0:0:0:
249,305,35933,1,0,1:0:0:0:
405,307,36120,1,4,0:3:0:0:
118,65,36306,6,0,L|324:74,1,188,6|8,0:2|0:2,0:0:0:0:
466,112,36865,2,0,P|487:196|382:228,1,188,8|0,1:3|1:0,0:0:0:0:
249,313,37424,2,0,L|367:319,1,94,8|0,0:2|1:0,0:0:0:0:
88,343,37797,6,0,L|3:297,2,94,2|0|8,1:2|1:0|0:2,0:0:0:0:
248,256,38356,2,0,L|51:241,1,188,0|0,1:2|1:0,0:0:0:0:
223,42,38915,2,0,L|344:42,1,94,8|0,0:2|0:0,0:0:0:0:
63,69,39287,6,0,L|46:281,1,188,2|8,1:2|0:2,0:0:0:0:
209,354,39846,2,0,P|241:286|148:217,1,188,8|0,1:3|1:0,0:0:0:0:
10,63,40405,2,0,L|133:62,1,94,8|8,0:2|1:3,0:0:0:0:
361,57,40778,6,0,L|474:59,2,94,2|0|8,1:2|1:0|0:2,0:0:0:0:
201,135,41337,2,0,L|409:147,1,188,8|2,1:3|1:2,0:0:0:0:
229,317,41896,1,8,0:2:0:0:
342,318,42082,2,0,L|347:251,1,47,0|0,1:0|1:0,0:0:0:0:
179,228,42269,6,0,L|62:229,2,94,2|0|8,1:2|1:0|0:2,0:0:0:0:
339,58,42828,2,0,P|350:126|237:152,1,188,0|0,1:2|1:0,0:0:0:0:
415,227,43387,1,8,0:2:0:0:
164,315,43573,6,0,P|187:259|283:209,1,141,2|0,1:2|0:0,0:0:0:0:
309,205,43946,1,0,1:0:0:0:
57,168,44132,2,0,L|49:285,1,94,12|0,0:2|0:0,0:0:0:0:
213,340,44505,1,0,1:0:0:0:
100,337,44691,2,0,L|97:275,1,47,0|0,1:0|1:0,0:0:0:0:
261,187,44877,1,8,1:2:0:0:
401,189,45064,1,0,1:0:0:0:
118,45,45250,6,0,L|112:151,1,94,6|0,0:2|1:0,0:0:0:0:
271,146,45623,2,0,L|163:145,1,94,8|0,0:2|0:0,0:0:0:0:
430,43,45995,2,0,L|431:169,1,94,8|0,0:2|1:0,0:0:0:0:
177,265,46368,1,8,0:2:0:0:
459,123,46554,6,0,P|493:193|467:254,1,141,6|0,1:2|0:0,0:0:0:0:
425,250,46927,1,0,1:0:0:0:
171,340,47113,1,10,0:2:0:0:
378,177,47486,2,0,L|270:177,1,94,8|8,0:2|1:3,0:0:0:0:
121,67,47859,2,0,L|238:70,1,94,8|8,0:2|1:3,0:0:0:0:
472,30,48231,5,4,0:2:0:0:
349,29,48418,2,0,L|347:158,1,94,0|0,1:0|0:0,0:0:0:0:
440,118,48790,1,0,1:0:0:0:
280,327,48977,2,0,P|204:286|248:190,1,188,8|0,0:2|1:0,0:0:0:0:
386,65,49536,2,0,L|391:138,1,47,8|8,0:2|0:2,0:0:0:0:
224,175,49722,6,0,L|116:175,2,94,2|8|0,1:2|0:2|1:0,0:0:0:0:
385,172,50281,1,2,0:2:0:0:
225,327,50467,2,0,L|427:316,1,188,10|2,0:2|1:2,0:0:0:0:
250,224,51026,2,0,L|173:224,1,47,8|8,0:2|0:2,0:0:0:0:
369,48,51213,5,2,1:2:0:0:
490,47,51399,2,0,L|490:165,1,94,0|0,1:0|3:0,0:0:0:0:
329,327,51772,2,0,L|120:314,1,188,0|2,1:0|0:2,0:0:0:0:
302,245,52331,1,2,1:2:0:0:
405,246,52517,2,0,L|341:247,1,47,8|8,0:2|0:2,0:0:0:0:
191,251,52703,6,0,L|57:253,1,94,2|8,1:2|0:0,0:0:0:0:
258,27,53076,2,0,L|261:136,1,94,8|2,1:2|0:2,0:0:0:0:
7,339,53449,2,0,L|122:335,1,94,4|2,1:2|0:2,0:0:0:0:
355,336,53821,2,0,L|478:334,1,94,2|2,3:3|0:2,0:0:0:0:
162,221,54194,6,0,L|158:101,1,94,6|0,1:2|0:0,0:0:0:0:
319,27,54567,1,8,2:0:0:0:
215,68,54753,1,0,0:0:0:0:
266,68,54846,1,8,0:2:0:0:
317,67,54939,1,0,1:0:0:0:
168,179,55126,1,0,1:0:0:0:
317,178,55312,1,0,3:0:0:0:
60,316,55498,5,4,1:2:0:0:
187,233,55685,1,8,1:2:0:0:
314,234,55871,1,4,1:3:0:0:
187,233,56057,1,4,3:2:0:0:
441,132,56244,1,8,1:2:0:0:
318,127,56430,2,0,L|310:249,1,94,0|0,1:0|1:0,0:0:0:0:
462,242,56803,1,8,0:2:0:0:
180,346,56989,6,0,L|386:335,1,188,4|0,0:2|1:0,0:0:0:0:
206,256,57548,1,8,0:2:0:0:
319,258,57734,2,0,L|323:182,1,47,0|0,1:0|1:0,0:0:0:0:
216,168,57921,2,0,L|107:169,2,94,8|8|8,0:3|0:3|0:3,0:0:0:0:
471,334,58480,6,0,P|479:218|265:109,1,376,6|0,0:2|0:0,0:0:0:0:
17,92,59411,1,8,0:2:0:0:
275,105,59598,1,8,0:2:0:0:
388,179,59784,2,0,L|327:180,1,47,0|0,3:0|3:0,0:0:0:0:
88,187,59970,6,0,P|102:255|179:301,1,155.100004733277,6|0,1:2|0:0,0:0:0:0:
118,342,60343,1,0,1:0:0:0:
386,279,60529,2,0,L|394:162,1,103.400003155518,8|0,0:2|0:0,0:0:0:0:
227,52,60902,2,0,L|349:53,2,103.400003155518,0|0|8,1:0|1:0|0:2,0:0:0:0:
497,167,61461,6,0,P|498:229|395:262,1,155.100004733277,2|0,1:2|0:0,0:0:0:0:
476,321,61834,1,0,1:0:0:0:
207,347,62020,2,0,L|198:236,1,103.400003155518,8|8,0:2|3:2,0:0:0:0:
251,221,62300,1,8,0:2:0:0:
369,148,62393,2,0,L|370:35,1,103.400003155518,8|0,1:2|1:0,0:0:0:0:
99,312,62766,1,8,0:2:0:0:
223,313,62952,2,0,L|225:245,1,51.7000015777588,8|8,0:2|0:2,0:0:0:0:
18,222,63138,6,0,P|16:167|113:110,1,155.100004733277,6|0,1:2|0:0,0:0:0:0:
141,52,63511,2,0,L|32:53,1,103.400003155518,8|8,0:2|3:2,0:0:0:0:
90,122,63790,1,8,0:2:0:0:
210,116,63884,2,0,L|335:116,2,103.400003155518,8|0|8,0:2|1:0|0:2,0:0:0:0:
481,307,64443,6,0,L|251:298,1,206.800006311035,2|0,1:2|1:0,0:0:0:0:
440,130,65002,1,8,0:2:0:0:
325,41,65188,1,0,1:0:0:0:
278,60,65281,1,8,0:2:0:0:
260,107,65374,1,8,1:2:0:0:
281,153,65467,1,8,0:2:0:0:
328,170,65560,1,0,1:0:0:0:
162,318,65747,2,0,L|42:319,1,103.400003155518,8|0,0:2|1:0,0:0:0:0:
112,242,66026,1,8,0:2:0:0:
296,232,66120,6,0,P|340:185|272:132,1,155.100004733277,2|0,1:2|0:0,0:0:0:0:
231,71,66492,2,0,L|348:72,1,103.400003155518,8|8,0:2|3:2,0:0:0:0:
277,135,66772,1,8,0:0:0:0:
106,125,66865,2,0,L|-7:124,2,103.400003155518,8|0|8,1:2|1:0|0:2,0:0:0:0:
377,339,67424,6,0,L|159:336,1,206.800006311035,2|2,1:2|1:2,0:0:0:0:
336,218,67983,1,10,0:2:0:0:
71,209,68169,1,10,1:2:0:0:
24,188,68262,1,8,0:2:0:0:
7,141,68355,1,8,1:2:0:0:
30,96,68448,1,0,0:0:0:0:
78,81,68541,1,0,0:0:0:0:
243,203,68728,1,10,0:2:0:0:
128,336,68915,2,0,L|212:336,1,51.7000015777588,8|8,0:2|0:2,0:0:0:0:
350,343,69101,6,0,L|354:230,1,103.400003155518,2|0,1:2|1:0,0:0:0:0:
198,216,69474,1,8,0:2:0:0:
466,32,69660,2,0,P|471:97|343:140,1,206.800006311035,0|0,1:0|1:0,0:0:0:0:
84,141,70219,1,8,0:0:0:0:
395,350,70405,6,0,L|146:319,1,206.800006311035,4|0,1:2|1:0,0:0:0:0:
346,241,70964,2,0,L|486:237,1,103.400003155518,8|0,0:2|1:0,0:0:0:0:
176,23,71337,6,0,P|149:68|185:104,1,103.400003155518,10|8,0:2|0:2,0:0:0:0:
332,95,71616,2,0,L|419:96,1,51.7000015777588,8|8,0:2|0:2,0:0:0:0:
73,350,71896,6,0,P|76:285|171:239,1,155.100004733277,4|0,1:2|0:0,0:0:0:0:
88,181,72269,1,0,1:0:0:0:
354,44,72455,2,0,L|218:42,1,103.400003155518,8|0,0:2|0:0,0:0:0:0:
416,180,72828,2,0,L|293:174,2,103.400003155518,0|0|8,1:0|1:0|0:2,0:0:0:0:
146,363,73387,6,0,P|109:301|169:255,1,155.100004733277,2|0,1:2|0:0,0:0:0:0:
213,256,73759,1,0,1:0:0:0:
47,181,73946,2,0,L|41:73,1,103.400003155518,8|0,0:2|1:0,0:0:0:0:
93,48,74225,1,8,0:2:0:0:
211,38,74318,2,0,L|95:40,1,103.400003155518,8|0,1:2|1:0,0:0:0:0:
377,253,74691,1,8,0:2:0:0:
262,248,74877,2,0,L|193:247,1,51.7000015777588,2|2,0:2|0:2,0:0:0:0:
382,147,75064,6,0,L|490:146,2,103.400003155518,2|2|8,1:2|0:2|0:2,0:0:0:0:
216,78,75623,1,2,0:0:0:0:
267,78,75716,1,2,0:0:0:0:
319,79,75809,1,2,1:2:0:0:
484,30,75995,2,0,L|355:30,1,103.400003155518,0|8,1:0|0:2,0:0:0:0:
68,239,76368,6,0,L|295:239,1,206.800006311035,4|0,0:2|1:0,0:0:0:0:
110,108,76927,1,8,0:2:0:0:
378,96,77113,1,4,1:2:0:0:
264,93,77300,2,0,L|250:185,2,51.7000015777588,8|8|0,1:2|0:2|1:0,0:0:0:0:
432,21,77672,2,0,L|439:141,1,103.400003155518,10|8,0:2|0:2,0:0:0:0:
380,128,77952,1,8,0:2:0:0:
172,119,78045,6,0,P|103:171|183:234,1,206.800006311035,2|8,1:2|0:2,0:0:0:0:
339,356,78604,2,0,L|112:352,1,206.800006311035,8|0,0:2|1:0,0:0:0:0:
288,251,79163,1,8,0:2:0:0:
133,123,79349,2,0,L|215:125,1,51.7000015777588,8|8,0:2|0:2,0:0:0:0:
357,128,79536,5,6,1:2:0:0:
492,130,79722,1,0,1:0:0:0:
357,128,79908,1,8,0:2:0:0:
89,222,80095,2,0,L|274:222,1,155.100004733277,10|0,0:2|0:0,0:0:0:0:
73,334,80467,2,0,P|26:305|104:202,1,206.800006311035,10|8,0:2|0:2,0:0:0:0:
142,196,80933,1,8,0:2:0:0:
349,190,81026,6,0,L|468:191,2,103.400003155518,6|4|8,1:2|0:3|0:2,0:0:0:0:
78,322,81585,2,0,L|74:214,1,103.400003155518,10|0,1:2|0:0,0:0:0:0:
344,176,81958,2,0,L|349:59,1,103.400003155518,10|8,1:2|0:2,0:0:0:0:
37,114,82331,5,4,0:2:0:0:
171,109,82517,1,2,0:2:0:0:
306,101,82703,1,0,1:0:0:0:
33,266,82890,1,8,0:2:0:0:
362,252,83076,5,14,1:2:0:0:
256,192,83262,12,0,84567,0:0:0:0:
170,262,84753,5,0,1:0:0:0:
331,259,84939,2,0,L|339:191,3,47,8|8|8|8,0:2|0:2|0:2|0:2,0:0:0:0:
146,21,85312,6,0,P|89:79|184:131,1,188,14|0,1:2|1:0,0:0:0:0:
310,238,85871,2,0,L|186:241,1,94,8|0,0:2|0:0,0:0:0:0:
472,351,86244,2,0,L|476:240,1,94,2|0,1:2|1:0,0:0:0:0:
318,173,86616,2,0,L|442:156,1,94,8|0,0:2|1:0,0:0:0:0:
156,29,86989,6,0,P|87:44|71:171,1,188,2|8,0:2|0:2,0:0:0:0:
216,159,87548,1,0,1:0:0:0:
226,204,87641,1,8,0:2:0:0:
212,248,87734,1,10,0:2:0:0:
177,279,87827,1,8,0:2:0:0:
131,287,87920,1,0,1:0:0:0:
291,352,88107,2,0,L|417:339,1,94,8|0,0:2|0:0,0:0:0:0:
103,18,88480,6,0,P|49:42|127:115,1,188,2|8,1:2|0:2,0:0:0:0:
267,125,89039,1,10,0:2:0:0:
267,171,89132,1,8,0:2:0:0:
268,218,89225,1,10,1:2:0:0:
146,218,89411,1,2,1:2:0:0:
23,216,89598,1,10,0:2:0:0:
307,343,89784,6,0,L|93:329,1,188,6|8,1:2|1:2,0:0:0:0:
181,258,90250,1,8,0:2:0:0:
119,250,90343,1,8,0:2:0:0:
372,259,90529,2,0,P|372:206|271:131,1,188,6|10,1:2|3:2,0:0:0:0:
18,125,91089,1,10,3:2:0:0:
317,345,91275,6,0,L|520:336,1,188,6|0,1:2|1:0,0:0:0:0:
344,191,91834,2,0,L|469:191,1,94,8|0,0:2|0:0,0:0:0:0:
183,20,92207,2,0,L|173:136,1,94,2|0,1:2|1:0,0:0:0:0:
335,166,92579,2,0,L|339:292,1,94,8|0,0:2|1:0,0:0:0:0:
84,366,92952,6,0,P|83:305|197:240,1,188,2|8,0:2|0:2,0:0:0:0:
341,115,93511,1,0,1:0:0:0:
288,113,93604,1,8,0:2:0:0:
235,112,93697,1,10,0:2:0:0:
183,111,93790,1,8,0:2:0:0:
130,109,93883,1,0,1:0:0:0:
290,229,94070,2,0,L|393:225,1,94,8|0,0:2|0:0,0:0:0:0:
98,354,94443,6,0,P|40:316|123:254,1,188,2|8,1:2|0:2,0:0:0:0:
262,139,95002,1,10,0:2:0:0:
209,141,95095,1,8,0:2:0:0:
156,142,95188,1,10,1:2:0:0:
304,231,95374,1,2,1:2:0:0:
153,229,95561,1,10,0:2:0:0:
434,10,95747,6,0,P|484:99|430:176,1,188,6|10,1:2|1:2,0:0:0:0:
382,203,96213,1,8,0:2:0:0:
446,197,96306,1,8,1:2:0:0:
193,354,96492,2,0,P|203:286|282:250,1,141,6|0,0:2|0:0,0:0:0:0:
313,246,96865,1,6,0:3:0:0:
60,152,97051,2,0,L|178:145,1,94,6|0,0:3|0:0,0:0:0:0:
439,145,97424,5,4,0:2:0:0:
448,232,97610,1,2,0:2:0:0:
369,272,97796,1,2,1:2:0:0:
208,273,97983,1,0,0:0:0:0:
369,272,98169,2,0,L|379:159,1,94,0|8,1:0|0:2,0:0:0:0:
217,163,98542,1,0,1:0:0:0:
425,22,98915,6,0,L|210:22,1,188,2|2,1:2|1:2,0:0:0:0:
397,116,99474,1,2,0:2:0:0:
236,116,99660,2,0,L|231:228,1,94,0|0,1:0|0:0,0:0:0:0:
389,218,100033,1,8,3:2:0:0:
481,222,100219,2,0,L|485:297,1,47,8|8,3:2|0:2,0:0:0:0:
319,351,100405,6,0,L|194:345,1,94,2|2,1:2|0:2,0:0:0:0:
386,206,100778,1,2,1:2:0:0:
283,205,100964,2,0,L|274:151,2,47,0|8|0,3:0|2:0|1:0,0:0:0:0:
378,46,101337,2,0,L|307:46,1,47,0|0,1:2|1:0,0:0:0:0:
218,39,101523,2,0,L|114:40,1,94,10|0,1:2|0:0,0:0:0:0:
380,305,101896,6,0,L|477:309,2,94,2|2|2,1:2|0:2|1:2,0:0:0:0:
380,305,102455,1,0,0:0:0:0:
220,302,102641,2,0,L|149:303,2,47,2|2|2,1:2|3:2|3:2,0:0:0:0:
383,64,103014,2,0,L|449:63,2,47,2|2|2,1:2|3:2|2:2,0:0:0:0:
98,67,103387,6,0,L|207:63,2,94,6|2|2,1:2|0:2|1:2,0:0:0:0:
258,172,103946,1,2,0:2:0:0:
98,178,104132,2,0,L|82:297,1,94,0|8,1:0|0:2,0:0:0:0:
246,345,104505,2,0,L|131:345,1,94,0|2,1:0|0:2,0:0:0:0:
405,252,104877,6,0,P|449:237|381:155,1,188,2|2,1:2|1:2,0:0:0:0:
237,44,105436,2,0,P|180:65|251:135,1,188,2|0,0:2|0:0,0:0:0:0:
396,252,105995,2,0,L|275:257,1,94,0|0,1:0|3:0,0:0:0:0:
48,349,106368,5,2,1:2:0:0:
143,343,106554,1,2,0:2:0:0:
237,341,106741,1,2,1:2:0:0:
78,224,106927,1,0,3:0:0:0:
238,215,107113,2,0,L|243:113,1,94,0|2,1:0|3:2,0:0:0:0:
84,33,107486,2,0,L|201:33,1,94,2|2,0:2|0:2,0:0:0:0:
435,38,107859,5,8,1:2:0:0:
399,141,108045,1,4,1:2:0:0:
229,141,108231,1,2,1:2:0:0:
21,344,108604,2,0,L|147:345,1,94,0|8,1:0|0:2,0:0:0:0:
266,346,108977,1,8,1:2:0:0:
115,212,109163,1,4,0:3:0:0:
395,80,109349,6,0,L|186:83,1,188,6|8,0:2|0:2,0:0:0:0:
367,162,109908,2,0,P|432:216|363:260,1,188,8|0,1:3|1:0,0:0:0:0:
210,348,110467,2,0,L|348:346,1,94,8|0,0:2|1:0,0:0:0:0:
48,226,110840,6,0,L|161:231,2,94,2|0|8,1:2|1:0|0:2,0:0:0:0:
209,100,111399,2,0,L|408:94,1,188,0|0,1:2|1:0,0:0:0:0:
236,184,111958,2,0,L|224:289,1,94,8|0,0:2|0:0,0:0:0:0:
480,355,112331,6,0,L|465:161,1,188,2|8,1:2|0:2,0:0:0:0:
305,360,112890,2,0,L|323:156,1,188,8|0,1:3|1:0,0:0:0:0:
171,125,113449,1,8,0:2:0:0:
322,120,113635,1,8,1:3:0:0:
70,227,113821,6,0,L|184:227,2,94,2|0|8,1:2|1:0|0:2,0:0:0:0:
230,339,114380,2,0,L|25:336,1,188,8|2,1:3|1:2,0:0:0:0:
202,219,114939,1,8,0:2:0:0:
105,134,115126,2,0,L|181:133,1,47,0|0,1:0|0:0,0:0:0:0:
316,125,115312,6,0,L|434:125,2,94,2|0|8,1:2|1:0|0:2,0:0:0:0:
156,321,115871,2,0,P|148:261|264:195,1,188,0|0,1:2|1:0,0:0:0:0:
400,191,116430,1,8,0:2:0:0:
147,70,116616,6,0,L|6:64,1,141,2|0,1:2|0:0,0:0:0:0:
59,126,116989,1,0,1:0:0:0:
316,347,117175,2,0,L|204:341,1,94,12|0,0:2|0:0,0:0:0:0:
384,259,117548,1,0,1:0:0:0:
487,131,117734,2,0,L|424:131,1,47,0|0,1:0|1:0,0:0:0:0:
274,129,117921,1,8,1:2:0:0:
134,130,118107,1,0,1:0:0:0:
417,38,118293,6,0,L|420:148,1,94,6|0,0:2|1:0,0:0:0:0:
260,288,118666,2,0,L|369:288,1,94,8|0,0:2|0:0,0:0:0:0:
98,25,119039,2,0,L|88:149,1,94,8|0,0:2|1:0,0:0:0:0:
348,116,119411,1,8,0:2:0:0:
61,335,119598,6,0,P|32:276|51:203,1,141,6|0,1:2|0:0,0:0:0:0:
98,179,119970,1,0,1:0:0:0:
354,25,120157,1,10,1:2:0:0:
168,136,120529,2,0,L|283:134,1,94,8|8,0:2|1:3,0:0:0:0:
423,235,120902,2,0,L|313:235,1,94,8|8,0:2|1:3,0:0:0:0:
73,335,121275,5,4,0:2:0:0:
195,344,121461,2,0,L|200:226,1,94,0|0,1:0|0:0,0:0:0:0:
104,207,121834,1,0,1:0:0:0:
264,55,122020,2,0,L|483:54,1,188,8|0,0:2|1:0,0:0:0:0:
292,137,122579,2,0,L|204:138,1,47,8|8,0:2|0:2,0:0:0:0:
400,220,122766,6,0,L|511:215,2,94,2|8|0,1:2|0:2|1:0,0:0:0:0:
239,298,123325,1,2,0:2:0:0:
399,299,123511,2,0,P|389:226|284:180,1,188,10|2,0:2|1:2,0:0:0:0:
454,44,124070,2,0,L|377:43,1,47,8|8,0:2|0:2,0:0:0:0:
243,40,124256,5,2,1:2:0:0:
129,38,124443,2,0,L|122:159,1,94,0|0,1:0|3:0,0:0:0:0:
283,294,124815,2,0,L|86:300,1,188,0|2,1:0|0:2,0:0:0:0:
255,123,125374,1,2,1:2:0:0:
150,46,125561,2,0,L|145:104,1,47,8|0,0:2|0:0,0:0:0:0:
310,197,125747,6,0,L|435:197,1,94,2|8,1:2|0:0,0:0:0:0:
244,331,126120,2,0,L|145:329,1,94,8|0,1:2|0:0,0:0:0:0:
403,238,126492,2,0,L|411:129,1,94,4|2,1:2|0:2,0:0:0:0:
152,45,126865,2,0,L|40:42,1,94,2|2,3:3|0:2,0:0:0:0:
342,150,127238,6,0,L|347:254,1,94,6|0,1:2|0:0,0:0:0:0:
187,321,127610,1,8,2:0:0:0:
300,322,127797,2,0,L|367:321,2,47,0|0|0,0:0|0:0|1:0,0:0:0:0:
150,140,128169,1,0,1:0:0:0:
301,140,128356,1,0,3:0:0:0:
44,274,128542,5,4,1:2:0:0:
186,266,128728,1,8,0:2:0:0:
328,268,128915,1,4,0:3:0:0:
469,268,129101,1,4,3:2:0:0:
216,35,129287,1,8,0:2:0:0:
340,105,129474,2,0,L|229:106,2,94,0|0|8,1:0|0:0|0:2,0:0:0:0:
58,328,130033,6,0,L|268:320,1,188,4|0,0:2|1:0,0:0:0:0:
406,324,130592,1,8,0:2:0:0:
293,253,130778,2,0,L|292:189,1,47,0|0,1:0|1:0,0:0:0:0:
405,139,130964,2,0,L|516:139,2,94,8|8|8,0:3|0:3|0:3,0:0:0:0:
120,331,131523,6,0,P|100:255|205:204,1,188,6|2,0:2|0:2,0:0:0:0:
233,199,131989,1,8,0:2:0:0:
120,80,132082,2,0,L|227:78,1,94,10|0,0:2|0:0,0:0:0:0:
467,86,132455,1,8,0:2:0:0:
214,304,132641,1,8,0:2:0:0:
91,226,132828,2,0,L|162:226,1,47,8|8,1:2|1:2,0:0:0:0:
370,223,133014,6,0,P|430:202|425:92,1,155.100004733277,6|0,1:2|0:0,0:0:0:0:
389,113,133387,1,0,1:0:0:0:
120,34,133573,2,0,L|238:34,1,103.400003155518,8|0,0:2|0:0,0:0:0:0:
389,28,133946,2,0,L|273:32,2,103.400003155518,0|0|8,1:0|1:0|0:2,0:0:0:0:
76,354,134505,6,0,P|63:300|150:245,1,155.100004733277,2|0,1:2|0:0,0:0:0:0:
81,181,134877,1,0,1:0:0:0:
349,39,135064,2,0,L|483:36,1,103.400003155518,8|8,0:2|3:2,0:0:0:0:
401,106,135343,1,8,0:2:0:0:
283,108,135436,2,0,L|148:109,1,103.400003155518,8|0,1:2|1:0,0:0:0:0:
346,299,135809,1,8,0:2:0:0:
461,198,135995,2,0,L|386:198,1,51.7000015777588,8|8,0:2|0:2,0:0:0:0:
200,205,136182,6,0,L|41:205,1,155.100004733277,6|0,1:2|0:0,0:0:0:0:
98,135,136554,2,0,L|218:134,1,103.400003155518,8|8,0:2|3:2,0:0:0:0:
201,134,136834,1,8,0:2:0:0:
82,33,136927,2,0,L|194:31,2,103.400003155518,8|0|8,0:2|1:0|0:2,0:0:0:0:
352,122,137486,6,0,P|415:169|335:249,1,206.800006311035,2|0,1:2|1:0,0:0:0:0:
184,340,138045,1,8,0:2:0:0:
309,341,138231,1,0,1:0:0:0:
352,316,138324,1,8,0:2:0:0:
368,268,138417,1,8,1:2:0:0:
348,221,138510,1,8,0:2:0:0:
302,201,138603,1,0,1:0:0:0:
136,197,138790,2,0,L|0:198,1,103.400003155518,8|0,0:2|1:0,0:0:0:0:
85,120,139070,1,8,0:2:0:0:
276,110,139163,6,0,P|282:168|178:194,1,155.100004733277,2|0,1:2|0:0,0:0:0:0:
151,291,139536,2,0,L|274:293,1,103.400003155518,8|8,0:2|3:2,0:0:0:0:
306,293,139815,1,8,0:0:0:0:
136,160,139908,2,0,L|23:160,2,103.400003155518,8|0|8,1:2|1:0|0:2,0:0:0:0:
406,31,140467,6,0,P|413:133|312:138,1,206.800006311035,2|2,1:2|1:2,0:0:0:0:
162,152,141026,1,10,0:2:0:0:
430,304,141213,1,10,1:2:0:0:
375,305,141306,1,8,0:2:0:0:
320,307,141399,1,8,1:2:0:0:
265,308,141492,1,8,0:2:0:0:
210,310,141585,1,2,1:2:0:0:
377,132,141772,1,10,0:2:0:0:
491,28,141958,2,0,L|425:29,1,51.7000015777588,8|8,0:2|0:2,0:0:0:0:
270,28,142144,6,0,L|145:25,1,103.400003155518,2|0,1:2|1:0,0:0:0:0:
324,144,142517,1,8,0:2:0:0:
56,322,142703,2,0,P|51:270|171:187,1,206.800006311035,0|0,1:0|1:0,0:0:0:0:
432,195,143262,1,8,0:0:0:0:
121,25,143449,6,0,L|333:24,1,206.800006311035,4|0,1:2|1:0,0:0:0:0:
172,124,144008,2,0,L|37:126,1,103.400003155518,8|0,0:2|1:0,0:0:0:0:
323,339,144380,6,0,P|374:300|371:239,1,103.400003155518,10|8,0:2|0:2,0:0:0:0:
207,225,144660,2,0,L|204:160,1,51.7000015777588,8|8,0:2|0:2,0:0:0:0:
505,18,144939,6,0,L|316:18,1,155.100004733277,4|0,1:2|0:0,0:0:0:0:
402,75,145312,1,0,1:0:0:0:
133,103,145498,2,0,L|114:227,1,103.400003155518,8|0,0:2|0:0,0:0:0:0:
284,345,145871,2,0,L|390:340,2,103.400003155518,0|0|8,1:0|1:0|0:2,0:0:0:0:
17,344,146430,6,0,P|41:259|122:229,1,155.100004733277,2|0,1:2|0:0,0:0:0:0:
152,219,146803,1,0,1:0:0:0:
317,64,146989,2,0,L|164:66,1,103.400003155518,8|0,0:2|1:0,0:0:0:0:
266,127,147269,1,8,0:2:0:0:
385,131,147362,2,0,L|512:129,1,103.400003155518,8|0,1:2|1:0,0:0:0:0:
323,325,147734,1,8,0:2:0:0:
427,242,147921,2,0,L|429:174,1,51.7000015777588,2|2,0:2|0:2,0:0:0:0:
259,136,148107,6,0,L|143:135,2,103.400003155518,2|2|8,1:2|0:2|0:2,0:0:0:0:
425,295,148666,2,0,L|489:291,2,51.7000015777588,2|2|2,0:0|0:0|1:2,0:0:0:0:
269,296,149039,1,0,1:0:0:0:
423,189,149225,1,8,0:2:0:0:
112,36,149411,6,0,L|343:35,1,206.800006311035,4|0,0:2|1:0,0:0:0:0:
153,131,149970,1,8,0:2:0:0:
423,116,150157,2,0,L|425:253,1,103.400003155518,4|8,1:2|1:2,0:0:0:0:
367,217,150436,1,8,0:2:0:0:
424,219,150529,1,0,1:0:0:0:
258,336,150716,1,10,0:2:0:0:
144,248,150902,2,0,L|215:248,1,51.7000015777588,8|8,0:2|0:2,0:0:0:0:
399,252,151089,6,0,P|448:231|367:142,1,206.800006311035,2|8,1:2|0:2,0:0:0:0:
222,47,151648,2,0,L|434:46,1,206.800006311035,8|0,0:2|1:0,0:0:0:0:
274,117,152207,1,8,0:2:0:0:
429,113,152393,2,0,L|369:115,1,51.7000015777588,8|8,0:2|0:2,0:0:0:0:
171,297,152579,6,0,L|63:292,2,103.400003155518,6|0|8,1:2|1:0|0:2,0:0:0:0:
440,180,153138,2,0,P|485:147|424:75,1,155.100004733277,10|0,0:2|0:0,0:0:0:0:
261,34,153511,2,0,P|201:81|293:167,1,206.800006311035,10|8,0:2|0:2,0:0:0:0:
324,167,153977,1,8,0:2:0:0:
116,330,154070,6,0,L|-2:335,2,103.400003155518,6|4|8,1:2|0:3|0:2,0:0:0:0:
387,219,154629,2,0,L|273:220,1,103.400003155518,10|0,1:2|0:0,0:0:0:0:
13,101,155002,2,0,L|135:94,1,103.400003155518,10|8,1:2|0:2,0:0:0:0:
429,27,155374,5,4,0:2:0:0:
305,19,155561,2,0,L|304:149,1,103.400003155518,2|0,0:2|1:0,0:0:0:0:
460,124,155933,1,8,0:2:0:0:
158,339,156120,6,0,P|118:294|189:232,1,155.100004733277,6|0,0:2|0:0,0:0:0:0:
341,229,156492,2,0,L|415:226,1,51.7000015777588,8|8,0:2|0:2,0:0:0:0:
221,139,156679,2,0,L|139:141,1,51.7000015777588,8|8,0:2|0:2,0:0:0:0:
385,48,156865,6,0,P|386:126|316:145,1,141,4|0,0:2|0:0,0:0:0:0:
385,194,157238,1,0,1:0:0:0:
130,341,157424,2,0,L|0:342,1,94,12|0,0:2|0:0,0:0:0:0:
196,239,157797,2,0,L|312:240,2,94,0|0|8,1:0|1:0|0:2,0:0:0:0:
450,38,158356,6,0,P|454:112|349:154,1,188,2|0,1:2|1:0,0:0:0:0:
204,292,158915,1,8,0:2:0:0:
307,295,159101,2,0,L|313:225,1,47,8|8,0:2|0:2,0:0:0:0:
199,187,159287,2,0,L|66:187,1,94,10|0,0:2|1:0,0:0:0:0:
266,24,159660,2,0,L|394:22,1,94,8|8,0:2|0:2,0:0:0:0:
312,88,159939,1,8,0:2:0:0:
146,86,160033,6,0,P|87:141|162:197,1,188,2|8,1:2|0:2,0:0:0:0:
312,197,160592,2,0,L|379:196,2,47,8|8|8,0:2|0:2|0:2,0:0:0:0:
162,196,160964,1,2,1:2:0:0:
312,197,161151,1,10,0:2:0:0:
57,61,161337,6,0,L|272:63,1,188,2|2,1:2|1:2,0:0:0:0:
391,60,161896,1,10,0:2:0:0:
245,177,162082,1,10,1:2:0:0:
498,184,162269,5,10,1:2:0:0:
496,234,162393,1,2,0:2:0:0:
427,238,162517,1,2,0:2:0:0:
239,232,162641,1,10,0:2:0:0:
156,148,162766,1,2,0:2:0:0:
156,148,162890,1,2,0:2:0:0:
361,40,163014,6,0,P|425:97|352:145,1,188,6|8,1:2|0:2,0:0:0:0:
203,146,163573,2,0,L|112:145,2,47,10|8|10,0:2|0:2|1:2,0:0:0:0:
296,143,163946,1,0,1:0:0:0:
135,325,164132,2,0,L|21:323,1,94,8|2,0:2|1:2,0:0:0:0:
298,231,164505,6,0,L|300:127,1,94,2|0,2:0|0:0,0:0:0:0:
141,71,164877,2,0,L|22:70,1,94,10|10,0:2|2:0,0:0:0:0:
303,125,165250,2,0,L|414:123,1,94,10|0,0:2|1:2,0:0:0:0:
142,338,165623,1,10,0:2:0:0:
254,258,165809,2,0,L|335:256,1,47,8|8,0:2|0:2,0:0:0:0:
136,171,165995,6,0,L|32:171,2,94,2|2|10,1:2|1:2|0:2,0:0:0:0:
296,43,166554,2,0,L|102:42,1,188,2|10,1:2|0:2,0:0:0:0:
364,147,167113,1,10,0:2:0:0:
78,316,167300,6,0,P|60:256|163:187,1,188,6|2,1:2|1:2,0:0:0:0:
304,75,167859,2,0,L|179:73,1,94,10|2,0:2|1:2,0:0:0:0:
464,21,168231,6,0,L|465:149,1,94,8|8,0:2|0:2,0:0:0:0:
412,119,168511,1,8,0:2:0:0:
248,121,168604,1,8,1:2:0:0:
107,122,168790,1,4,0:3:0:0:
391,355,168977,6,0,L|226:349,2,141,2|0|0,1:2|0:0|0:0,0:0:0:0:
232,339,169722,2,0,L|227:181,1,141,0|0,1:0|0:0,0:0:0:0:
369,131,170281,1,0,0:0:0:0:
209,34,170467,6,0,L|369:37,2,141,2|0|0,1:2|0:0|0:0,0:0:0:0:
48,111,171213,2,0,L|31:234,1,94,2|0,1:2|0:0,0:0:0:0:
106,192,171492,2,0,L|110:294,1,94,2|0,0:0|0:0,0:0:0:0:
38,294,171772,1,2,0:2:0:0:
307,339,171958,6,0,L|503:325,1,188,2|0,1:2|1:2,0:0:0:0:
333,253,172517,2,0,L|324:136,1,94,2|0,0:2|1:2,0:0:0:0:
487,43,172890,2,0,L|374:45,1,94,2|0,0:2|1:0,0:0:0:0:
139,38,173262,6,0,P|76:76|159:134,1,188,2|2,0:2|0:2,0:0:0:0:
296,267,173821,1,2,1:2:0:0:
240,264,173914,1,2,0:2:0:0:
183,260,174007,1,2,0:2:0:0:
297,146,174194,1,0,1:0:0:0:
44,35,174380,5,8,1:2:0:0:
186,32,174567,1,8,1:2:0:0:
44,35,174753,1,8,1:2:0:0:
326,114,174939,5,6,1:2:0:0:
137,314,175312,1,8,0:2:0:0:
298,309,175498,2,0,L|413:309,2,94,0|2|2,0:0|1:2|1:2,0:0:0:0:
138,199,176057,1,10,0:2:0:0:
393,195,176244,6,0,L|395:81,1,94,2|0,1:2|0:0,0:0:0:0:
236,300,176616,2,0,L|359:306,1,94,0|8,1:0|0:2,0:0:0:0:
44,39,176989,2,0,L|255:39,1,188,6|8,1:3|0:2,0:0:0:0:
168,104,177455,1,8,0:2:0:0:
105,106,177548,1,10,0:2:0:0:
391,339,177734,6,0,P|436:296|366:201,1,188,6|0,1:2|1:0,0:0:0:0:
289,209,178293,1,8,0:2:0:0:
449,44,178480,1,8,0:2:0:0:
397,46,178573,1,8,0:2:0:0:
345,48,178666,1,10,0:3:0:0:
185,324,178852,1,0,1:0:0:0:
143,303,178945,1,0,1:0:0:0:
126,261,179038,1,0,1:0:0:0:
141,218,179131,1,0,1:0:0:0:
331,199,179225,6,0,P|375:169|305:82,1,188,6|8,1:2|0:3,0:0:0:0:
268,78,179691,1,8,0:3:0:0:
380,18,179784,2,0,L|498:16,1,94,8|2,0:2|0:2,0:0:0:0:
219,244,180157,1,10,1:2:0:0:
475,241,180343,1,10,1:2:0:0:
475,241,180529,1,0,1:0:0:0:
133,358,180716,6,0,L|299:338,1,155.100004733277,14|0,1:2|0:0,0:0:0:0:
340,333,181089,1,0,1:0:0:0:
73,252,181275,2,0,L|65:135,1,103.400003155518,8|0,0:2|0:0,0:0:0:0:
233,40,181648,2,0,L|120:44,2,103.400003155518,0|0|8,1:0|1:0|0:2,0:0:0:0:
504,241,182207,6,0,P|481:161|412:113,1,155.100004733277,2|0,1:2|0:0,0:0:0:0:
484,71,182579,1,0,1:0:0:0:
215,254,182766,2,0,L|98:251,1,103.400003155518,8|8,0:2|3:2,0:0:0:0:
158,185,183045,1,8,0:2:0:0:
277,113,183138,2,0,L|402:111,1,103.400003155518,8|0,1:2|1:0,0:0:0:0:
111,19,183511,1,8,0:2:0:0:
1,100,183697,2,0,L|68:101,1,51.7000015777588,8|8,0:2|0:2,0:0:0:0:
260,99,183884,6,0,L|421:99,1,155.100004733277,6|0,1:2|0:0,0:0:0:0:
364,183,184256,2,0,L|247:183,1,103.400003155518,8|8,0:2|3:2,0:0:0:0:
260,183,184536,1,8,0:2:0:0:
379,279,184629,2,0,L|504:276,2,103.400003155518,8|0|8,0:2|1:0|0:2,0:0:0:0:
108,351,185188,6,0,P|93:285|213:222,1,206.800006311035,2|0,1:2|1:0,0:0:0:0:
360,213,185747,1,8,0:2:0:0:
235,213,185933,1,0,1:0:0:0:
188,193,186026,1,8,0:2:0:0:
170,146,186119,1,8,1:2:0:0:
192,101,186212,1,0,0:0:0:0:
240,86,186305,1,0,1:0:0:0:
407,30,186492,2,0,L|289:29,1,103.400003155518,8|0,0:2|1:0,0:0:0:0:
35,65,186865,6,0,P|34:138|118:171,1,155.100004733277,2|0,1:2|0:0,0:0:0:0:
154,230,187238,2,0,L|44:232,1,103.400003155518,8|8,0:2|3:2,0:0:0:0:
50,231,187517,1,8,0:0:0:0:
220,116,187610,2,0,L|224:225,1,103.400003155518,8|0,1:2|1:0,0:0:0:0:
119,210,187983,1,8,0:2:0:0:
388,349,188169,6,0,L|175:346,1,206.800006311035,2|2,1:2|1:2,0:0:0:0:
347,272,188728,1,10,0:2:0:0:
78,200,188915,1,10,1:2:0:0:
69,149,189008,1,8,0:2:0:0:
87,101,189101,1,8,1:2:0:0:
127,69,189194,1,8,0:2:0:0:
177,61,189287,1,2,1:2:0:0:
342,52,189474,1,10,0:2:0:0:
228,168,189660,2,0,L|293:166,1,51.7000015777588,8|8,0:2|0:2,0:0:0:0:
450,162,189846,6,0,L|329:164,2,103.400003155518,2|0|8,1:2|1:0|0:2,0:0:0:0:
181,336,190405,2,0,P|93:291|113:179,1,206.800006311035,0|0,1:0|1:0,0:0:0:0:
368,139,190964,1,8,0:0:0:0:
98,33,191151,6,0,L|318:34,1,206.800006311035,4|0,1:2|1:0,0:0:0:0:
460,171,191710,2,0,L|356:171,1,103.400003155518,8|0,0:2|1:0,0:0:0:0:
87,349,192082,6,0,L|223:345,1,103.400003155518,10|8,0:2|0:2,0:0:0:0:
19,232,192362,2,0,L|13:171,1,51.7000015777588,8|8,0:2|0:2,0:0:0:0:
324,27,192641,6,0,L|147:23,1,155.100004733277,4|0,1:2|0:0,0:0:0:0:
118,16,193014,1,0,1:0:0:0:
386,149,193200,2,0,L|502:145,1,103.400003155518,8|0,0:2|0:0,0:0:0:0:
324,265,193573,2,0,L|200:259,2,103.400003155518,0|0|8,1:0|1:0|0:2,0:0:0:0:
56,348,194132,6,0,P|81:284|181:239,1,155.100004733277,2|0,1:2|0:0,0:0:0:0:
209,238,194505,1,0,1:0:0:0:
45,25,194691,2,0,L|36:143,1,103.400003155518,8|0,0:2|1:0,0:0:0:0:
88,128,194970,1,8,0:2:0:0:
209,238,195064,2,0,L|75:238,1,103.400003155518,8|0,1:2|1:0,0:0:0:0:
371,74,195436,1,8,0:2:0:0:
486,152,195623,2,0,L|411:153,1,51.7000015777588,2|2,0:2|0:2,0:0:0:0:
263,159,195809,6,0,L|159:157,2,103.400003155518,2|2|8,1:2|0:2|0:2,0:0:0:0:
430,310,196368,1,2,0:0:0:0:
373,310,196461,1,2,0:0:0:0:
316,308,196554,1,2,1:2:0:0:
162,300,196741,1,0,1:0:0:0:
317,116,196927,1,8,0:2:0:0:
25,17,197113,6,0,L|258:22,1,206.800006311035,4|0,0:2|1:0,0:0:0:0:
398,25,197672,1,8,0:2:0:0:
126,68,197859,2,0,L|118:207,1,103.400003155518,4|8,1:2|1:2,0:0:0:0:
182,159,198138,1,8,0:2:0:0:
120,227,198231,1,0,1:0:0:0:
286,320,198418,1,10,0:2:0:0:
172,158,198604,2,0,L|249:160,1,51.7000015777588,8|8,0:2|0:2,0:0:0:0:
424,151,198790,6,0,P|489:109|408:41,1,206.800006311035,2|8,1:2|0:2,0:0:0:0:
253,36,199349,2,0,L|25:31,1,206.800006311035,8|0,0:2|1:0,0:0:0:0:
201,127,199908,1,8,0:2:0:0:
47,130,200095,2,0,L|107:130,1,51.7000015777588,8|8,0:2|0:2,0:0:0:0:
306,114,200281,6,0,L|431:115,2,103.400003155518,6|0|8,1:2|1:0|0:2,0:0:0:0:
35,290,200840,2,0,L|225:282,1,155.100004733277,10|0,0:2|0:0,0:0:0:0:
18,200,201213,2,0,P|6:136|129:57,1,206.800006311035,10|8,0:2|0:2,0:0:0:0:
163,54,201679,1,8,0:2:0:0:
371,52,201772,6,0,L|518:54,2,103.400003155518,14|4|8,1:2|0:3|0:2,0:0:0:0:
101,141,202331,2,0,L|241:141,1,103.400003155518,10|0,1:2|1:0,0:0:0:0:
39,257,202703,2,0,L|30:144,1,103.400003155518,10|8,1:2|0:2,0:0:0:0:
312,38,203076,5,4,1:2:0:0:
447,31,203262,1,2,1:2:0:0:
312,38,203449,1,0,1:0:0:0:
447,31,203635,1,8,0:2:0:0:
144,325,203821,6,0,L|370:299,1,206.800006311035,6|8,0:2|0:2,0:0:0:0:
292,242,204287,1,8,0:2:0:0:
235,241,204380,1,8,1:2:0:0:
393,42,204567,1,0,1:0:0:0:
83,33,204753,5,14,1:2:0:0:
207,28,204939,1,10,0:2:0:0:
209,79,205032,1,10,0:2:0:0:
211,131,205125,1,10,0:2:0:0:
482,328,205312,2,0,L|371:331,1,103.400003155518,10|0,1:2|0:0,0:0:0:0:
109,336,205685,2,0,L|-4:336,1,103.400003155518,10|0,1:2|1:0,0:0:0:0:
315,131,206057,6,0,L|437:133,2,103.400003155518,14|2|0,1:2|0:2|1:0,0:0:0:0:
44,126,206616,1,10,3:2:0:0:
355,24,206803,5,14,1:2:0:0:
256,192,206989,12,0,208480,0:0:0:0:
204,285,208666,5,8,0:0:0:0:
364,283,208852,2,0,P|403:252|345:188,1,141,8|0,0:0|0:0,0:0:0:0:
171,181,209225,5,6,1:2:0:0:
160,77,209411,1,2,0:2:0:0:
225,49,209598,1,2,0:2:0:0:
383,31,209784,1,2,0:2:0:0:
102,303,210157,1,2,3:2:0:0:
102,303,210529,1,2,0:2:0:0:
263,299,210716,5,8,0:2:0:0:
273,198,210902,1,2,0:2:0:0:
198,194,211089,1,2,0:2:0:0:
358,60,211275,1,2,3:2:0:0:
87,145,211648,2,0,L|214:144,1,94,8|8,0:3|0:3,0:0:0:0:
464,153,212020,5,6,1:2:0:0:
297,341,212579,2,0,L|174:343,1,94,2|0,1:2|0:0,0:0:0:0:
298,255,212952,2,0,L|424:254,1,94,2|0,1:2|0:0,0:0:0:0:
231,73,213325,1,2,1:2:0:0:
391,24,213511,2,0,L|398:134,1,94,2|0,0:2|1:0,0:0:0:0:
304,121,213884,1,0,0:0:0:0:
143,118,214070,5,0,1:0:0:0:
237,118,214256,1,0,1:0:0:0:
238,164,214349,1,2,0:2:0:0:
240,211,214442,1,0,1:0:0:0:
97,212,214629,1,8,0:3:0:0:
350,334,214815,1,8,0:3:0:0:
67,338,215002,5,14,1:2:0:0:
256,192,215188,12,0,219660,0:0:0:0:
