osu file format v14

[General]
AudioFilename: audio.mp3
AudioLeadIn: 0
PreviewTime: 59039
Countdown: 0
SampleSet: Soft
StackLeniency: 0.7
Mode: 2
LetterboxInBreaks: 0
WidescreenStoryboard: 1

[Editor]
DistanceSpacing: 0.4
BeatDivisor: 4
GridSize: 32
TimelineZoom: 4.55

[Metadata]
Title:Last Diary
TitleUnicode:Last Diary
Artist:Eri Sasaki
ArtistUnicode:佐々木恵梨
Creator:-Hex-
Version:Platter
Source:プラスティック・メモリーズ
Tags:plastic memories opening video game vn visual novel op period pop japanese
BeatmapID:3558241
BeatmapSetID:1734128

[Difficulty]
HPDrainRate:4
CircleSize:3.2
OverallDifficulty:7.7
ApproachRate:7.7
SliderMultiplier:1.6
SliderTickRate:1

[Events]
//Background and Video events
0,0,"bg.jpg",0,0
//Break Periods
//Storyboard Layer 0 (Background)
//Storyboard Layer 1 (Fail)
//Storyboard Layer 2 (Pass)
//Storyboard Layer 3 (Foreground)
//Storyboard Layer 4 (Overlay)
//Storyboard Sound Samples

[TimingPoints]
530,372.670807453416,4,2,4,40,1,0
530,-100,4,2,4,40,0,0
3138,-100,4,2,4,30,0,0
3511,-100,4,2,4,40,0,0
11523,-100,4,2,1,60,0,0
12269,-100,4,2,1,60,0,0
23821,-100,4,2,2,60,0,0
24380,-100,4,2,3,40,0,0
24567,-100,4,2,4,40,0,0
24753,-100,4,2,3,40,0,0
25871,-100,4,2,1,40,0,0
26057,-100,4,2,3,40,0,0
27175,-100,4,2,4,40,0,0
27362,-100,4,2,1,40,0,0
27548,-100,4,2,4,40,0,0
27734,-100,4,2,3,40,0,0
28852,-100,4,2,1,40,0,0
29039,-100,4,2,3,40,0,0
29784,-100,4,2,4,40,0,0
29970,-100,4,2,3,40,0,0
30157,-100,4,2,4,40,0,0
30343,-100,4,2,1,40,0,0
30529,-100,4,2,4,40,0,0
30716,-100,4,2,3,40,0,0
31834,-100,4,2,1,40,0,0
32207,-100,4,2,3,40,0,0
33138,-100,4,2,4,40,0,0
33325,-100,4,2,1,40,0,0
33511,-100,4,2,4,40,0,0
33697,-100,4,2,3,40,0,0
34815,-100,4,2,69,40,0,0
35561,-100,4,2,3,40,0,0
35933,-100,4,2,1,40,0,0
36306,-100,4,2,1,50,0,0
37610,-100,4,2,4,50,0,0
37797,-100,4,2,1,50,0,0
40592,-100,4,2,4,50,0,0
40778,-100,4,2,1,50,0,0
40964,-100,4,2,4,50,0,0
41151,-100,4,2,1,50,0,0
42082,-100,4,2,4,50,0,0
42269,-100,4,2,1,50,0,0
44691,-100,4,2,4,50,0,0
44877,-100,4,2,1,50,0,0
45064,-100,4,2,4,50,0,0
45250,-100,4,2,1,50,0,0
45623,-100,4,2,1,50,0,0
45995,-100,4,2,1,50,0,0
46182,-100,4,2,1,50,0,0
47300,-100,4,2,4,50,0,0
47486,-100,4,2,1,50,0,0
48231,-100,4,2,1,50,0,0
48418,-100,4,2,4,50,0,0
48790,-100,4,2,1,50,0,0
49349,-100,4,2,4,50,0,0
49536,-100,4,2,1,40,0,0
49722,-100,4,2,1,50,0,0
51026,-100,4,2,1,40,0,0
51213,-100,4,2,1,50,0,0
51399,-100,4,2,4,50,0,0
51772,-100,4,2,1,50,0,0
52517,-100,4,2,1,40,0,0
52703,-100,4,2,99,50,0,0
52890,-100,4,2,1,50,0,0
53076,-100,4,2,99,50,0,0
53262,-100,4,2,1,50,0,0
53449,-100,4,2,99,50,0,0
53635,-100,4,2,1,50,0,0
53728,-100,4,2,1,40,0,0
53821,-100,4,2,99,50,0,0
54008,-100,4,2,1,50,0,0
54846,-100,4,2,1,40,0,0
54939,-100,4,2,1,50,0,0
55126,-100,4,2,4,50,0,0
55312,-100,4,2,1,50,0,0
55498,-100,4,2,99,50,0,0
56430,-100,4,2,1,50,0,0
59970,-90.9090909090909,4,2,1,70,0,1
60529,-90.9090909090909,4,2,1,70,0,1
60716,-90.9090909090909,4,2,1,70,0,1
62020,-90.9090909090909,4,2,1,70,0,1
62207,-90.9090909090909,4,2,1,70,0,1
62952,-90.9090909090909,4,2,1,60,0,1
63138,-90.9090909090909,4,2,1,70,0,1
65933,-90.9090909090909,4,2,1,60,0,1
66120,-90.9090909090909,4,2,1,70,0,1
68915,-90.9090909090909,4,2,1,60,0,1
69101,-90.9090909090909,4,2,1,70,0,1
71337,-90.9090909090909,4,2,1,70,0,0
71896,-90.9090909090909,4,2,1,70,0,1
72455,-90.9090909090909,4,2,1,70,0,1
72641,-90.9090909090909,4,2,1,70,0,1
74877,-90.9090909090909,4,2,1,60,0,1
75064,-90.9090909090909,4,2,1,70,0,1
77859,-90.9090909090909,4,2,1,60,0,1
78045,-90.9090909090909,4,2,1,70,0,1
79349,-90.9090909090909,4,2,1,60,0,1
79536,-90.9090909090909,4,2,1,70,0,1
79908,-90.9090909090909,4,2,3,70,0,1
80095,-90.9090909090909,4,2,1,70,0,1
80840,-90.9090909090909,4,2,1,60,0,1
81026,-90.9090909090909,4,2,1,70,0,1
83076,-100,4,2,1,70,0,0
83262,-100,4,2,1,40,0,0
84753,-100,4,2,1,60,0,0
84939,-100,4,2,1,60,0,0
85312,-100,4,2,1,70,0,0
85685,-100,4,2,1,60,0,0
97424,-100,4,2,1,40,0,0
100219,-100,4,2,1,30,0,0
100405,-100,4,2,1,40,0,0
107859,-100,4,2,69,40,0,0
108604,-100,4,2,1,40,0,0
109349,-100,4,2,1,50,0,0
110653,-100,4,2,4,50,0,0
110840,-100,4,2,1,50,0,0
113635,-100,4,2,4,50,0,0
113821,-100,4,2,1,50,0,0
114007,-100,4,2,4,50,0,0
114194,-100,4,2,1,50,0,0
115125,-100,4,2,4,50,0,0
115312,-100,4,2,1,50,0,0
117734,-100,4,2,4,50,0,0
117920,-100,4,2,1,50,0,0
118107,-100,4,2,4,50,0,0
118293,-100,4,2,1,50,0,0
118666,-100,4,2,1,50,0,0
118852,-100,4,2,1,50,0,0
119039,-100,4,2,1,50,0,0
119225,-100,4,2,1,50,0,0
120343,-100,4,2,4,50,0,0
120529,-100,4,2,1,50,0,0
121274,-100,4,2,1,50,0,0
121461,-100,4,2,4,50,0,0
121833,-100,4,2,1,50,0,0
122392,-100,4,2,4,50,0,0
122579,-100,4,2,1,40,0,0
122765,-100,4,2,1,50,0,0
124069,-100,4,2,1,40,0,0
124256,-100,4,2,1,50,0,0
124442,-100,4,2,4,50,0,0
124815,-100,4,2,1,50,0,0
125560,-100,4,2,1,40,0,0
125746,-100,4,2,99,50,0,0
125933,-100,4,2,1,50,0,0
126119,-100,4,2,99,50,0,0
126305,-100,4,2,1,50,0,0
126492,-100,4,2,99,50,0,0
126678,-100,4,2,1,50,0,0
126771,-100,4,2,1,40,0,0
126864,-100,4,2,99,50,0,0
127051,-100,4,2,1,50,0,0
127889,-100,4,2,1,40,0,0
127982,-100,4,2,1,50,0,0
128169,-100,4,2,4,50,0,0
128355,-100,4,2,1,50,0,0
128541,-100,4,2,99,50,0,0
129473,-100,4,2,1,50,0,0
133014,-90.9090909090909,4,2,1,70,0,1
133573,-90.9090909090909,4,2,1,70,0,1
133759,-90.9090909090909,4,2,1,70,0,1
135064,-90.9090909090909,4,2,1,70,0,1
135250,-90.9090909090909,4,2,1,70,0,1
135996,-90.9090909090909,4,2,1,60,0,1
136182,-90.9090909090909,4,2,1,70,0,1
138977,-90.9090909090909,4,2,1,60,0,1
139164,-90.9090909090909,4,2,1,70,0,1
141959,-90.9090909090909,4,2,1,60,0,1
142145,-90.9090909090909,4,2,1,70,0,1
144380,-90.9090909090909,4,2,1,70,0,0
144939,-90.9090909090909,4,2,1,70,0,1
145498,-90.9090909090909,4,2,1,70,0,1
145685,-90.9090909090909,4,2,1,70,0,1
147921,-90.9090909090909,4,2,1,60,0,1
148108,-90.9090909090909,4,2,1,70,0,1
150903,-90.9090909090909,4,2,1,60,0,1
151089,-90.9090909090909,4,2,1,70,0,1
152393,-90.9090909090909,4,2,1,60,0,1
152580,-90.9090909090909,4,2,1,70,0,1
152952,-90.9090909090909,4,2,1,70,0,1
153139,-90.9090909090909,4,2,1,70,0,1
153884,-90.9090909090909,4,2,1,60,0,1
154070,-90.9090909090909,4,2,1,70,0,1
156865,-100,4,2,1,60,0,0
159846,-100,4,2,1,50,0,0
160033,-100,4,2,1,60,0,0
165809,-100,4,2,1,50,0,0
165995,-100,4,2,1,60,0,0
168418,-100,4,2,1,50,0,0
168604,-100,4,2,1,60,0,0
168977,-100,4,2,4,40,0,0
174380,-100,4,2,1,40,0,0
174939,-100,4,2,1,50,0,0
177734,-100,4,2,1,60,0,0
180716,-90.9090909090909,4,2,1,70,0,1
181275,-90.9090909090909,4,2,1,70,0,1
181461,-90.9090909090909,4,2,1,70,0,1
182766,-90.9090909090909,4,2,1,70,0,1
182952,-90.9090909090909,4,2,1,70,0,1
183698,-90.9090909090909,4,2,1,60,0,1
183884,-90.9090909090909,4,2,1,70,0,1
186679,-90.9090909090909,4,2,1,60,0,1
186866,-90.9090909090909,4,2,1,70,0,1
189661,-90.9090909090909,4,2,1,60,0,1
189847,-90.9090909090909,4,2,1,70,0,1
192082,-90.9090909090909,4,2,1,70,0,0
192641,-90.9090909090909,4,2,1,70,0,1
193200,-90.9090909090909,4,2,1,70,0,1
193387,-90.9090909090909,4,2,1,70,0,1
195623,-90.9090909090909,4,2,1,60,0,1
195810,-90.9090909090909,4,2,1,70,0,1
198605,-90.9090909090909,4,2,1,60,0,1
198791,-90.9090909090909,4,2,1,70,0,1
200095,-90.9090909090909,4,2,1,60,0,1
200282,-90.9090909090909,4,2,1,70,0,1
200654,-90.9090909090909,4,2,3,70,0,1
200841,-90.9090909090909,4,2,1,70,0,1
201586,-90.9090909090909,4,2,1,60,0,1
201772,-90.9090909090909,4,2,1,70,0,1
206803,-100,4,2,1,70,0,0
206989,-100,4,2,1,40,0,0
208293,-100,4,2,1,5,0,0
208666,-100,4,3,0,50,0,0
209225,-100,4,2,1,40,0,0
210716,-100,4,2,4,40,0,0
210902,-100,4,2,1,40,0,0
215188,-100,4,2,1,30,0,0
216679,-100,4,2,1,20,0,0
218169,-100,4,2,1,10,0,0
219660,-100,4,2,1,5,0,0

[Colours]
Combo1 : 238,177,118
Combo2 : 110,105,125
Combo3 : 211,120,138

[HitObjects]
152,330,530,6,0,L|141:141,1,160,6|0,0:2|0:0,0:0:0:0:
304,30,1275,2,0,L|316:203,1,160,2|0,0:2|0:0,0:0:0:0:
234,185,1834,1,2,0:2:0:0:
395,184,2020,6,0,P|444:232|379:292,1,160,10|0,0:2|0:0,0:0:0:0:
315,294,2579,1,2,0:2:0:0:
395,292,2766,1,2,0:2:0:0:
235,176,3138,1,2,0:2:0:0:
195,176,3231,1,2,0:2:0:0:
155,176,3324,1,2,0:2:0:0:
316,58,3511,6,0,L|503:58,1,160,10|2,0:2|0:2,0:0:0:0:
395,127,4070,1,0,0:0:0:0:
475,128,4256,1,2,0:2:0:0:
314,318,4629,2,0,L|400:316,1,80,2|2,0:2|0:2,0:0:0:0:
233,252,5002,5,10,0:2:0:0:
233,173,5188,1,0,0:0:0:0:
285,114,5374,1,2,0:2:0:0:
363,103,5561,1,2,0:2:0:0:
204,19,5747,2,0,L|205:125,1,80,2|2,0:2|0:2,0:0:0:0:
285,146,6120,1,6,0:3:0:0:
45,312,6492,6,0,L|225:306,1,160,6|0,0:2|1:0,0:0:0:0:
285,300,7051,1,0,1:0:0:0:
205,214,7238,1,2,1:2:0:0:
366,38,7610,2,0,L|432:36,2,40,8|8|8,0:1|0:1|0:1,0:0:0:0:
205,29,7983,6,0,P|166:86|206:113,1,120,8|8,0:2|0:1,0:0:0:0:
238,108,8356,1,8,0:1:0:0:
77,279,8542,1,8,0:3:0:0:
237,179,8915,1,4,0:3:0:0:
149,176,9101,1,4,0:3:0:0:
406,37,9287,6,0,P|481:114|378:188,1,240,4|0,0:2|1:0,0:0:0:0:
243,180,10033,2,0,L|236:296,1,80,2|0,0:2|1:0,0:0:0:0:
401,339,10405,2,0,L|318:338,1,80,10|10,0:1|0:1,0:0:0:0:
158,336,10778,1,10,0:1:0:0:
119,330,10871,1,8,0:1:0:0:
90,303,10964,1,8,0:1:0:0:
83,264,11057,1,8,0:1:0:0:
99,228,11150,1,8,0:1:0:0:
133,208,11243,1,8,0:1:0:0:
172,212,11337,1,8,0:1:0:0:
427,222,11523,6,0,L|429:119,1,80,10|0,1:2|0:0,0:0:0:0:
268,69,11896,2,0,L|376:66,1,80,10|0,1:2|1:0,0:0:0:0:
67,53,12269,6,0,P|21:104|84:169,1,160,14|0,1:2|1:0,0:0:0:0:
147,164,12828,1,8,0:2:0:0:
419,166,13200,2,0,L|419:275,1,80,2|0,1:2|1:0,0:0:0:0:
338,320,13573,2,0,L|439:320,1,80,8|0,0:2|1:0,0:0:0:0:
258,238,13946,6,0,L|75:234,1,160,2|8,0:2|0:2,0:0:0:0:
179,155,14505,1,0,1:0:0:0:
339,147,14691,2,0,L|401:146,2,40,10|8|0,1:2|0:2|1:0,0:0:0:0:
258,148,15064,2,0,L|147:149,1,80,8|0,0:2|0:0,0:0:0:0:
434,34,15436,6,0,P|444:111|354:127,1,160,2|8,1:2|0:2,0:0:0:0:
298,138,15995,1,10,0:2:0:0:
460,289,16368,2,0,L|344:289,1,80,2|10,1:2|0:2,0:0:0:0:
122,17,16741,6,0,P|72:35|68:144,1,160,6|8,1:2|1:2,0:0:0:0:
72,174,17206,1,8,0:2:0:0:
105,196,17299,1,8,0:2:0:0:
362,204,17486,2,0,L|365:284,1,80,6|0,1:2|0:0,0:0:0:0:
205,297,17859,1,10,0:2:0:0:
165,298,17952,1,8,0:2:0:0:
125,299,18045,1,8,0:2:0:0:
386,33,18231,6,0,P|437:84|383:133,1,160,6|0,1:2|1:0,0:0:0:0:
305,131,18790,1,8,0:2:0:0:
34,335,19163,2,0,L|150:332,1,80,2|0,1:2|1:0,0:0:0:0:
34,263,19536,2,0,L|30:172,1,80,8|0,0:2|1:0,0:0:0:0:
190,119,19908,6,0,L|380:114,1,160,2|8,0:2|0:2,0:0:0:0:
271,176,20467,1,0,1:0:0:0:
110,258,20654,2,0,L|48:257,2,40,10|8|0,1:2|0:2|1:0,0:0:0:0:
190,167,21026,2,0,L|79:163,1,80,8|0,0:2|0:0,0:0:0:0:
367,32,21399,6,0,P|420:87|358:130,1,160,2|8,1:2|0:2,0:0:0:0:
212,121,22144,2,0,L|111:122,2,80,10|2|10,1:2|1:2|0:2,0:0:0:0:
469,113,22703,6,0,L|472:210,1,80,6|0,1:2|0:0,0:0:0:0:
312,297,23076,1,10,1:2:0:0:
351,296,23169,1,8,0:2:0:0:
391,295,23262,1,8,0:2:0:0:
133,175,23449,2,0,P|79:229|135:279,1,160,6|6,0:2|0:3,0:0:0:0:
287,277,24008,2,0,L|390:276,1,80,6|0,0:3|0:0,0:0:0:0:
112,48,24380,6,0,L|18:50,2,80,2|2|10,0:2|1:2|0:2,0:0:0:0:
273,170,25126,2,0,L|96:168,1,160,8|8,0:2|0:2,0:0:0:0:
387,30,25871,6,0,P|434:94|364:152,1,160,2|10,1:2|0:2,0:0:0:0:
311,206,26430,2,0,P|260:231|315:296,1,160,2|0,0:2|0:0,0:0:0:0:
387,285,26989,1,8,0:2:0:0:
112,336,27362,6,0,L|293:334,1,160,2|8,1:2|0:2,0:0:0:0:
353,333,27921,1,2,0:2:0:0:
353,333,28293,1,0,0:0:0:0:
192,214,28480,2,0,L|187:123,1,80,8|0,0:2|0:0,0:0:0:0:
348,33,28852,6,0,L|427:32,2,80,2|2|10,1:2|0:2|0:2,0:0:0:0:
188,343,29598,1,8,0:2:0:0:
183,265,29784,1,0,1:0:0:0:
233,205,29970,1,8,0:2:0:0:
310,196,30157,1,0,1:0:0:0:
52,62,30343,5,6,0:2:0:0:
40,136,30529,1,2,1:2:0:0:
104,175,30715,1,10,0:2:0:0:
262,70,31089,2,0,L|447:72,1,160,8|8,0:2|0:2,0:0:0:0:
149,345,31834,6,0,P|146:273|230:236,1,160,2|8,1:2|0:2,0:0:0:0:
300,231,32393,1,2,0:2:0:0:
139,52,32766,2,0,L|22:49,2,80,0|8|0,0:0|0:2|1:0,0:0:0:0:
300,40,33325,6,0,P|354:86|278:131,1,160,2|8,1:2|0:2,0:0:0:0:
224,129,33884,1,2,0:2:0:0:
383,219,34070,1,8,0:2:0:0:
413,147,34256,1,0,0:0:0:0:
382,76,34442,1,8,0:0:0:0:
309,49,34629,1,0,0:0:0:0:
53,42,34815,6,0,L|49:145,1,80,8|4,1:2|1:2,0:0:0:0:
211,143,35188,1,2,1:2:0:0:
67,343,35561,2,0,L|249:343,1,160,8|0,0:2|1:0,0:0:0:0:
145,263,36120,1,4,0:3:0:0:
426,60,36306,6,0,P|476:120|398:165,1,160,6|8,0:2|0:2,0:0:0:0:
269,170,36865,2,0,L|87:168,1,160,8|0,1:3|1:0,0:0:0:0:
189,243,37424,1,8,0:2:0:0:
108,242,37610,1,0,1:0:0:0:
270,57,37797,6,0,L|369:58,2,80,2|0|8,1:2|1:0|0:2,0:0:0:0:
109,59,38356,2,0,P|66:86|138:156,1,160,0|0,1:2|1:0,0:0:0:0:
191,161,38915,1,8,0:2:0:0:
463,321,39287,6,0,L|303:329,1,160,2|8,1:2|0:2,0:0:0:0:
143,340,39846,2,0,P|146:274|230:226,1,160,8|0,1:3|1:0,0:0:0:0:
301,218,40405,1,8,0:2:0:0:
219,129,40592,1,8,1:3:0:0:
379,26,40778,6,0,L|286:26,2,80,2|0|8,1:2|1:0|0:2,0:0:0:0:
218,212,41337,2,0,L|33:212,1,160,8|2,1:3|1:2,0:0:0:0:
138,137,41896,1,8,0:2:0:0:
58,138,42082,1,0,1:0:0:0:
314,130,42269,6,0,L|416:130,2,80,2|0|8,1:2|1:0|0:2,0:0:0:0:
153,128,42828,2,0,L|136:308,1,160,0|0,1:2|1:0,0:0:0:0:
218,289,43387,1,8,0:2:0:0:
58,355,43573,6,0,L|246:346,1,160,2|0,1:2|1:0,0:0:0:0:
473,348,44132,1,12,0:2:0:0:
473,348,44505,2,0,L|478:245,1,80,0|0,1:0|1:0,0:0:0:0:
318,163,44877,2,0,L|410:164,1,80,8|0,1:2|1:0,0:0:0:0:
139,36,45250,6,0,L|133:143,1,80,6|0,0:2|1:0,0:0:0:0:
295,116,45623,2,0,L|403:117,1,80,8|0,0:2|0:0,0:0:0:0:
214,248,45995,2,0,L|108:245,2,80,8|0|8,0:2|1:0|0:2,0:0:0:0:
470,180,46554,6,0,L|474:353,1,160,6|0,1:2|1:0,0:0:0:0:
315,342,47113,1,10,0:2:0:0:
156,338,47486,2,0,L|150:238,1,80,8|8,0:2|1:3,0:0:0:0:
310,203,47859,2,0,L|414:203,1,80,8|8,0:2|1:3,0:0:0:0:
134,30,48231,6,0,L|127:131,1,80,4|0,0:2|1:0,0:0:0:0:
288,103,48790,1,0,1:0:0:0:
126,98,48977,2,0,P|76:135|131:202,1,160,8|0,0:2|1:0,0:0:0:0:
204,201,49536,1,8,0:2:0:0:
365,198,49722,6,0,L|463:199,1,80,2|8,1:2|0:2,0:0:0:0:
445,198,50095,2,0,L|358:199,1,80,0|2,1:0|0:2,0:0:0:0:
204,194,50467,2,0,L|198:28,1,160,10|2,0:2|1:2,0:0:0:0:
280,21,51026,1,8,0:2:0:0:
22,24,51213,6,0,P|16:85|99:121,1,160,2|0,1:2|3:0,0:0:0:0:
256,114,51772,2,0,L|61:118,1,160,0|2,1:0|0:2,0:0:0:0:
16,117,52331,1,2,1:2:0:0:
96,117,52517,1,8,0:2:0:0:
272,136,52703,6,0,L|278:232,1,80,2|8,1:2|0:0,0:0:0:0:
196,266,53076,2,0,L|291:266,1,80,8|2,1:2|0:2,0:0:0:0:
437,18,53449,2,0,L|443:112,1,80,4|2,1:2|0:2,0:0:0:0:
281,255,53821,2,0,L|378:254,1,80,2|2,3:3|0:2,0:0:0:0:
104,356,54194,6,0,P|66:319|121:222,1,160,6|8,1:2|2:0,0:0:0:0:
180,173,54753,2,0,L|241:171,1,40,0|8,0:0|0:2,0:0:0:0:
180,173,54939,2,0,L|76:173,2,80,0|0|0,1:0|1:0|3:0,0:0:0:0:
341,28,55498,5,4,1:2:0:0:
338,106,55684,1,8,1:2:0:0:
282,160,55870,1,4,1:3:0:0:
204,160,56057,1,4,3:2:0:0:
366,161,56244,1,8,1:2:0:0:
446,228,56430,2,0,L|345:229,2,80,0|0|8,1:0|1:0|0:2,0:0:0:0:
189,352,56989,5,4,0:2:0:0:
308,231,57362,2,0,L|199:232,1,80,0|8,1:0|0:2,0:0:0:0:
66,233,57734,2,0,L|62:163,1,40,0|0,1:0|1:0,0:0:0:0:
104,136,57921,2,0,L|210:133,2,80,8|8|8,0:3|0:3|0:3,0:0:0:0:
362,36,58480,6,0,P|428:123|326:183,1,240,6|0,0:2|0:0,0:0:0:0:
182,301,59411,1,8,0:2:0:0:
343,296,59598,2,0,L|347:213,1,80,8|0,0:2|3:0,0:0:0:0:
66,74,59970,6,0,P|17:112|80:185,1,176.000005371094,6|0,1:2|1:0,0:0:0:0:
233,175,60529,1,8,0:2:0:0:
75,274,60902,2,0,L|173:274,2,88.000002685547,0|0|8,1:0|1:0|0:2,0:0:0:0:
332,182,61461,6,0,L|519:183,1,176.000005371094,2|0,1:2|1:0,0:0:0:0:
348,83,62020,2,0,L|249:80,1,88.000002685547,8|8,0:2|3:2,0:0:0:0:
306,150,62300,1,8,0:2:0:0:
352,161,62393,2,0,L|355:265,1,88.000002685547,8|0,1:2|1:0,0:0:0:0:
191,350,62766,2,0,L|92:348,1,88.000002685547,8|8,0:2|0:2,0:0:0:0:
358,268,63138,6,0,P|409:255|427:139,1,176.000005371094,6|8,1:2|0:2,0:0:0:0:
167,53,63884,2,0,L|163:164,1,88.000002685547,8|0,0:2|1:0,0:0:0:0:
252,136,64256,1,8,0:2:0:0:
92,328,64443,6,0,P|42:285|124:217,1,176.000005371094,2|0,1:2|1:0,0:0:0:0:
257,94,65002,1,8,0:2:0:0:
168,96,65188,2,0,L|161:44,2,44.0000013427735,0|8|8,1:0|0:2|1:2,0:0:0:0:
257,94,65561,1,0,1:0:0:0:
415,98,65747,2,0,L|426:195,1,88.000002685547,8|0,0:2|1:0,0:0:0:0:
168,329,66120,6,0,L|58:329,1,88.000002685547,2|0,1:2|0:0,0:0:0:0:
229,175,66492,1,8,0:2:0:0:
406,38,66865,2,0,L|292:39,2,88.000002685547,8|0|8,1:2|1:0|0:2,0:0:0:0:
153,118,67424,6,0,P|99:163|160:221,1,176.000005371094,2|2,1:2|1:2,0:0:0:0:
250,221,67983,1,10,0:2:0:0:
89,336,68169,2,0,L|84:235,1,88.000002685547,10|8,1:2|1:2,0:0:0:0:
173,225,68542,1,2,1:2:0:0:
15,64,68728,2,0,L|131:65,1,88.000002685547,10|8,0:2|0:2,0:0:0:0:
361,56,69101,6,0,L|482:57,2,88.000002685547,2|0|8,1:2|1:0|0:2,0:0:0:0:
203,194,69660,2,0,L|394:195,1,176.000005371094,0|0,1:0|1:0,0:0:0:0:
468,190,70219,1,8,0:0:0:0:
212,346,70405,6,0,P|167:299|259:231,1,176.000005371094,4|0,1:2|1:0,0:0:0:0:
383,99,70964,2,0,L|290:100,1,88.000002685547,8|0,0:2|1:0,0:0:0:0:
38,68,71337,6,0,L|36:174,1,88.000002685547,10|8,0:2|0:2,0:0:0:0:
54,195,71616,1,8,0:2:0:0:
87,223,71709,1,8,0:2:0:0:
346,356,71896,6,0,L|155:272,1,176.000005371094,4|0,1:2|1:0,0:0:0:0:
344,137,72455,1,8,0:2:0:0:
185,38,72828,2,0,L|68:39,2,88.000002685547,0|0|8,1:0|1:0|0:2,0:0:0:0:
442,37,73387,6,0,P|494:85|413:145,1,176.000005371094,2|0,1:2|1:0,0:0:0:0:
277,281,73946,2,0,L|178:277,1,88.000002685547,8|0,0:2|1:0,0:0:0:0:
141,275,74225,1,8,0:2:0:0:
189,277,74318,2,0,L|299:286,1,88.000002685547,8|0,1:2|1:0,0:0:0:0:
436,286,74691,2,0,L|444:185,1,88.000002685547,8|2,0:2|0:2,0:0:0:0:
187,45,75064,5,2,1:2:0:0:
99,42,75250,1,2,0:2:0:0:
257,143,75623,2,0,L|260:218,1,44.0000013427735,2|2,0:0|0:0,0:0:0:0:
206,190,75809,2,0,L|100:195,2,88.000002685547,2|0|8,1:2|1:0|0:2,0:0:0:0:
462,194,76368,6,0,P|484:237|383:287,1,176.000005371094,4|0,0:2|1:0,0:0:0:0:
477,346,76927,1,8,0:2:0:0:
222,222,77113,2,0,L|98:225,2,88.000002685547,4|8|0,1:2|1:2|1:0,0:0:0:0:
380,213,77672,1,10,0:2:0:0:
389,57,77859,1,8,0:2:0:0:
134,24,78045,6,0,L|117:212,1,176.000005371094,2|8,1:2|0:2,0:0:0:0:
277,295,78604,2,0,L|462:308,1,176.000005371094,8|0,0:2|1:0,0:0:0:0:
365,205,79163,1,8,0:2:0:0:
453,205,79349,1,8,0:2:0:0:
196,66,79536,6,0,L|78:63,2,88.000002685547,6|0|8,1:2|1:0|0:2,0:0:0:0:
364,64,80095,1,10,0:2:0:0:
93,270,80467,2,0,P|84:205|195:148,1,176.000005371094,10|8,0:2|0:2,0:0:0:0:
422,130,81026,6,0,L|433:251,1,88.000002685547,6|4,1:2|0:3,0:0:0:0:
350,215,81399,1,8,0:2:0:0:
191,223,81585,2,0,L|182:134,1,88.000002685547,10|0,1:2|0:0,0:0:0:0:
342,54,81958,2,0,L|453:48,1,88.000002685547,10|8,1:2|0:2,0:0:0:0:
172,335,82331,5,4,0:2:0:0:
170,249,82517,1,2,0:2:0:0:
227,185,82703,1,0,1:0:0:0:
313,177,82890,1,8,0:2:0:0:
57,35,83076,5,14,1:2:0:0:
256,192,83262,12,0,84380,0:0:0:0:
239,265,84753,5,0,1:0:0:0:
327,265,84939,2,0,L|396:265,2,40,8|8|8,0:2|0:2|0:2,0:0:0:0:
46,22,85312,6,0,P|29:75|116:134,1,160,14|0,1:2|1:0,0:0:0:0:
18,198,85871,1,8,0:2:0:0:
293,323,86244,2,0,L|296:226,1,80,2|0,1:2|1:0,0:0:0:0:
213,178,86616,2,0,L|316:177,1,80,8|0,0:2|1:0,0:0:0:0:
456,187,86989,6,0,P|451:130|367:62,1,160,2|8,0:2|0:2,0:0:0:0:
458,20,87548,1,0,1:0:0:0:
298,17,87734,2,0,L|225:18,2,40,10|8|0,0:2|0:2|1:0,0:0:0:0:
380,85,88107,2,0,L|269:83,1,80,8|0,0:2|0:0,0:0:0:0:
43,78,88480,6,0,L|35:252,1,160,2|8,1:2|0:2,0:0:0:0:
113,227,89039,1,10,0:2:0:0:
272,53,89411,2,0,L|175:52,1,80,2|10,1:2|0:2,0:0:0:0:
449,31,89784,6,0,P|486:93|405:155,1,160,6|8,1:2|1:2,0:0:0:0:
401,172,90250,1,8,0:2:0:0:
363,181,90343,1,8,0:2:0:0:
107,323,90529,2,0,L|103:221,1,80,6|0,1:2|0:0,0:0:0:0:
264,106,90902,1,10,3:2:0:0:
183,106,91089,1,10,3:2:0:0:
462,31,91275,6,0,P|476:85|393:126,1,160,6|0,1:2|1:0,0:0:0:0:
476,188,91834,1,8,0:2:0:0:
202,340,92207,2,0,L|310:340,1,80,2|0,1:2|1:0,0:0:0:0:
362,259,92579,2,0,L|265:256,1,80,8|0,0:2|1:0,0:0:0:0:
121,260,92952,6,0,P|56:244|67:152,1,160,2|8,0:2|0:2,0:0:0:0:
135,150,93511,1,0,1:0:0:0:
295,148,93697,2,0,L|295:82,1,40,10|8,0:2|0:2,0:0:0:0:
247,83,93884,1,0,1:0:0:0:
168,17,94070,2,0,L|67:17,1,80,8|0,0:2|0:0,0:0:0:0:
345,24,94443,6,0,L|518:22,1,160,2|8,1:2|0:2,0:0:0:0:
425,97,95002,1,10,0:2:0:0:
263,301,95374,2,0,L|362:302,1,80,2|10,1:2|0:2,0:0:0:0:
85,220,95747,6,0,L|83:133,1,80,6|0,1:2|0:0,0:0:0:0:
244,69,96120,1,10,1:2:0:0:
204,69,96213,1,8,0:2:0:0:
164,69,96306,1,8,1:2:0:0:
419,155,96492,2,0,P|469:202|396:257,1,160,6|6,0:2|0:3,0:0:0:0:
259,330,97051,2,0,L|343:330,1,80,6|0,0:3|0:0,0:0:0:0:
81,126,97424,6,0,L|-4:128,2,80,4|2|2,0:2|0:2|1:2,0:0:0:0:
240,222,98169,2,0,L|65:221,1,160,0|0,1:0|1:0,0:0:0:0:
352,346,98915,6,0,P|398:306|332:242,1,160,2|2,1:2|1:2,0:0:0:0:
267,185,99474,2,0,L|442:184,1,160,2|0,0:2|0:0,0:0:0:0:
507,186,100033,1,8,3:2:0:0:
426,184,100219,1,8,3:2:0:0:
266,331,100405,6,0,L|76:329,1,160,2|2,1:2|1:2,0:0:0:0:
186,267,100964,1,0,3:0:0:0:
332,265,101337,1,0,1:2:0:0:
173,181,101523,2,0,L|169:92,1,80,10|0,1:2|0:0,0:0:0:0:
330,20,101896,6,0,L|415:17,2,80,2|2|2,1:2|0:2|1:2,0:0:0:0:
155,89,102641,2,0,L|142:140,2,40,2|2|2,1:2|3:2|3:2,0:0:0:0:
67,225,103014,2,0,L|9:223,2,40,2|2|2,1:2|3:2|2:2,0:0:0:0:
324,216,103387,5,6,1:2:0:0:
397,195,103573,1,2,0:2:0:0:
410,120,103759,1,2,1:2:0:0:
251,28,104132,2,0,L|436:24,1,160,0|0,1:0|1:0,0:0:0:0:
139,27,104877,6,0,L|124:206,1,160,2|2,1:2|1:2,0:0:0:0:
207,254,105436,2,0,L|36:256,1,160,2|0,0:2|0:0,0:0:0:0:
127,332,105995,1,0,1:0:0:0:
47,333,106182,1,0,3:0:0:0:
210,234,106368,6,0,L|380:227,1,160,2|2,1:2|1:2,0:0:0:0:
443,222,106927,1,0,3:0:0:0:
282,201,107113,2,0,L|278:113,1,80,0|2,1:0|3:2,0:0:0:0:
361,80,107486,2,0,L|454:72,1,80,2|2,0:2|0:2,0:0:0:0:
186,341,107859,5,8,1:2:0:0:
178,238,108045,1,4,1:2:0:0:
338,155,108231,1,2,1:2:0:0:
496,34,108604,2,0,L|387:34,3,80,0|8|8|4,1:0|0:2|1:2|0:3,0:0:0:0:
136,285,109349,6,0,P|92:250|157:176,1,160,6|8,0:2|0:2,0:0:0:0:
298,83,109908,2,0,L|128:79,1,160,8|0,1:3|1:0,0:0:0:0:
58,80,110467,1,8,0:2:0:0:
140,165,110654,1,0,1:0:0:0:
301,287,110840,6,0,L|391:288,2,80,2|0|8,1:2|1:0|0:2,0:0:0:0:
462,197,111399,2,0,P|492:170|444:71,1,160,0|0,1:2|1:0,0:0:0:0:
374,75,111958,1,8,0:2:0:0:
100,330,112331,6,0,L|277:322,1,160,2|8,1:2|0:2,0:0:0:0:
98,248,112890,2,0,P|87:210|177:145,1,160,8|0,1:3|1:0,0:0:0:0:
249,93,113449,1,8,0:2:0:0:
170,90,113635,1,8,1:3:0:0:
329,25,113821,6,0,L|427:24,2,80,2|0|8,1:2|1:0|0:2,0:0:0:0:
167,90,114380,2,0,L|146:271,1,160,8|2,1:3|1:2,0:0:0:0:
228,245,114939,1,8,0:2:0:0:
148,248,115126,1,0,1:0:0:0:
403,112,115312,6,0,L|515:108,2,80,2|0|8,1:2|1:0|0:2,0:0:0:0:
240,161,115871,2,0,P|236:99|333:64,1,160,0|0,1:2|1:0,0:0:0:0:
396,53,116430,1,8,0:2:0:0:
237,311,116616,2,0,L|416:297,1,160,2|0,1:2|1:0,0:0:0:0:
139,185,117175,5,12,0:2:0:0:
139,185,117548,2,0,L|231:183,1,80,0|0,1:0|1:0,0:0:0:0:
58,312,117921,2,0,L|52:219,1,80,8|0,1:2|1:0,0:0:0:0:
307,66,118293,6,0,L|407:62,1,80,6|0,0:2|1:0,0:0:0:0:
227,163,118666,2,0,L|223:247,1,80,8|0,0:2|0:0,0:0:0:0:
384,353,119039,2,0,L|304:354,2,80,8|0|8,0:2|1:0|0:2,0:0:0:0:
127,355,119598,6,0,P|120:290|204:246,1,160,6|0,1:2|1:0,0:0:0:0:
353,251,120157,1,10,1:2:0:0:
193,92,120529,2,0,L|281:94,1,80,8|8,0:2|1:3,0:0:0:0:
435,91,120902,2,0,L|440:183,1,80,8|8,0:2|1:3,0:0:0:0:
182,354,121275,6,0,L|95:346,1,80,4|0,0:2|1:0,0:0:0:0:
247,65,121834,1,0,1:0:0:0:
86,61,122020,2,0,P|39:77|29:187,1,160,8|0,0:2|1:0,0:0:0:0:
95,174,122579,1,8,0:2:0:0:
263,341,122766,6,0,L|271:252,1,80,2|8,1:2|0:2,0:0:0:0:
180,254,123138,2,0,L|175:158,1,80,0|2,1:0|0:2,0:0:0:0:
337,70,123511,2,0,L|503:62,1,160,10|2,0:2|1:2,0:0:0:0:
415,135,124070,1,8,0:2:0:0:
160,354,124256,6,0,P|157:299|260:252,1,160,2|0,1:2|3:0,0:0:0:0:
398,92,124815,2,0,L|215:93,1,160,0|2,1:0|0:2,0:0:0:0:
319,172,125374,1,2,1:2:0:0:
400,165,125561,1,8,0:2:0:0:
239,348,125747,6,0,L|233:249,1,80,2|8,1:2|0:0,0:0:0:0:
315,216,126120,2,0,L|202:214,1,80,8|0,1:2|0:0,0:0:0:0:
74,29,126492,2,0,L|167:28,1,80,4|2,1:2|0:2,0:0:0:0:
316,25,126865,2,0,L|405:27,1,80,2|2,3:3|0:2,0:0:0:0:
140,218,127238,6,0,P|97:179|174:112,1,160,6|8,1:2|2:0,0:0:0:0:
228,42,127797,2,0,L|290:41,1,40,0|0,0:0|0:0,0:0:0:0:
228,42,127983,2,0,L|117:40,2,80,0|0|0,1:0|1:0|3:0,0:0:0:0:
484,43,128542,5,4,1:2:0:0:
480,121,128728,1,8,0:2:0:0:
436,186,128914,1,4,0:3:0:0:
363,218,129101,1,4,3:2:0:0:
203,221,129287,1,8,0:2:0:0:
130,85,129474,2,0,L|221:84,2,80,0|0|8,1:0|0:0|0:2,0:0:0:0:
387,74,130033,5,4,0:2:0:0:
274,231,130405,2,0,L|182:232,1,80,0|8,1:0|0:2,0:0:0:0:
357,116,130778,2,0,L|296:116,1,40,0|0,1:0|1:0,0:0:0:0:
277,106,130964,2,0,L|179:106,2,80,8|8|8,0:3|0:3|0:3,0:0:0:0:
21,242,131523,6,0,P|18:182|120:121,1,160,6|2,0:2|0:2,0:0:0:0:
170,120,132082,1,10,0:2:0:0:
329,128,132455,1,8,0:2:0:0:
170,120,132641,2,0,L|65:121,1,80,8|8,0:2|1:2,0:0:0:0:
366,32,133014,6,0,P|422:76|351:123,1,176.000005371094,6|0,1:2|1:0,0:0:0:0:
197,125,133573,1,8,0:2:0:0:
357,335,133946,2,0,L|238:338,2,88.000002685547,0|0|8,1:0|1:0|0:2,0:0:0:0:
101,267,134505,6,0,P|89:203|182:138,1,176.000005371094,2|0,1:2|1:0,0:0:0:0:
326,57,135064,2,0,L|334:158,1,88.000002685547,8|8,0:2|3:2,0:0:0:0:
284,121,135343,1,8,0:2:0:0:
235,183,135436,2,0,L|348:186,1,88.000002685547,8|0,1:2|1:0,0:0:0:0:
482,45,135809,2,0,L|368:47,1,88.000002685547,8|8,0:2|0:2,0:0:0:0:
137,53,136182,6,0,P|85:67|61:189,1,176.000005371094,6|8,1:2|0:2,0:0:0:0:
317,350,136927,2,0,L|435:348,1,88.000002685547,8|0,0:2|1:0,0:0:0:0:
317,350,137300,1,8,0:2:0:0:
476,261,137486,6,0,P|472:199|376:131,1,176.000005371094,2|0,1:2|1:0,0:0:0:0:
226,151,138045,1,8,0:2:0:0:
314,150,138231,1,0,1:0:0:0:
298,109,138324,1,8,0:2:0:0:
265,81,138417,1,8,1:2:0:0:
177,80,138604,1,0,1:0:0:0:
336,188,138790,2,0,L|449:190,1,88.000002685547,8|0,0:2|1:0,0:0:0:0:
166,342,139163,6,0,L|62:339,1,88.000002685547,2|0,1:2|0:0,0:0:0:0:
237,232,139536,1,8,0:2:0:0:
402,107,139908,2,0,L|293:107,2,88.000002685547,8|0|8,1:2|1:0|0:2,0:0:0:0:
146,58,140467,6,0,P|86:77|80:192,1,176.000005371094,2|2,1:2|1:2,0:0:0:0:
155,179,141026,1,10,0:2:0:0:
316,288,141213,2,0,L|319:185,1,88.000002685547,10|8,1:2|1:2,0:0:0:0:
231,190,141585,1,2,1:2:0:0:
390,19,141772,2,0,L|498:19,1,88.000002685547,10|8,0:2|0:2,0:0:0:0:
222,306,142144,6,0,L|107:308,2,88.000002685547,2|0|8,1:2|1:0|0:2,0:0:0:0:
380,312,142703,2,0,P|367:244|251:196,1,176.000005371094,0|0,1:0|1:0,0:0:0:0:
369,99,143262,1,8,0:0:0:0:
113,90,143449,6,0,P|111:186|178:210,1,176.000005371094,4|0,1:2|1:0,0:0:0:0:
16,317,144008,2,0,L|11:219,1,88.000002685547,8|0,0:2|1:0,0:0:0:0:
266,138,144380,6,0,L|384:136,1,88.000002685547,10|8,0:2|0:2,0:0:0:0:
303,207,144660,1,8,0:2:0:0:
252,213,144753,1,8,0:2:0:0:
505,37,144939,6,0,L|343:112,1,176.000005371094,4|0,1:2|1:0,0:0:0:0:
185,328,145498,1,8,0:2:0:0:
360,329,145871,2,0,L|364:222,1,88.000002685547,0|0,1:0|1:0,0:0:0:0:
275,228,146244,1,8,0:2:0:0:
20,162,146430,6,0,P|18:107|123:46,1,176.000005371094,2|0,1:2|1:0,0:0:0:0:
269,41,146989,2,0,L|270:146,1,88.000002685547,8|0,0:2|1:0,0:0:0:0:
318,126,147269,1,8,0:2:0:0:
365,193,147362,2,0,L|265:192,1,88.000002685547,8|0,1:2|1:0,0:0:0:0:
119,205,147734,2,0,L|105:324,1,88.000002685547,8|2,0:2|0:2,0:0:0:0:
367,334,148107,5,2,1:2:0:0:
453,330,148293,1,2,0:2:0:0:
291,156,148666,2,0,L|228:156,1,44.0000013427735,2|2,0:0|0:0,0:0:0:0:
291,156,148852,2,0,L|409:150,2,88.000002685547,2|0|8,1:2|1:0|0:2,0:0:0:0:
33,332,149411,6,0,P|25:268|127:223,1,176.000005371094,4|0,0:2|1:0,0:0:0:0:
28,150,149970,1,8,0:2:0:0:
284,138,150157,2,0,L|294:250,1,88.000002685547,4|8,1:2|1:2,0:0:0:0:
208,232,150529,1,0,1:0:0:0:
367,334,150716,2,0,L|469:334,1,88.000002685547,10|8,0:2|0:2,0:0:0:0:
196,343,151089,6,0,P|191:297|309:234,1,176.000005371094,2|8,1:2|0:2,0:0:0:0:
443,134,151648,2,0,L|238:122,1,176.000005371094,8|0,0:2|1:0,0:0:0:0:
355,56,152207,1,8,0:2:0:0:
442,52,152393,1,8,0:2:0:0:
187,284,152579,6,0,L|180:181,1,88.000002685547,6|0,1:2|1:0,0:0:0:0:
261,157,152952,1,8,0:2:0:0:
93,150,153138,1,10,0:2:0:0:
358,56,153511,2,0,L|181:60,1,176.000005371094,10|8,0:2|0:2,0:0:0:0:
437,145,154070,6,0,L|444:257,1,88.000002685547,6|4,1:2|0:3,0:0:0:0:
361,234,154443,1,8,0:2:0:0:
202,338,154629,2,0,L|320:337,1,88.000002685547,10|0,1:2|0:0,0:0:0:0:
450,341,155002,2,0,L|460:233,1,88.000002685547,10|8,1:2|0:2,0:0:0:0:
202,238,155374,5,4,0:2:0:0:
256,169,155560,1,2,0:2:0:0:
330,122,155746,1,0,0:0:0:0:
415,102,155933,1,8,0:2:0:0:
160,34,156120,6,0,P|104:71|118:173,1,176.000005371094,6|8,0:2|0:2,0:0:0:0:
135,207,156585,1,8,0:2:0:0:
175,223,156678,1,8,0:2:0:0:
456,339,156865,6,0,P|476:283|444:178,1,160,4|0,0:2|1:0,0:0:0:0:
195,188,157424,1,12,0:2:0:0:
45,191,157797,2,0,L|39:297,1,80,0|0,1:0|1:0,0:0:0:0:
120,266,158169,1,8,0:2:0:0:
282,331,158356,6,0,P|322:307|273:219,1,160,2|0,1:2|1:0,0:0:0:0:
204,219,158915,1,8,0:2:0:0:
475,43,159287,2,0,L|369:45,1,80,10|0,0:2|1:0,0:0:0:0:
473,120,159660,2,0,L|473:234,1,80,8|8,0:2|0:2,0:0:0:0:
217,345,160033,6,0,P|172:303|238:241,1,160,2|8,1:2|0:2,0:0:0:0:
345,23,160685,2,0,L|304:24,1,40,8|8,0:2|0:2,0:0:0:0:
144,27,160964,2,0,L|139:138,1,80,2|10,1:2|0:2,0:0:0:0:
399,123,161337,6,0,P|449:177|387:233,1,160,2|2,1:2|1:2,0:0:0:0:
321,236,161896,1,10,0:2:0:0:
400,234,162082,1,10,1:2:0:0:
240,332,162269,6,0,L|163:332,2,53.3333333333333,10|2|2,1:2|0:2|0:2,0:0:0:0:
304,269,162641,2,0,L|381:268,2,53.3333333333333,10|2|2,0:2|0:2|0:2,0:0:0:0:
116,21,163014,6,0,P|84:70|164:133,1,160,6|8,1:2|0:2,0:0:0:0:
304,292,163759,2,0,L|407:292,1,80,10|0,1:2|1:0,0:0:0:0:
304,292,164132,2,0,L|205:289,1,80,8|2,0:2|1:2,0:0:0:0:
385,344,164505,6,0,L|395:243,1,80,2|0,2:0|0:0,0:0:0:0:
311,215,164877,2,0,L|412:210,1,80,10|10,0:2|2:0,0:0:0:0:
229,30,165250,2,0,L|127:25,1,80,10|0,0:2|1:2,0:0:0:0:
309,128,165623,2,0,L|316:223,1,80,10|8,0:2|0:2,0:0:0:0:
58,344,165995,6,0,L|46:252,1,80,2|2,1:2|1:2,0:0:0:0:
120,240,166368,1,10,0:2:0:0:
279,216,166554,2,0,P|257:176|152:109,1,160,2|10,1:2|0:2,0:0:0:0:
85,106,167113,1,10,0:2:0:0:
364,29,167300,6,0,P|415:72|347:127,1,160,6|2,1:2|1:2,0:0:0:0:
284,136,167859,2,0,L|395:134,1,80,10|2,0:2|1:2,0:0:0:0:
204,132,168231,5,8,0:2:0:0:
122,133,168418,2,0,L|105:199,2,40,8|8|8,0:2|0:2|1:2,0:0:0:0:
204,132,168790,1,4,0:3:0:0:
463,134,168977,6,0,L|364:219,2,120,2|0|0,1:2|0:0|0:0,0:0:0:0:
384,337,169722,2,0,L|253:314,2,120,0|0|0,1:0|0:0|0:0,0:0:0:0:
224,341,170467,6,0,P|222:287|291:235,1,120,2|0,1:2|0:0,0:0:0:0:
373,222,171026,1,0,0:0:0:0:
213,121,171213,2,0,L|66:121,2,120,2|2|2,1:2|0:0|0:2,0:0:0:0:
373,138,171958,6,0,P|434:157|440:270,1,160,2|0,1:2|1:2,0:0:0:0:
376,296,172517,2,0,L|193:297,1,160,2|2,0:2|0:2,0:0:0:0:
488,30,173262,6,0,L|297:27,1,160,2|2,0:2|0:2,0:0:0:0:
409,93,173821,1,2,1:2:0:0:
491,89,174008,1,2,0:2:0:0:
219,252,174380,2,0,L|320:251,2,80,8|8|8,1:2|1:2|1:2,0:0:0:0:
475,348,174939,6,0,L|481:174,1,160,6|8,1:2|0:2,0:0:0:0:
316,210,175685,2,0,L|313:105,1,80,2|2,1:2|1:2,0:0:0:0:
394,103,176057,1,10,0:2:0:0:
231,96,176244,6,0,L|130:96,1,80,2|0,1:2|0:0,0:0:0:0:
70,171,176616,2,0,L|181:168,1,80,0|8,1:0|0:2,0:0:0:0:
408,157,176989,2,0,L|414:339,1,160,6|8,1:3|0:2,0:0:0:0:
334,308,177548,1,10,0:2:0:0:
53,344,177734,6,0,L|48:242,1,80,6|0,1:2|0:0,0:0:0:0:
129,221,178107,2,0,L|229:219,1,80,0|8,1:0|0:2,0:0:0:0:
370,213,178480,2,0,L|374:109,1,80,8|10,0:2|0:3,0:0:0:0:
213,76,178852,2,0,L|152:75,2,40,0|0|0,1:0|1:0|1:0,0:0:0:0:
493,66,179225,6,0,P|503:130|421:165,1,160,6|8,1:2|0:3,0:0:0:0:
383,168,179691,1,8,0:3:0:0:
339,229,179784,2,0,L|451:231,1,80,8|2,0:2|0:2,0:0:0:0:
259,335,180157,1,10,1:2:0:0:
419,336,180343,1,10,1:2:0:0:
419,336,180529,1,0,1:0:0:0:
136,255,180716,6,0,P|92:223|159:147,1,176.000005371094,14|0,1:2|1:0,0:0:0:0:
311,130,181275,1,8,0:2:0:0:
138,342,181648,2,0,L|246:340,2,88.000002685547,0|0|8,1:0|1:0|0:2,0:0:0:0:
396,271,182207,6,0,P|376:195|270:144,1,176.000005371094,2|0,1:2|1:0,0:0:0:0:
137,36,182766,2,0,L|124:144,1,88.000002685547,8|8,0:2|3:2,0:0:0:0:
172,118,183045,1,8,0:2:0:0:
216,119,183138,2,0,L|315:120,1,88.000002685547,8|0,1:2|1:0,0:0:0:0:
144,267,183511,2,0,L|136:166,1,88.000002685547,8|8,0:2|0:2,0:0:0:0:
393,40,183884,6,0,P|440:56|454:178,1,176.000005371094,6|8,1:2|0:2,0:0:0:0:
195,311,184629,1,8,0:2:0:0:
282,308,184815,1,0,1:0:0:0:
369,301,185002,1,8,0:2:0:0:
210,223,185188,6,0,L|22:216,1,176.000005371094,2|0,1:2|1:0,0:0:0:0:
194,56,185747,1,8,0:2:0:0:
277,55,185933,2,0,L|357:56,2,44.0000013427735,0|8|8,1:0|0:2|1:2,0:0:0:0:
194,56,186306,1,0,1:0:0:0:
36,299,186492,2,0,L|138:295,1,88.000002685547,8|0,0:2|1:0,0:0:0:0:
375,294,186865,6,0,L|389:201,1,88.000002685547,2|0,1:2|0:0,0:0:0:0:
229,165,187238,1,8,0:2:0:0:
71,39,187610,2,0,L|202:39,2,88.000002685547,8|0|8,1:2|1:0|0:2,0:0:0:0:
330,135,188169,6,0,P|385:162|314:236,1,176.000005371094,2|2,1:2|1:2,0:0:0:0:
256,241,188728,1,10,0:2:0:0:
416,345,188915,2,0,L|422:254,1,88.000002685547,10|8,1:2|1:2,0:0:0:0:
333,247,189287,1,2,1:2:0:0:
172,222,189474,2,0,L|168:125,1,88.000002685547,10|8,0:2|0:2,0:0:0:0:
421,45,189846,6,0,L|518:38,2,88.000002685547,2|0|8,1:2|1:0|0:2,0:0:0:0:
260,201,190405,2,0,L|449:210,1,176.000005371094,0|0,1:0|1:0,0:0:0:0:
348,132,190964,1,8,0:0:0:0:
93,27,191151,6,0,P|42:51|62:170,1,176.000005371094,4|0,1:2|1:0,0:0:0:0:
203,250,191710,2,0,L|84:250,1,88.000002685547,8|0,0:2|1:0,0:0:0:0:
371,352,192082,6,0,L|487:350,1,88.000002685547,10|8,0:2|0:2,0:0:0:0:
478,313,192362,1,8,0:2:0:0:
453,279,192455,1,8,0:2:0:0:
198,179,192641,6,0,L|393:103,1,176.000005371094,4|0,1:2|1:0,0:0:0:0:
201,52,193200,1,8,0:2:0:0:
28,330,193573,2,0,L|156:336,2,88.000002685547,0|0|8,1:0|1:0|0:2,0:0:0:0:
284,330,194132,6,0,P|324:295|264:200,1,176.000005371094,2|0,1:2|1:0,0:0:0:0:
117,195,194691,2,0,L|106:95,1,88.000002685547,8|0,0:2|1:0,0:0:0:0:
154,77,194970,1,8,0:2:0:0:
200,31,195064,2,0,L|208:126,1,88.000002685547,8|0,1:2|1:0,0:0:0:0:
49,313,195436,2,0,L|155:311,1,88.000002685547,8|2,0:2|0:2,0:0:0:0:
393,307,195809,5,2,1:2:0:0:
480,303,195995,1,2,0:2:0:0:
315,190,196368,2,0,L|258:190,1,44.0000013427735,2|2,0:0|0:0,0:0:0:0:
315,190,196554,2,0,L|415:192,2,88.000002685547,2|0|8,1:2|1:0|0:2,0:0:0:0:
59,27,197113,6,0,L|42:211,1,176.000005371094,4|0,0:2|1:0,0:0:0:0:
128,194,197672,1,8,0:2:0:0:
386,338,197859,2,0,L|393:239,1,88.000002685547,4|8,1:2|1:2,0:0:0:0:
306,238,198231,1,0,1:0:0:0:
146,122,198418,2,0,L|251:122,1,88.000002685547,10|8,0:2|0:2,0:0:0:0:
487,44,198790,6,0,L|502:236,1,176.000005371094,2|8,1:2|0:2,0:0:0:0:
342,333,199349,2,0,L|339:155,1,176.000005371094,8|0,0:2|1:0,0:0:0:0:
428,93,199908,1,8,0:2:0:0:
340,90,200095,1,8,0:2:0:0:
87,291,200281,6,0,L|-5:292,2,88.000002685547,6|0|8,1:2|1:0|0:2,0:0:0:0:
255,286,200840,1,10,0:2:0:0:
10,67,201213,2,0,L|205:68,1,176.000005371094,10|8,0:2|0:2,0:0:0:0:
447,222,201772,6,0,L|349:278,2,88.000002685547,14|4|8,1:2|0:3|0:2,0:0:0:0:
287,347,202331,2,0,L|281:251,1,88.000002685547,10|0,1:2|1:0,0:0:0:0:
440,156,202703,2,0,L|346:156,1,88.000002685547,10|8,1:2|0:2,0:0:0:0:
96,342,203076,5,4,1:2:0:0:
144,269,203262,1,2,1:2:0:0:
215,217,203448,1,0,1:0:0:0:
299,193,203635,1,8,0:2:0:0:
44,25,203821,6,0,L|35:208,1,176.000005371094,6|8,0:2|0:2,0:0:0:0:
71,225,204287,1,8,0:2:0:0:
113,239,204380,1,8,1:2:0:0:
25,334,204567,1,0,1:0:0:0:
281,56,204753,5,14,1:2:0:0:
369,58,204939,2,0,L|384:110,2,44.0000013427735,10|10|10,0:2|0:2|0:2,0:0:0:0:
210,256,205312,2,0,L|109:259,1,88.000002685547,10|0,1:2|0:0,0:0:0:0:
281,156,205685,2,0,L|394:150,1,88.000002685547,10|0,1:2|1:0,0:0:0:0:
114,358,206057,6,0,L|104:261,1,88.000002685547,14|2,1:2|0:2,0:0:0:0:
194,213,206430,1,0,1:0:0:0:
97,142,206616,1,10,3:2:0:0:
378,30,206803,5,14,1:2:0:0:
256,192,206989,12,0,208293,0:0:0:0:
204,237,208666,6,0,L|113:238,1,80,8|8,0:0|0:0,0:0:0:0:
398,304,209225,5,6,1:2:0:0:
475,261,209411,1,2,0:2:0:0:
472,184,209597,1,2,0:2:0:0:
393,140,209784,1,2,0:2:0:0:
123,136,210157,1,2,3:2:0:0:
123,136,210529,1,2,0:2:0:0:
285,131,210716,5,8,0:2:0:0:
284,209,210902,1,2,0:2:0:0:
210,210,211088,1,2,0:2:0:0:
371,332,211275,1,2,3:2:0:0:
225,328,211648,2,0,L|338:327,1,80,8|8,0:3|0:3,0:0:0:0:
48,78,212020,5,6,1:2:0:0:
244,79,212579,2,0,L|83:79,1,160,2|2,1:2|1:2,0:0:0:0:
84,79,213325,1,2,1:2:0:0:
244,79,213511,2,0,L|351:78,1,80,2|0,0:2|1:0,0:0:0:0:
323,78,213884,1,0,0:0:0:0:
163,286,214070,5,0,1:0:0:0:
82,288,214256,2,0,L|72:223,2,40,0|2|0,1:0|0:2|1:0,0:0:0:0:
243,132,214629,2,0,L|156:132,1,80,8|8,0:3|0:3,0:0:0:0:
444,36,215002,5,14,1:2:0:0:
256,192,215188,12,0,219660,0:0:0:0:
