osu file format v14

[General]
AudioFilename: audio.mp3
AudioLeadIn: 0
PreviewTime: -1
Countdown: 1
SampleSet: Normal
StackLeniency: 0.7
Mode: 0
LetterboxInBreaks: 0
WidescreenStoryboard: 1

[Editor]
DistanceSpacing: 1.03
BeatDivisor: 4
GridSize: 4
TimelineZoom: 1

[Metadata]
Title:Laid-Back Camp - Official Ending
TitleUnicode:Yuru Camp△ ED 「Furu Biyori」 (TV SIZE)
Artist:Eri Sasaki
ArtistUnicode:Eri Sasaki
Creator:x-pedda
Version:Laid Back
Source:Yuru Camp△
Tags:Yuru Camp Furu Biyori Ending
BeatmapID:1702878
BeatmapSetID:811853

[Difficulty]
HPDrainRate:4
CircleSize:4
OverallDifficulty:3
ApproachRate:6
SliderMultiplier:1.60000000596046
SliderTickRate:1

[Events]
//Background and Video events
Video,0,"Untitled.mp4"
0,0,"Yuru.Camp.600.2255557.jpg",0,0
//Break Periods
//Storyboard Layer 0 (Background)
//Storyboard Layer 1 (Fail)
//Storyboard Layer 2 (Pass)
//Storyboard Layer 3 (Foreground)
//Storyboard Sound Samples

[TimingPoints]
9716,406.779661016949,4,1,0,100,1,0

[Colours]
Combo1 : 74,134,255
Combo2 : 158,138,229
Combo3 : 253,255,255
Combo4 : 106,234,124

[HitObjects]
124,169,9716,6,0,B|111:192|186:67,4,120.000000447034
114,226,11241,1,0,0:0:0:0:
166,324,11851,2,0,P|329:312|491:148,1,400.000001490115,0|0,0:3|0:3,0:3:0:0:
412,99,13275,1,0,0:0:0:0:
256,43,13682,1,0,0:0:0:0:
100,97,13987,1,0,0:0:0:0:
122,218,14292,1,0,0:0:0:0:
299,313,14800,1,0,0:0:0:0:
187,301,15410,5,0,0:0:0:0:
127,207,15817,1,0,0:0:0:0:
164,101,16224,1,0,0:0:0:0:
269,63,16529,1,0,0:0:0:0:
364,122,16732,1,0,0:0:0:0:
378,234,17038,1,0,0:0:0:0:
152,229,17648,1,0,0:0:0:0:
300,177,17953,1,0,0:0:0:0:
193,111,18360,1,0,0:0:0:0:
349,52,18665,1,0,0:0:0:0:
428,200,19071,1,0,0:0:0:0:
159,51,19478,6,0,L|83:194,1,160.000000596046
81,190,20088,2,0,L|199:299,1,160.000000596046
201,301,21105,2,0,L|445:296,1,240.000000894069
441,297,22224,2,0,L|440:62,1,200.000000745057
313,47,23038,5,0,0:0:0:0:
111,55,23648,1,0,0:0:0:0:
52,202,24156,1,0,0:0:0:0:
83,292,24563,1,0,0:0:0:0:
186,233,24868,1,0,0:0:0:0:
269,312,25173,1,4,0:0:0:0:
430,60,26292,6,0,P|229:42|17:146,1,440.000001639126
103,258,28122,1,0,0:0:0:0:
163,320,28427,1,0,0:0:0:0:
360,216,28834,1,0,0:0:0:0:
340,82,29241,1,0,0:0:0:0:
340,82,29546,1,0,0:0:0:0:
411,64,30360,6,0,L|240:59,1,160.000000596046
105,107,31071,1,0,0:0:0:0:
112,232,31478,1,0,0:0:0:0:
112,232,31783,1,0,0:0:0:0:
223,334,32088,1,0,0:0:0:0:
379,249,32495,1,0,0:0:0:0:
441,128,32902,2,0,P|314:65|158:46,1,280.00000104308
61,139,33919,1,0,0:0:0:0:
92,73,35038,5,0,0:0:0:0:
241,311,35546,1,0,0:0:0:0:
425,92,36156,1,0,0:0:0:0:
79,64,36970,5,0,0:0:0:0:
124,242,37275,1,0,0:0:0:0:
256,326,37580,1,0,0:0:0:0:
387,241,37987,1,0,0:0:0:0:
434,65,38292,1,0,0:0:0:0:
103,216,39410,5,0,0:0:0:0:
254,312,39817,1,0,0:0:0:0:
437,238,40224,1,0,0:0:0:0:
390,66,40529,1,0,0:0:0:0:
105,57,41038,1,0,0:0:0:0:
256,192,41648,12,0,45004,0:0:0:0:
66,83,45919,5,0,0:0:0:0:
101,200,46326,1,0,0:0:0:0:
211,98,46732,1,0,0:0:0:0:
299,96,47038,1,0,0:0:0:0:
364,204,47444,1,0,0:0:0:0:
215,295,47851,1,0,0:0:0:0:
86,194,48156,2,0,P|245:73|442:122,1,400.000001490115
74,87,49987,5,0,0:0:0:0:
201,43,50292,1,0,0:0:0:0:
319,48,50699,1,0,0:0:0:0:
445,113,51105,1,0,0:0:0:0:
425,258,51410,1,0,0:0:0:0:
305,325,51817,1,0,0:0:0:0:
144,322,52224,1,0,0:0:0:0:
47,177,52529,2,0,L|270:167,1,200.000000745057
76,98,53648,6,0,L|283:93,1,200.000000745057
456,96,54665,2,0,L|377:277,2,160.000000596046
316,147,55783,1,0,0:0:0:0:
69,176,56800,1,0,0:0:0:0:
103,246,57207,1,0,0:0:0:0:
233,276,57614,1,0,0:0:0:0:
368,270,57919,1,0,0:0:0:0:
430,281,58936,5,0,0:0:0:0:
429,179,59444,1,0,0:0:0:0:
434,68,59851,1,0,0:0:0:0:
277,59,60563,2,0,L|278:346,3,280.00000104308
141,53,63410,5,0,0:0:0:0:
91,192,63919,1,0,0:0:0:0:
175,291,64427,1,0,0:0:0:0:
310,317,64936,1,0,0:0:0:0:
436,227,65546,1,0,0:0:0:0:
430,79,66054,1,0,0:0:0:0:
306,46,66665,1,0,0:0:0:0:
138,55,67173,1,0,0:0:0:0:
54,159,67783,1,0,0:0:0:0:
114,312,68292,1,0,0:0:0:0:
310,311,68800,1,0,0:0:0:0:
406,207,69309,1,0,0:0:0:0:
311,106,69919,1,0,0:0:0:0:
197,104,70427,1,0,0:0:0:0:
154,218,70936,2,0,P|189:258|325:245,1,200.000000745057
355,155,72054,5,0,0:0:0:0:
271,107,72563,1,0,0:0:0:0:
192,138,72868,1,0,0:0:0:0:
182,225,73173,1,0,0:0:0:0:
264,271,74292,5,0,0:0:0:0:
353,203,74699,1,0,0:0:0:0:
306,106,75105,1,0,0:0:0:0:
200,107,75410,1,0,0:0:0:0:
198,177,76427,5,0,0:0:0:0:
241,238,76834,1,0,0:0:0:0:
309,217,77241,1,0,0:0:0:0:
309,150,77546,1,0,0:0:0:0:
250,170,78054,1,0,0:0:0:0:
212,170,78665,2,0,P|473:186|264:86,1,720.000002682207
64,69,80902,5,0,0:0:0:0:
168,69,81309,1,0,0:0:0:0:
64,188,81614,1,0,0:0:0:0:
172,189,81919,1,0,0:0:0:0:
274,188,82224,1,0,0:0:0:0:
365,187,82529,1,0,0:0:0:0:
459,186,82834,1,0,0:0:0:0:
448,315,83038,5,0,0:0:0:0:
344,315,83445,1,0,0:0:0:0:
448,196,83749,1,0,0:0:0:0:
340,195,84055,1,0,0:0:0:0:
238,196,84360,1,0,0:0:0:0:
147,197,84665,1,0,0:0:0:0:
53,198,84970,1,0,0:0:0:0:
262,328,85377,5,0,0:0:0:0:
386,251,85580,1,0,0:0:0:0:
403,229,85783,1,0,0:0:0:0:
417,202,85987,1,0,0:0:0:0:
421,177,86190,1,0,0:0:0:0:
424,152,86393,1,0,0:0:0:0:
422,123,86699,1,0,0:0:0:0:
417,97,86800,1,0,0:0:0:0:
399,58,87004,1,0,0:0:0:0:
257,186,87614,2,0,L|71:68,1,200.000000745057,0|4,0:0|0:0,0:0:0:0:
