osu file format v14

[General]
AudioFilename: audio.mp3
AudioLeadIn: 0
PreviewTime: 52275
Countdown: 0
SampleSet: Soft
StackLeniency: 1
Mode: 0
LetterboxInBreaks: 0
WidescreenStoryboard: 1

[Editor]
DistanceSpacing: 1
BeatDivisor: 4
GridSize: 4
TimelineZoom: 2

[Metadata]
Title:GATE OF STEINER
TitleUnicode:GATE OF STEINER
Artist:Eri Sasaki
ArtistUnicode:Eri Sasaki
Creator:deetz
Version:1.129848%
Source:Steins;Gate 0
Tags:
BeatmapID:1368808
BeatmapSetID:645978

[Difficulty]
HPDrainRate:5
CircleSize:4
OverallDifficulty:8
ApproachRate:9
SliderMultiplier:1.59999990463257
SliderTickRate:1

[Events]
//Background and Video events
0,0,"EV_SP01.png",0,0
//Break Periods
//Storyboard Layer 0 (Background)
//Storyboard Layer 1 (Fail)
//Storyboard Layer 2 (Pass)
//Storyboard Layer 3 (Foreground)
//Storyboard Sound Samples

[TimingPoints]
789,405.405405405405,4,2,1,20,1,0
789,-133.333333333333,4,2,1,25,0,0
12951,-133.333333333333,4,2,1,35,0,0
13761,-100,4,2,1,50,0,0
26734,-200,4,2,1,25,0,0
39707,-133.333333333333,4,2,1,35,0,0
50653,-105.263157894737,4,2,1,50,0,0
51059,-83.3333333333333,4,2,2,60,0,0
52680,-66.6666666666667,4,2,2,70,0,0
77005,-100,4,2,1,70,0,0
77816,-100,4,2,1,70,0,0
78221,-133.333333333333,4,2,1,70,0,0
78626,-80,4,2,2,70,0,1
89167,-80,4,2,1,70,0,0
89775,-66.6666666666667,4,2,1,70,0,0
90383,-57.1428571428571,4,2,1,70,0,0
96870,-83.3333333333333,4,2,1,70,0,0
101329,-200,4,2,1,20,0,0
114302,-133.333333333333,4,2,2,70,0,0
127275,-83.3333333333333,4,2,2,70,0,1
152410,-66.6666666666667,4,2,2,70,0,1
153221,-133.333333333333,4,2,1,70,0,0

[Colours]
Combo1 : 255,255,0
Combo2 : 128,128,128
Combo3 : 0,128,0

[HitObjects]
53,13,789,6,0,P|75:33|97:53,1,59.9999987125396,8|0,0:0|0:0,0:0:0:0:
128,128,1194,1,0,0:0:0:0:
128,128,1599,2,0,L|248:100,1,119.999997425079,8|0,0:0|0:0,0:0:0:0:
244,100,2410,5,8,0:0:0:0:
367,162,2613,2,0,L|247:190,1,119.999997425079
256,267,3221,1,8,0:0:0:0:
260,271,4032,5,8,0:0:0:0:
260,271,4437,2,0,P|286:294|319:316,1,59.9999987125396
214,177,4843,2,0,P|183:235|147:295,1,119.999997425079,8|0,0:0|0:0,0:0:0:0:
155,281,5653,5,8,0:0:0:0:
306,308,5856,2,0,P|367:296|442:288,1,119.999997425079
512,193,6464,1,8,0:0:0:0:
512,193,6667,2,0,P|451:205|376:213,1,119.999997425079
492,346,7275,5,8,0:0:0:0:
431,65,7680,2,0,L|440:125,1,59.9999987125396
393,211,8086,2,0,P|341:196|261:185,1,119.999997425079,8|0,0:0|0:0,0:0:0:0:
275,186,8694,1,0,0:0:0:0:
132,106,8897,5,8,0:0:0:0:
196,216,9099,2,0,P|207:267|221:352,1,119.999997425079
142,352,9707,5,8,0:0:0:0:
142,352,9910,1,0,0:0:0:0:
142,352,10113,2,0,P|108:362|82:367,1,59.9999987125396
56,260,10518,5,8,0:0:0:0:
256,304,10924,2,0,L|256:234,1,59.9999987125396
456,124,11329,5,8,0:0:0:0:
256,140,11735,2,0,L|256:80,1,59.9999987125396
199,28,12140,5,8,0:0:0:0:
351,109,12343,2,0,P|330:164|316:247,1,119.999997425079
344,297,12951,5,8,0:3:0:0:
167,180,13153,1,4,0:3:0:0:
183,316,13356,5,4,0:3:0:0:
248,266,13559,1,4,0:3:0:0:
110,116,13761,5,4,0:0:0:0:
45,296,13964,2,0,P|100:262|188:209,1,159.999990463257,8|4,0:3|0:3,0:0:0:0:
172,25,14572,2,0,P|210:97|251:171,1,159.999990463257,4|4,0:0|0:3,0:0:0:0:
246,333,15180,2,0,P|260:289|273:255,1,79.9999952316283,8|4,0:3|0:0,0:0:0:0:
343,188,15586,1,4,0:3:0:0:
343,188,15788,1,4,0:3:0:0:
343,188,16194,1,4,0:0:0:0:
343,188,17005,5,4,0:0:0:0:
484,287,17207,2,0,P|432:281|321:269,1,159.999990463257,8|4,0:3|0:3,0:0:0:0:
228,52,17816,2,8,P|240:131|252:210,1,159.999990463257,4|4,0:0|0:3,0:0:0:0:
191,384,18424,2,0,P|192:339|195:285,1,79.9999952316283,8|4,0:3|0:0,0:0:0:0:
136,207,18829,1,8,0:3:0:0:
136,207,19032,1,4,0:3:0:0:
136,207,19437,1,4,0:0:0:0:
136,207,19640,1,4,0:3:0:0:
136,207,20248,5,8,0:3:0:0:
95,119,20451,1,2,0:0:0:0:
180,76,20653,1,2,0:0:0:0:
221,164,20856,1,10,0:3:0:0:
405,343,21464,5,8,0:3:0:0:
438,270,21667,1,4,0:3:0:0:
333,306,21870,1,4,0:3:0:0:
366,233,22072,2,0,B|368:194|370:166|360:53,1,159.999990463257,8|0,0:3|0:0,0:0:0:0:
455,23,22680,2,0,B|446:116|449:143|451:182,1,159.999990463257,10|0,0:3|0:0,0:0:0:0:
494,250,23288,1,8,0:3:0:0:
256,192,23491,12,4,25113,0:1:0:0:
256,192,25214,12,2,26734,0:0:0:0:
222,74,27343,5,2,0:0:0:0:
222,74,27951,2,0,P|282:79|309:83,1,79.9999952316285
355,21,28559,2,0,P|326:82|292:174,1,159.999990463257,0|2,0:0|0:0,0:0:0:0:
340,233,29572,1,2,0:0:0:0:
257,347,29775,1,2,0:0:0:0:
133,272,29978,6,0,P|77:281|38:285,1,79.9999952316285,2|0,0:0|0:0,0:0:0:0:
34,365,30586,2,0,P|90:356|129:352,1,79.9999952316285,2|0,0:0|0:0,0:0:0:0:
193,363,31194,2,0,P|187:323|182:283,1,79.9999952316285
238,225,31802,2,0,P|246:197|164:101,1,159.999990463257,0|2,0:0|0:0,0:0:0:0:
102,137,32816,1,2,0:0:0:0:
7,27,33018,1,2,0:0:0:0:
102,137,33221,6,0,B|85:207|129:178|111:258,1,119.999992847443,2|0,0:0|0:0,0:0:0:0:
351,174,34234,1,2,0:0:0:0:
222,241,34437,1,2,0:0:0:0:
351,174,34640,1,2,0:0:0:0:
222,241,34843,6,0,B|239:311|195:282|213:362,1,119.999992847443,2|2,0:0|0:0,0:0:0:0:
508,267,35856,5,2,0:0:0:0:
386,336,36059,1,2,0:0:0:0:
271,255,36262,1,2,0:0:0:0:
391,184,36464,5,2,0:0:0:0:
428,263,36667,2,0,P|384:259|336:257,1,79.9999952316285
402,19,37478,1,0,0:0:0:0:
455,78,37680,1,0,0:0:0:0:
392,127,37883,1,0,0:0:0:0:
269,67,38086,5,0,0:0:0:0:
199,106,38288,2,0,P|148:110|144:110,1,39.9999976158142
61,69,38694,2,0,P|73:107|86:162,1,79.9999952316285
144,192,39302,2,0,L|137:232,1,39.9999976158142
59,360,39707,5,4,0:0:0:0:
59,360,40316,1,2,0:0:0:0:
59,360,40924,2,0,P|93:355|126:354,1,59.9999987125397,2|0,0:0|0:0,0:0:0:0:
272,251,41329,5,0,0:0:0:0:
200,379,41532,1,2,0:0:0:0:
200,379,41937,2,0,P|197:330|188:253,1,119.999997425079,2|0,0:0|0:0,0:0:0:0:
219,174,42545,2,0,P|224:132|230:97,1,59.9999987125397,2|2,0:0|0:0,0:0:0:0:
11,141,42951,6,0,P|63:148|141:160,1,119.999997425079,6|0,0:0|0:0,0:0:0:0:
212,37,43559,1,2,0:0:0:0:
212,37,43964,2,0,P|152:46|130:49,2,59.9999987125397,0|2|2,0:0|0:0|0:0,0:0:0:0:
187,210,44572,5,0,0:0:0:0:
11,141,44775,1,2,0:0:0:0:
11,141,45180,2,0,P|63:148|141:160,1,119.999997425079,2|0,0:0|0:0,0:0:0:0:
243,267,45788,2,0,P|281:258|313:253,1,59.9999987125397,2|0,0:0|0:0,0:0:0:0:
408,52,46194,5,8,0:0:0:0:
346,118,46397,5,0,0:0:0:0:
400,192,46599,1,0,0:0:0:0:
455,262,46802,1,0,0:0:0:0:
408,332,47005,5,8,0:0:0:0:
256,260,47207,6,0,L|256:192,2,59.9999987125397
104,332,47816,5,8,0:0:0:0:
59,254,48018,6,0,L|132:210,1,59.9999987125397
138,136,48424,1,0,0:0:0:0:
104,52,48626,5,8,0:0:0:0:
256,124,48829,6,0,L|256:192,2,59.9999987125397
256,16,49437,5,4,0:3:0:0:
256,16,50045,1,4,0:3:0:0:
322,181,50248,2,0,P|362:189|398:196,1,59.9999987125397,8|4,0:3|0:3,0:0:0:0:
263,311,50653,2,0,P|215:297|128:285,1,113.999990160942,4|0,0:3|0:0,0:0:0:0:
151,286,51059,5,4,0:3:0:0:
190,99,51261,6,0,P|169:56|128:32,1,95.9999913482669,8|0,0:0|0:0,0:0:0:0:
107,119,51667,1,0,0:0:0:0:
24,132,51870,2,0,P|44:174|85:198,1,95.9999913482669,8|0,0:0|0:0,0:0:0:0:
99,210,52174,1,0,0:0:0:0:
104,228,52275,1,0,0:0:0:0:
104,247,52376,1,0,0:0:0:0:
97,265,52478,1,0,0:0:0:0:
87,281,52579,1,0,0:0:0:0:
62,287,52680,6,0,P|152:299|318:328,1,239.999994850159,4|0,0:1|0:0,0:0:0:0:
455,171,53288,1,4,0:3:0:0:
455,171,53897,2,0,P|396:161|332:150,1,119.999997425079,8|0,0:3|0:3,0:3:0:0:
159,11,54302,6,0,B|147:157|271:58|248:235,1,239.999994850159,4|0,0:3|0:3,0:0:0:0:
60,384,54910,2,0,B|39:227|163:326|151:180,1,239.999994850159,4|0,0:3|0:3,0:0:0:0:
159,11,55518,5,8,0:3:0:0:
56,0,55721,1,0,0:3:0:0:
0,86,55924,2,0,P|88:106|140:278,1,239.999994850159,4|0,0:3|0:0,0:0:0:0:
268,212,56532,2,0,P|226:320|116:357,1,239.999994850159,4|0,0:3|0:0,0:0:0:0:
13,295,57140,2,0,P|14:214|50:172,1,119.999997425079,8|0,0:3|0:0,0:0:0:0:
90,284,57545,5,4,0:3:0:0:
6,111,57748,2,0,P|89:83|227:149,1,239.999994850159,0|8,0:0|0:3,0:0:0:0:
222,142,58559,1,4,0:3:0:0:
256,356,58761,1,4,0:3:0:0:
256,356,59167,6,0,P|352:338|451:313,1,179.999996137619,4|0,0:3|0:0,0:0:0:0:
431,317,59572,1,0,0:0:0:0:
419,64,59775,2,0,P|344:94|328:257,1,239.999994850159,4|0,0:3|0:0,0:0:0:0:
499,258,60383,2,0,P|521:188|506:129,1,119.999997425079,8|0,0:3|0:0,0:0:0:0:
190,177,60788,6,0,B|182:334|300:226|285:390,1,239.999994850159,4|0,0:3|0:0,0:0:0:0:
122,381,61397,1,4,0:3:0:0:
473,21,61802,5,4,0:3:0:0:
340,156,62005,1,8,0:3:0:0:
411,332,62207,1,8,0:3:0:0:
429,248,62410,5,4,0:3:0:0:
279,316,62613,1,0,0:0:0:0:
279,316,62816,1,0,0:0:0:0:
195,316,63018,2,0,P|192:191|195:76,1,239.999994850159,4|0,0:3|0:0,0:0:0:0:
301,21,63626,5,8,0:3:0:0:
167,168,63829,1,8,0:3:0:0:
32,13,64032,1,4,0:3:0:0:
32,13,64437,1,4,0:3:0:0:
98,107,64640,5,0,3:0:0:0:
83,132,64741,1,0,3:0:0:0:
76,162,64842,1,0,3:0:0:0:
80,191,64944,1,0,3:0:0:0:
93,218,65045,1,0,3:0:0:0:
104,244,65147,1,0,3:0:0:0:
108,273,65249,1,0,3:0:0:0:
102,303,65350,1,0,3:0:0:0:
87,329,65451,2,0,P|39:338|10:334,1,59.9999987125397,0|0,3:0|3:0,3:0:0:0:
12,134,65653,6,0,P|99:152|198:284,1,239.999994850159,4|0,0:1|0:0,0:0:0:0:
341,362,66261,1,4,0:3:0:0:
341,362,66870,2,0,P|282:368|226:330,1,119.999997425079,8|0,0:3|0:0,0:0:0:0:
188,94,67275,6,0,B|357:88|243:181|429:166,1,239.999994850159,4|0,0:3|0:0,0:0:0:0:
500,235,67883,2,0,B|331:229|445:322|259:307,1,239.999994850159,4|0,0:3|0:0,0:0:0:0:
5,262,68491,1,8,0:3:0:0:
74,312,68694,1,0,0:0:0:0:
152,345,68897,6,0,P|156:260|159:93,1,239.999994850159,4|0,0:3|0:0,0:0:0:0:
255,23,69505,2,0,P|251:108|248:275,1,239.999994850159,4|0,0:3|0:0,0:0:0:0:
293,333,70113,2,0,P|366:335|438:336,1,119.999997425079,8|0,0:3|0:0,0:0:0:0:
170,258,70518,5,4,0:3:0:0:
463,264,70721,2,0,P|392:246|340:98,1,239.999994850159,0|8,0:0|0:3,0:0:0:0:
338,101,71532,1,8,0:3:0:0:
419,79,71735,1,4,0:3:0:0:
441,159,71937,1,4,0:3:0:0:
285,248,72140,6,0,P|205:238|106:236,1,179.999996137619,4|0,0:0|0:0,0:0:0:0:
105,236,72545,1,0,0:0:0:0:
79,87,72748,2,0,P|137:96|181:139,1,119.999997425079,8|0,0:3|0:0,0:0:0:0:
154,334,73153,2,0,P|111:374|52:384,1,119.999997425079,4|0,0:3|0:0,0:0:0:0:
15,123,73559,5,4,0:3:0:0:
225,229,73761,1,8,0:0:0:0:
28,279,73964,2,0,B|-8:150|93:201|57:40,1,239.999994850159,4|0,0:3|0:0,0:0:0:0:
0,3,74572,1,4,0:3:0:0:
143,224,74775,1,4,0:3:0:0:
171,122,74978,2,0,P|224:104|369:49,1,179.999996137619,8|0,0:3|0:0,0:0:0:0:
340,60,75383,5,4,0:0:0:0:
240,210,75586,1,4,0:3:0:0:
364,338,75788,1,4,0:3:0:0:
428,109,75991,5,4,0:3:0:0:
432,79,76092,1,4,0:3:0:0:
437,49,76193,1,4,0:0:0:0:
275,130,76397,1,4,0:3:0:0:
298,307,76599,1,4,0:3:0:0:
475,340,76802,1,4,0:3:0:0:
475,340,77005,2,0,B|332:321|402:408|234:382,1,239.999985694885,4|0,0:1|0:0,0:0:0:0:
185,342,77816,6,0,L|171:288,3,39.9999976158142,2|2|2|2,0:3|0:3|0:3|0:3,0:3:0:0:
224,238,78221,6,0,L|236:191,3,29.9999993562698,0|0|0|0,3:0|3:0|3:0|3:0,3:0:0:0:
170,148,78626,5,4,0:0:0:0:
181,101,78727,1,0,0:0:0:0:
222,74,78828,1,0,0:0:0:0:
270,80,78930,1,0,0:0:0:0:
300,121,79032,1,0,0:0:0:0:
347,127,79134,1,0,0:0:0:0:
388,99,79235,1,0,0:0:0:0:
400,52,79336,1,0,0:0:0:0:
374,9,79437,6,0,P|332:11|293:25,1,49.9999970197678,8|0,0:0|0:0,0:0:0:0:
270,80,79640,2,0,P|250:121|249:162,1,49.9999970197678
155,16,79843,6,0,P|159:55|173:100,1,49.9999970197678
224,210,80045,2,0,P|242:231|267:249,1,49.9999970197678
149,155,80248,5,4,0:0:0:0:
114,190,80349,1,0,0:0:0:0:
98,237,80450,1,8,0:0:0:0:
104,286,80552,1,0,0:0:0:0:
130,328,80653,1,0,0:0:0:0:
180,335,80754,1,0,0:0:0:0:
230,335,80855,1,0,0:0:0:0:
279,330,80957,1,0,0:0:0:0:
328,317,81059,6,0,L|411:326,1,49.9999970197678,8|0,0:0|0:0,0:0:0:0:
351,175,81261,2,0,L|433:183,1,49.9999970197678
469,260,81464,2,0,L|419:255,3,49.9999970197678
300,242,81870,5,4,0:0:0:0:
261,273,81971,1,0,0:0:0:0:
247,321,82072,2,0,P|251:361|255:375,1,49.9999970197678
217,187,82275,5,0,0:0:0:0:
183,196,82376,1,0,0:0:0:0:
157,220,82478,2,0,P|142:260|138:287,1,49.9999970197678
265,97,82680,5,8,0:0:0:0:
246,88,82782,1,0,0:0:0:0:
227,81,82883,2,0,L|213:18,1,49.9999970197678
401,62,83086,6,0,L|476:35,3,49.9999970197678
502,96,83491,5,4,0:0:0:0:
486,127,83592,1,0,0:0:0:0:
459,148,83693,1,8,0:0:0:0:
425,154,83795,1,0,0:0:0:0:
391,145,83896,5,0,0:0:0:0:
342,140,83998,1,0,0:0:0:0:
296,158,84099,1,0,0:0:0:0:
262,194,84201,1,0,0:0:0:0:
247,241,84302,6,0,L|263:305,1,49.9999970197678,8|0,0:0|0:0,0:0:0:0:
326,335,84505,2,0,L|314:383,1,49.9999970197678
362,221,84707,2,0,L|377:284,1,49.9999970197678
442,336,84910,2,0,L|430:384,1,49.9999970197678
495,167,85113,5,4,0:0:0:0:
453,139,85214,1,0,0:0:0:0:
405,128,85315,1,0,0:0:0:0:
356,135,85417,1,0,0:0:0:0:
312,159,85518,1,0,0:0:0:0:
268,183,85620,1,0,0:0:0:0:
219,190,85722,1,0,0:0:0:0:
171,179,85823,1,0,0:0:0:0:
130,152,85924,6,0,L|136:87,1,49.9999970197678,8|0,0:0|0:0,0:0:0:0:
45,230,86126,2,0,L|34:171,1,49.9999970197678
81,35,86329,5,4,0:0:0:0:
127,17,86430,1,0,0:0:0:0:
175,28,86531,1,0,0:0:0:0:
210,63,86633,1,0,0:0:0:0:
221,111,86734,6,0,L|280:103,1,49.9999970197678
313,29,86937,2,0,L|372:21,1,49.9999970197678,12|0,0:0|0:0,0:0:0:0:
344,157,87140,2,0,L|403:165,1,49.9999970197678
438,83,87343,2,0,L|497:91,1,49.9999970197678
512,228,87545,6,0,P|456:272|438:357,1,133.333325386047,4|0,0:0|0:0,0:0:0:0:
436,329,87951,2,0,B|335:346|401:286|257:309,1,149.999991059303,4|0,0:0|0:0,0:0:0:0:
169,367,88356,6,0,L|239:386,7,49.9999970197678,0|0|0|0|0|0|0|0,3:0|3:0|3:0|3:0|3:0|3:0|3:0|3:0,3:0:0:0:
129,293,89167,6,0,L|145:237,5,49.9999970197678,2|2|2|2|2|2,0:3|0:3|0:3|0:3|0:3|0:3,0:3:0:0:
65,343,89775,6,2,L|-9:322,1,59.9999987125397,2|2,3:0|3:0,3:0:0:0:
0,227,89978,2,2,L|19:153,1,59.9999987125397,2|2,3:0|3:0,3:0:0:0:
94,108,90180,2,2,L|151:124,1,59.9999987125397,2|2,3:0|3:0,3:0:0:0:
205,204,90383,6,0,B|392:192|246:95|454:67,1,279.999985980988,4|0,0:0|0:0,0:0:0:0:
510,238,90991,1,4,0:3:0:0:
375,208,91194,1,4,0:3:0:0:
430,272,91397,1,4,0:3:0:0:
492,8,91599,5,4,0:0:0:0:
20,376,93221,5,4,0:0:0:0:
118,54,94843,6,0,P|173:96|201:160,1,139.999992990494,0|0,3:3|3:3,3:3:0:0:
287,384,95248,2,0,P|267:317|282:249,1,139.999992990494,0|0,0:3|0:3,0:3:0:0:
343,18,95653,2,0,P|320:84|268:130,1,139.999992990494,0|0,3:3|3:3,3:3:0:0:
82,280,96059,2,0,P|139:241|208:234,1,139.999992990494,0|0,0:3|0:3,0:3:0:0:
448,221,96464,2,0,P|378:220|318:184,1,139.999992990494,0|0,3:3|3:3,3:3:0:0:
97,100,96870,6,0,P|141:135|180:171,1,95.9999913482669,0|0,3:0|3:0,3:0:0:0:
255,374,97275,2,0,P|264:318|276:266,1,95.9999913482669,0|0,3:0|3:0,3:0:0:0:
413,100,97680,2,0,P|361:121|310:136,1,95.9999913482669,0|0,3:0|3:0,3:0:0:0:
256,192,98086,5,4,0:1:0:0:
256,192,98187,12,0,100518,0:0:0:0:
177,236,101329,6,0,P|161:290|149:352,2,119.999992847443,4|0|0,0:0|0:0|0:0,0:0:0:0:
101,177,102951,1,2,0:0:0:0:
96,164,103559,1,0,0:0:0:0:
91,151,104167,1,0,0:0:0:0:
127,71,104572,6,8,P|161:70|217:140,1,119.999992847443,2|0,0:0|0:0,0:0:0:0:
216,128,105788,1,0,0:0:0:0:
285,184,106194,6,0,P|325:175|368:173,1,79.9999952316285,2|0,0:0|0:0,0:0:0:0:
380,186,106802,1,0,0:0:0:0:
474,113,107207,2,0,L|480:68,2,39.9999976158142
458,122,107816,6,0,P|467:154|483:245,1,119.999992847443,2|0,0:0|0:0,0:0:0:0:
413,337,109032,1,0,0:0:0:0:
219,367,109437,6,0,P|228:307|243:249,1,119.999992847443,2|0,0:0|0:0,0:0:0:0:
212,116,110451,2,0,L|194:64,2,39.9999976158142,2|2|2,0:0|0:0|0:0,0:0:0:0:
228,130,111059,5,2,0:0:0:0:
251,127,111261,1,0,0:0:0:0:
273,135,111464,1,0,0:0:0:0:
296,132,111667,1,2,0:0:0:0:
384,200,112072,2,0,L|374:253,1,39.9999976158142
189,302,112680,5,2,0:0:0:0:
256,192,113288,12,4,114302,0:0:0:0:
150,169,114910,6,0,P|201:194|232:274,1,119.999997425079,2|0,0:0|0:0,0:0:0:0:
187,318,115518,2,0,P|150:337|127:342,1,59.9999987125397,2|0,0:0|0:0,0:0:0:0:
53,305,115924,6,0,B|24:217|95:230|64:121,1,179.999996137619,4|0,0:0|0:0,0:0:0:0:
21,67,116734,5,8,0:3:0:0:
160,11,116937,1,4,0:3:0:0:
219,116,117140,5,4,0:3:0:0:
201,191,117343,1,4,0:3:0:0:
314,49,117545,6,0,P|378:40|442:27,1,119.999997425079,6|0,0:0|0:0,0:0:0:0:
483,88,118153,2,0,P|492:152|505:216,1,119.999997425079,2|0,0:0|0:0,0:0:0:0:
448,262,118761,1,2,0:0:0:0:
448,262,119167,5,4,0:0:0:0:
259,206,119370,2,0,P|242:263|255:328,1,119.999997425079,8|4,0:3|0:3,0:0:0:0:
322,354,119978,2,4,L|391:345,1,59.9999987125397,4|4,0:3|0:3,0:3:0:0:
413,180,120383,1,4,0:3:0:0:
413,180,120788,6,0,P|389:205|378:261,1,89.9999980688095,4|0,0:0|0:0,0:0:0:0:
377,257,121194,1,0,0:0:0:0:
241,302,121397,2,0,P|241:338|247:366,1,59.9999987125397,2|0,0:0|0:0,0:0:0:0:
298,234,121802,2,0,P|280:198|186:161,1,119.999997425079,2|2,0:0|0:0,0:0:0:0:
212,160,122613,2,0,P|167:167|103:179,1,89.9999980688095,8|0,0:3|0:0,0:0:0:0:
123,175,123018,1,0,0:0:0:0:
40,257,123221,5,4,0:3:0:0:
124,287,123424,1,4,0:3:0:0:
206,322,123626,2,0,L|192:387,1,59.9999987125397,4|0,0:3|0:0,0:0:0:0:
384,255,124032,6,0,L|370:125,1,119.999997425079,4|4,0:1|0:3,0:0:0:0:
360,46,124640,5,4,0:3:0:0:
466,191,124843,1,4,0:3:0:0:
364,338,125045,1,4,0:3:0:0:
190,289,125248,1,4,0:3:0:0:
184,108,125451,1,4,0:3:0:0:
317,183,125653,5,4,0:0:0:0:
317,183,127275,6,0,B|186:194|274:245|142:252,1,191.999982696534,4|0,0:1|0:0,0:0:0:0:
66,34,127883,1,4,0:3:0:0:
149,73,128086,1,8,0:0:0:0:
149,73,128491,2,0,P|171:126|163:174,1,95.9999913482669
59,374,128897,5,4,0:3:0:0:
5,221,129099,2,0,P|70:225|145:329,1,191.999982696534,8|4,0:0|0:3,0:0:0:0:
368,256,129707,1,8,0:0:0:0:
368,256,130113,1,0,0:0:0:0:
233,315,130316,1,0,0:0:0:0:
394,351,130518,6,0,B|368:242|448:288|406:148,1,191.999982696534,4|0,0:3|0:0,0:0:0:0:
235,14,131126,1,4,0:3:0:0:
252,104,131329,1,8,0:0:0:0:
252,104,131734,2,0,P|189:144|159:146,1,95.9999913482669
99,79,132140,5,4,0:3:0:0:
346,74,132343,2,0,P|341:136|252:236,1,191.999982696534,8|4,0:0|0:3,0:0:0:0:
188,296,132951,2,0,P|201:339|209:402,1,95.9999913482669,8|4,0:0|0:3,0:0:0:0:
484,369,133356,2,0,P|471:326|463:263,1,95.9999913482669,4|4,0:3|0:3,0:0:0:0:
463,275,133660,1,4,0:3:0:0:
463,275,133761,6,0,P|395:292|257:311,1,191.999982696534,4|0,0:0|0:0,0:0:0:0:
121,152,134370,1,4,0:3:0:0:
86,241,134572,2,0,P|143:230|193:228,1,95.9999913482669,8|0,0:0|0:0,0:0:0:0:
348,126,134978,2,0,P|295:152|266:236,1,143.9999870224
265,227,135383,5,4,0:0:0:0:
198,141,135586,2,0,P|190:98|164:45,1,95.9999913482669,8|4,0:0|0:3,0:0:0:0:
318,298,135991,2,0,B|425:304|361:369|502:369,1,191.999982696534,12|4,0:0|0:3,0:0:0:0:
481,82,136599,2,0,L|350:133,1,95.9999913482669,12|0,0:0|0:0,0:0:0:0:
156,143,137005,5,4,0:0:0:0:
95,217,137207,1,4,0:3:0:0:
147,297,137410,1,4,0:3:0:0:
238,268,137613,1,4,0:3:0:0:
43,120,137816,6,0,P|33:47|24:-3,1,95.9999913482669,4|0,0:0|0:3,0:0:0:0:
339,91,138221,2,0,P|266:101|216:110,1,95.9999913482669,4|0,0:3|0:0,0:0:0:0:
244,104,138525,1,0,0:0:0:0:
244,104,138626,1,4,0:0:0:0:
156,143,138829,1,4,0:3:0:0:
204,227,139031,1,4,0:3:0:0:
295,196,139234,1,4,0:3:0:0:
43,185,139437,5,0,3:0:0:0:
69,196,139538,1,0,3:0:0:0:
92,213,139639,1,0,3:0:0:0:
111,234,139741,1,0,3:0:0:0:
126,259,139842,1,0,3:0:0:0:
136,286,139943,1,0,3:0:0:0:
138,315,140045,2,0,P|130:356|121:375,1,47.9999956741335,0|0,3:0|3:0,3:0:0:0:
229,168,140248,6,0,B|363:157|261:105|442:93,1,191.999982696534,4|0,0:1|0:0,0:0:0:0:
437,381,140856,1,4,0:3:0:0:
360,323,141059,1,8,0:0:0:0:
360,323,141464,2,0,P|362:245|364:212,1,95.9999913482669
310,7,141870,5,4,0:0:0:0:
449,149,142072,2,4,P|411:192|266:196,1,191.999982696534,4|4,0:3|0:3,0:3:0:0:
59,62,142680,2,0,P|72:129|78:171,1,95.9999913482669,8|0,0:0|0:0,0:0:0:0:
208,293,143086,1,8,0:3:0:0:
114,322,143288,1,0,0:0:0:0:
277,119,143491,6,0,P|347:156|387:278,1,191.999982696534,4|0,0:0|0:0,0:0:0:0:
246,382,144099,1,4,0:3:0:0:
208,293,144302,1,8,0:0:0:0:
208,293,144707,2,0,P|140:277|105:271,1,95.9999913482669
302,102,145113,5,4,0:0:0:0:
51,189,145316,6,0,P|116:183|203:179,1,143.9999870224,4|0,0:3|0:0,0:0:0:0:
216,98,145721,6,0,P|173:101|115:103,1,95.9999913482669,4|8,0:0|0:0,0:0:0:0:
120,102,146025,1,4,0:3:0:0:
120,102,146126,1,4,0:3:0:0:
264,341,146329,2,0,P|260:298|259:240,1,95.9999913482669,8|0,0:3|0:0,0:0:0:0:
360,24,146734,6,0,P|414:44|462:145,1,143.9999870224,4|0,0:0|0:0,0:0:0:0:
459,114,147140,1,0,0:3:0:0:
450,293,147343,2,0,P|463:225|483:192,1,95.9999913482669,4|8,0:3|0:0,0:0:0:0:
214,162,147748,2,4,P|279:185|411:168,1,191.999982696534,0|4,0:3|0:3,0:3:0:0:
315,312,148356,5,4,0:0:0:0:
114,146,148559,2,0,P|127:211|212:319,1,191.999982696534,8|0,0:3|0:0,0:0:0:0:
146,376,149167,1,4,0:3:0:0:
146,376,149370,1,4,0:3:0:0:
32,183,149572,2,0,P|38:124|58:73,1,95.9999913482669,8|0,0:3|0:0,0:0:0:0:
331,31,149978,5,4,0:0:0:0:
455,194,150180,1,4,0:3:0:0:
326,313,150383,2,0,P|281:299|204:285,1,95.9999913482669,4|4,0:3|0:3,0:0:0:0:
233,288,150687,1,4,0:3:0:0:
233,288,150788,1,4,0:3:0:0:
146,126,150991,5,4,0:0:0:0:
64,372,151194,1,4,0:3:0:0:
64,372,151397,1,4,0:3:0:0:
69,60,151599,6,0,P|134:96|263:109,1,191.999982696534,4|0,0:0|0:0,0:0:0:0:
319,44,152207,1,0,0:0:0:0:
185,191,152410,6,2,B|170:247|168:282|168:282|189:320|237:364,1,179.999996137619,2|0,0:3|0:3,0:3:0:0:
222,349,152816,2,4,L|357:322,1,119.999997425079,4|4,0:3|0:3,0:3:0:0:
432,381,153221,5,2,0:0:0:0:
