osu file format v14

[General]
AudioFilename: audio.mp3
AudioLeadIn: 0
PreviewTime: 66732
Countdown: 0
SampleSet: Soft
StackLeniency: 0.3
Mode: 0
LetterboxInBreaks: 0
WidescreenStoryboard: 0

[Editor]
Bookmarks: 11198,16591,21985,23333,39513,44906,55692,94794,110973,131872,132546,143333,148220,152771,155468,177041,182434,220187,222883,294344,305131,315917
DistanceSpacing: 0.6
BeatDivisor: 4
GridSize: 4
TimelineZoom: 2.1

[Metadata]
Title:Back to Marie
TitleUnicode:Back to Marie
Artist:Eri Kumagai(cv, Asami Seto)
ArtistUnicode:熊谷絵里(cv,瀬戸麻沙美)
Creator:Aeril
Version:Remembrance
Source:音楽少女
Tags:electro.muster ongaku shoujo taishi cosmic 泰志 music girl electronic resonance kato.yoshihal 加藤 義治 kato yoshiharu dnb
BeatmapID:1407811
BeatmapSetID:665175

[Difficulty]
HPDrainRate:6
CircleSize:4.2
OverallDifficulty:8.7
ApproachRate:9.3
SliderMultiplier:1.82
SliderTickRate:2

[Events]
//Background and Video events
0,0,"marie.jpg",0,0
//Break Periods
2,94994,110588
//Storyboard Layer 0 (Background)
//Storyboard Layer 1 (Fail)
//Storyboard Layer 2 (Pass)
//Storyboard Layer 3 (Foreground)
//Storyboard Sound Samples

[TimingPoints]
412,337.078651685393,4,2,2,30,1,0
412,-400,4,2,2,30,0,0
1086,-400,4,2,2,15,0,0
1760,-400,4,2,2,5,0,0
3108,-400,4,2,2,15,0,0
4456,-400,4,2,2,5,0,0
5805,-400,4,2,2,30,0,0
6479,-400,4,2,2,15,0,0
7153,-400,4,2,2,5,0,0
8501,-400,4,2,2,15,0,0
9850,-400,4,2,2,5,0,0
11198,-200,4,2,2,30,0,0
12041,-200,4,2,2,30,0,0
13895,-200,4,2,2,40,0,0
15243,-200,4,2,2,50,0,0
16591,-200,4,2,2,40,0,0
21985,-200,4,2,2,30,0,0
23249,-200,4,2,2,5,0,0
23333,-100,4,2,1,60,0,0
24765,-83.3333333333333,4,2,1,60,0,0
26029,-100,4,2,1,60,0,0
28052,-71.4285714285714,4,2,1,60,0,0
28726,-100,4,2,1,60,0,0
30074,-83.3333333333333,4,2,1,60,0,0
30749,-62.5,4,2,1,40,0,0
30917,-62.5,4,2,1,60,0,0
31423,-100,4,2,1,60,0,0
32097,-83.3333333333333,4,2,1,60,0,0
33445,-71.4285714285714,4,2,1,60,0,0
33951,-100,4,2,1,60,0,0
35468,-83.3333333333333,4,2,1,60,0,0
36985,-100,4,2,1,60,0,0
38417,-100,4,2,1,30,0,0
38670,-100,4,2,1,60,0,0
38838,-71.4285714285714,4,2,1,60,0,0
39513,-100,4,2,1,60,0,0
40945,-83.3333333333333,4,2,1,60,0,0
41704,-71.4285714285714,4,2,1,60,0,0
42546,-100,4,2,1,60,0,0
44063,-200,4,2,1,60,0,0
44906,-133.333333333333,4,2,1,50,0,0
45074,-133.333333333333,4,2,2,50,0,0
47940,-200,4,2,2,50,0,0
49288,-133.333333333333,4,2,2,50,0,0
50805,-200,4,2,2,50,0,0
52659,-200,4,2,2,50,0,0
52827,-133.333333333333,4,2,2,50,0,0
54176,-100,4,2,2,50,0,0
55692,-133.333333333333,4,2,1,50,0,0
66816,-400,4,2,2,40,0,0
67827,-55.5555555555556,4,2,3,70,0,1
68080,-66.6666666666667,4,2,3,70,0,1
68838,-55.5555555555556,4,2,3,70,0,1
69344,-76.9230769230769,4,2,3,70,0,1
70018,-66.6666666666667,4,2,3,70,0,1
70524,-55.5555555555556,4,2,3,70,0,1
70777,-76.9230769230769,4,2,3,70,0,1
71535,-55.5555555555556,4,2,3,70,0,1
71872,-66.6666666666667,4,2,3,70,0,1
72546,-55.5555555555556,4,2,3,70,0,1
72883,-76.9230769230769,4,2,3,70,0,1
73220,-55.5555555555556,4,2,3,70,0,1
73473,-66.6666666666667,4,2,3,70,0,1
74232,-55.5555555555556,4,2,3,70,0,1
74569,-76.9230769230769,4,2,3,70,0,1
75917,-55.5555555555556,4,2,3,70,0,1
76254,-66.6666666666667,4,2,3,70,0,1
76928,-55.5555555555556,4,2,3,70,0,1
77265,-100,4,2,3,70,0,1
77940,-133.333333333333,4,2,2,60,0,0
78614,-55.5555555555556,4,2,3,70,0,1
78951,-66.6666666666667,4,2,3,70,0,1
79625,-55.5555555555556,4,2,3,70,0,1
80131,-76.9230769230769,4,2,3,70,0,1
80805,-66.6666666666667,4,2,3,70,0,1
81310,-55.5555555555556,4,2,3,70,0,1
81647,-66.6666666666667,4,2,3,70,0,1
82322,-55.5555555555556,4,2,3,70,0,1
82659,-66.6666666666667,4,2,3,70,0,1
83333,-55.5555555555556,4,2,3,70,0,1
83670,-76.9230769230769,4,2,3,70,0,1
84007,-55.5555555555556,4,2,3,70,0,1
84344,-66.6666666666667,4,2,3,70,0,1
85018,-55.5555555555556,4,2,3,70,0,1
85355,-76.9230769230769,4,2,3,70,0,1
86704,-55.5555555555556,4,2,3,70,0,1
87715,-133.333333333333,4,2,3,70,0,1
88052,-55.5555555555556,4,2,3,70,0,1
89400,-55.5555555555556,4,2,1,50,0,0
94794,-55.5555555555556,4,2,2,40,0,0
110973,-200,4,2,2,40,0,0
113501,-133.333333333333,4,2,2,50,0,0
115018,-200,4,2,2,40,0,0
119569,-133.333333333333,4,2,2,50,0,0
120917,-200,4,2,2,40,0,0
124288,-133.333333333333,4,2,2,50,0,0
125805,-200,4,2,2,40,0,0
129850,-133.333333333333,4,2,2,60,0,0
131198,-200,4,2,1,60,0,0
132546,-100,4,2,1,60,0,0
134569,-83.3333333333333,4,2,1,60,0,0
135749,-100,4,2,1,60,0,0
137265,-83.3333333333333,4,2,1,60,0,0
138108,-100,4,2,1,60,0,0
139962,-71.4285714285714,4,2,1,60,0,0
140973,-83.3333333333333,4,2,1,60,0,0
143164,-100,4,2,1,60,0,0
145355,-83.3333333333333,4,2,1,60,0,0
146367,-100,4,2,1,60,0,0
148052,-71.4285714285714,4,2,1,60,0,0
149063,-83.3333333333333,4,2,1,60,0,0
152771,-100,4,2,1,60,0,0
153445,-133.333333333333,4,2,1,60,0,0
154456,-100,4,2,2,40,0,0
154794,-200,4,2,2,40,0,0
155468,-55.5555555555556,4,2,3,70,0,1
155636,-66.6666666666667,4,2,3,70,0,1
156479,-55.5555555555556,4,2,3,70,0,1
156985,-76.9230769230769,4,2,3,70,0,1
157659,-66.6666666666667,4,2,3,70,0,1
158164,-55.5555555555556,4,2,3,70,0,1
158417,-76.9230769230769,4,2,3,70,0,1
159176,-55.5555555555556,4,2,3,70,0,1
159513,-66.6666666666667,4,2,3,70,0,1
160187,-55.5555555555556,4,2,3,70,0,1
160524,-76.9230769230769,4,2,3,70,0,1
160861,-55.5555555555556,4,2,3,70,0,1
161114,-66.6666666666667,4,2,3,70,0,1
161873,-55.5555555555556,4,2,3,70,0,1
162210,-76.9230769230769,4,2,3,70,0,1
163558,-55.5555555555556,4,2,3,70,0,1
163895,-66.6666666666667,4,2,3,70,0,1
164569,-55.5555555555556,4,2,3,70,0,1
164906,-100,4,2,3,70,0,1
165580,-133.333333333333,4,2,2,60,0,0
166254,-55.5555555555556,4,2,3,70,0,1
166591,-66.6666666666667,4,2,3,70,0,1
167265,-55.5555555555556,4,2,3,70,0,1
167771,-76.9230769230769,4,2,3,70,0,1
168445,-66.6666666666667,4,2,3,70,0,1
168950,-55.5555555555556,4,2,3,70,0,1
169287,-66.6666666666667,4,2,3,70,0,1
169962,-55.5555555555556,4,2,3,70,0,1
170299,-66.6666666666667,4,2,3,70,0,1
170973,-55.5555555555556,4,2,3,70,0,1
171310,-76.9230769230769,4,2,3,70,0,1
171647,-55.5555555555556,4,2,3,70,0,1
171984,-66.6666666666667,4,2,3,70,0,1
172658,-55.5555555555556,4,2,3,70,0,1
172995,-76.9230769230769,4,2,3,70,0,1
174344,-55.5555555555556,4,2,3,70,0,1
175355,-133.333333333333,4,2,3,70,0,1
175692,-55.5555555555556,4,2,3,70,0,1
177041,-400,4,2,2,40,0,0
179569,-200,4,2,2,40,0,0
182434,-133.333333333333,4,2,2,50,0,0
187827,-200,4,2,2,50,0,0
188838,-133.333333333333,4,2,2,50,0,0
198614,-400,4,2,2,50,0,0
209400,-285.714285714286,4,2,2,50,0,0
213445,-200,4,2,2,50,0,0
214794,-400,4,2,2,50,0,0
220187,-400,4,2,2,20,0,0
222883,-400,4,2,2,40,0,0
225580,-200,4,2,2,40,0,0
233670,-200,4,2,1,50,0,0
239063,-133.333333333333,4,2,1,60,0,0
243614,-133.333333333333,4,2,2,50,0,0
250187,-400,4,2,2,40,0,0
251535,-55.5555555555556,4,2,3,70,0,1
251872,-66.6666666666667,4,2,3,70,0,1
252209,-55.5555555555556,4,2,3,70,0,1
252715,-76.9230769230769,4,2,3,70,0,1
253389,-66.6666666666667,4,2,3,70,0,1
253895,-55.5555555555556,4,2,3,70,0,1
254232,-76.9230769230769,4,2,3,70,0,1
254906,-55.5555555555556,4,2,3,70,0,1
255243,-66.6666666666667,4,2,3,70,0,1
255917,-55.5555555555556,4,2,3,70,0,1
256254,-76.9230769230769,4,2,3,70,0,1
256591,-55.5555555555556,4,2,3,70,0,1
256844,-66.6666666666667,4,2,3,70,0,1
257603,-55.5555555555556,4,2,3,70,0,1
257940,-76.9230769230769,4,2,3,70,0,1
259288,-55.5555555555556,4,2,3,70,0,1
259625,-66.6666666666667,4,2,3,70,0,1
260299,-55.5555555555556,4,2,3,70,0,1
260636,-100,4,2,3,70,0,1
261310,-133.333333333333,4,2,2,60,0,0
261985,-55.5555555555556,4,2,3,70,0,1
262321,-66.6666666666667,4,2,3,70,0,1
262995,-55.5555555555556,4,2,3,70,0,1
263501,-76.9230769230769,4,2,3,70,0,1
264175,-66.6666666666667,4,2,3,70,0,1
264680,-55.5555555555556,4,2,3,70,0,1
265017,-66.6666666666667,4,2,3,70,0,1
265692,-55.5555555555556,4,2,3,70,0,1
266029,-66.6666666666667,4,2,3,70,0,1
266703,-55.5555555555556,4,2,3,70,0,1
267040,-76.9230769230769,4,2,3,70,0,1
267377,-55.5555555555556,4,2,3,70,0,1
267714,-66.6666666666667,4,2,3,70,0,1
268388,-55.5555555555556,4,2,3,70,0,1
268725,-76.9230769230769,4,2,3,70,0,1
270074,-55.5555555555556,4,2,3,70,0,1
271085,-133.333333333333,4,2,3,70,0,1
271422,-55.5555555555556,4,2,3,70,0,1
272771,-83.3333333333333,4,2,1,60,0,0
277490,-71.4285714285714,4,2,1,60,0,0
278164,-83.3333333333333,4,2,1,60,0,0
280187,-62.5,4,2,1,40,0,0
280355,-62.5,4,2,1,60,0,0
280861,-83.3333333333333,4,2,1,60,0,0
282883,-62.5,4,2,2,60,0,0
283220,-100,4,2,2,40,0,0
283558,-83.3333333333333,4,2,1,60,0,0
288277,-71.4285714285714,4,2,1,60,0,0
288951,-83.3333333333333,4,2,1,60,0,0
291647,-71.4285714285714,4,2,1,60,0,0
292996,-62.5,4,2,1,60,0,0
293670,-55.5555555555556,4,2,1,40,0,0
294007,-55.5555555555556,4,2,1,60,0,0
294344,-133.333333333333,4,2,1,50,0,0
305131,-200,4,2,1,50,0,0
313220,-200,4,2,1,40,0,0
314569,-200,4,2,1,30,0,0
315917,-200,4,2,2,20,0,0
316001,-200,4,2,2,40,0,0
317265,-200,4,2,2,35,0,0
318614,-200,4,2,2,30,0,0
319962,-200,4,2,2,25,0,0
321310,-200,4,2,2,20,0,0
322659,-200,4,2,2,15,0,0
324007,-200,4,2,2,10,0,0
325355,-200,4,2,2,5,0,0

[Colours]
Combo1 : 216,137,216
Combo2 : 153,198,247
Combo3 : 170,164,174
Combo4 : 116,216,188

[HitObjects]
121,42,412,6,0,L|133:132,2,91,0|0|0,0:0|0:0|0:0,0:0:0:0:
49,101,3108,2,0,B|59:171|59:171|89:202|89:202|101:273,1,182,2|0,0:0|0:0,0:0:0:0:
100,269,5805,6,0,P|140:254|189:263,2,91,0|0|0,0:0|0:0|0:0,0:0:0:0:
148,339,8501,2,0,B|204:363|249:321|249:321|280:289|324:296,1,182,2|0,0:0|0:0,0:0:0:0:
314,294,11198,6,0,B|305:249|305:249|327:195,1,91,0|2,0:0|0:3,0:0:0:0:
413,255,11872,1,0,0:0:0:0:
311,116,12041,2,0,L|323:218,1,91,2|0,0:3|0:0,0:0:0:0:
321,206,12546,5,0,0:0:0:0:
179,105,12883,2,0,B|225:106|225:106|259:123|259:123|316:115,1,136.5,2|0,0:3|0:0,0:0:0:0:
406,141,13558,2,0,B|410:96|410:96|388:52,1,91,2|2,0:3|0:0,0:0:0:0:
256,192,13979,12,4,16591,3:0:0:0:
173,63,16760,6,0,L|166:19,1,45.5,0|0,0:0|0:0,0:0:0:0:
177,79,17097,1,2,0:0:0:0:
87,84,17265,6,0,L|80:129,1,45.5,0|0,0:0|0:0,0:0:0:0:
91,69,17603,1,2,0:0:0:0:
175,163,17771,6,0,L|219:156,1,45.5,0|0,0:0|0:0,0:0:0:0:
159,167,18108,1,2,0:0:0:0:
72,205,18277,6,0,L|28:198,1,45.5,0|0,0:0|0:0,0:0:0:0:
88,209,18614,1,2,0:0:0:0:
0,284,18782,6,0,L|45:281,1,45.5,0|0,0:0|0:0,0:0:0:0:
79,357,19119,1,2,0:0:0:0:
209,281,19288,5,0,0:0:0:0:
127,289,19456,1,0,0:0:0:0:
79,357,19625,1,2,0:0:0:0:
207,339,19794,6,0,L|210:280,1,45.5,0|0,0:0|0:0,0:0:0:0:
284,316,20131,1,2,0:0:0:0:
363,301,20299,6,0,L|360:346,1,45.5,0|0,0:0|0:0,0:0:0:0:
288,234,20636,1,2,0:0:0:0:
256,192,20720,12,0,21816,0:0:0:0:
206,319,21985,5,2,0:3:0:0:
127,337,22153,2,0,L|84:332,2,22.75,0|0|2,3:3|3:3|3:3,0:0:0:0:
206,319,22490,1,0,3:3:0:0:
160,156,22659,2,0,L|157:177,2,11.375,0|0|0,1:3|1:3|1:3,0:0:0:0:
64,263,22911,5,0,3:0:0:0:
81,261,22996,2,0,L|156:255,1,68.25,2|0,3:0|0:0,0:0:0:0:
167,242,23333,6,0,P|216:236|273:264,1,91,4|2,3:2|0:0,0:0:0:0:
281,274,23586,1,0,0:0:0:0:
281,274,23670,1,8,0:0:0:0:
325,147,23838,2,0,L|327:210,1,45.5,2|0,0:0|0:0,0:0:0:0:
351,332,24007,5,2,0:0:0:0:
351,332,24091,2,0,L|412:341,1,45.5,0|0,0:0|3:0,0:0:0:0:
507,265,24260,1,2,0:0:0:0:
507,265,24344,2,0,L|446:274,1,45.5,8|0,0:0|0:0,0:0:0:0:
413,355,24513,2,0,L|474:364,1,45.5,2|2,0:0|0:3,0:0:0:0:
435,135,24681,5,0,3:1:0:0:
427,156,24765,2,0,P|420:199|454:260,1,109.199996667481,2|0,0:0|0:0,0:0:0:0:
412,138,25018,2,0,P|378:110|335:104,1,54.5999983337403,10|0,0:0|0:1,0:0:0:0:
288,109,25187,1,0,3:0:0:0:
435,135,25355,2,0,P|475:119|511:59,1,109.199996667481,2|8,0:3|0:0,0:0:0:0:
346,190,25692,1,0,0:0:0:0:
323,16,25861,1,0,0:0:0:0:
323,16,25945,1,0,0:0:0:0:
323,16,26029,5,0,3:0:0:0:
150,105,26198,2,0,L|214:106,1,45.5,2|0,0:0|0:0,0:0:0:0:
288,109,26367,1,8,0:0:0:0:
136,122,26535,2,0,L|200:123,1,45.5,2|0,0:0|0:0,0:0:0:0:
63,11,26704,5,2,0:0:0:0:
63,11,26788,2,0,L|67:81,1,45.5,0|0,0:0|3:0,0:0:0:0:
129,212,26956,1,2,0:0:0:0:
129,212,27041,2,0,L|125:282,1,45.5,8|0,0:0|0:0,0:0:0:0:
11,131,27209,2,0,L|15:201,1,45.5,2|0,0:0|0:0,0:0:0:0:
62,328,27378,5,0,3:0:0:0:
221,233,27546,1,0,0:0:0:0:
222,210,27631,1,0,0:0:0:0:
223,187,27715,1,8,0:0:0:0:
129,212,27883,1,0,3:0:0:0:
260,377,28052,6,0,P|263:347|248:299,1,63.6999980560303,2|0,0:3|0:0,0:0:0:0:
465,212,28220,2,0,P|434:263|458:356,1,127.399996112061,10|0,0:0|0:0,0:0:0:0:
454,356,28473,1,0,0:0:0:0:
424,343,28558,1,0,0:0:0:0:
392,338,28642,1,0,0:0:0:0:
360,340,28726,5,0,3:0:0:0:
347,212,28895,1,2,0:0:0:0:
347,212,28979,1,0,0:0:0:0:
347,212,29063,1,8,0:0:0:0:
340,368,29232,2,0,L|341:313,1,45.5,2|0,0:0|0:0,0:0:0:0:
290,126,29400,5,2,0:0:0:0:
290,126,29485,2,0,L|349:122,1,45.5,0|0,0:0|3:0,0:0:0:0:
475,78,29653,1,2,0:0:0:0:
475,78,29737,2,0,L|429:74,1,45.5,8|0,0:0|0:0,0:0:0:0:
475,186,29906,2,0,L|416:190,1,45.5,2|0,0:0|0:0,0:0:0:0:
218,72,30074,6,0,P|174:61|111:85,1,109.199996667481,2|0,3:2|0:0,0:0:0:0:
208,259,30327,1,0,0:0:0:0:
233,249,30411,2,0,P|264:216|276:166,1,54.5999983337403,10|0,0:0|0:0,0:0:0:0:
290,126,30580,1,2,3:0:0:0:
33,174,30749,6,0,B|86:171|86:171|105:158|105:158|126:168|126:168|191:164,1,145.6,2|8,0:1|0:0,0:0:0:0:
23,262,31001,1,0,0:0:0:0:
53,260,31086,2,0,L|139:254,1,72.8,2|0,0:0|0:0,0:0:0:0:
187,147,31254,2,0,P|180:111|140:72,1,72.8,2|0,0:3|0:0,0:0:0:0:
152,362,31423,6,0,P|138:298|163:244,1,91,0|2,3:0|0:0,0:0:0:0:
162,242,31676,1,0,0:0:0:0:
162,242,31760,1,8,0:0:0:0:
326,308,31928,2,0,P|286:308|257:301,1,45.5,2|0,0:0|0:0,0:0:0:0:
359,149,32097,6,0,P|381:146|464:183,1,109.199996667481,2|0,0:0|3:0,0:0:0:0:
338,132,32350,1,2,0:0:0:0:
318,113,32434,2,0,P|303:95|291:32,1,54.5999983337403,8|0,0:0|0:0,0:0:0:0:
388,240,32603,2,0,P|379:261|330:303,1,54.5999983337403,2|0,0:0|0:0,0:0:0:0:
143,182,32771,5,0,3:0:0:0:
299,212,32940,1,0,0:0:0:0:
272,216,33024,1,0,0:0:0:0:
245,221,33108,1,8,0:0:0:0:
139,83,33277,1,0,3:0:0:0:
13,225,33445,6,0,P|73:235|120:292,1,127.399996112061,2|10,0:3|0:0,0:0:0:0:
131,310,33698,1,0,0:0:0:0:
134,278,33782,1,0,0:0:0:0:
137,246,33867,1,0,0:0:0:0:
140,214,33951,2,0,L|145:134,1,45.5,0|0,0:0|0:0,0:0:0:0:
27,323,34119,5,4,3:2:0:0:
223,250,34288,1,2,0:0:0:0:
223,250,34372,1,0,0:0:0:0:
223,250,34456,1,8,0:0:0:0:
7,338,34625,2,0,L|82:332,1,45.5,2|0,0:0|0:0,0:0:0:0:
209,384,34794,5,2,0:0:0:0:
209,384,34878,2,0,L|212:338,1,45.5,0|0,0:0|3:0,0:0:0:0:
124,239,35046,1,2,0:0:0:0:
124,239,35131,2,0,L|121:194,1,45.5,8|0,0:0|0:0,0:0:0:0:
313,324,35299,2,0,L|309:278,1,45.5,2|0,0:0|0:0,0:0:0:0:
205,124,35468,5,0,3:0:0:0:
227,140,35552,2,0,P|292:154|356:123,1,109.199996667481,2|0,0:0|0:0,0:0:0:0:
409,265,35805,2,0,P|388:201|360:179,1,54.5999983337403,10|0,0:0|0:0,0:0:0:0:
331,141,35973,1,0,3:0:0:0:
476,35,36142,2,0,P|431:84|426:155,1,109.199996667481,2|8,0:3|0:0,0:0:0:0:
409,265,36479,1,0,0:0:0:0:
278,62,36647,1,0,0:0:0:0:
278,62,36732,1,0,0:0:0:0:
278,62,36816,5,0,3:0:0:0:
422,124,36985,2,0,L|468:127,2,45.5,2|0|8,0:0|0:0|0:0,0:0:0:0:
278,62,37322,2,0,L|275:107,1,45.5,2|0,0:0|0:0,0:0:0:0:
260,234,37490,5,2,0:0:0:0:
260,234,37574,2,0,L|342:229,1,45.5,0|0,0:0|3:0,0:0:0:0:
470,289,37743,1,2,0:0:0:0:
470,289,37827,2,0,L|388:284,1,45.5,8|0,0:0|0:0,0:0:0:0:
312,360,37996,2,0,L|394:355,1,45.5,2|0,0:0|0:0,0:0:0:0:
325,136,38164,6,0,B|334:89|334:89|308:22,1,91,0|0,3:0|0:0,0:0:0:0:
300,16,38417,1,2,0:3:0:0:
300,16,38501,1,2,0:3:0:0:
325,136,38670,1,0,3:0:0:0:
115,47,38838,6,0,B|232:99|232:99|82:153,1,254.799992224121,2|0,0:0|0:0,0:0:0:0:
40,94,39260,1,0,0:0:0:0:
29,124,39344,1,0,0:0:0:0:
29,155,39428,1,0,0:0:0:0:
38,185,39513,5,0,3:0:0:0:
0,384,39681,2,0,P|-11:349|9:287,1,91,2|8,0:0|0:0,0:0:0:0:
27,271,39934,1,0,0:0:0:0:
27,271,40018,2,0,L|81:259,1,45.5,2|0,0:0|0:0,0:0:0:0:
233,281,40187,5,2,0:0:0:0:
233,281,40271,2,0,L|287:293,1,45.5,0|0,0:0|3:0,0:0:0:0:
116,350,40440,1,2,0:0:0:0:
116,350,40524,2,0,L|170:338,1,45.5,8|0,0:0|0:0,0:0:0:0:
216,186,40692,2,0,L|270:198,1,45.5,2|0,0:0|0:0,0:0:0:0:
394,367,40861,5,0,3:0:0:0:
405,342,40945,2,0,P|406:312|355:225,1,109.199996667481,2|0,0:0|0:0,0:0:0:0:
453,140,41198,2,0,P|452:110|476:51,1,54.5999983337403,10|0,0:0|0:0,0:0:0:0:
495,253,41367,1,0,3:0:0:0:
453,140,41535,1,2,0:3:0:0:
300,295,41704,5,8,0:0:0:0:
361,106,41872,2,0,L|268:115,1,63.6999980560303,0|0,0:0|0:0,0:0:0:0:
89,183,42041,1,0,0:0:0:0:
89,183,42125,1,0,0:0:0:0:
89,183,42209,6,0,B|153:173|153:217|219:205,1,127.399996112061,0|2,3:0|0:0,0:0:0:0:
243,188,42462,1,0,0:0:0:0:
243,188,42546,1,8,0:0:0:0:
132,50,42715,2,0,L|126:107,1,45.5,2|0,0:0|0:0,0:0:0:0:
4,205,42883,5,2,0:0:0:0:
4,205,42968,2,0,L|-2:148,1,45.5,0|0,0:0|3:0,0:0:0:0:
193,292,43136,1,2,0:0:0:0:
193,292,43221,2,0,L|187:349,1,45.5,8|0,0:0|0:0,0:0:0:0:
45,323,43389,2,0,L|49:368,1,45.5,2|0,0:0|0:0,0:0:0:0:
109,227,43558,6,0,P|120:191|91:121,1,91,2|0,3:2|0:0,0:0:0:0:
85,111,43810,1,0,0:0:0:0:
85,111,43895,1,2,0:0:0:0:
258,63,44063,6,0,P|227:123|247:193,1,136.5,0|0,3:0|0:0,0:0:0:0:
242,187,44906,6,0,L|330:195,1,68.250002603531,4|0,3:2|0:0,0:0:0:0:
381,152,45243,1,0,1:0:0:0:
432,313,45411,2,0,P|418:345|365:263,1,204.750007810593,0|0,0:0|1:3,0:0:0:0:
355,268,46591,2,0,L|201:258,1,136.500005207062,0|0,1:0|0:0,0:0:0:0:
198,278,47097,2,0,L|127:273,1,68.250002603531,2|0,0:3|0:0,0:0:0:0:
4,290,47434,6,0,P|37:298|75:393,1,136.500005207062,0|0,0:0|0:0,0:0:0:0:
4,290,47940,2,0,B|-8:155|-8:155|38:203,1,182,0|0,1:0|1:0,0:0:0:0:
180,23,49288,6,0,P|144:61|154:159,1,136.500005207062,0|0,1:0|0:0,0:0:0:0:
158,227,49794,1,2,0:3:0:0:
158,227,49962,2,0,P|161:168|149:143,1,68.250002603531,0|0,0:0|0:0,0:0:0:0:
297,141,50299,6,0,L|291:297,1,136.500005207062,0|0,0:0|1:0,0:0:0:0:
217,312,50805,2,0,B|283:300|283:351|370:333,1,136.5,0|0,0:0|1:0,0:0:0:0:
348,336,51985,2,0,P|366:309|362:234,2,91,0|0|0,1:0|0:0|0:0,0:0:0:0:
493,290,52827,6,0,B|433:222|480:147|480:147|508:197,1,204.750007810593,0|0,0:0|1:0,0:0:0:0:
503,189,53670,2,0,P|449:178|374:204,1,136.500005207062,0|0,0:0|1:0,0:0:0:0:
402,70,54176,6,0,B|450:54|503:68|503:68|442:3|357:54|357:54|273:107|194:46|194:46|257:66|319:26,1,546,0|2,0:0|0:3,0:0:0:0:
297,37,55692,6,0,P|285:94|290:129,1,68.250002603531,4|0,3:2|0:0,0:0:0:0:
318,178,56029,1,0,1:0:0:0:
182,147,56198,1,0,0:0:0:0:
165,150,56283,1,0,0:0:0:0:
148,154,56367,1,0,0:0:0:0:
131,158,56451,1,0,0:0:0:0:
114,162,56535,1,0,0:0:0:0:
6,222,56704,2,0,L|98:241,1,68.250002603531,0|0,1:0|0:0,0:0:0:0:
213,299,57041,6,0,P|224:256|214:207,1,68.250002603531,0|0,0:0|0:0,0:0:0:0:
38,359,57378,1,0,1:0:0:0:
129,332,57546,2,0,L|140:274,2,34.1250013017655,0|0|0,0:0|0:0|0:0,0:0:0:0:
210,382,57883,1,2,0:3:0:0:
213,299,58052,1,0,0:0:0:0:
357,354,58220,6,0,P|312:349|279:334,1,68.250002603531,0|2,0:0|0:0,0:0:0:0:
229,234,58558,1,0,0:0:0:0:
229,234,58642,1,0,0:0:0:0:
229,234,58726,2,0,P|211:287|219:320,1,68.250002603531,0|2,1:0|0:0,0:0:0:0:
259,146,59063,1,0,0:0:0:0:
233,137,59147,1,0,0:0:0:0:
206,142,59232,1,0,0:0:0:0:
179,148,59316,1,0,0:0:0:0:
152,143,59400,2,0,P|134:90|142:57,1,68.250002603531,0|0,1:0|0:0,0:0:0:0:
293,0,59737,6,0,P|285:31|288:68,1,68.250002603531
321,209,60074,1,0,1:0:0:0:
401,167,60243,2,0,L|405:211,2,34.1250013017655,0|0|0,0:0|0:0|0:0,0:0:0:0:
394,81,60580,1,2,0:3:0:0:
505,114,60749,2,0,L|494:199,1,68.250002603531,0|0,0:0|0:0,0:0:0:0:
494,198,61001,1,0,0:0:0:0:
492,215,61086,5,4,0:3:0:0:
443,353,61254,2,0,L|432:268,1,68.250002603531,0|0,0:0|1:0,0:0:0:0:
290,299,61591,1,0,0:0:0:0:
307,299,61676,1,0,0:0:0:0:
323,303,61760,1,0,0:0:0:0:
338,309,61844,1,0,0:0:0:0:
351,319,61928,1,0,0:0:0:0:
204,324,62097,2,0,L|215:239,1,68.250002603531,0|0,1:0|0:0,0:0:0:0:
117,126,62434,6,0,P|112:178|124:212,1,68.250002603531,0|0,0:0|0:0,0:0:0:0:
125,207,62687,1,0,0:0:0:0:
135,220,62771,1,0,1:0:0:0:
42,329,62940,1,0,0:0:0:0:
51,248,63108,1,0,0:0:0:0:
206,168,63277,2,0,L|252:161,2,34.1250013017655,2|0|0,0:3|0:0|0:0,0:0:0:0:
192,75,63614,1,0,0:0:0:0:
135,220,63782,6,0,P|158:245|205:258,1,68.250002603531,4|0,0:3|0:0,0:0:0:0:
326,207,64035,1,0,0:0:0:0:
338,195,64119,2,0,P|304:202|270:236,1,68.250002603531,0|2,1:2|0:0,0:0:0:0:
258,383,64456,2,0,P|268:350|255:303,1,68.250002603531,0|0,0:0|0:0,0:0:0:0:
189,257,64794,1,0,1:0:0:0:
406,281,64962,1,0,0:0:0:0:
406,281,65046,1,0,0:0:0:0:
406,281,65131,5,4,3:0:0:0:
256,192,65215,12,0,66816,0:0:0:0:
145,259,67153,6,0,L|146:309,1,45.5,2|0,0:0|0:0,0:0:0:0:
146,305,67827,6,0,B|173:240|173:240|134:136,1,163.799995001221,4|0,3:2|0:0,0:0:0:0:
1,258,68080,5,0,0:0:0:0:
21,264,68164,2,0,P|69:251|111:201,1,68.250002603531,10|0,0:0|0:0,0:0:0:0:
198,83,68333,2,0,P|168:65|135:59,1,68.250002603531,2|0,0:0|0:0,0:0:0:0:
193,241,68501,6,0,L|278:233,1,68.250002603531,2|0,0:0|0:0,0:0:0:0:
465,276,68670,1,0,3:0:0:0:
305,383,68838,6,0,B|358:321|340:218|340:218|377:298,1,245.699992501831,8|0,0:0|0:0,0:0:0:0:
382,315,69176,5,0,3:0:0:0:
512,180,69344,2,0,B|449:190|449:190|368:146,1,118.299994584656,0|8,0:0|0:0,0:0:0:0:
460,39,69597,1,0,0:0:0:0:
460,39,69681,2,0,L|466:131,1,59.149997292328,0|0,3:0|0:0,0:0:0:0:
506,260,69850,2,0,L|512:168,1,59.149997292328,2|0,0:0|0:0,0:0:0:0:
371,0,70018,6,0,P|364:57|382:102,1,68.250002603531,8|0,0:0|0:0,0:0:0:0:
302,191,70187,1,2,0:3:0:0:
302,191,70271,1,0,0:0:0:0:
302,191,70355,2,0,P|309:248|291:293,1,68.250002603531,2|0,0:3|0:0,0:0:0:0:
87,83,70524,6,0,B|183:74|145:120|249:112,1,163.799995001221,0|0,3:0|0:0,0:0:0:0:
171,231,70777,5,0,0:0:0:0:
164,215,70861,2,0,P|156:161|176:118,1,59.149997292328,8|0,0:0|0:0,0:0:0:0:
232,24,71029,6,0,P|189:57|141:62,1,59.149997292328,2|0,0:0|0:0,0:0:0:0:
33,60,71198,2,0,P|83:80|111:118,1,59.149997292328,2|0,0:0|0:0,0:0:0:0:
156,157,71367,1,0,3:0:0:0:
0,202,71535,6,0,B|164:215|164:215|59:259,1,245.699992501831,8|0,0:0|0:0,0:0:0:0:
65,260,71872,6,0,P|59:307|71:341,1,68.250002603531,2|0,3:0|0:0,0:0:0:0:
256,320,72041,1,0,0:0:0:0:
256,320,72125,2,0,P|261:286|255:253,1,68.250002603531,2|8,0:3|0:0,0:0:0:0:
160,293,72294,1,0,0:0:0:0:
160,293,72378,1,2,3:0:0:0:
455,171,72546,6,2,B|414:167|391:138|391:138|345:165|345:165|299:138|299:138|273:173|212:167,1,245.699992501831,0|0,0:0|0:0,0:1:0:0:
227,178,72883,6,0,L|220:96,1,59.149997292328,0|0,3:0|0:0,0:0:0:0:
218,40,73052,1,0,0:0:0:0:
460,90,73220,6,0,P|367:61|310:106,1,163.799995001221,2|0,3:2|0:0,0:0:0:0:
487,187,73473,5,0,0:0:0:0:
492,167,73558,2,0,P|491:115|454:76,1,68.250002603531,10|0,0:0|0:0,0:0:0:0:
345,198,73726,2,0,B|327:252|327:252|362:346,1,136.500005207062,2|2,0:0|0:0,0:0:0:0:
367,349,73979,1,0,0:0:0:0:
375,368,74063,1,0,3:0:0:0:
512,259,74232,6,0,B|480:379|480:379|427:262,1,245.699992501831,8|0,0:0|0:0,0:0:0:0:
416,242,74569,5,0,3:0:0:0:
256,327,74737,1,0,0:3:0:0:
256,327,74822,1,0,0:0:0:0:
256,327,74906,1,8,0:0:0:0:
242,140,75074,1,0,3:0:0:0:
56,210,75243,5,2,0:2:0:0:
96,201,75327,1,0,0:0:0:0:
136,210,75411,1,8,0:0:0:0:
176,221,75495,1,0,0:0:0:0:
217,215,75580,2,0,P|224:180|217:138,1,59.149997292328,2|0,0:3|0:0,0:0:0:0:
93,291,75749,2,0,P|91:320|99:348,1,59.149997292328,2|0,0:3|0:3,0:0:0:0:
86,47,75917,6,0,B|62:109|62:109|104:224,1,163.799995001221,0|0,3:0|0:0,0:0:0:0:
247,73,76170,1,0,0:0:0:0:
227,67,76254,2,0,P|175:78|146:107,1,68.250002603531,10|0,0:0|0:0,0:0:0:0:
31,181,76423,2,0,P|60:197|94:200,1,68.250002603531,2|0,0:0|0:0,0:0:0:0:
313,278,76591,6,0,L|313:177,1,68.250002603531,2|0,0:3|0:0,0:0:0:0:
312,130,76760,1,2,3:2:0:0:
215,384,76928,6,2,B|217:292|217:292|200:262|200:262|218:234|218:234|221:149,1,245.699992501831,8|0,0:0|0:0,0:1:0:0:
221,148,77265,6,0,P|188:196|214:279,1,136.5,0|0,3:0|0:0,0:0:0:0:
215,288,77603,1,8,0:0:0:0:
270,216,77771,1,0,3:0:0:0:
431,284,77940,6,2,B|366:269|366:317|288:299,1,136.500005207062,4|2,0:0|0:3,0:0:0:0:
393,11,78614,6,0,B|364:72|364:72|418:193,1,163.799995001221,4|0,3:2|0:0,0:0:0:0:
234,73,78867,1,0,0:0:0:0:
255,74,78951,2,0,L|360:82,1,68.250002603531,10|0,0:0|0:0,0:0:0:0:
488,152,79119,2,0,L|383:160,1,68.250002603531,2|0,0:0|0:0,0:0:0:0:
177,190,79288,6,0,P|172:230|188:276,1,68.250002603531,2|0,0:0|0:0,0:0:0:0:
329,358,79456,1,0,3:0:0:0:
120,326,79625,6,0,B|96:293|96:293|173:323|258:293|258:293|221:349,1,245.699992501831,8|0,0:0|0:0,0:0:0:0:
220,354,79962,5,0,3:0:0:0:
208,99,80131,2,0,B|146:98|146:98|103:140,1,118.299994584656,0|8,0:0|0:0,0:0:0:0:
186,251,80383,1,0,0:0:0:0:
186,251,80468,2,0,L|190:175,1,59.149997292328,0|0,3:0|0:0,0:0:0:0:
135,0,80636,2,0,L|139:76,1,59.149997292328,2|0,0:0|0:0,0:0:0:0:
27,153,80805,6,0,P|72:148|117:167,1,68.250002603531,8|0,0:0|0:0,0:0:0:0:
230,112,80973,2,0,P|275:117|320:98,1,68.250002603531,2|0,0:3|0:0,0:0:0:0:
454,164,81142,1,2,0:3:0:0:
449,130,81226,1,0,0:0:0:0:
440,81,81310,6,0,B|410:123|410:123|432:258,1,163.799995001221,0|0,3:0|0:0,0:0:0:0:
490,378,81563,5,0,0:0:0:0:
498,359,81647,2,0,P|504:332|492:277,1,68.250002603531,8|0,0:0|0:0,0:0:0:0:
311,93,81816,6,0,P|305:126|311:159,1,68.250002603531,2|0,0:0|0:0,0:0:0:0:
413,326,81985,2,0,P|379:331|346:325,1,68.250002603531,2|0,0:0|0:0,0:0:0:0:
139,252,82153,1,0,3:0:0:0:
284,250,82322,6,0,B|214:307|139:252|139:252|167:206|207:204,1,245.699992501831,8|0,0:0|0:0,0:0:0:0:
26,157,82659,6,0,P|59:151|97:158,1,68.250002603531,2|0,3:0|0:0,0:0:0:0:
104,384,82827,1,0,0:0:0:0:
104,384,82911,2,0,P|82:357|69:322,1,68.250002603531,2|8,0:3|0:0,0:0:0:0:
180,120,83080,1,0,0:0:0:0:
180,120,83164,1,2,3:0:0:0:
60,239,83333,6,2,B|62:156|62:156|48:107|48:107|47:29|47:29|83:66,1,245.699992501831,4|0,0:0|0:0,0:1:0:0:
90,76,83670,6,0,L|88:148,1,59.149997292328,0|0,3:0|0:0,0:0:0:0:
83,257,83838,1,0,0:0:0:0:
303,87,84007,6,0,P|214:82|161:9,1,163.799995001221,4|0,3:2|0:0,0:0:0:0:
383,29,84260,5,0,0:0:0:0:
375,48,84344,2,0,P|359:73|317:96,1,68.250002603531,10|0,0:0|0:0,0:0:0:0:
284,352,84513,2,0,B|251:303|251:303|275:184,1,136.500005207062,2|2,0:0|0:0,0:0:0:0:
270,207,84765,1,0,0:0:0:0:
275,187,84850,1,0,3:0:0:0:
464,332,85018,6,0,B|489:289|489:289|349:286|349:286|388:345,1,245.699992501831,8|0,0:0|0:0,0:0:0:0:
395,359,85355,5,0,3:0:0:0:
254,284,85524,1,0,0:0:0:0:
254,284,85608,1,0,0:0:0:0:
254,284,85692,1,8,0:0:0:0:
380,197,85861,1,0,3:0:0:0:
260,0,86029,5,2,0:0:0:0:
276,38,86114,1,0,0:0:0:0:
268,79,86198,1,8,0:0:0:0:
259,119,86282,1,0,0:0:0:0:
276,156,86367,2,0,L|306:231,1,59.149997292328,2|0,0:3|0:0,0:0:0:0:
443,70,86535,1,8,0:0:0:0:
394,81,86619,1,8,0:0:0:0:
358,117,86704,6,0,P|407:75|508:110,1,163.799995001221,4|0,3:2|0:0,0:0:0:0:
259,119,86956,1,0,0:0:0:0:
231,126,87041,2,0,P|170:104|146:71,1,81.8999975006104,10|0,0:0|0:0,0:0:0:0:
381,284,87209,6,0,B|336:358|336:358|308:166,1,245.699992501831,2|0,0:0|0:0,0:0:0:0:
401,201,87546,1,0,3:0:0:0:
308,383,87715,6,0,L|293:281,1,102.375003905296,8|0,0:0|0:0,0:0:0:0:
293,281,88052,6,0,B|216:261|216:325|116:293,1,163.799995001221,4|0,3:2|0:0,0:0:0:0:
2,223,88305,1,0,0:0:0:0:
21,207,88389,2,0,P|47:198|111:220,1,81.8999975006104,8|0,0:0|0:0,0:0:0:0:
227,186,88558,6,0,P|144:186|231:117,1,245.699992501831,4|0,3:2|0:0,0:0:0:0:
238,114,88895,1,8,0:0:0:0:
476,99,89063,1,0,0:3:0:0:
427,92,89147,1,0,0:3:0:0:
379,106,89232,1,0,0:3:0:0:
353,148,89316,1,0,0:3:0:0:
435,177,89400,5,4,3:2:0:0:
256,192,89485,12,0,94794,0:0:0:0:
384,52,111142,6,0,L|380:148,1,91,0|0,0:0|0:0,0:0:0:0:
312,191,111647,2,0,L|313:236,2,45.5,0|0|0,0:0|0:0|0:0,0:0:0:0:
203,118,112153,6,0,B|287:104|287:165|387:141,1,182,0|0,0:0|0:0,0:0:0:0:
447,197,112996,2,0,P|462:169|459:108,1,91,0|0,0:0|0:0,0:0:0:0:
404,284,113501,6,0,B|351:282|316:242|316:242|231:277|231:277|183:260|142:277,1,273.000010414124,2|0,0:0|0:0,0:0:0:0:
152,274,114513,1,0,0:0:0:0:
11,229,114681,2,0,L|97:232,1,68.250002603531,0|0,0:0|0:0,0:0:0:0:
137,68,115018,6,0,B|162:171|79:232|79:232|36:147,1,273,2|0,0:0|0:0,0:0:0:0:
137,68,116535,6,0,P|111:19|64:0,1,91,0|0,0:0|0:0,0:0:0:0:
163,140,117041,2,0,P|166:100|160:80,2,45.5,0|0|0,0:0|0:0|0:0,0:0:0:0:
276,38,117546,6,0,B|256:109|256:109|299:219,1,182,0|0,0:0|0:0,0:0:0:0:
295,209,118558,2,0,P|255:195|198:206,1,91,0|0,0:0|0:0,0:0:0:0:
369,262,119063,6,0,L|380:162,1,91,2|0,0:0|0:0,0:0:0:0:
272,0,119569,2,0,L|287:138,1,136.500005207062,0|0,0:0|0:0,0:0:0:0:
297,223,120074,1,0,0:0:0:0:
286,135,120243,1,0,0:0:0:0:
218,188,120411,6,0,B|170:212|116:177|116:177|125:230,1,136.500005207062,2|0,0:0|0:0,0:0:0:0:
167,336,120917,2,0,P|182:285|234:369,1,227.5,2|0,0:0|3:0,0:0:0:0:
236,367,121928,5,0,0:0:0:0:
397,333,122434,2,0,L|456:337,2,45.5,0|0|0,0:0|0:0|0:0,0:0:0:0:
438,254,122940,6,0,B|371:249|371:249|330:269|330:269|260:264,1,182,0|0,0:0|0:0,0:0:0:0:
260,264,123782,2,0,P|244:212|251:167,1,91,0|0,0:0|0:0,0:0:0:0:
397,49,124288,6,0,B|411:141|335:191|335:191|342:127|290:96,1,273.000010414124,2|0,0:0|0:0,0:0:0:0:
293,98,125299,2,0,L|206:93,1,68.250002603531,0|0,0:0|0:0,0:0:0:0:
156,145,125636,1,0,0:0:0:0:
261,325,125805,6,0,B|323:287|353:215|284:155|242:155|190:215|225:253,1,273,2|0,0:0|0:0,0:0:0:0:
218,243,127322,6,0,B|261:229|261:229|321:239,1,91,0|0,0:0|0:0,0:0:0:0:
385,275,127827,2,0,L|441:271,2,45.5,0|0|0,0:0|0:0|0:0,0:0:0:0:
381,190,128333,1,0,0:0:0:0:
381,190,129344,5,2,0:0:0:0:
351,47,129513,1,0,0:0:0:0:
437,103,129681,1,0,0:0:0:0:
294,133,129850,6,0,B|229:129|229:170|140:152,1,136.500005207062,2|0,0:0|0:0,0:0:0:0:
69,54,130355,2,0,P|113:75|193:33,1,136.500005207062,0|0,0:0|0:0,0:0:0:0:
69,54,130861,2,0,L|71:127,1,68.250002603531,0|0,0:0|0:0,0:0:0:0:
125,357,131198,5,2,0:0:0:0:
175,285,131367,2,0,L|199:281,2,22.75,0|0|0,0:0|0:0|0:0,0:0:0:0:
0,261,131704,2,0,L|90:280,1,91,0|0,0:0|0:0,0:0:0:0:
89,279,132209,1,0,0:0:0:0:
89,279,132546,6,0,P|123:242|124:187,1,91,4|0,3:2|0:0,0:0:0:0:
105,125,132799,1,0,0:0:0:0:
105,125,132883,1,8,0:0:0:0:
251,260,133052,2,0,L|200:267,1,45.5,2|0,0:0|0:0,0:0:0:0:
141,363,133220,5,2,0:0:0:0:
141,363,133305,2,0,L|192:370,1,45.5,0|0,0:3|3:3,0:0:0:0:
331,329,133473,1,2,0:0:0:0:
331,329,133558,2,0,L|382:336,1,45.5,8|0,0:0|0:0,0:0:0:0:
344,157,133726,2,0,L|293:164,1,45.5,2|0,0:0|0:0,0:0:0:0:
503,255,133895,6,0,B|453:227|453:227|341:244,1,136.5,0|0,3:0|0:0,0:0:0:0:
338,245,134232,1,8,0:0:0:0:
341,83,134400,1,0,3:0:0:0:
341,83,134485,1,0,0:0:0:0:
341,83,134569,6,0,P|331:118|336:151,1,54.5999983337403,2|0,0:3|0:0,0:0:0:0:
458,188,134737,2,0,P|476:154|468:76,1,109.199996667481,8|0,0:0|0:0,0:0:0:0:
503,10,134990,1,0,0:0:0:0:
476,3,135074,1,2,0:3:0:0:
448,6,135159,1,2,0:3:0:0:
424,18,135243,6,0,B|347:13|347:65|262:47,1,163.799995001221,0|0,3:0|0:0,0:0:0:0:
224,33,135580,1,8,0:0:0:0:
62,81,135749,2,0,P|55:112|57:139,1,45.5,2|0,0:0|0:0,0:0:0:0:
204,226,135917,5,2,0:0:0:0:
204,226,136001,2,0,L|253:194,1,45.5,0|0,0:0|3:0,0:0:0:0:
106,239,136170,1,2,0:0:0:0:
106,239,136254,2,0,L|53:212,1,45.5,8|0,0:0|0:0,0:0:0:0:
166,317,136423,2,0,L|168:375,1,45.5,2|0,0:0|0:3,0:0:0:0:
145,148,136591,6,0,P|144:107|176:51,1,91,0|0,3:0|0:0,0:0:0:0:
240,23,136844,1,0,0:0:0:0:
240,23,136928,1,8,0:0:0:0:
234,123,137097,1,0,3:0:0:0:
369,69,137265,6,0,L|297:78,1,54.5999983337403,2|0,0:3|0:0,0:0:0:0:
222,212,137434,2,0,B|265:230|265:230|344:200,1,109.199996667481,8|0,0:0|0:0,0:0:0:0:
384,155,137687,1,0,0:0:0:0:
372,185,137771,1,2,0:3:0:0:
369,217,137855,1,2,0:3:0:0:
381,247,137940,5,0,3:0:0:0:
263,321,138108,2,0,L|338:325,1,45.5,2|0,0:0|0:0,0:0:0:0:
463,330,138277,1,8,0:0:0:0:
253,339,138445,2,0,L|328:343,1,45.5,2|0,0:3|0:0,0:0:0:0:
472,204,138614,5,2,0:0:0:0:
471,204,138698,2,0,P|481:183|486:161,1,45.5,0|0,0:0|3:0,0:0:0:0:
349,106,138867,1,2,0:0:0:0:
348,105,138951,2,0,P|353:126|364:147,1,45.5,8|0,0:0|0:0,0:0:0:0:
465,24,139119,2,0,P|459:45|448:66,1,45.5,2|0,0:0|0:0,0:0:0:0:
258,76,139288,6,0,L|148:71,1,91,0|0,3:0|0:0,0:0:0:0:
96,26,139541,1,0,0:0:0:0:
96,26,139625,1,8,0:0:0:0:
167,185,139794,2,0,L|222:182,1,45.5,2|0,3:2|0:0,0:0:0:0:
65,127,139962,6,0,P|32:120|-24:133,1,63.6999980560303,2|0,0:3|0:0,0:0:0:0:
4,297,140131,2,0,P|70:297|127:239,1,127.399996112061,8|0,0:0|0:0,0:0:0:0:
167,185,140383,1,0,0:0:0:0:
218,179,140468,1,2,0:3:0:0:
266,194,140552,1,2,0:3:0:0:
292,237,140636,6,0,B|329:239|357:222|357:222|396:247|396:247|429:226|484:242,1,191.099994168091,0|0,3:2|0:0,0:0:0:0:
510,258,140973,1,8,0:0:0:0:
343,372,141142,2,0,P|341:332|358:296,1,54.5999983337403,2|0,0:0|0:0,0:0:0:0:
413,150,141310,5,2,0:0:0:0:
413,150,141395,2,0,L|429:79,1,54.5999983337403,0|0,0:0|3:0,0:0:0:0:
204,21,141563,1,2,0:0:0:0:
204,21,141648,2,0,L|220:92,1,54.5999983337403,8|0,0:0|0:0,0:0:0:0:
350,58,141816,2,0,L|366:-13,1,54.5999983337403,2|0,0:0|0:0,0:0:0:0:
185,162,141985,6,0,B|130:145|130:145|73:159,1,109.199996667481,0|0,3:0|0:0,0:0:0:0:
4,193,142237,1,0,0:0:0:0:
4,193,142322,1,8,0:0:0:0:
127,232,142490,1,0,3:0:0:0:
40,321,142659,6,0,P|81:322|116:347,1,54.5999983337403,2|0,0:3|0:0,0:0:0:0:
156,381,142827,1,8,0:0:0:0:
181,371,142912,1,0,0:0:0:0:
206,361,142996,1,0,0:0:0:0:
231,351,143081,1,0,0:0:0:0:
256,341,143164,2,0,L|326:312,1,45.5,0|0,0:0|0:0,0:0:0:0:
206,108,143333,6,0,B|184:161|184:161|211:237,1,136.5,4|0,3:2|0:0,0:0:0:0:
225,270,143670,1,8,0:0:0:0:
377,358,143838,2,0,P|382:329|375:293,1,45.5,2|0,0:0|0:0,0:0:0:0:
468,221,144007,5,2,0:0:0:0:
468,221,144091,2,0,P|440:231|412:255,1,45.5,0|0,0:0|3:0,0:0:0:0:
303,211,144260,1,2,0:0:0:0:
303,211,144344,2,0,P|325:229|360:241,1,45.5,8|0,0:0|0:0,0:0:0:0:
483,129,144513,2,0,P|488:100|481:64,1,45.5,2|0,0:0|0:0,0:0:0:0:
364,0,144681,6,0,B|387:86|339:48|370:139,1,136.5,0|0,3:0|0:0,0:0:0:0:
387,164,145018,1,8,0:0:0:0:
253,73,145187,2,0,P|248:44|255:8,1,45.5,0|0,3:0|0:0,0:0:0:0:
300,212,145355,6,0,P|294:254|278:277,1,54.5999983337403,2|0,0:3|0:0,0:0:0:0:
117,151,145524,2,0,L|241:158,1,109.199996667481,8|0,0:0|0:0,0:0:0:0:
170,69,145777,1,0,0:0:0:0:
142,67,145861,1,2,0:3:0:0:
115,65,145945,1,2,0:3:0:0:
88,64,146029,6,0,B|121:112|93:160|93:160|67:199|93:245,1,163.799995001221,0|0,3:2|0:0,0:0:0:0:
91,255,146367,1,8,0:0:0:0:
29,365,146535,2,0,L|23:299,1,45.5,2|0,0:0|0:0,0:0:0:0:
187,254,146704,5,2,0:0:0:0:
187,254,146788,2,0,L|182:299,1,45.5,0|0,0:0|3:0,0:0:0:0:
78,173,146956,1,2,0:0:0:0:
78,173,147041,2,0,L|82:218,1,45.5,8|0,0:0|0:0,0:0:0:0:
253,168,147209,2,0,L|257:122,1,45.5,2|0,0:0|0:0,0:0:0:0:
166,0,147378,6,0,P|139:65|153:116,1,91,0|0,3:0|0:0,0:0:0:0:
168,164,147631,1,0,0:0:0:0:
168,164,147715,1,8,0:0:0:0:
318,57,147883,1,0,3:0:0:0:
168,164,148052,6,0,P|165:200|178:253,1,63.6999980560303,2|0,0:3|0:0,0:0:0:0:
346,324,148220,2,0,P|311:286|233:281,1,127.399996112061,8|0,0:0|0:0,0:0:0:0:
316,231,148473,1,0,0:0:0:0:
366,237,148558,1,2,0:3:0:0:
409,214,148642,1,2,0:3:0:0:
423,165,148726,6,0,B|433:32|433:32|373:82,1,191.099994168091,0|0,3:2|0:0,0:0:0:0:
356,98,149063,1,8,0:0:0:0:
512,16,149232,2,0,L|507:91,1,54.5999983337403,2|0,0:0|0:0,0:0:0:0:
263,132,149400,5,2,0:0:0:0:
263,132,149485,2,0,P|255:105|262:62,1,54.5999983337403,0|0,0:0|3:0,0:0:0:0:
336,241,149653,1,2,0:0:0:0:
336,241,149738,2,0,P|363:247|397:275,1,54.5999983337403,8|0,0:0|0:0,0:0:0:0:
201,238,149906,2,0,P|181:258|140:273,1,54.5999983337403,2|0,0:0|0:3,0:0:0:0:
178,32,150074,5,0,3:0:0:0:
0,101,150243,2,0,L|79:108,1,54.5999983337403,2|0,0:0|0:0,0:0:0:0:
178,32,150411,2,0,L|123:27,1,54.5999983337403,8|0,0:0|0:0,0:0:0:0:
79,108,150580,1,0,3:0:0:0:
201,238,150749,6,0,P|202:204|179:155,1,54.5999983337403,2|0,0:3|0:0,0:0:0:0:
31,224,150917,2,0,B|16:275|16:275|40:350,1,109.199996667481,8|0,0:0|0:0,0:0:0:0:
121,315,151170,1,0,0:0:0:0:
148,313,151254,1,2,0:3:0:0:
174,319,151338,1,2,0:3:0:0:
199,329,151423,6,0,B|279:305|279:376|382:325,1,163.799995001221,4|0,3:2|0:0,0:0:0:0:
449,294,151760,2,0,P|380:307|352:354,1,109.199996667481,8|0,0:0|0:0,0:0:0:0:
437,380,152013,1,0,0:0:0:0:
437,380,152097,5,0,0:0:0:0:
374,252,152265,1,0,3:0:0:0:
437,380,152434,1,8,0:0:0:0:
500,203,152603,2,0,L|487:119,1,54.5999983337403,2|0,0:0|0:0,0:0:0:0:
365,24,152771,6,0,P|343:75|362:136,1,91,0|0,3:0|0:0,0:0:0:0:
400,178,153024,1,2,0:0:0:0:
400,178,153108,1,8,0:0:0:0:
365,24,153277,1,0,3:0:0:0:
147,165,153445,6,2,P|142:112|217:189,1,273.000010414124,8|0,3:0|0:0,0:0:0:0:
232,180,154456,6,2,B|147:165|147:165|97:208,1,136.5,0|0,0:0|0:0,0:0:0:0:
109,198,154794,2,0,L|34:195,2,68.25,0|0|0,1:0|3:0|0:0,0:0:0:0:
19,42,155468,6,0,B|85:45|85:45|129:25|129:25|198:27,1,163.799995001221,4|0,3:2|0:0,0:0:0:0:
319,125,155720,1,0,0:0:0:0:
326,152,155805,2,0,P|319:198|274:244,1,68.250002603531,10|0,0:0|0:0,0:0:0:0:
119,124,155973,2,0,P|104:93|101:59,1,68.250002603531,2|0,0:0|0:0,0:0:0:0:
261,0,156142,6,0,L|253:85,1,68.250002603531,2|0,0:0|0:0,0:0:0:0:
239,272,156310,1,0,3:0:0:0:
74,266,156479,6,0,B|157:325|238:271|238:271|157:211,1,245.699992501831,8|0,0:0|0:0,0:0:0:0:
155,211,156816,5,0,3:0:0:0:
333,245,156985,2,0,B|340:308|340:308|296:360,1,118.299994584656,0|8,0:0|0:0,0:0:0:0:
426,272,157237,1,0,0:0:0:0:
426,272,157322,2,0,L|434:196,1,59.149997292328,0|0,3:0|0:0,0:0:0:0:
232,212,157490,2,0,L|238:270,1,59.149997292328,2|0,0:0|0:0,0:0:0:0:
475,139,157659,6,0,P|442:127|399:133,1,68.250002603531,8|0,0:0|0:0,0:0:0:0:
297,87,157827,1,2,0:3:0:0:
297,87,157911,1,0,0:0:0:0:
297,87,157996,2,0,P|264:99|221:93,1,68.250002603531,2|0,0:3|0:0,0:0:0:0:
468,29,158164,6,0,B|367:22|420:74|293:62,1,163.799995001221,0|0,3:0|0:0,0:0:0:0:
140,121,158417,5,0,0:0:0:0:
137,103,158501,2,0,L|126:30,1,59.149997292328,8|0,0:0|0:0,0:0:0:0:
215,191,158670,6,0,L|283:217,1,59.149997292328,2|0,0:0|0:0,0:0:0:0:
99,214,158838,2,0,L|41:260,1,59.149997292328,2|0,0:0|0:0,0:0:0:0:
225,106,159007,1,0,3:0:0:0:
165,378,159176,6,0,B|144:332|167:275|167:275|33:374,1,245.699992501831,8|0,0:0|0:0,0:0:0:0:
33,375,159513,6,0,P|36:332|19:284,1,68.250002603531,2|0,3:0|0:0,0:0:0:0:
101,146,159681,1,0,0:0:0:0:
101,146,159765,2,0,P|94:179|98:213,1,68.250002603531,2|8,0:3|0:0,0:0:0:0:
167,274,159934,1,0,0:0:0:0:
167,274,160018,1,2,3:0:0:0:
481,206,160187,6,2,B|428:206|401:171|401:171|392:218|354:231|354:231|309:209|254:232,1,245.699992501831,0|0,0:0|0:0,0:1:0:0:
263,239,160524,6,0,P|250:285|259:335,1,59.149997292328,0|0,3:0|0:0,0:0:0:0:
285,377,160692,1,0,0:0:0:0:
345,51,160861,6,0,P|331:113|234:109,1,163.799995001221,2|0,3:2|0:0,0:0:0:0:
416,9,161114,1,0,0:0:0:0:
436,12,161198,2,0,L|518:21,1,68.250002603531,10|0,0:0|0:0,0:0:0:0:
219,37,161367,2,0,B|169:37|169:37|138:55|138:55|54:55,1,136.500005207062,2|2,0:0|0:0,0:0:0:0:
66,54,161619,1,0,0:0:0:0:
45,54,161704,1,0,3:0:0:0:
201,351,161872,6,0,B|175:296|210:234|210:234|242:182|204:120,1,204.750007810593,8|0,0:0|0:0,0:0:0:0:
203,126,162209,5,0,3:0:0:0:
285,307,162378,1,0,0:3:0:0:
285,307,162462,1,0,0:0:0:0:
285,307,162546,1,8,0:0:0:0:
203,126,162715,1,0,3:0:0:0:
20,248,162883,5,2,0:2:0:0:
59,235,162968,1,0,0:0:0:0:
99,244,163052,1,8,0:0:0:0:
127,273,163136,1,0,0:0:0:0:
166,260,163220,2,0,P|181:230|180:185,1,59.149997292328,2|0,0:3|0:0,0:0:0:0:
87,55,163389,2,0,P|90:84|104:110,1,59.149997292328,2|0,0:3|0:3,0:0:0:0:
272,148,163558,6,0,B|330:122|330:122|436:162,1,163.799995001221,0|0,3:0|0:0,0:0:0:0:
280,317,163810,1,0,0:0:0:0:
269,299,163895,2,0,P|266:252|283:210,1,68.250002603531,10|0,0:0|0:0,0:0:0:0:
498,219,164063,2,0,P|458:245|413:251,1,68.250002603531,2|0,0:0|0:0,0:0:0:0:
362,379,164232,6,0,L|362:287,1,68.250002603531,2|0,0:3|0:0,0:0:0:0:
362,95,164400,1,2,3:2:0:0:
108,237,164569,6,2,B|193:234|193:234|221:216|221:216|251:233|251:233|343:231,1,245.699992501831,8|0,0:0|0:0,0:1:0:0:
343,230,164906,6,0,P|328:170|296:147,1,91,0|0,3:0|0:0,0:0:0:0:
287,142,165159,1,0,0:0:0:0:
287,142,165243,1,8,0:0:0:0:
221,216,165411,1,0,3:0:0:0:
316,11,165580,6,2,B|318:98|282:56|287:152,1,136.500005207062,4|2,0:0|0:3,0:0:0:0:
22,104,166254,6,0,B|117:78|117:78|180:98,1,163.799995001221,4|0,3:2|0:0,0:0:0:0:
146,326,166507,1,0,0:0:0:0:
126,340,166591,2,0,P|85:342|47:328,1,68.250002603531,10|0,0:0|0:0,0:0:0:0:
238,198,166760,2,0,P|276:184|335:194,1,68.250002603531,2|0,0:0|0:0,0:0:0:0:
105,55,166928,6,0,L|107:170,1,68.250002603531,2|0,0:0|0:0,0:0:0:0:
103,251,167096,1,0,3:0:0:0:
282,44,167265,6,0,B|227:109|238:198|238:198|201:89,1,245.699992501831,8|0,0:0|0:0,0:0:0:0:
202,90,167603,5,0,3:0:0:0:
246,308,167771,2,0,B|262:253|262:253|231:182,1,118.299994584656,0|8,0:0|0:0,0:0:0:0:
103,251,168024,1,0,0:0:0:0:
103,251,168108,2,0,L|176:256,1,59.149997292328,0|0,3:0|0:0,0:0:0:0:
279,380,168277,2,0,L|352:385,1,59.149997292328,2|0,0:0|0:0,0:0:0:0:
476,252,168445,6,0,P|489:210|487:163,1,68.250002603531,8|0,0:0|0:0,0:0:0:0:
246,308,168614,2,0,P|248:341|260:374,1,68.250002603531,2|0,0:3|0:0,0:0:0:0:
360,167,168782,1,2,0:3:0:0:
363,201,168867,1,0,0:0:0:0:
364,250,168951,6,0,P|375:187|294:198,1,163.799995001221,0|0,3:0|0:0,0:0:0:0:
360,339,169204,1,0,0:0:0:0:
360,318,169288,2,0,L|364:229,1,68.250002603531,8|0,0:0|0:0,0:0:0:0:
265,277,169456,6,0,L|208:241,1,68.250002603531,2|0,0:0|0:0,0:0:0:0:
454,294,169625,2,0,L|512:258,1,68.250002603531,2|0,0:0|0:0,0:0:0:0:
367,179,169794,1,0,3:0:0:0:
509,5,169962,6,0,B|482:163|482:163|432:87,1,245.699992501831,8|0,0:0|0:0,0:0:0:0:
421,68,170299,6,0,P|373:71|330:105,1,68.250002603531,2|0,3:0|0:0,0:0:0:0:
189,105,170468,1,0,0:0:0:0:
189,105,170552,2,0,P|237:108|280:142,1,68.250002603531,2|8,0:3|0:0,0:0:0:0:
283,16,170720,1,0,0:0:0:0:
283,16,170805,1,2,3:0:0:0:
133,181,170973,6,2,B|97:154|91:105|91:105|118:225|61:305,1,245.699992501831,4|0,0:0|0:0,0:1:0:0:
72,286,171310,6,0,L|149:275,1,59.149997292328,0|0,3:0|0:0,0:0:0:0:
221,263,171479,1,0,0:0:0:0:
14,380,171647,6,0,L|206:352,1,163.799995001221,4|0,3:2|0:0,0:0:0:0:
299,297,171900,1,0,0:0:0:0:
283,284,171985,2,0,P|252:266|205:266,1,68.250002603531,10|0,0:0|0:0,0:0:0:0:
332,383,172153,2,0,B|383:365|389:301|389:301|419:378,1,136.500005207062,2|2,0:0|0:0,0:0:0:0:
404,349,172406,1,0,0:0:0:0:
409,368,172490,1,0,3:0:0:0:
460,107,172659,6,0,B|465:69|421:36|421:36|343:97|406:176,1,245.699992501831,8|0,0:0|0:0,0:0:0:0:
426,196,172996,5,0,3:0:0:0:
285,121,173164,1,0,0:0:0:0:
285,121,173249,1,0,0:0:0:0:
285,121,173333,1,8,0:0:0:0:
421,36,173501,1,0,3:0:0:0:
211,60,173670,5,2,0:0:0:0:
170,50,173754,1,0,0:0:0:0:
130,61,173838,1,8,0:0:0:0:
105,95,173923,1,0,0:0:0:0:
64,89,174007,2,0,P|31:81|0:85,1,59.149997292328,2|0,0:3|0:0,0:0:0:0:
107,310,174176,1,8,0:0:0:0:
140,272,174260,1,8,0:0:0:0:
141,221,174344,6,0,P|140:272|46:316,1,163.799995001221,4|0,3:2|0:0,0:0:0:0:
186,139,174597,1,0,0:0:0:0:
214,133,174681,2,0,P|250:128|294:148,1,81.8999975006104,10|0,0:0|0:0,0:0:0:0:
510,281,174850,6,0,B|399:264|399:354|253:312,1,245.699992501831,2|0,0:0|0:0,0:0:0:0:
316,227,175187,1,0,3:0:0:0:
495,307,175355,6,0,P|454:308|399:340,1,102.375003905296,8|0,0:0|0:0,0:0:0:0:
434,205,175692,6,0,B|448:90|448:90|389:143,1,163.799995001221,4|0,3:2|0:0,0:0:0:0:
242,46,175945,1,0,0:0:0:0:
265,57,176029,2,0,P|319:64|376:38,1,81.8999975006104,8|0,0:0|0:0,0:0:0:0:
289,307,176198,6,0,B|268:182|268:182|187:304,1,245.699992501831,4|0,3:2|0:0,0:0:0:0:
185,310,176535,1,8,0:0:0:0:
36,199,176704,1,0,0:3:0:0:
81,218,176788,1,0,0:3:0:0:
129,210,176872,1,0,0:3:0:0:
162,174,176956,1,0,0:3:0:0:
161,85,177041,6,0,B|213:86|240:130|240:130|280:194|377:159|377:159|333:161|310:136,1,318.5,4|0,3:2|0:0,0:0:0:0:
368,73,179569,6,0,B|380:72|397:75|397:75|420:54|429:26|429:26|423:63|429:83|429:83|461:105|484:160|473:228|385:250|385:250|417:265|417:265|360:274|343:322|363:378|415:393|459:387|488:356|482:301|417:319,1,682.5,0|0,0:0|0:0,0:0:0:0:
273,289,182265,1,2,0:0:0:0:
277,302,182350,1,2,0:0:0:0:
281,314,182434,6,0,L|199:304,1,68.250002603531,0|0,0:0|0:0,0:0:0:0:
179,301,182771,1,0,0:0:0:0:
0,290,182940,2,0,P|49:288|93:323,1,102.375003905296,0|0,0:0|0:0,0:0:0:0:
98,333,183277,2,0,L|88:251,1,68.250002603531,0|0,0:0|0:0,0:0:0:0:
124,85,183614,6,0,P|118:134|63:174,1,102.375003905296,2|0,0:0|0:0,0:0:0:0:
66,177,183951,2,0,P|100:176|142:197,1,68.250002603531,0|0,0:0|0:0,0:0:0:0:
208,228,184288,2,0,B|274:212|275:256|351:234,1,136.500005207062,2|0,0:0|0:0,0:0:0:0:
341,236,184794,2,0,P|332:277|341:324,1,68.250002603531
449,356,185131,6,0,B|519:315|530:181|450:124|450:124|409:209,1,341.250013017655,2|0,0:0|0:0,0:0:0:0:
261,60,186142,6,0,P|282:124|323:29,1,238.875009112358,2|0,0:0|0:0,0:0:0:0:
351,40,186816,2,0,B|392:56|392:56|448:39,2,102.375003905296
261,60,187490,2,0,L|163:54,1,68.250002603531,0|0,0:0|0:0,0:0:0:0:
100,96,187827,6,0,B|171:100|171:100|242:137|242:137|339:141,1,227.5,2|0,0:0|0:0,0:0:0:0:
447,221,188838,1,0,0:0:0:0:
447,221,189007,6,0,P|385:223|350:253,1,102.375003905296,2|0,0:0|0:0,0:0:0:0:
345,261,189344,2,0,L|269:243,1,68.250002603531,0|0,0:0|0:0,0:0:0:0:
240,334,189681,2,0,B|306:319|306:361|377:342,1,136.500005207062,2|0,0:0|0:0,0:0:0:0:
344,260,190187,2,0,P|305:245|256:247,1,68.250002603531,0|0,0:0|0:0,0:0:0:0:
156,292,190524,5,2,0:0:0:0:
256,192,190608,12,0,198277,0:0:0:0:
73,221,198614,6,0,B|13:160|54:59|54:59|53:108|83:134,1,250.25,0|0,0:0|0:0,0:0:0:0:
78,129,200805,6,0,B|149:122|158:174|234:162,1,159.25,2|0,0:0|0:0,0:0:0:0:
187,41,202659,2,0,B|143:0|143:0|161:126,1,182,2|2,0:0|0:3,0:0:0:0:
256,192,204091,12,0,209063,0:0:0:0:
333,128,209400,6,0,B|302:98|314:46|314:46|271:81|299:142|299:142|320:197|286:290|286:290|285:250|272:223,1,414.049987364197,2|0,0:0|0:0,0:0:0:0:
184,132,211844,2,0,L|189:172,1,31.8499990280152,0|0,0:0|0:0,0:0:0:0:
190,177,212097,6,0,P|157:167|196:264,1,238.874992710114,2|0,0:0|0:0,0:0:0:0:
157,293,213445,6,0,B|257:330|272:253|382:302,1,227.5,2|0,0:0|0:0,0:0:0:0:
382,374,214541,2,0,L|379:338,1,22.75,0|2,0:0|0:0,0:0:0:0:
456,321,214794,6,0,B|524:209|423:94|423:94|438:165|393:199,1,364,2|2,0:0|0:0,0:0:0:0:
256,192,217574,12,0,220187,0:0:0:0:
155,79,222883,5,0,3:0:0:0:
180,245,223220,1,0,1:0:0:0:
155,79,223726,5,0,3:0:0:0:
180,245,223895,1,0,1:0:0:0:
357,79,224232,5,0,3:0:0:0:
332,245,224569,1,0,1:0:0:0:
345,162,224737,1,0,3:0:0:0:
332,245,225074,1,0,1:0:0:0:
54,276,225580,5,0,3:0:0:0:
187,267,225917,2,0,B|127:246|117:295|39:272,1,136.5,0|0,1:0|3:0,0:0:0:0:
244,339,226591,1,0,1:0:0:0:
429,303,226928,6,0,P|445:260|428:201,1,91,0|0,3:0|1:0,0:0:0:0:
350,103,227434,2,0,P|342:147|358:189,1,91,0|0,3:0|1:0,0:0:0:0:
426,137,227940,1,0,0:0:0:0:
220,127,228277,5,0,3:0:0:0:
350,103,228614,2,0,B|299:104|299:104|274:123|274:123|208:129,1,136.5,0|0,1:0|3:0,0:0:0:0:
44,182,229288,1,0,1:0:0:0:
133,26,229625,6,0,P|135:73|120:117,1,91,0|0,3:0|1:0,0:0:0:0:
55,270,230131,2,0,P|41:226|43:181,1,91,0|0,3:0|1:0,0:0:0:0:
43,181,230973,5,0,3:0:0:0:
113,333,231310,2,0,L|257:316,1,136.5,0|0,1:0|3:0,0:0:0:0:
113,333,231985,1,0,1:0:0:0:
277,236,232322,5,0,3:0:0:0:
205,95,232659,1,0,1:0:0:0:
205,95,232827,2,0,P|193:162|210:195,1,91,0|0,3:0|1:0,0:0:0:0:
407,289,233670,5,0,3:0:0:0:
248,316,234007,1,0,1:0:0:0:
407,289,234513,5,0,3:0:0:0:
248,316,234681,1,0,1:0:0:0:
475,218,235018,6,0,P|487:187|480:128,1,91,0|0,3:0|1:0,0:0:0:0:
387,24,235524,2,0,P|379:68|393:111,1,91,0|0,3:0|1:0,0:0:0:0:
333,221,236029,2,0,L|330:252,2,22.75,0|0|0,0:0|0:0|0:0,0:0:0:0:
269,132,236367,5,0,3:0:0:0:
135,125,236704,2,0,B|195:103|215:152|277:129,1,136.5,0|0,1:0|3:0,0:0:0:0:
176,32,237378,2,0,L|173:1,2,22.75,0|0|0,1:0|0:0|0:0,0:0:0:0:
132,170,237715,6,0,L|135:106,1,45.5,0|0,3:0|0:0,0:0:0:0:
36,62,238052,1,0,1:0:0:0:
153,22,238220,2,0,L|150:-9,2,22.75,0|0|0,3:0|0:0|0:0,0:0:0:0:
49,153,238558,2,0,L|51:198,1,45.5,0|0,1:0|0:0,0:0:0:0:
51,209,238810,1,0,0:0:0:0:
51,220,238895,1,0,0:0:0:0:
51,231,238979,1,0,0:0:0:0:
51,242,239063,6,0,P|104:245|160:310,1,136.500005207062,0|0,3:0|1:0,0:0:0:0:
317,227,239569,1,0,0:0:0:0:
317,227,239653,1,0,0:0:0:0:
317,227,239737,2,0,L|244:237,1,68.250002603531,0|0,0:0|3:0,0:0:0:0:
291,339,240074,2,0,L|364:349,1,68.250002603531,0|0,1:0|0:0,0:0:0:0:
433,307,240327,1,0,0:0:0:0:
433,307,240411,6,0,P|442:254|435:223,1,68.250002603531,0|0,3:0|0:0,0:0:0:0:
483,90,240749,1,0,1:0:0:0:
404,152,240917,2,0,L|368:144,2,34.1250013017655,0|0|0,3:0|0:0|0:0,0:0:0:0:
483,90,241254,1,0,1:0:0:0:
310,70,241423,1,0,0:0:0:0:
293,72,241507,1,0,0:0:0:0:
276,74,241591,1,0,0:0:0:0:
259,77,241676,1,0,0:0:0:0:
242,79,241760,6,0,P|217:43|214:12,1,68.250002603531,0|0,3:0|0:0,0:0:0:0:
183,166,242097,2,0,P|164:205|138:223,1,68.250002603531,0|0,1:0|0:0,0:0:0:0:
119,228,242350,1,0,0:0:0:0:
119,228,242434,1,0,0:0:0:0:
140,78,242603,1,0,3:0:0:0:
288,174,242771,2,0,P|331:170|360:183,1,68.250002603531,0|0,1:0|0:0,0:0:0:0:
261,328,243108,6,0,L|183:337,1,68.250002603531,0|0,3:0|0:0,0:0:0:0:
109,319,243361,1,2,0:0:0:0:
109,319,243445,1,0,1:0:0:0:
321,259,243614,2,0,B|373:262|373:262|406:240|406:240|461:242,1,136.500005207062,0|0,3:0|0:0,0:0:0:0:
288,174,244119,6,0,P|246:172|194:247,1,136.500005207062,0|8,0:0|3:0,0:0:0:0:
256,192,244541,12,0,248501,0:0:0:0:
459,156,249850,5,8,3:0:0:0:
112,68,250187,1,2,0:0:0:0:
118,114,250524,2,0,L|112:67,1,45.5,0|0,0:0|0:0,0:0:0:0:
112,68,251535,6,0,B|83:122|83:122|126:234,1,163.799995001221,10|2,0:0|0:0,0:0:0:0:
265,141,251788,5,0,0:0:0:0:
246,131,251872,2,0,P|194:120|167:127,1,68.250002603531,2|0,0:0|0:0,0:0:0:0:
21,210,252041,1,0,3:0:0:0:
196,333,252209,6,0,B|247:300|257:229|257:229|267:303|321:336,1,245.699992501831,8|0,0:0|0:0,0:0:0:0:
346,341,252546,1,0,3:0:0:0:
459,161,252715,6,0,B|400:155|400:155|325:195,1,118.299994584656,0|8,0:0|0:0,0:0:0:0:
426,252,252968,1,0,0:0:0:0:
426,252,253052,2,0,L|498:258,1,59.149997292328,0|0,3:0|0:0,0:0:0:0:
464,69,253220,2,0,L|392:63,1,59.149997292328,2|0,0:0|0:0,0:0:0:0:
255,6,253389,6,0,P|241:64|260:114,1,68.250002603531,8|0,0:0|0:0,0:0:0:0:
319,194,253558,1,2,0:3:0:0:
319,194,253642,1,0,0:0:0:0:
319,194,253726,2,0,P|333:136|314:86,1,68.250002603531,2|0,0:3|0:0,0:0:0:0:
36,217,253895,6,0,B|135:209|85:257|200:248,1,163.799995001221,0|0,3:0|0:0,0:0:0:0:
126,121,254147,5,0,0:0:0:0:
125,139,254232,2,0,L|120:197,1,59.149997292328,8|0,0:0|0:0,0:0:0:0:
59,310,254400,6,0,L|112:284,1,59.149997292328,2|0,0:0|0:0,0:0:0:0:
241,282,254569,2,0,L|192:248,1,59.149997292328,2|0,0:0|0:0,0:0:0:0:
119,197,254737,1,0,3:0:0:0:
186,352,254906,6,0,B|227:278|330:281|330:281|316:332|346:363,1,245.699992501831,8|0,0:0|0:0,0:0:0:0:
361,370,255243,6,0,P|392:368|435:343,1,68.250002603531,2|0,3:0|0:0,0:0:0:0:
504,162,255411,1,0,0:0:0:0:
504,162,255496,2,0,P|473:164|430:189,1,68.250002603531,2|8,0:3|0:0,0:0:0:0:
434,268,255664,1,0,0:0:0:0:
434,268,255749,1,2,3:0:0:0:
109,178,255917,6,2,B|149:178|177:149|177:149|217:165|217:165|261:151|261:151|292:187|352:180,1,245.699992501831,0|0,0:0|0:0,0:0:0:0:
345,194,256254,6,0,L|350:129,1,59.149997292328,0|0,3:0|0:0,0:0:0:0:
359,46,256423,1,0,0:0:0:0:
103,92,256591,6,0,P|164:109|193:209,1,163.799995001221,2|0,3:2|0:0,0:0:0:0:
5,99,256844,1,0,0:0:0:0:
21,87,256928,2,0,P|61:69|101:67,1,68.250002603531,10|0,0:0|0:0,0:0:0:0:
57,372,257097,2,0,B|52:319|52:319|62:281|62:281|38:201,1,136.500005207062,2|2,0:0|0:0,0:0:0:0:
41,219,257350,1,0,0:0:0:0:
33,200,257434,1,0,3:0:0:0:
256,288,257603,6,0,B|142:327|142:327|260:367,1,245.699992501831,8|0,0:0|0:0,0:0:0:0:
283,376,257940,5,0,3:0:0:0:
196,196,258108,1,0,0:3:0:0:
196,196,258192,1,0,0:0:0:0:
196,196,258277,1,8,0:0:0:0:
395,210,258445,1,0,3:0:0:0:
308,30,258614,5,2,0:2:0:0:
292,68,258698,1,0,0:0:0:0:
308,105,258782,1,8,0:0:0:0:
324,143,258867,1,0,0:0:0:0:
310,181,258951,2,0,P|286:217|255:232,1,59.149997292328,2|0,0:3|0:0,0:0:0:0:
195,94,259119,2,0,P|172:75|158:49,1,59.149997292328,2|0,0:3|0:3,0:0:0:0:
421,146,259288,6,0,B|395:209|395:209|434:315,1,163.799995001221,0|0,3:0|0:0,0:0:0:0:
504,113,259541,1,0,0:0:0:0:
492,95,259625,2,0,P|467:70|427:59,1,68.250002603531,10|0,0:0|0:0,0:0:0:0:
369,329,259794,2,0,P|401:320|427:298,1,68.250002603531,2|0,0:0|0:0,0:0:0:0:
310,181,259962,6,0,L|211:186,1,68.250002603531,2|0,0:3|0:0,0:0:0:0:
65,186,260131,1,2,3:2:0:0:
159,383,260299,6,2,B|158:295|158:295|176:262|176:262|156:220|156:220|153:135,1,245.699992501831,8|0,0:0|0:0,0:1:0:0:
153,146,260636,6,0,P|114:101|18:99,1,136.5,0|0,3:0|0:0,0:0:0:0:
21,99,260973,1,8,0:0:0:0:
127,70,261142,1,0,3:0:0:0:
65,186,261310,6,2,B|135:174|135:218|219:202,1,136.500005207062,4|2,0:0|0:3,0:0:0:0:
505,282,261985,6,0,B|439:278|439:278|402:302|402:302|324:297,1,163.799995001221,4|0,3:2|0:0,0:0:0:0:
456,106,262237,5,0,0:0:0:0:
463,125,262322,2,0,P|473:168|462:211,1,68.250002603531,10|0,0:0|0:0,0:0:0:0:
285,227,262490,2,0,P|282:193|291:160,1,68.250002603531,2|0,0:0|0:0,0:0:0:0:
355,12,262659,6,0,L|364:109,1,68.250002603531,2|0,0:0|0:0,0:0:0:0:
373,201,262827,1,0,3:0:0:0:
126,27,262996,6,0,B|199:11|261:52|261:52|188:29|143:74,1,245.699992501831,8|0,0:0|0:0,0:0:0:0:
133,79,263333,1,0,3:0:0:0:
155,332,263501,6,0,B|173:278|173:278|149:197,1,118.299994584656,0|8,0:0|0:0,0:0:0:0:
80,159,263754,1,0,0:0:0:0:
80,159,263838,2,0,L|13:152,1,59.149997292328,0|0,3:0|0:0,0:0:0:0:
96,338,264007,2,0,L|163:331,1,59.149997292328,2|0,0:0|0:0,0:0:0:0:
286,167,264176,6,0,P|246:148|211:150,1,68.250002603531,8|0,0:0|0:0,0:0:0:0:
393,313,264344,2,0,P|426:309|456:293,1,68.250002603531,2|0,0:3|0:0,0:0:0:0:
224,274,264513,1,2,0:3:0:0:
258,276,264597,1,0,0:0:0:0:
302,257,264681,6,0,B|407:256|338:303|470:293,1,163.799995001221,0|0,3:0|0:0,0:0:0:0:
429,132,264934,5,0,0:0:0:0:
429,153,265018,2,0,P|423:186|428:220,1,68.250002603531,8|0,0:0|0:0,0:0:0:0:
350,96,265187,6,0,P|323:75|292:63,1,68.250002603531,2|0,0:0|0:0,0:0:0:0:
419,44,265355,2,0,P|451:32|479:12,1,68.250002603531,2|0,0:0|0:0,0:0:0:0:
338,183,265524,1,0,3:0:0:0:
128,50,265692,6,0,B|293:62|293:62|210:100,1,245.699992501831,8|0,0:0|0:0,0:0:0:0:
194,106,266029,6,0,P|177:146|178:178,1,68.250002603531,2|0,3:0|0:0,0:0:0:0:
281,384,266198,1,0,0:0:0:0:
281,384,266282,2,0,P|278:350|263:319,1,68.250002603531,2|8,0:3|0:0,0:0:0:0:
216,249,266451,1,0,0:0:0:0:
216,249,266535,1,2,3:0:0:0:
0,234,266704,6,2,B|54:256|129:215|129:215|94:275|149:339,1,245.699992501831,4|0,0:0|0:0,0:0:0:0:
124,335,267041,6,0,L|185:343,1,59.149997292328,0|0,3:0|0:0,0:0:0:0:
263,319,267209,1,0,0:0:0:0:
209,93,267378,6,0,B|187:151|187:151|219:260,1,163.799995001221,4|0,3:2|0:0,0:0:0:0:
352,267,267631,1,0,0:0:0:0:
346,247,267715,2,0,L|327:180,1,68.250002603531,10|0,0:0|0:0,0:0:0:0:
295,16,267883,2,0,P|323:55|419:54,1,136.500005207062,2|2,0:0|0:0,0:0:0:0:
424,53,268136,1,0,0:0:0:0:
442,44,268220,1,0,3:0:0:0:
209,93,268389,6,0,B|125:164|61:90|61:90|83:40|146:50,1,245.699992501831,8|0,0:0|0:0,0:0:0:0:
144,47,268726,5,0,3:0:0:0:
33,185,268895,1,0,0:0:0:0:
33,185,268979,1,0,0:0:0:0:
33,185,269063,1,8,0:0:0:0:
144,47,269232,1,0,3:0:0:0:
206,323,269400,5,2,0:0:0:0:
168,305,269485,1,0,0:0:0:0:
130,322,269569,1,8,0:0:0:0:
92,339,269653,1,0,0:0:0:0:
51,329,269737,2,0,P|42:302|48:259,1,59.149997292328,2|0,0:3|0:0,0:0:0:0:
321,181,269906,1,8,0:0:0:0:
353,221,269990,1,8,0:0:0:0:
357,271,270074,6,0,P|336:194|262:167,1,163.799995001221,4|0,3:2|0:0,0:0:0:0:
307,342,270327,1,0,0:0:0:0:
329,352,270411,2,0,P|371:358|410:345,1,81.8999975006104,10|0,0:0|0:0,0:0:0:0:
483,160,270580,6,0,P|451:201|417:86,1,245.699992501831,2|0,0:0|0:0,0:0:0:0:
478,76,270917,1,0,3:0:0:0:
281,0,271086,6,0,L|294:109,1,102.375003905296,8|0,0:0|0:0,0:0:0:0:
133,87,271423,6,0,B|196:68|223:128|307:96,1,163.799995001221,4|0,3:2|0:0,0:0:0:0:
201,239,271676,1,0,0:0:0:0:
203,215,271760,2,0,L|208:127,1,81.8999975006104,8|0,0:0|0:0,0:0:0:0:
402,216,271928,6,0,P|376:285|355:181,1,245.699992501831,4|0,3:2|0:0,0:0:0:0:
380,133,272265,1,8,0:0:0:0:
121,173,272434,5,0,0:3:0:0:
70,199,272518,1,0,0:3:0:0:
56,255,272603,1,0,0:3:0:0:
74,309,272687,1,0,0:3:0:0:
143,252,272771,5,4,3:2:0:0:
322,319,272940,1,2,0:0:0:0:
322,319,273024,1,0,0:0:0:0:
322,319,273108,1,8,0:0:0:0:
185,384,273277,2,0,L|181:324,1,54.5999983337403,2|0,0:0|0:0,0:0:0:0:
236,197,273445,5,2,0:2:0:0:
236,197,273529,2,0,L|232:257,1,54.5999983337403,0|0,0:0|3:0,0:0:0:0:
417,354,273698,1,2,0:0:0:0:
417,354,273782,2,0,L|413:294,1,54.5999983337403,8|0,0:0|0:0,0:0:0:0:
290,66,273951,2,0,L|286:126,1,54.5999983337403,2|0,0:0|0:3,0:0:0:0:
477,199,274119,5,0,3:1:0:0:
451,208,274204,2,0,P|398:212|345:180,1,109.199996667481,2|0,0:0|0:0,0:0:0:0:
477,199,274456,2,0,P|500:151|530:126,1,54.5999983337403,10|0,0:0|0:1,0:0:0:0:
496,344,274625,1,0,3:0:0:0:
471,226,274794,2,0,P|500:269|499:331,1,109.199996667481,2|8,0:3|0:0,0:0:0:0:
417,123,275131,1,0,0:0:0:0:
415,106,275215,1,0,0:0:0:0:
416,89,275299,1,0,0:0:0:0:
419,72,275383,1,0,0:0:0:0:
427,57,275468,5,0,3:0:0:0:
185,82,275636,2,0,L|256:88,1,54.5999983337403,2|0,0:0|0:0,0:0:0:0:
327,95,275805,1,8,0:0:0:0:
169,106,275973,2,0,L|240:112,1,54.5999983337403,2|0,0:0|0:0,0:0:0:0:
356,208,276142,5,2,0:0:0:0:
356,208,276226,2,0,L|285:214,1,54.5999983337403,0|0,0:0|3:0,0:0:0:0:
192,276,276395,1,2,0:0:0:0:
192,276,276479,2,0,L|263:282,1,54.5999983337403,8|0,0:0|0:0,0:0:0:0:
114,175,276647,2,0,L|59:179,1,54.5999983337403,2|0,0:0|0:0,0:0:0:0:
198,192,276816,5,0,3:0:0:0:
96,384,276985,1,0,0:0:0:0:
96,384,277069,1,0,0:0:0:0:
96,384,277153,2,0,L|99:307,1,54.5999983337403,8|0,0:0|0:0,0:0:0:0:
111,202,277322,1,0,3:0:0:0:
321,337,277490,6,0,P|278:325|223:328,1,63.6999980560303,2|0,0:3|0:0,0:0:0:0:
188,347,277659,2,0,B|256:325|256:372|350:348,1,127.399996112061,10|0,0:0|0:0,0:0:0:0:
402,366,277911,1,0,0:0:0:0:
395,334,277996,1,0,0:0:0:0:
399,302,278080,1,0,0:0:0:0:
416,275,278164,5,0,3:0:0:0:
288,218,278333,2,0,L|359:202,1,54.5999983337403,2|0,0:0|0:0,0:0:0:0:
486,190,278501,1,8,0:0:0:0:
417,13,278670,2,0,L|425:89,1,54.5999983337403,2|0,0:0|0:0,0:0:0:0:
486,190,278838,5,2,0:0:0:0:
486,190,278923,2,0,L|494:114,1,54.5999983337403,0|0,0:0|3:0,0:0:0:0:
332,61,279091,1,2,0:0:0:0:
332,61,279176,2,0,L|338:116,1,54.5999983337403,8|0,0:0|0:0,0:0:0:0:
413,292,279344,2,0,L|418:237,1,54.5999983337403,2|0,0:0|0:0,0:0:0:0:
208,151,279513,5,2,3:2:0:0:
186,134,279597,2,0,P|175:82|200:27,1,109.199996667481,0|0,0:0|0:0,0:0:0:0:
208,151,279850,2,0,P|244:160|277:195,1,54.5999983337403,10|0,0:0|0:0,0:0:0:0:
300,246,280018,1,2,3:0:0:0:
180,162,280187,6,0,B|133:164|133:164|112:154|112:154|93:167|93:167|40:170,1,145.6,2|8,0:1|0:0,0:0:0:0:
43,30,280440,1,0,0:0:0:0:
56,12,280524,2,0,P|65:64|56:107,1,72.8,2|0,0:0|0:0,0:0:0:0:
36,249,280692,2,0,P|29:299|52:346,1,72.8,2|0,0:3|0:0,0:0:0:0:
235,359,280861,5,0,3:0:0:0:
118,287,281029,2,0,P|142:287|182:304,1,54.5999983337403,2|0,0:0|0:0,0:0:0:0:
235,359,281198,1,8,0:0:0:0:
293,174,281367,2,0,P|269:174|229:191,1,54.5999983337403,2|0,0:0|0:0,0:0:0:0:
289,286,281535,5,2,0:0:0:0:
289,286,281619,2,0,P|314:295|341:295,1,54.5999983337403,0|0,0:0|3:0,0:0:0:0:
435,130,281788,1,2,0:0:0:0:
435,130,281872,2,0,P|409:120|382:120,1,54.5999983337403,8|0,0:0|0:0,0:0:0:0:
429,353,282041,2,0,P|456:352|481:343,1,54.5999983337403,2|0,0:0|0:0,0:0:0:0:
293,174,282209,5,0,3:0:0:0:
437,240,282378,1,0,0:0:0:0:
437,240,282462,1,0,0:0:0:0:
437,240,282546,1,8,0:0:0:0:
293,174,282715,1,0,3:0:0:0:
458,35,282883,6,0,B|398:28|398:28|309:57|309:57|237:48,1,218.4,4|0,0:0|0:0,0:0:0:0:
152,115,283220,6,0,L|204:113,1,45.5,0|0,0:0|0:0,0:0:0:0:
268,75,283389,2,0,L|307:84,2,22.75,2|2|2,0:0|0:0|0:0,0:0:0:0:
182,2,283558,5,4,3:2:0:0:
214,258,283726,2,0,L|208:187,1,54.5999983337403,2|0,0:0|0:0,0:0:0:0:
152,115,283895,1,8,0:0:0:0:
196,282,284063,2,0,L|190:211,1,54.5999983337403,2|0,0:0|0:0,0:0:0:0:
325,161,284232,5,2,0:2:0:0:
325,161,284316,2,0,P|320:197|302:227,1,54.5999983337403,0|0,0:0|3:0,0:0:0:0:
120,336,284485,1,2,0:0:0:0:
120,336,284569,2,0,P|109:310|107:283,1,54.5999983337403,8|0,0:0|0:0,0:0:0:0:
294,306,284737,2,0,P|304:331|306:358,1,54.5999983337403,2|0,0:0|0:3,0:0:0:0:
133,202,284906,5,0,3:1:0:0:
113,193,284990,2,0,B|59:171|59:171|4:178,1,109.199996667481,2|0,0:0|0:0,0:0:0:0:
152,109,285243,2,0,L|212:30,1,54.5999983337403,10|0,0:0|0:1,0:0:0:0:
92,28,285411,1,0,3:0:0:0:
206,185,285580,1,2,0:3:0:0:
2,268,285749,2,0,B|56:290|56:290|111:283,1,109.199996667481,8|0,0:0|0:0,0:0:0:0:
189,269,286001,1,0,0:0:0:0:
210,285,286086,1,0,0:0:0:0:
225,307,286170,1,0,0:0:0:0:
231,333,286254,5,0,3:0:0:0:
310,161,286423,2,0,L|304:241,1,54.5999983337403,2|0,0:0|0:0,0:0:0:0:
347,345,286591,1,8,0:0:0:0:
298,85,286760,2,0,L|292:165,1,54.5999983337403,2|0,0:0|0:0,0:0:0:0:
406,256,286928,5,2,0:0:0:0:
406,256,287013,2,0,L|481:274,1,54.5999983337403,0|0,0:0|3:0,0:0:0:0:
433,154,287181,1,2,0:0:0:0:
433,154,287266,2,0,L|358:172,1,54.5999983337403,8|0,0:0|0:0,0:0:0:0:
369,32,287434,2,0,L|444:50,1,54.5999983337403,2|0,0:0|0:0,0:0:0:0:
496,90,287603,5,0,3:0:0:0:
293,110,287771,1,0,0:0:0:0:
293,110,287855,1,0,0:0:0:0:
293,110,287940,1,8,0:0:0:0:
496,90,288108,1,0,3:0:0:0:
246,20,288277,6,0,B|255:83|255:83|230:135|230:135|243:222,1,191.099994168091,2|0,0:3|0:0,0:0:0:0:
197,283,288614,1,0,0:0:0:0:
232,246,288698,1,0,0:0:0:0:
281,234,288782,1,0,0:0:0:0:
330,246,288867,1,0,0:0:0:0:
278,322,288951,5,4,3:2:0:0:
417,235,289119,2,0,L|482:251,2,54.5999983337403,2|0|8,0:0|0:0|0:0,0:0:0:0:
387,370,289456,2,0,P|374:334|380:294,1,54.5999983337403,2|0,0:0|0:0,0:0:0:0:
294,182,289625,5,2,0:2:0:0:
294,182,289709,2,0,P|291:209|280:233,1,54.5999983337403,0|0,0:0|3:0,0:0:0:0:
98,228,289878,1,2,0:0:0:0:
98,228,289962,2,0,P|100:255|111:279,1,54.5999983337403,8|0,0:0|0:0,0:0:0:0:
201,376,290131,2,0,L|203:275,1,54.5999983337403,2|0,0:0|0:3,0:0:0:0:
191,161,290299,5,0,3:1:0:0:
176,145,290383,2,0,P|128:118|70:118,1,109.199996667481,2|0,0:0|0:0,0:0:0:0:
291,92,290636,2,0,P|339:65|378:64,1,54.5999983337403,10|0,0:0|0:1,0:0:0:0:
427,76,290805,1,0,3:0:0:0:
238,0,290973,2,0,P|190:27|132:27,1,109.199996667481,2|8,0:3|0:0,0:0:0:0:
176,145,291310,2,0,L|181:200,1,54.5999983337403
279,361,291479,5,8,0:0:0:0:
314,293,291563,1,8,0:0:0:0:
238,297,291647,6,0,B|177:283|178:326|97:304,1,127.399996112061,4|2,3:1|0:0,0:0:0:0:
83,294,291900,1,0,0:0:0:0:
83,294,291985,1,8,0:0:0:0:
195,140,292153,2,0,L|207:206,1,63.6999980560303,2|0,0:0|0:0,0:0:0:0:
153,384,292322,5,2,0:0:0:0:
153,384,292406,2,0,L|165:318,1,63.6999980560303,0|0,0:0|3:0,0:0:0:0:
216,113,292574,1,2,0:0:0:0:
216,113,292658,2,0,L|228:179,1,63.6999980560303,8|0,0:0|0:0,0:0:0:0:
83,294,292827,2,0,L|95:228,1,63.6999980560303,2|0,0:0|0:0,0:0:0:0:
395,305,292996,6,0,P|375:244|289:236,1,145.6,4|0,3:2|0:0,0:0:0:0:
243,370,293249,1,0,0:0:0:0:
243,370,293333,2,0,P|286:359|326:369,1,72.8,8|0,0:0|0:0,0:0:0:0:
505,172,293501,6,0,P|469:176|434:165,1,72.8,4|0,3:2|0:0,0:0:0:0:
273,32,293670,2,2,B|339:33|371:86|371:86|419:35|490:34|490:34|398:9,1,327.599990002442,0|0,0:0|0:0,0:1:0:0:
279,130,294091,1,0,0:0:0:0:
229,125,294176,1,2,0:3:0:0:
180,121,294260,1,2,0:3:0:0:
120,60,294344,6,0,B|93:112|93:112|111:195,1,136.500005207062,4|0,3:2|0:0,0:0:0:0:
170,251,294850,2,0,B|106:222|106:222|41:259,1,136.500005207062,0|0,0:0|0:0,0:0:0:0:
53,281,295355,2,0,L|126:239,1,68.250002603531,2|0,0:0|0:0,0:0:0:0:
292,317,295692,6,0,P|290:265|236:200,1,136.500005207062,2|0,0:0|0:0,0:0:0:0:
292,317,296198,2,0,B|367:290|367:290|429:314,1,136.500005207062,0|0,0:0|0:0,0:0:0:0:
429,336,296704,2,0,L|355:307,1,68.250002603531,2|0,0:0|0:0,0:0:0:0:
490,121,297041,6,0,P|478:186|396:219,1,136.500005207062,2|0,0:0|0:0,0:0:0:0:
355,128,297546,2,0,B|412:122|412:122|438:128|438:128|510:117,1,136.500005207062,0|0,0:0|0:0,0:0:0:0:
500,95,298052,2,0,L|426:107,1,68.250002603531,2|0,0:0|0:0,0:0:0:0:
222,147,298389,6,0,P|209:95|231:13,1,136.500005207062,2|0,0:0|0:0,0:0:0:0:
307,215,298895,2,0,P|320:163|298:81,1,136.500005207062
327,90,299400,2,0,P|342:139|343:171,1,68.250002603531,2|0,0:0|0:0,0:0:0:0:
86,128,299737,6,0,L|231:148,1,136.500005207062,6|0,0:0|0:0,0:0:0:0:
44,260,300243,2,0,L|189:240,1,136.500005207062,0|0,0:0|0:0,0:0:0:0:
195,263,300749,2,0,L|112:276,1,68.250002603531,2|0,0:0|0:0,0:0:0:0:
266,340,301086,6,0,B|321:302|321:302|391:325,1,136.500005207062,2|0,0:0|0:0,0:0:0:0:
508,340,301591,2,0,B|453:302|453:302|383:325,1,136.500005207062,0|0,0:0|0:0,0:0:0:0:
392,297,302097,2,0,L|475:269,1,68.250002603531,2|0,0:0|0:0,0:0:0:0:
316,174,302434,6,0,P|262:184|229:266,1,136.500005207062,2|0,0:0|0:0,0:0:0:0:
316,174,302940,2,0,B|335:115|335:115|293:26,1,136.500005207062,0|0,0:0|0:0,0:0:0:0:
277,44,303445,2,0,L|310:116,1,68.250002603531,2|0,0:0|0:0,0:0:0:0:
202,178,303782,6,0,B|121:169|159:206|60:200,1,136.500005207062,2|0,0:0|0:0,0:0:0:0:
53,71,304288,2,0,P|123:87|172:37,1,136.500005207062,0|0,0:0|0:0,0:0:0:0:
194,50,304794,2,0,P|177:87|140:109,1,68.250002603531,2|0,0:0|0:0,0:0:0:0:
256,272,305131,6,0,L|256:169,1,91,2|0,0:0|0:0,0:0:0:0:
256,181,305636,1,0,0:0:0:0:
180,319,305973,2,0,L|130:325,2,45.5,0|0|0,0:0|0:0|0:0,0:0:0:0:
256,272,306479,6,0,P|309:285|339:315,1,91,2|0,0:0|0:0,0:0:0:0:
334,309,306985,1,0,0:0:0:0:
444,341,307322,2,0,P|469:324|494:321,2,45.5,0|0|0,0:0|0:0|0:0,0:0:0:0:
414,240,307827,6,0,B|400:195|400:195|420:140,1,91,2|0,0:0|0:0,0:0:0:0:
414,153,308333,1,0,0:0:0:0:
478,44,308670,2,0,L|468:-9,2,45.5,0|0|0,0:0|0:0|0:0,0:0:0:0:
387,70,309176,6,0,P|342:68|284:93,1,91,2|0,0:0|0:0,0:0:0:0:
299,82,309681,1,0,0:0:0:0:
152,110,310018,2,0,P|114:108|103:105,2,45.5,0|0|0,0:0|0:0|0:0,0:0:0:0:
215,44,310524,5,2,0:0:0:0:
299,82,310861,2,0,L|294:129,1,45.5,0|0,0:0|0:0,0:0:0:0:
152,110,311367,2,0,L|157:157,2,45.5,0|0|0,0:0|0:0|0:0,0:0:0:0:
233,226,311872,5,0,0:0:0:0:
171,298,312209,2,0,P|133:298|116:291,1,45.5,0|0,0:0|0:0,0:0:0:0:
340,349,312715,2,0,P|378:349|395:342,2,45.5,0|0|0,0:0|0:0|0:0,0:0:0:0:
357,260,313220,5,2,0:0:0:0:
305,182,313558,2,0,L|317:121,1,45.5,0|0,0:0|0:0,0:0:0:0:
451,75,314063,2,0,L|459:119,2,45.5,0|0|0,0:0|0:0|0:0,0:0:0:0:
345,30,314569,5,0,0:0:0:0:
256,64,314906,1,0,0:0:0:0:
256,64,315074,1,0,0:0:0:0:
167,98,315411,1,0,0:0:0:0:
167,98,315580,1,0,0:0:0:0:
167,98,315748,1,0,0:0:0:0:
256,192,315917,5,2,0:0:0:0:
256,192,316001,12,0,326704,0:0:0:0:
