osu file format v14

[General]
AudioFilename: audio.mp3
AudioLeadIn: 0
PreviewTime: 45565
Countdown: 1
SampleSet: Soft
StackLeniency: 0.7
Mode: 2
LetterboxInBreaks: 0
WidescreenStoryboard: 1

[Editor]
DistanceSpacing: 0.8
BeatDivisor: 4
GridSize: 16
TimelineZoom: 1

[Metadata]
Title:Der Wald (kors k remix)
TitleUnicode:Der Wald (kors k remix)
Artist:Erehamonika remixed by kors k
ArtistUnicode:Erehamonika remixed by kors k
Creator:gold801
Version:Tree
Source:pop'n music 20 fantasia
Tags:kors k, der wald, erehamonika, エレハモニカ
BeatmapID:1350982
BeatmapSetID:629842

[Difficulty]
HPDrainRate:5
CircleSize:4
OverallDifficulty:8
ApproachRate:8
SliderMultiplier:1.19999990463257
SliderTickRate:1

[Events]
//Background and Video events
0,0,"MR-GINSENG.png",0,0
//Break Periods
//Storyboard Layer 0 (Background)
//Storyboard Layer 1 (Fail)
//Storyboard Layer 2 (Pass)
//Storyboard Layer 3 (Foreground)
//Storyboard Sound Samples

[TimingPoints]
1095,352.941176470588,4,2,0,40,1,0
46271,-100,4,2,0,40,0,1
118977,-100,4,2,0,40,0,0

[HitObjects]
96,192,389,5,0,0:0:0:0:
144,192,477,1,0,0:0:0:0:
192,192,565,1,0,0:0:0:0:
432,144,1095,2,0,L|96:288,1,359.999971389771
336,240,2506,1,0,0:0:0:0:
160,240,2859,1,0,0:0:0:0:
336,240,3212,1,0,0:0:0:0:
112,240,3565,1,0,0:0:0:0:
368,80,3918,6,0,P|464:192|336:336,1,359.999971389771
144,320,5330,1,0,0:0:0:0:
272,320,5683,1,0,0:0:0:0:
416,128,6036,2,0,L|320:208,1,119.999990463257
416,288,6565,1,0,0:0:0:0:
176,96,6742,6,0,P|48:192|176:320,1,359.999971389771
352,192,8153,1,0,0:0:0:0:
160,192,8506,1,0,0:0:0:0:
384,192,8859,1,0,0:0:0:0:
160,192,9212,1,0,0:0:0:0:
384,192,9565,1,0,0:0:0:0:
144,160,9918,6,0,L|80:288,1,119.999990463257
320,192,10624,1,0,0:0:0:0:
192,192,10977,1,0,0:0:0:0:
400,192,11330,2,0,L|464:304,1,119.999990463257
176,224,11859,1,0,0:0:0:0:
192,224,11947,1,0,0:0:0:0:
208,224,12036,1,0,0:0:0:0:
352,192,12212,1,0,0:0:0:0:
224,80,12389,6,0,P|32:208|192:336,1,479.999961853028
400,192,14153,1,0,0:0:0:0:
256,192,14506,1,0,0:0:0:0:
112,192,14859,1,0,0:0:0:0:
336,64,15212,6,0,P|496:208|320:336,1,479.999961853028
96,144,16977,1,0,0:0:0:0:
240,144,17330,1,0,0:0:0:0:
384,192,17506,1,0,0:0:0:0:
384,224,17594,1,0,0:0:0:0:
384,256,17683,1,0,0:0:0:0:
288,192,17859,2,0,L|224:192,1,59.9999952316285
112,192,18212,6,0,L|176:192,1,59.9999952316285
240,192,18565,2,0,L|304:192,1,59.9999952316285
432,192,18918,2,0,L|352:192,1,59.9999952316285
112,192,19447,1,0,0:0:0:0:
416,192,19800,1,0,0:0:0:0:
256,192,20153,1,0,0:0:0:0:
112,192,20506,1,0,0:0:0:0:
256,192,20859,1,0,0:0:0:0:
288,192,21036,6,0,L|336:256,1,59.9999952316285
224,192,21389,2,0,L|176:256,1,59.9999952316285
288,192,21742,2,0,L|336:256,1,59.9999952316285
208,192,22094,2,0,L|160:256,1,59.9999952316285
336,192,22447,2,0,L|384:256,1,59.9999952316285
192,192,22800,2,0,L|144:256,1,59.9999952316285
480,192,23153,2,0,L|480:256,1,59.9999952316285
32,192,23683,6,0,L|272:192,1,239.999980926514
128,192,24742,1,0,0:0:0:0:
416,192,25094,1,0,0:0:0:0:
272,192,25447,1,0,0:0:0:0:
48,192,25800,1,0,0:0:0:0:
368,192,26153,1,0,0:0:0:0:
368,192,26506,6,0,L|304:192,2,59.9999952316285
368,192,27036,1,0,0:0:0:0:
112,192,27212,2,0,L|192:192,2,59.9999952316285
112,192,27742,1,0,0:0:0:0:
448,192,27918,1,0,0:0:0:0:
336,192,28271,1,0,0:0:0:0:
224,192,28447,1,0,0:0:0:0:
112,192,28624,1,0,0:0:0:0:
256,192,28977,1,0,0:0:0:0:
128,192,29330,6,0,L|48:304,1,119.999990463257
352,192,30036,1,0,0:0:0:0:
224,192,30389,1,0,0:0:0:0:
96,192,30742,1,0,0:0:0:0:
304,192,31094,1,0,0:0:0:0:
96,192,31447,2,0,L|240:192,1,119.999990463257
384,208,32153,6,0,L|448:208,2,59.9999952316285
192,128,32683,2,0,L|128:128,1,59.9999952316285
256,208,33036,1,0,0:0:0:0:
384,208,33212,6,0,L|448:208,2,59.9999952316285
128,208,33918,1,0,0:0:0:0:
288,160,34094,2,0,L|224:160,1,59.9999952316285
96,192,34624,1,0,0:0:0:0:
352,192,34977,6,0,L|480:192,2,119.999990463257
256,192,36036,1,0,0:0:0:0:
160,192,36389,2,0,L|32:192,2,119.999990463257
256,192,37447,1,0,0:0:0:0:
352,192,37800,2,0,L|480:192,2,119.999990463257
256,192,38859,1,0,0:0:0:0:
160,192,39212,2,0,L|32:192,2,119.999990463257
480,192,40271,1,0,0:0:0:0:
48,192,40624,5,0,0:0:0:0:
96,192,40800,1,0,0:0:0:0:
160,192,40977,1,0,0:0:0:0:
224,192,41153,1,0,0:0:0:0:
288,192,41330,1,0,0:0:0:0:
352,192,41506,1,0,0:0:0:0:
416,192,41683,1,0,0:0:0:0:
480,192,41859,1,0,0:0:0:0:
480,192,42036,5,0,0:0:0:0:
416,192,42212,1,0,0:0:0:0:
352,192,42389,1,0,0:0:0:0:
288,192,42565,1,0,0:0:0:0:
224,192,42742,1,0,0:0:0:0:
160,192,42918,1,0,0:0:0:0:
96,192,43094,1,0,0:0:0:0:
48,192,43271,1,0,0:0:0:0:
384,16,43447,5,0,0:0:0:0:
336,48,43536,1,0,0:0:0:0:
288,96,43624,1,0,0:0:0:0:
256,144,43712,1,0,0:0:0:0:
256,192,43800,1,0,0:0:0:0:
256,256,43889,1,0,0:0:0:0:
288,304,43977,1,0,0:0:0:0:
336,336,44065,1,0,0:0:0:0:
384,368,44153,5,0,0:0:0:0:
336,336,44242,1,0,0:0:0:0:
288,304,44330,1,0,0:0:0:0:
256,256,44418,1,0,0:0:0:0:
256,192,44506,1,0,0:0:0:0:
256,144,44594,1,0,0:0:0:0:
288,96,44683,1,0,0:0:0:0:
336,48,44771,1,0,0:0:0:0:
384,16,44859,5,0,0:0:0:0:
224,192,45212,1,0,0:0:0:0:
96,192,45565,1,0,0:0:0:0:
400,192,45918,1,0,0:0:0:0:
144,32,46271,1,0,0:0:0:0:
96,80,46359,1,0,0:0:0:0:
64,128,46447,1,0,0:0:0:0:
32,176,46536,1,0,0:0:0:0:
32,224,46624,1,0,0:0:0:0:
64,272,46712,1,0,0:0:0:0:
96,320,46800,1,0,0:0:0:0:
144,352,46889,1,0,0:0:0:0:
384,192,47330,6,0,L|320:192,1,59.9999952316285
80,192,47683,1,0,0:0:0:0:
160,192,48036,1,0,0:0:0:0:
448,48,48389,5,0,0:0:0:0:
416,80,48477,1,0,0:0:0:0:
384,112,48565,1,0,0:0:0:0:
352,144,48653,1,0,0:0:0:0:
320,176,48742,1,0,0:0:0:0:
288,208,48830,1,0,0:0:0:0:
256,240,48918,1,0,0:0:0:0:
48,48,49006,5,0,0:0:0:0:
80,80,49094,1,0,0:0:0:0:
112,112,49183,1,0,0:0:0:0:
144,144,49271,1,0,0:0:0:0:
176,176,49359,1,0,0:0:0:0:
208,208,49447,1,0,0:0:0:0:
240,240,49536,1,0,0:0:0:0:
272,272,49624,1,0,0:0:0:0:
304,304,49712,1,0,0:0:0:0:
336,336,49800,1,0,0:0:0:0:
32,192,50153,6,0,L|96:192,1,59.9999952316285
160,192,50506,1,0,0:0:0:0:
480,192,50683,2,0,L|416:192,1,59.9999952316285
336,192,51212,2,0,L|208:192,1,119.999990463257
464,160,51918,2,0,P|480:208|384:288,1,179.999985694886
208,176,52624,1,0,0:0:0:0:
160,176,52712,1,0,0:0:0:0:
112,176,52800,1,0,0:0:0:0:
64,176,52889,5,0,0:0:0:0:
32,224,52977,1,0,0:0:0:0:
64,272,53065,1,0,0:0:0:0:
112,272,53153,1,0,0:0:0:0:
160,272,53242,1,0,0:0:0:0:
224,48,53330,1,0,0:0:0:0:
288,64,53418,1,0,0:0:0:0:
352,96,53506,1,0,0:0:0:0:
400,144,53594,1,0,0:0:0:0:
432,192,53683,1,0,0:0:0:0:
400,256,53771,5,0,0:0:0:0:
352,304,53859,1,0,0:0:0:0:
288,320,53947,1,0,0:0:0:0:
224,336,54036,1,0,0:0:0:0:
80,192,54389,1,0,0:0:0:0:
208,192,54565,1,0,0:0:0:0:
336,192,54742,1,0,0:0:0:0:
448,192,55094,1,0,0:0:0:0:
144,144,55447,2,0,L|464:320,1,359.999971389771
144,160,56859,2,0,L|144:208,1,29.9999976158143
304,160,57212,6,0,L|304:208,1,29.9999976158143
368,80,57565,2,0,P|480:192|352:304,1,359.999971389771
304,192,58800,2,0,L|368:192,1,59.9999952316285
128,192,59330,1,0,0:0:0:0:
384,128,59683,2,0,P|464:208|384:272,1,239.999980926514
80,192,60565,1,0,0:0:0:0:
176,192,60742,1,0,0:0:0:0:
80,192,60918,1,0,0:0:0:0:
176,192,61094,1,0,0:0:0:0:
80,192,61271,5,0,0:0:0:0:
176,192,61447,1,0,0:0:0:0:
80,192,61624,1,0,0:0:0:0:
176,192,61800,1,0,0:0:0:0:
448,192,62153,2,0,L|320:192,2,119.999990463257
32,192,63212,1,0,0:0:0:0:
400,96,63742,5,0,0:0:0:0:
272,96,63918,1,0,0:0:0:0:
320,144,64006,1,0,0:0:0:0:
368,192,64094,1,0,0:0:0:0:
368,256,64183,1,0,0:0:0:0:
320,208,64271,1,0,0:0:0:0:
272,160,64359,1,0,0:0:0:0:
224,112,64447,1,0,0:0:0:0:
176,160,64536,1,0,0:0:0:0:
128,208,64624,1,0,0:0:0:0:
128,256,64712,5,0,0:0:0:0:
176,224,64800,1,0,0:0:0:0:
224,176,64889,1,0,0:0:0:0:
272,128,64977,1,0,0:0:0:0:
224,240,65065,1,0,0:0:0:0:
176,288,65153,1,0,0:0:0:0:
224,304,65242,1,0,0:0:0:0:
272,256,65330,1,0,0:0:0:0:
384,192,65683,1,0,0:0:0:0:
192,192,66036,1,0,0:0:0:0:
32,192,66389,5,0,0:0:0:0:
192,192,66742,1,0,0:0:0:0:
448,192,67094,1,0,0:0:0:0:
112,160,67447,2,0,P|64:176|112:192,1,119.999990463257
400,160,68153,2,0,P|448:176|400:192,1,119.999990463257
64,192,68859,2,0,L|128:192,4,59.9999952316285
288,192,69918,1,0,0:0:0:0:
448,192,70271,2,0,L|384:192,4,59.9999952316285
224,192,71330,1,0,0:0:0:0:
32,192,71683,6,0,L|160:192,2,119.999990463257
480,192,73094,2,0,L|0:192,1,479.999961853028
144,192,74683,2,0,L|80:192,5,59.9999952316285
336,192,75918,5,0,0:0:0:0:
416,192,76094,1,0,0:0:0:0:
336,192,76271,1,0,0:0:0:0:
416,192,76447,1,0,0:0:0:0:
336,192,76624,1,0,0:0:0:0:
112,192,76977,1,0,0:0:0:0:
464,192,77330,2,0,L|336:192,1,119.999990463257
48,192,78036,2,0,L|176:192,1,119.999990463257
320,192,78742,5,0,0:0:0:0:
240,192,78918,1,0,0:0:0:0:
208,192,79006,1,0,0:0:0:0:
176,192,79094,1,0,0:0:0:0:
112,192,79447,1,0,0:0:0:0:
384,192,79800,1,0,0:0:0:0:
144,48,80153,2,0,P|64:176|176:336,1,359.999971389771
352,48,81565,2,0,P|448:208|336:336,1,359.999971389771
48,192,82977,6,0,L|48:224,1,29.9999976158143
256,192,83330,2,0,L|256:224,1,29.9999976158143
464,192,83683,2,0,L|464:224,1,29.9999976158143
48,192,84389,2,0,L|176:192,1,119.999990463257
336,192,85094,1,0,0:0:0:0:
480,192,85447,1,0,0:0:0:0:
64,112,85800,2,0,L|192:320,1,239.999980926514
480,192,86859,5,0,0:0:0:0:
432,192,86947,1,0,0:0:0:0:
384,192,87036,1,0,0:0:0:0:
336,192,87124,1,0,0:0:0:0:
128,192,87389,2,0,L|64:192,1,59.9999952316285
224,192,87742,1,0,0:0:0:0:
368,192,87918,2,0,L|304:192,1,59.9999952316285
32,192,88271,1,0,0:0:0:0:
304,256,88624,5,0,0:0:0:0:
208,256,88800,1,0,0:0:0:0:
304,256,88977,1,0,0:0:0:0:
208,256,89153,1,0,0:0:0:0:
352,192,89330,2,0,L|272:192,1,59.9999952316285
160,192,89683,2,0,L|224:192,1,59.9999952316285
256,192,90036,12,0,91094,0:0:0:0:
144,192,91447,6,0,L|272:192,1,119.999990463257
464,192,92153,1,0,0:0:0:0:
64,192,92330,2,0,L|32:256,1,59.9999952316285
96,192,92594,1,0,0:0:0:0:
192,192,92683,2,0,L|128:192,1,59.9999952316285
256,192,93212,1,0,0:0:0:0:
96,192,93565,1,0,0:0:0:0:
448,192,93742,6,0,L|480:256,1,59.9999952316285
416,192,94006,1,0,0:0:0:0:
320,192,94094,2,0,L|400:192,1,59.9999952316285
96,192,94624,2,0,L|224:192,1,119.999990463257
352,192,95153,2,0,L|352:256,1,59.9999952316285
160,192,95506,2,0,L|160:256,1,59.9999952316285
400,192,96036,2,0,L|272:192,1,119.999990463257
160,192,96742,2,0,L|80:192,1,59.9999952316285
256,64,97094,2,0,B|496:16|528:48|560:320|416:144|192:96|144:256|240:400|512:272,1,839.999933242799
224,192,99918,5,0,0:0:0:0:
352,192,100271,1,0,0:0:0:0:
144,192,100624,1,0,0:0:0:0:
432,192,100977,1,0,0:0:0:0:
176,192,101330,2,0,L|304:192,1,119.999990463257
80,192,102036,1,0,0:0:0:0:
320,192,102389,2,0,L|240:192,1,59.9999952316285
80,272,102742,5,0,0:0:0:0:
128,272,102918,1,0,0:0:0:0:
176,272,103094,1,0,0:0:0:0:
336,272,103271,1,0,0:0:0:0:
336,272,103359,1,0,0:0:0:0:
336,272,103447,1,0,0:0:0:0:
144,272,103624,1,0,0:0:0:0:
112,272,103712,1,0,0:0:0:0:
80,272,103800,1,0,0:0:0:0:
256,272,103977,1,0,0:0:0:0:
400,272,104153,5,0,0:0:0:0:
368,272,104330,1,0,0:0:0:0:
336,272,104506,1,0,0:0:0:0:
64,272,104683,1,0,0:0:0:0:
96,272,104771,1,0,0:0:0:0:
128,272,104859,1,0,0:0:0:0:
368,336,105036,1,0,0:0:0:0:
320,336,105124,1,0,0:0:0:0:
272,336,105212,1,0,0:0:0:0:
192,192,105389,5,0,0:0:0:0:
368,192,105565,2,0,L|368:256,1,59.9999952316285
256,192,105918,2,0,L|256:256,1,59.9999952316285
144,192,106271,2,0,L|144:256,1,59.9999952316285
32,192,106624,2,0,L|32:256,1,59.9999952316285
144,192,106977,2,0,L|144:256,1,59.9999952316285
256,192,107330,2,0,L|256:256,1,59.9999952316285
368,192,107683,2,0,L|368:256,1,59.9999952316285
480,192,108036,2,0,L|480:256,1,59.9999952316285
416,192,108389,6,0,L|352:192,7,59.9999952316285
208,48,109800,1,0,0:0:0:0:
128,96,109977,1,0,0:0:0:0:
80,176,110153,1,0,0:0:0:0:
128,256,110330,1,0,0:0:0:0:
208,320,110506,1,0,0:0:0:0:
304,320,110683,1,0,0:0:0:0:
384,256,110859,1,0,0:0:0:0:
432,176,111036,1,0,0:0:0:0:
160,48,111212,5,0,0:0:0:0:
112,96,111300,1,0,0:0:0:0:
64,144,111389,1,0,0:0:0:0:
48,192,111477,1,0,0:0:0:0:
80,240,111565,1,0,0:0:0:0:
112,288,111653,1,0,0:0:0:0:
160,320,111742,1,0,0:0:0:0:
208,352,111830,1,0,0:0:0:0:
256,32,111918,5,0,0:0:0:0:
304,64,112006,1,0,0:0:0:0:
352,112,112094,1,0,0:0:0:0:
400,160,112183,1,0,0:0:0:0:
400,224,112271,1,0,0:0:0:0:
352,272,112359,1,0,0:0:0:0:
304,320,112447,1,0,0:0:0:0:
256,352,112536,1,0,0:0:0:0:
208,112,112624,5,0,0:0:0:0:
240,144,112712,1,0,0:0:0:0:
272,176,112800,1,0,0:0:0:0:
304,208,112889,1,0,0:0:0:0:
336,240,112977,1,0,0:0:0:0:
368,272,113065,1,0,0:0:0:0:
400,304,113153,1,0,0:0:0:0:
432,336,113242,1,0,0:0:0:0:
400,48,113330,5,0,0:0:0:0:
368,80,113418,1,0,0:0:0:0:
336,112,113506,1,0,0:0:0:0:
304,144,113594,1,0,0:0:0:0:
272,176,113683,1,0,0:0:0:0:
240,208,113771,1,0,0:0:0:0:
208,240,113859,1,0,0:0:0:0:
176,272,113947,1,0,0:0:0:0:
448,192,114389,6,0,L|448:272,1,59.9999952316285
144,192,114742,1,0,0:0:0:0:
64,192,115094,2,0,L|64:256,1,59.9999952316285
368,192,115447,1,0,0:0:0:0:
448,192,115800,2,0,L|448:256,1,59.9999952316285
64,192,116153,1,0,0:0:0:0:
256,192,116506,1,0,0:0:0:0:
256,192,116859,12,0,118624,0:0:0:0:
400,192,118800,5,0,0:0:0:0:
256,192,118977,1,0,0:0:0:0:
