osu file format v14

[General]
AudioFilename: audio.mp3
AudioLeadIn: 0
PreviewTime: 46075
Countdown: 0
SampleSet: None
StackLeniency: 0.2
Mode: 0
LetterboxInBreaks: 0
WidescreenStoryboard: 0

[Editor]
Bookmarks: 8487,15016,23487,40428,51722,56663,57369,65840,68663,77134,78546,79957,91251,102546,108193,111016,113840
DistanceSpacing: 1
BeatDivisor: 2
GridSize: 4
TimelineZoom: 1.999999

[Metadata]
Title:Der Wald (Kors K Remix)
TitleUnicode:Der Wald (Kors K Remix)
Artist:Erehamonika remixed by kors k
ArtistUnicode:エレハモニカ remixed by kors k
Creator:Rucker
Version:xCircus
Source:pop'n music 20 fantasia
Tags:aspire SnowNiNo_ xDololow what koalazy deyo
BeatmapID:1529763
BeatmapSetID:537048

[Difficulty]
HPDrainRate:3
CircleSize:4
OverallDifficulty:9.2
ApproachRate:9.7
SliderMultiplier:3.49999990463257
SliderTickRate:1

[Events]
//Background and Video events
0,0,"purple-sky-wallpaper-11.jpg",0,0
//Break Periods
//Storyboard Layer 0 (Background)
//Storyboard Layer 1 (Fail)
//Storyboard Layer 2 (Pass)
//Storyboard Layer 3 (Foreground)
//Storyboard Sound Samples

[TimingPoints]
899,352.941176470588,4,2,0,70,1,0
14310,-100,4,2,0,30,0,0
15016,-100,4,2,0,40,0,0
16428,-100,4,2,0,30,0,0
17840,-100,4,2,0,50,0,0
19251,-100,4,2,0,40,0,0
22075,-100,4,2,0,30,0,0
23487,-100,4,3,0,70,0,0
44663,-50,4,2,0,70,0,0
44994,-50,4,2,0,5,0,0
45016,-50,4,2,0,70,0,0
45347,-50,4,2,0,5,0,0
45369,-50,4,2,0,70,0,0
45700,-50,4,2,0,5,0,0
45722,-50,4,2,0,70,0,0
46053,-50,4,2,0,5,0,0
46075,-100,4,1,0,70,0,0
51722,-100,4,3,0,70,0,0
57369,-100,4,1,0,70,0,0
63016,-100,4,3,0,70,0,0
67251,-25,4,2,0,70,0,0
68663,-50,4,2,0,70,0,0
69722,-200,4,2,0,70,0,0
70075,-50,4,2,0,70,0,0
71251,-100,4,2,0,70,0,0
71487,-200,4,2,0,70,0,0
72193,-400,4,2,0,70,0,0
72898,-500,4,2,0,70,0,0
74310,-50,4,2,0,70,0,0
75369,-200,4,2,0,70,0,0
75722,-50,4,2,0,70,0,0
76957,-200,4,2,0,70,0,0
77134,-100,4,2,0,70,0,0
79957,-50,4,2,0,70,0,0
81016,-200,4,2,0,70,0,0
81369,-50,4,2,0,70,0,0
82604,-100,4,2,0,70,0,0
82781,-200,4,2,0,70,0,0
83487,-400,4,2,0,70,0,0
84193,-50,4,2,0,70,0,0
84546,-25,4,2,0,70,0,0
84898,-20,4,2,0,70,0,0
85251,-25,4,2,0,70,0,0
85604,-50,4,2,0,70,0,0
86310,-400,4,2,0,70,0,0
87016,-50,4,2,0,70,0,0
88251,-100,4,2,0,70,0,0
89134,-25,4,2,0,70,0,0
89840,-50,4,2,0,70,0,0
90171,-50,4,2,0,5,0,0
90193,-50,4,2,0,70,0,0
90524,-50,4,2,0,5,0,0
90546,-50,4,2,0,70,0,0
90877,-50,4,2,0,5,0,0
90899,-50,4,2,0,70,0,0
91230,-50,4,2,0,5,0,0
91251,-100,4,1,0,70,0,0
113840,88.2352941176471,4,2,0,70,1,0
113840,-10,4,2,0,70,0,0

[HitObjects]
160,104,898,6,0,P|192:200|132:200,1,174.999995231629
160,104,1251,6,0,P|169:204|111:191,1,174.999995231629
160,104,1604,6,0,P|146:204|92:178,1,174.999995231629
160,104,1957,6,0,P|124:198|77:160,1,174.999995231629
232,196,2310,6,0,P|200:292|260:292,1,174.999995231629
232,196,2663,6,0,P|223:296|281:283,1,174.999995231629
232,196,3016,6,0,P|246:296|300:270,1,174.999995231629
232,196,3369,6,0,P|268:290|315:252,1,174.999995231629
424,128,3722,6,0,P|456:32|396:32,1,174.999995231629
424,128,4075,6,0,P|433:28|375:41,1,174.999995231629
424,128,4428,6,0,P|410:28|356:54,1,174.999995231629
424,128,4781,6,0,P|388:34|341:72,1,174.999995231629
304,148,5134,6,0,P|226:146|232:224,1,174.999995231629
284,133,5487,6,0,P|207:149|231:224,1,174.999995231629
263,124,5840,6,0,P|192:156|231:223,1,174.999995231629,0|8,0:0|0:0,0:0:0:0:
240,172,6104,1,8,0:0:0:0:
237,119,6193,6,0,P|176:168|231:223,1,174.999995231629,8|0,0:0|0:0,0:0:0:0:
392,360,6546,6,0,P|440:316|396:212,1,174.999995231629
392,360,6898,6,0,P|344:316|388:212,1,174.999995231629
372,220,7251,6,0,P|338:143|391:80,1,174.999995231629
411,220,7604,6,0,P|444:143|391:80,1,174.999995231629
284,192,7957,6,0,P|236:148|280:44,1,174.999995231629
176,192,8310,6,0,P|224:148|180:44,1,174.999995231629
176,192,8663,6,0,P|224:236|180:340,1,174.999995231629
284,192,9016,6,0,P|236:236|280:340,1,174.999995231629
300,264,9369,6,0,P|352:176|308:124,1,174.999995231629
284,192,9722,6,0,P|256:92|304:60,1,174.999995231629
476,144,10075,6,0,P|408:208|408:172,1,174.999995231629
91,61,10428,6,0,P|14:69|36:144,1,174.999995231629
476,144,10781,6,0,P|408:80|408:116,1,174.999995231629
36,144,11134,6,0,P|104:208|104:172,1,174.999995231629
324,112,11487,6,0,P|240:56|188:120,1,174.999995231629,0|2,0:0|0:0,0:0:0:0:
256,124,11751,1,2,0:0:0:0:
324,112,11840,6,0,P|240:56|188:120,1,174.999995231629,2|0,0:0|0:0,0:0:0:0:
96,192,12193,5,0,0:0:0:0:
40,344,12369,1,0,0:0:0:0:
48,220,12546,5,0,0:0:0:0:
112,336,12722,1,0,0:0:0:0:
116,244,12898,5,0,0:0:0:0:
172,296,13075,1,0,0:0:0:0:
184,224,13251,5,0,0:0:0:0:
144,276,13428,1,0,0:0:0:0:
216,288,13604,5,0,0:0:0:0:
228,252,13780,1,0,0:0:0:0:
268,288,13957,5,0,0:0:0:0:
272,316,14133,1,0,0:0:0:0:
328,304,14310,5,0,0:0:0:0:
332,288,14398,1,0,0:0:0:0:
336,272,14487,1,0,0:0:0:0:
388,320,14663,5,0,0:0:0:0:
381,304,14751,1,0,0:0:0:0:
374,289,14840,1,0,0:0:0:0:
452,212,15016,5,0,0:0:0:0:
448,191,15104,1,0,0:0:0:0:
444,171,15193,1,0,0:0:0:0:
392,232,15369,5,0,0:0:0:0:
399,212,15457,1,0,0:0:0:0:
406,192,15546,1,0,0:0:0:0:
376,104,15722,5,0,0:0:0:0:
401,90,15810,1,0,0:0:0:0:
427,77,15898,1,0,0:0:0:0:
292,152,16075,5,0,0:0:0:0:
275,127,16163,1,0,0:0:0:0:
259,103,16251,1,0,0:0:0:0:
168,36,16428,5,0,0:0:0:0:
175,52,16516,1,0,0:0:0:0:
182,67,16605,1,0,0:0:0:0:
120,96,16781,5,0,0:0:0:0:
124,117,16869,1,0,0:0:0:0:
128,137,16958,1,0,0:0:0:0:
56,224,17134,5,12,0:0:0:0:
188,228,17310,1,12,0:0:0:0:
80,348,17487,1,10,0:0:0:0:
236,316,17663,1,2,0:0:0:0:
372,240,17840,5,0,0:0:0:0:
340,344,18016,1,0,0:0:0:0:
408,176,18193,5,0,0:0:0:0:
456,304,18369,1,0,0:0:0:0:
488,164,18546,5,8,0:0:0:0:
452,240,18722,1,0,0:0:0:0:
436,112,18898,5,0,0:0:0:0:
452,152,19075,1,0,0:0:0:0:
408,40,19251,5,0,0:0:0:0:
392,48,19340,1,0,0:0:0:0:
380,68,19428,1,0,0:0:0:0:
312,36,19604,5,0,0:0:0:0:
300,56,19692,1,0,0:0:0:0:
284,64,19781,1,0,0:0:0:0:
216,28,19957,5,8,0:0:0:0:
200,36,20046,1,0,0:0:0:0:
188,56,20134,1,0,0:0:0:0:
120,24,20310,5,0,0:0:0:0:
108,44,20398,1,0,0:0:0:0:
92,52,20487,1,0,0:0:0:0:
120,192,20663,6,0,P|104:160|48:144,2,87.4999976158143
48,212,21016,6,0,P|64:244|120:260,2,87.4999976158143
188,240,21369,6,0,P|228:252|250:289,2,87.4999976158143,8|0|0,0:0|0:0|0:0,0:0:0:0:
240,359,21722,6,0,P|199:346|177:309,2,87.4999976158143
324,296,22075,5,0,0:0:0:0:
456,352,22251,1,0,0:0:0:0:
368,352,22427,5,0,0:0:0:0:
420,288,22604,1,0,0:0:0:0:
492,256,22781,5,0,0:0:0:0:
356,216,22957,1,0,0:0:0:0:
472,152,23134,5,0,0:0:0:0:
432,220,23310,1,0,0:0:0:0:
384,136,23487,5,12,0:0:0:0:
390,113,23575,1,0,0:0:0:0:
390,90,23663,1,0,0:0:0:0:
382,68,23751,1,0,0:0:0:0:
367,50,23839,1,4,0:0:0:0:
348,37,23928,1,0,0:0:0:0:
326,31,24016,1,0,0:0:0:0:
302,32,24104,1,0,0:0:0:0:
281,41,24192,1,0,0:0:0:0:
263,56,24281,1,0,0:0:0:0:
251,75,24369,1,4,0:0:0:0:
245,98,24457,1,0,0:0:0:0:
247,121,24545,1,8,0:0:0:0:
256,142,24634,1,0,0:0:0:0:
272,160,24722,1,0,0:0:0:0:
292,172,24810,1,0,0:0:0:0:
320,104,24898,5,8,0:0:0:0:
339,115,24986,1,0,0:0:0:0:
355,132,25074,1,0,0:0:0:0:
366,153,25162,1,0,0:0:0:0:
371,176,25250,1,4,0:0:0:0:
369,199,25339,1,0,0:0:0:0:
361,221,25427,1,0,0:0:0:0:
347,239,25515,1,0,0:0:0:0:
329,254,25603,1,0,0:0:0:0:
307,262,25692,1,0,0:0:0:0:
284,264,25780,1,4,0:0:0:0:
261,260,25868,1,0,0:0:0:0:
240,250,25956,1,8,0:0:0:0:
223,234,26045,1,0,0:0:0:0:
211,215,26133,1,0,0:0:0:0:
204,192,26221,1,0,0:0:0:0:
164,76,26310,6,0,P|108:104|96:164,1,87.4999976158143,8|0,0:0|0:0,0:0:0:0:
180,280,26487,2,0,P|168:240|112:196,1,87.4999976158143,0|0,0:0|0:0,0:0:0:0:
256,88,26663,6,0,P|241:148|279:196,1,87.4999976158143,4|0,0:0|0:0,0:0:0:0:
396,264,26840,2,0,P|357:280|287:265,1,87.4999976158143,0|0,0:0|0:0,0:0:0:0:
388,80,27016,6,0,P|360:120|368:176,1,87.4999976158143,0|0,0:0|0:0,0:0:0:0:
480,276,27193,2,0,P|484:224|432:160,1,87.4999976158143,4|0,0:0|0:0,0:0:0:0:
320,96,27369,6,0,P|272:84|200:100,1,87.4999976158143,8|0,0:0|0:0,0:0:0:0:
88,200,27546,2,0,P|148:212|212:184,1,87.4999976158143
392,196,27722,6,0,P|408:252|384:316,1,87.4999976158143,4|0,0:0|0:0,0:0:0:0:
240,356,27898,2,0,P|232:312|244:252,1,87.4999976158143
391,195,28075,6,0,P|396:151|389:109,1,87.4999976158143,8|0,0:0|0:0,0:0:0:0:
225,184,28251,2,0,P|221:228|237:269,1,87.4999976158143
85,109,28428,6,0,P|69:165|93:229,1,87.4999976158143
237,269,28604,2,0,P|245:225|233:165,1,87.4999976158143,4|0,0:0|0:0,0:0:0:0:
85,108,28781,6,0,P|79:64|87:21,1,87.4999976158143,8|0,0:0|0:0,0:0:0:0:
251,97,28957,2,0,P|254:140|239:181,1,87.4999976158143
124,232,29134,5,4,0:0:0:0:
107,265,29222,1,0,0:0:0:0:
109,302,29310,1,0,0:0:0:0:
129,333,29398,1,0,0:0:0:0:
162,350,29486,1,8,0:0:0:0:
199,350,29575,1,0,0:0:0:0:
231,331,29663,1,0,0:0:0:0:
249,299,29751,1,0,0:0:0:0:
180,280,29840,5,0,0:0:0:0:
195,246,29928,1,0,0:0:0:0:
225,224,30016,1,4,0:0:0:0:
262,220,30104,1,0,0:0:0:0:
296,235,30192,1,8,0:0:0:0:
319,265,30281,1,0,0:0:0:0:
324,301,30369,1,0,0:0:0:0:
310,336,30457,1,0,0:0:0:0:
388,360,30546,5,4,0:0:0:0:
420,341,30634,1,0,0:0:0:0:
453,323,30722,1,0,0:0:0:0:
486,305,30810,1,0,0:0:0:0:
490,284,30898,1,8,0:0:0:0:
462,259,30987,1,0,0:0:0:0:
434,235,31075,1,0,0:0:0:0:
405,210,31163,1,0,0:0:0:0:
384,284,31251,5,0,0:0:0:0:
351,265,31339,1,0,0:0:0:0:
318,247,31427,1,4,0:0:0:0:
285,229,31515,1,0,0:0:0:0:
281,208,31603,1,8,0:0:0:0:
309,183,31692,1,0,0:0:0:0:
337,159,31780,1,0,0:0:0:0:
366,134,31868,1,0,0:0:0:0:
472,40,31957,6,0,P|424:56|364:48,1,87.4999976158143,4|0,0:0|0:0,0:0:0:0:
140,88,32134,2,0,P|204:76|268:92,1,87.4999976158143
396,216,32310,6,0,P|439:214|481:225,1,87.4999976158143,8|0,0:0|0:0,0:0:0:0:
234,192,32487,2,0,P|190:192|149:177,1,87.4999976158143
368,352,32663,6,0,P|332:304|328:228,1,87.4999976158143
144,352,32840,2,0,P|180:304|184:228,1,87.4999976158143,4|0,0:0|0:0,0:0:0:0:
324,105,33016,2,0,P|339:64|368:31,1,87.4999976158143,8|0,0:0|0:0,0:0:0:0:
187,105,33193,2,0,P|172:64|143:31,1,87.4999976158143
112,140,33369,5,4,0:0:0:0:
81,108,33457,1,0,0:0:0:0:
50,138,33546,1,0,0:0:0:0:
80,170,33634,1,0,0:0:0:0:
144,200,33722,5,8,0:0:0:0:
145,252,33810,1,0,0:0:0:0:
198,250,33899,1,0,0:0:0:0:
197,199,33987,1,0,0:0:0:0:
232,132,34075,5,0,0:0:0:0:
269,93,34163,1,0,0:0:0:0:
306,129,34252,1,4,0:0:0:0:
270,168,34340,1,0,0:0:0:0:
312,232,34428,5,8,0:0:0:0:
343,200,34516,1,0,0:0:0:0:
374,230,34605,1,0,0:0:0:0:
344,262,34693,1,0,0:0:0:0:
300,332,34781,6,0,B|180:246|180:246|249:296|249:296|132:212,1,349.999990463257
236,72,35487,6,0,B|137:143|137:143|206:94|206:94|86:178,1,349.999990463257
266,197,36193,6,0,B|365:126|365:126|296:175|296:175|415:90,1,349.999990463257
469,342,36898,6,0,B|349:256|349:256|418:306|418:306|301:222,1,349.999990463257
420,67,37604,5,0,0:0:0:0:
110,294,37957,1,0,0:0:0:0:
460,219,38310,5,0,0:0:0:0:
80,160,38663,1,0,0:0:0:0:
381,356,39016,5,0,0:0:0:0:
154,46,39369,1,0,0:0:0:0:
228,396,39722,5,0,0:0:0:0:
287,16,40075,1,0,0:0:0:0:
403,204,40428,5,0,0:0:0:0:
234,299,40604,1,0,0:0:0:0:
231,133,40781,1,0,0:0:0:0:
331,321,40957,1,0,0:0:0:0:
243,339,41134,5,0,0:0:0:0:
149,170,41310,1,0,0:0:0:0:
315,167,41487,1,0,0:0:0:0:
127,267,41663,1,0,0:0:0:0:
109,179,41840,5,0,0:0:0:0:
278,85,42016,1,0,0:0:0:0:
281,251,42193,1,0,0:0:0:0:
181,63,42369,1,0,0:0:0:0:
268,45,42546,5,0,0:0:0:0:
363,213,42722,1,0,0:0:0:0:
197,217,42899,1,0,0:0:0:0:
385,117,43075,1,0,0:0:0:0:
280,216,43251,5,0,0:0:0:0:
336,96,43340,1,0,0:0:0:0:
340,172,43428,1,0,0:0:0:0:
272,56,43516,1,0,0:0:0:0:
198,64,43604,5,0,0:0:0:0:
149,189,43692,1,0,0:0:0:0:
141,114,43780,1,0,0:0:0:0:
216,224,43869,1,0,0:0:0:0:
280,216,43957,5,0,0:0:0:0:
329,341,44045,1,0,0:0:0:0:
337,266,44133,1,0,0:0:0:0:
262,376,44222,1,0,0:0:0:0:
198,368,44310,5,0,0:0:0:0:
142,248,44399,1,0,0:0:0:0:
138,324,44487,1,0,0:0:0:0:
206,208,44575,1,0,0:0:0:0:
320,136,44663,6,0,P|204:168|376:168,1,656.249982118607
394,118,45016,6,0,P|510:150|338:150,1,656.249982118607
304,162,45369,6,0,P|188:130|360:130,1,656.249982118607
331,88,45722,6,0,P|299:-28|299:144,1,656.249982118607
290,152,46075,5,4,0:0:0:0:
371,140,46163,1,0,0:0:0:0:
414,211,46251,1,0,0:0:0:0:
365,277,46340,2,0,P|299:301|233:268,1,87.4999976158143,0|8,0:0|0:0,0:0:0:0:
170,174,46516,5,0,0:0:0:0:
86,158,46604,1,0,0:0:0:0:
17,208,46692,1,0,0:0:0:0:
7,293,46780,1,0,0:0:0:0:
61,358,46868,1,0,0:0:0:0:
146,363,46957,1,4,0:0:0:0:
208,305,47046,2,0,P|196:247|216:192,1,87.4999976158143,0|8,0:0|0:0,0:0:0:0:
246,108,47222,5,0,0:0:0:0:
287,38,47310,1,0,0:0:0:0:
366,59,47398,1,0,0:0:0:0:
366,140,47487,1,4,0:0:0:0:
314,100,47575,1,0,0:0:0:0:
272,30,47663,1,0,0:0:0:0:
193,51,47751,1,0,0:0:0:0:
193,132,47840,1,8,0:0:0:0:
91,121,47928,5,0,0:0:0:0:
116,156,48016,1,0,0:0:0:0:
129,198,48104,1,0,0:0:0:0:
129,241,48192,1,0,0:0:0:0:
115,282,48280,1,0,0:0:0:0:
89,318,48369,1,4,0:0:0:0:
54,343,48457,2,0,P|107:323|154:326,1,87.4999976158143,0|8,0:0|0:0,0:0:0:0:
269,353,48634,5,0,0:0:0:0:
353,361,48722,1,0,0:0:0:0:
419,307,48810,1,0,0:0:0:0:
427,222,48898,1,4,0:0:0:0:
371,157,48986,1,0,0:0:0:0:
286,151,49075,1,0,0:0:0:0:
222,208,49163,2,0,P|283:246|324:226,1,87.4999976158143,0|8,0:0|0:0,0:0:0:0:
427,222,49340,5,0,0:0:0:0:
460,195,49428,1,0,0:0:0:0:
480,156,49516,1,0,0:0:0:0:
481,113,49604,1,0,0:0:0:0:
463,73,49692,1,0,0:0:0:0:
430,45,49781,1,4,0:0:0:0:
388,33,49869,1,0,0:0:0:0:
321,66,49957,6,8,P|339:129|310:200,1,87.4999976158143,2|0,0:0|0:0,0:0:0:0:
191,107,50134,2,0,P|162:46|168:9,1,87.4999976158143,2|0,0:0|0:0,0:0:0:0:
71,80,50310,5,6,0:0:0:0:
79,131,50398,1,0,0:0:0:0:
87,183,50487,1,0,0:0:0:0:
95,234,50575,1,0,0:0:0:0:
42,305,50663,5,10,0:0:0:0:
93,294,50751,1,0,0:0:0:0:
145,284,50840,1,0,0:0:0:0:
196,274,50928,1,0,0:0:0:0:
260,313,51016,5,2,0:0:0:0:
248,261,51104,1,0,0:0:0:0:
236,209,51193,1,4,0:0:0:0:
224,157,51281,1,0,0:0:0:0:
163,129,51369,5,10,0:0:0:0:
213,113,51457,1,0,0:0:0:0:
263,97,51546,1,0,0:0:0:0:
313,82,51634,1,0,0:0:0:0:
381,111,51722,5,2,0:0:0:0:
410,129,51810,1,0,0:0:0:0:
449,247,51898,1,2,0:0:0:0:
436,277,51987,1,0,0:0:0:0:
259,158,52075,1,2,0:0:0:0:
296,146,52163,1,0,0:0:0:0:
391,323,52251,1,2,0:0:0:0:
353,329,52340,1,0,0:0:0:0:
262,129,52428,1,2,0:0:0:0:
296,146,52516,1,0,0:0:0:0:
238,339,52604,1,2,0:0:0:0:
207,316,52693,1,0,0:0:0:0:
108,106,52781,1,2,0:0:0:0:
137,124,52869,1,0,0:0:0:0:
97,295,52957,1,2,0:0:0:0:
65,277,53046,1,0,0:0:0:0:
201,224,53134,6,0,P|199:183|155:97,1,87.4999976158143,2|0,0:0|0:0,0:0:0:0:
231,49,53310,2,0,P|258:106|264:177,1,87.4999976158143,2|0,0:0|0:0,0:0:0:0:
201,224,53487,6,0,P|212:181|233:143,1,87.4999976158143,2|0,0:0|0:0,0:0:0:0:
279,233,53663,2,0,P|265:274|262:317,1,87.4999976158143,2|0,0:0|0:0,0:0:0:0:
279,233,53840,6,0,P|277:192|233:106,1,87.4999976158143,2|0,0:0|0:0,0:0:0:0:
309,58,54016,2,0,P|336:115|342:186,1,87.4999976158143,2|0,0:0|0:0,0:0:0:0:
279,233,54193,6,0,P|290:190|311:152,1,87.4999976158143,2|0,0:0|0:0,0:0:0:0:
357,242,54369,2,0,P|343:283|340:326,1,87.4999976158143,2|0,0:0|0:0,0:0:0:0:
461,216,54546,5,2,0:0:0:0:
446,243,54634,1,0,0:0:0:0:
444,121,54722,1,2,0:0:0:0:
418,100,54810,1,0,0:0:0:0:
368,262,54898,1,2,0:0:0:0:
338,262,54987,1,0,0:0:0:0:
349,94,55075,1,2,0:0:0:0:
319,94,55163,1,0,0:0:0:0:
265,240,55251,1,2,0:0:0:0:
237,221,55340,1,0,0:0:0:0:
247,91,55428,1,2,0:0:0:0:
224,117,55516,1,0,0:0:0:0:
146,237,55604,5,2,0:0:0:0:
110,239,55693,1,0,0:0:0:0:
93,91,55781,1,2,0:0:0:0:
131,86,55869,1,0,0:0:0:0:
43,199,55957,1,2,0:0:0:0:
40,162,56046,1,0,0:0:0:0:
177,137,56134,1,2,0:0:0:0:
183,179,56222,1,0,0:0:0:0:
116,191,56310,1,2,0:0:0:0:
110,148,56398,1,0,0:0:0:0:
241,127,56487,1,2,0:0:0:0:
248,171,56575,1,0,0:0:0:0:
327,140,56663,5,6,0:0:0:0:
423,102,56751,1,0,0:0:0:0:
465,196,56840,1,0,0:0:0:0:
349,239,56928,1,0,0:0:0:0:
395,175,57016,5,6,0:0:0:0:
434,289,57104,1,0,0:0:0:0:
310,327,57193,1,0,0:0:0:0:
267,211,57281,1,0,0:0:0:0:
316,146,57369,5,4,0:0:0:0:
303,61,57457,1,0,0:0:0:0:
234,10,57545,1,0,0:0:0:0:
150,20,57634,2,0,P|100:44|53:104,1,87.4999976158143,0|8,0:0|0:0,0:0:0:0:
199,113,57810,5,0,0:0:0:0:
255,176,57898,1,0,0:0:0:0:
252,262,57986,1,0,0:0:0:0:
191,321,58074,1,0,0:0:0:0:
106,322,58162,1,0,0:0:0:0:
44,264,58251,1,4,0:0:0:0:
38,179,58340,2,0,P|76:219|146:231,1,87.4999976158143,0|8,0:0|0:0,0:0:0:0:
252,262,58516,5,0,0:0:0:0:
329,227,58604,1,0,0:0:0:0:
342,144,58692,1,0,0:0:0:0:
280,87,58780,1,4,0:0:0:0:
255,176,58869,1,0,0:0:0:0:
327,133,58957,1,0,0:0:0:0:
404,167,59045,1,0,0:0:0:0:
421,249,59133,1,8,0:0:0:0:
372,334,59222,5,0,0:0:0:0:
331,317,59310,1,0,0:0:0:0:
289,305,59398,1,0,0:0:0:0:
246,298,59486,1,0,0:0:0:0:
202,297,59574,1,0,0:0:0:0:
159,302,59663,1,4,0:0:0:0:
116,312,59751,2,0,P|78:264|69:212,1,87.4999976158143,0|8,0:0|0:0,0:0:0:0:
150,198,59928,5,0,0:0:0:0:
144,140,60016,1,0,0:0:0:0:
120,87,60104,1,0,0:0:0:0:
80,44,60193,1,4,0:0:0:0:
63,93,60281,1,0,0:0:0:0:
120,87,60369,1,0,0:0:0:0:
173,63,60457,2,0,P|221:63|274:75,1,87.4999976158143,0|8,0:0|0:0,0:0:0:0:
426,54,60634,5,0,0:0:0:0:
465,95,60722,1,0,0:0:0:0:
470,152,60810,1,0,0:0:0:0:
437,199,60898,1,0,0:0:0:0:
382,215,60986,1,0,0:0:0:0:
330,193,61075,1,4,0:0:0:0:
303,143,61163,1,0,0:0:0:0:
296,47,61251,6,0,P|243:63|192:140,1,87.4999976158143
83,152,61428,2,0,P|108:101|103:31,1,87.4999976158143
156,173,61604,5,6,0:0:0:0:
113,211,61692,1,0,0:0:0:0:
94,266,61780,1,0,0:0:0:0:
102,323,61868,1,0,0:0:0:0:
113,211,61957,5,2,0:0:0:0:
110,268,62045,1,0,0:0:0:0:
135,320,62133,1,0,0:0:0:0:
181,354,62221,1,0,0:0:0:0:
110,268,62310,5,2,0:0:0:0:
148,310,62398,1,0,0:0:0:0:
202,329,62486,1,0,0:0:0:0:
259,321,62574,1,0,0:0:0:0:
148,310,62663,5,2,0:0:0:0:
204,312,62751,1,0,0:0:0:0:
256,288,62839,1,0,0:0:0:0:
290,242,62927,1,0,0:0:0:0:
334,164,63016,6,0,L|350:67,1,87.4999976158143,2|0,0:0|0:0,0:0:0:0:
394,233,63193,2,0,L|388:122,1,87.4999976158143,2|0,0:0|0:0,0:0:0:0:
413,335,63369,2,0,L|456:232,1,87.4999976158143,2|0,0:0|0:0,0:0:0:0:
357,378,63546,2,0,L|344:268,1,87.4999976158143,2|0,0:0|0:0,0:0:0:0:
276,367,63722,5,2,0:0:0:0:
248,353,63810,1,0,0:0:0:0:
275,216,63898,1,2,0:0:0:0:
254,240,63987,1,0,0:0:0:0:
166,355,64075,1,2,0:0:0:0:
141,335,64163,1,0,0:0:0:0:
44,247,64252,1,2,0:0:0:0:
44,211,64340,1,0,0:0:0:0:
130,108,64428,6,0,L|104:15,1,87.4999976158143,2|0,0:0|0:0,0:0:0:0:
212,81,64604,2,0,L|181:180,1,87.4999976158143,2|0,0:0|0:0,0:0:0:0:
292,111,64781,2,0,L|266:18,1,87.4999976158143,2|0,0:0|0:0,0:0:0:0:
374,84,64957,2,0,L|343:183,1,87.4999976158143,2|0,0:0|0:0,0:0:0:0:
478,156,65134,5,2,0:0:0:0:
455,179,65222,1,0,0:0:0:0:
487,250,65310,1,2,0:0:0:0:
465,272,65398,1,0,0:0:0:0:
426,336,65487,5,2,0:0:0:0:
403,313,65575,1,0,0:0:0:0:
332,345,65663,1,2,0:0:0:0:
309,323,65751,1,0,0:0:0:0:
206,337,65840,5,4,0:0:0:0:
156,287,65928,1,0,0:0:0:0:
206,238,66016,1,0,0:0:0:0:
255,287,66104,1,0,0:0:0:0:
332,266,66193,5,4,0:0:0:0:
397,200,66281,1,0,0:0:0:0:
332,137,66369,1,0,0:0:0:0:
268,200,66457,1,0,0:0:0:0:
175,205,66546,5,4,0:0:0:0:
96,125,66634,1,0,0:0:0:0:
175,50,66722,1,0,0:0:0:0:
251,125,66810,1,0,0:0:0:0:
319,202,66898,5,4,0:0:0:0:
317,347,66986,1,0,0:0:0:0:
176,344,67074,1,0,0:0:0:0:
175,205,67162,1,0,0:0:0:0:
64,280,67251,6,2,P|16:652|272:232,1,1399.99996185303
299,238,67604,6,2,P|-83:575|103:101,1,1399.99996185303,2|2,0:0|0:0,2:0:0:0:
104,101,67957,6,2,P|-269:137|197:292,1,1399.99996185303
196,319,68310,6,2,P|582:649|386:180,1,1399.99996185303,2|2,0:0|0:0,2:0:0:0:
382,180,68663,6,0,P|296:88|112:64,1,233.333326975505
197,55,68781,2,0,P|216:160|100:124,1,233.333326975505
117,160,68898,2,0,P|128:260|296:140,1,233.333326975505
242,299,69016,2,0,P|312:172|336:244,1,233.333326975505
284,157,69134,2,0,P|412:100|344:56,1,233.333326975505
401,82,69251,2,0,P|464:200|452:312,1,233.333326975505
457,296,69369,2,0,B|352:248|352:248|240:324,1,233.333326975505
254,313,69487,2,0,P|112:252|64:160,1,233.333326975505
72,188,69604,2,0,P|182:155|254:65,1,233.333326975505
254,65,69722,6,0,P|312:64|400:140,1,174.999995231629
398,135,70075,6,0,B|464:184|464:184|460:268|460:268|380:304,1,233.333326975505
398,295,70193,2,0,B|308:312|240:360|240:360|244:280,1,233.333326975505
243,299,70310,2,0,P|92:344|120:244,1,233.333326975505
89,337,70428,2,0,B|92:236|92:236|36:248|36:248|52:152,1,233.333326975505
48,174,70546,2,0,B|160:136|160:136|60:56,1,233.333326975505
70,64,70663,2,0,P|220:48|340:48,1,233.333326975505
302,46,70781,2,0,B|376:176|376:176|280:168|208:236,1,233.333326975505
264,196,70957,5,8,0:0:0:0:
264,196,71046,1,8,0:0:0:0:
264,196,71134,1,8,0:0:0:0:
132,330,71310,2,0,P|76:278|56:178,1,174.999995231629,8|0,0:0|0:0,0:0:0:0:
56,185,71487,6,0,P|112:148|128:40,1,174.999995231629
130,47,71840,6,0,P|137:131|203:185,1,174.999995231629
203,185,72193,6,0,P|268:131|276:46,1,174.999995231629
275,45,72898,6,0,B|288:132|348:184|348:184|284:132|284:80,1,279.999992370606
284,86,74310,6,0,B|420:80|480:56|480:56|428:84,1,233.333326975505
449,72,74428,2,0,P|480:200|448:336,1,233.333326975505
463,299,74546,2,0,P|308:336|232:316,1,233.333326975505
239,319,74663,2,0,P|264:220|248:320,1,233.333326975505
299,269,74781,2,0,P|215:229|239:319,1,233.333326975505
239,319,74898,2,0,B|104:336|76:352|76:352|40:272,1,233.333326975505
49,292,75016,2,0,B|160:208|160:208|124:100,1,233.333326975505
130,118,75134,2,0,B|160:52|160:52|240:40|240:40|284:112,1,233.333326975505
281,108,75251,2,0,B|384:84|488:16|488:16|464:32,1,233.333326975505
482,19,75369,6,0,B|484:76|484:76|456:128|456:128|456:192,1,174.999995231629
456,186,75722,6,0,P|320:184|216:148,1,233.333326975505
228,154,75840,2,0,P|324:228|448:256,1,233.333326975505
431,255,75957,2,0,P|292:288|208:348,1,233.333326975505
218,337,76075,2,0,B|60:336|60:336|144:304,1,233.333326975505
129,309,76193,2,0,B|198:282|198:282|40:280,1,233.333326975505
40,280,76310,2,0,P|0:160|48:40,1,233.333326975505
30,62,76428,2,0,P|104:164|216:168,1,233.333326975505
232,160,76604,5,8,0:0:0:0:
232,160,76693,1,8,0:0:0:0:
232,160,76781,1,8,0:0:0:0:
232,160,76957,2,0,P|260:124|280:72,1,87.4999976158143,8|0,0:0|0:0,0:0:0:0:
276,85,77134,6,0,P|424:144|288:244,1,349.999990463257
330,260,77487,6,0,B|416:224|416:224|428:144|428:144|388:76|388:76|276:85,1,349.999990463257
290,84,77840,6,0,P|142:142|278:242,1,349.999990463257
235,258,78193,6,0,B|149:221|149:221|137:141|137:141|177:73|177:73|289:83,1,349.999990463257
288,64,78546,5,8,0:0:0:0:
288,304,78722,1,8,0:0:0:0:
288,252,78810,1,8,0:0:0:0:
288,200,78898,1,8,0:0:0:0:
64,200,79075,1,8,0:0:0:0:
448,200,79251,1,8,0:0:0:0:
440,336,79604,5,0,0:0:0:0:
412,308,79693,1,0,0:0:0:0:
312,324,79781,1,0,0:0:0:0:
284,296,79869,1,0,0:0:0:0:
184,260,79957,6,0,B|76:228|76:228|52:88,1,233.333326975505
55,109,80075,2,0,P|172:76|104:16,1,233.333326975505
136,21,80193,2,0,P|256:56|200:140,1,233.333326975505
228,127,80310,2,0,B|348:76|348:76|328:72|328:72|324:88|324:88|376:16,1,233.333326975505
362,34,80428,2,0,P|496:124|468:192,1,233.333326975505
486,166,80546,2,0,B|348:216|348:216|348:180|348:180|220:248,1,233.333326975505
303,203,80663,2,0,B|244:236|244:236|268:252|268:252|136:312,1,233.333326975505
143,308,80781,2,0,B|76:320|76:320|56:240|16:128,1,233.333326975505
27,162,80898,2,0,B|59:98|59:98|140:40|140:40|243:47,1,233.333326975505
201,44,81016,6,0,P|163:67|206:46,1,174.999995231629
211,50,81369,6,0,B|336:32|336:32|468:72,1,233.333326975505
439,63,81487,2,0,P|476:216|424:224,1,233.333326975505
458,222,81604,2,0,B|380:108|380:108|404:240,1,233.333326975505
396,200,81722,2,0,P|448:332|336:344,1,233.333326975505
394,360,81840,2,0,P|332:236|336:120,1,233.333326975505
330,144,81957,2,0,P|232:220|68:208,1,233.333326975505
126,228,82075,2,0,B|52:76|52:76|212:36,1,233.333326975505
144,56,82251,5,8,0:0:0:0:
144,56,82340,1,8,0:0:0:0:
144,56,82428,1,8,0:0:0:0:
420,92,82604,2,0,B|340:48|340:48|240:72,1,174.999995231629
258,67,82781,6,0,P|324:132|288:192,1,174.999995231629
288,191,83134,2,0,P|260:248|328:332,1,174.999995231629
319,330,83487,2,0,P|400:240|400:180,1,174.999995231629
402,191,84193,6,0,P|296:56|400:204,1,699.999980926514
377,251,84546,2,0,P|104:56|380:304,1,1399.99996185303
376,332,84898,2,0,P|-211:176|399:285,1,1749.99995231628
414,106,85251,2,0,P|81:149|452:142,1,1399.99996185303
476,177,85604,6,0,B|448:280|304:356|248:292|248:292|124:232|40:280|40:280|52:152|36:44|36:44|132:168|132:168|236:116|276:32|276:32|416:64|440:140|440:140|328:164,1,1399.99996185303
356,157,86310,6,0,P|304:168|268:192,1,87.4999976158143
275,185,86663,2,0,L|252:220,1,21.8749994039536
196,336,86840,2,0,L|180:300,1,21.8749994039536
148,216,87016,6,0,B|32:48|32:48|144:32|144:32|148:32,1,233.333326975505
60,43,87134,2,0,P|192:68|336:48,1,233.333326975505
290,59,87251,2,0,B|456:48|496:72|496:72|440:136,1,233.333326975505
478,91,87369,2,0,P|392:168|484:128,1,233.333326975505
408,176,87487,2,0,P|397:291|375:193,1,233.333326975505
386,285,87604,2,0,B|248:272|248:272|164:348,1,233.333326975505
178,335,87722,2,0,B|56:292|56:292|64:168,1,233.333326975505
64,156,87898,5,8,0:0:0:0:
64,156,87987,1,8,0:0:0:0:
64,156,88075,1,8,0:0:0:0:
140,48,88251,6,0,P|216:72|316:40,1,174.999995231629
324,44,88428,5,0,0:0:0:0:
352,36,88604,1,0,0:0:0:0:
484,164,88781,1,0,0:0:0:0:
452,148,88957,1,0,0:0:0:0:
364,288,89134,6,0,B|328:276|328:276|332:312|332:312|296:284|296:284|308:332|308:332|272:296|272:296|276:340|276:340|240:308|240:308|232:344|232:344|216:304|216:304|192:344|192:344|192:304|192:304|144:340|144:340|164:300|164:300|120:324|120:324|132:272|132:272|104:292,1,699.999980926514
76,168,89487,6,0,B|112:180|112:180|108:144|108:144|144:172|144:172|132:124|132:124|168:160|168:160|164:116|164:116|200:148|200:148|208:112|208:112|224:152|224:152|248:112|248:112|248:152|248:152|296:116|296:116|276:156|276:156|320:132|320:132|308:184|308:184|336:164,1,699.999980926514
456,160,89840,6,0,P|572:192|400:192,1,656.249982118607
382,142,90193,6,0,P|266:174|438:174,1,656.249982118607
392,192,90546,6,0,P|276:160|448:160,1,656.249982118607
448,152,90898,6,0,P|212:126|415:248,1,656.249982118607
452,244,91251,5,0,0:0:0:0:
417,304,91339,1,0,0:0:0:0:
359,341,91427,1,0,0:0:0:0:
289,346,91515,1,0,0:0:0:0:
226,318,91603,1,0,0:0:0:0:
183,263,91692,1,0,0:0:0:0:
160,196,91781,2,0,P|132:140|72:108,1,87.4999976158143,4|0,0:0|0:0,0:0:0:0:
228,40,91957,5,0,0:0:0:0:
311,25,92045,1,0,0:0:0:0:
372,83,92133,1,0,0:0:0:0:
363,167,92221,1,0,0:0:0:0:
290,209,92310,2,0,P|240:212|188:192,1,87.4999976158143,4|0,0:0|0:0,0:0:0:0:
48,292,92487,2,0,P|92:312|160:308,1,87.4999976158143,4|0,0:0|0:0,0:0:0:0:
288,360,92663,2,0,P|340:336|368:284,1,87.4999976158143,4|0,0:0|0:0,0:0:0:0:
428,240,92840,5,0,0:0:0:0:
408,200,92928,1,0,0:0:0:0:
403,157,93016,1,0,0:0:0:0:
412,115,93104,1,0,0:0:0:0:
434,77,93193,2,0,P|352:100|320:96,1,87.4999976158143,4|0,0:0|0:0,0:0:0:0:
97,41,93369,5,0,0:0:0:0:
59,77,93457,1,0,0:0:0:0:
47,127,93545,1,0,0:0:0:0:
64,176,93633,1,0,0:0:0:0:
104,209,93722,2,0,P|128:260|120:312,1,87.4999976158143,4|0,0:0|0:0,0:0:0:0:
236,360,93898,2,0,L|236:256,1,87.4999976158143,4|0,0:0|0:0,0:0:0:0:
349,293,94075,2,0,P|351:250|372:212,1,87.4999976158143,4|0,0:0|0:0,0:0:0:0:
492,56,94251,5,0,0:0:0:0:
437,91,94340,1,0,0:0:0:0:
373,105,94428,1,0,0:0:0:0:
309,95,94516,1,0,0:0:0:0:
252,63,94604,2,0,P|180:72|152:84,1,87.4999976158143,4|0,0:0|0:0,0:0:0:0:
32,172,94781,5,0,0:0:0:0:
90,201,94869,1,0,0:0:0:0:
148,233,94957,1,0,0:0:0:0:
204,266,95046,1,0,0:0:0:0:
260,300,95134,2,0,L|304:220,1,87.4999976158143,4|0,0:0|0:0,0:0:0:0:
436,72,95310,2,0,L|400:164,1,87.4999976158143,4|0,0:0|0:0,0:0:0:0:
468,352,95487,2,0,L|404:268,1,87.4999976158143,4|0,0:0|0:0,0:0:0:0:
336,160,95663,5,0,0:0:0:0:
363,104,95751,1,0,0:0:0:0:
321,59,95839,1,0,0:0:0:0:
264,82,95927,1,0,0:0:0:0:
265,144,96016,2,0,P|208:176|204:160,1,87.4999976158143,4|0,0:0|0:0,0:0:0:0:
152,68,96193,5,0,0:0:0:0:
95,39,96281,1,0,0:0:0:0:
36,63,96369,1,0,0:0:0:0:
16,124,96457,1,0,0:0:0:0:
48,178,96546,2,0,P|88:280|68:296,1,87.4999976158143,4|0,0:0|0:0,0:0:0:0:
220,344,96722,2,0,P|252:304|312:336,1,87.4999976158143,4|0,0:0|0:0,0:0:0:0:
420,272,96898,2,0,P|436:208|484:208,1,87.4999976158143,4|0,0:0|0:0,0:0:0:0:
464,32,97076,5,0,0:0:0:0:
446,94,97164,1,0,0:0:0:0:
405,145,97252,1,0,0:0:0:0:
348,177,97340,1,0,0:0:0:0:
284,185,97428,2,0,P|216:192|192:184,1,87.4999976158143,4|0,0:0|0:0,0:0:0:0:
224,44,97604,5,0,0:0:0:0:
160,59,97693,1,0,0:0:0:0:
106,96,97781,1,0,0:0:0:0:
70,150,97869,1,0,0:0:0:0:
55,214,97957,2,0,P|40:280|56:320,1,87.4999976158143,4|0,0:0|0:0,0:0:0:0:
200,356,98134,2,0,P|216:308|208:248,1,87.4999976158143,4|0,0:0|0:0,0:0:0:0:
70,150,98310,2,0,P|68:96|88:48,1,87.4999976158143,4|0,0:0|0:0,0:0:0:0:
272,40,98487,5,0,0:0:0:0:
335,36,98575,1,0,0:0:0:0:
381,81,98663,1,0,0:0:0:0:
380,144,98751,1,0,0:0:0:0:
333,187,98840,2,0,P|262:187|223:125,1,87.4999976158143,4|0,0:0|0:0,0:0:0:0:
88,196,99017,5,0,0:0:0:0:
42,240,99105,1,0,0:0:0:0:
43,304,99193,1,0,0:0:0:0:
90,347,99281,1,0,0:0:0:0:
153,342,99369,2,0,P|160:268|208:244,1,87.4999976158143,4|0,0:0|0:0,0:0:0:0:
88,196,99546,2,0,P|128:144|220:156,1,87.4999976158143,4|0,0:0|0:0,0:0:0:0:
136,32,99722,2,0,P|200:48|240:116,1,87.4999976158143,4|0,0:0|0:0,0:0:0:0:
284,216,99898,5,0,0:0:0:0:
318,271,99986,1,0,0:0:0:0:
363,318,100074,1,0,0:0:0:0:
415,339,100162,1,0,0:0:0:0:
438,278,100251,2,0,P|456:208|464:152,1,87.4999976158143,4|0,0:0|0:0,0:0:0:0:
480,32,100429,5,0,0:0:0:0:
431,76,100516,1,0,0:0:0:0:
376,111,100604,1,0,0:0:0:0:
316,136,100693,1,0,0:0:0:0:
252,151,100781,2,0,P|192:132|164:112,1,87.4999976158143,4|0,0:0|0:0,0:0:0:0:
32,208,100957,2,0,P|112:192|152:172,1,87.4999976158143,4|0,0:0|0:0,0:0:0:0:
236,288,101134,2,0,P|156:272|116:252,1,87.4999976158143,4|0,0:0|0:0,0:0:0:0:
352,352,101310,5,0,0:0:0:0:
348,287,101398,1,0,0:0:0:0:
376,228,101487,1,0,0:0:0:0:
428,190,101575,1,0,0:0:0:0:
493,182,101663,2,0,P|428:152|384:96,1,87.4999976158143,4|0,0:0|0:0,0:0:0:0:
260,24,101840,5,0,0:0:0:0:
195,16,101928,1,0,0:0:0:0:
133,36,102016,1,0,0:0:0:0:
84,80,102104,1,4,0:0:0:0:
58,140,102193,2,0,P|64:220|92:260,1,87.4999976158143,4|0,0:0|0:0,0:0:0:0:
192,352,102369,2,0,P|252:300|300:292,1,87.4999976158143,4|0,0:0|0:0,0:0:0:0:
472,232,102546,5,4,0:0:0:0:
478,148,102634,1,0,0:0:0:0:
409,101,102722,2,0,B|352:60|352:60|320:52,1,87.4999976158143
108,32,102898,5,4,0:0:0:0:
125,117,102986,1,0,0:0:0:0:
114,203,103075,2,0,P|100:284|144:328,1,87.4999976158143
388,344,103251,5,4,0:0:0:0:
301,331,103339,1,0,0:0:0:0:
217,306,103428,2,0,L|320:256,1,87.4999976158143
320,112,103604,5,4,0:0:0:0:
406,125,103692,1,0,0:0:0:0:
490,150,103781,2,0,L|387:200,1,87.4999976158143
217,306,103957,5,4,0:0:0:0:
203,220,104045,1,0,0:0:0:0:
157,146,104134,2,0,B|120:96|120:96|140:56,1,87.4999976158143
306,26,104310,5,4,0:0:0:0:
320,112,104398,1,0,0:0:0:0:
366,186,104487,2,0,B|403:236|403:236|383:276,1,87.4999976158143
292,352,104663,5,4,0:0:0:0:
207,330,104751,1,0,0:0:0:0:
120,320,104840,2,0,P|64:284|52:224,1,87.4999976158143
68,144,105016,6,0,L|136:64,1,87.4999976158143,4|0,0:0|0:0,0:0:0:0:
320,48,105193,2,0,L|252:128,1,87.4999976158143,4|0,0:0|0:0,0:0:0:0:
240,328,105369,2,0,L|308:248,1,87.4999976158143,4|0,0:0|0:0,0:0:0:0:
440,56,105546,5,0,0:0:0:0:
429,142,105634,1,0,0:0:0:0:
450,227,105722,5,4,0:0:0:0:
437,313,105810,1,0,0:0:0:0:
358,342,105898,2,0,B|312:324|312:324|256:316,1,87.4999976158143
136,328,106075,5,4,0:0:0:0:
64,284,106163,1,0,0:0:0:0:
70,201,106251,2,0,P|80:128|124:88,1,87.4999976158143
296,40,106428,5,4,0:0:0:0:
263,120,106516,1,0,0:0:0:0:
203,183,106604,2,0,B|184:232|184:232|216:296,1,87.4999976158143
312,352,106781,5,4,0:0:0:0:
344,271,106869,1,0,0:0:0:0:
404,208,106957,2,0,B|423:159|423:159|391:95,1,87.4999976158143
263,120,107134,5,4,0:0:0:0:
180,92,107222,1,0,0:0:0:0:
106,150,107310,2,0,L|112:268,1,87.4999976158143
184,368,107487,5,4,0:0:0:0:
212,285,107575,1,0,0:0:0:0:
205,200,107663,2,0,B|199:127|199:127|227:67,1,87.4999976158143
280,8,107840,5,4,0:0:0:0:
384,58,107928,1,0,0:0:0:0:
456,152,108016,2,0,P|485:207|485:252,1,87.4999976158143
482,329,108193,5,2,0:0:0:0:
358,43,108369,1,0,0:0:0:0:
413,338,108546,5,0,0:0:0:0:
346,32,108722,1,0,0:0:0:0:
413,325,108898,5,0,0:0:0:0:
336,23,109075,1,0,0:0:0:0:
344,322,109251,5,0,0:0:0:0:
326,10,109428,1,0,0:0:0:0:
29,329,109604,5,2,0:0:0:0:
153,43,109780,1,0,0:0:0:0:
98,338,109957,5,0,0:0:0:0:
165,32,110133,1,0,0:0:0:0:
98,325,110309,5,0,0:0:0:0:
175,23,110486,1,0,0:0:0:0:
167,322,110662,5,0,0:0:0:0:
185,10,110839,1,0,0:0:0:0:
256,192,111016,5,4,0:0:0:0:
207,241,111104,1,0,0:0:0:0:
159,192,111193,1,0,0:0:0:0:
207,143,111281,1,0,0:0:0:0:
256,192,111369,5,0,0:0:0:0:
304,240,111457,1,0,0:0:0:0:
352,192,111546,1,0,0:0:0:0:
304,142,111634,1,0,0:0:0:0:
256,192,111722,5,4,0:0:0:0:
197,250,111810,1,0,0:0:0:0:
140,192,111899,1,0,0:0:0:0:
197,133,111987,1,0,0:0:0:0:
256,192,112075,5,0,0:0:0:0:
313,249,112163,1,0,0:0:0:0:
370,192,112252,1,0,0:0:0:0:
313,132,112340,1,0,0:0:0:0:
256,192,112428,5,4,0:0:0:0:
185,262,112516,1,0,0:0:0:0:
116,192,112605,1,0,0:0:0:0:
185,121,112693,1,0,0:0:0:0:
256,192,112781,5,4,0:0:0:0:
324,260,112869,1,0,0:0:0:0:
393,192,112958,1,0,0:0:0:0:
324,120,113046,1,0,0:0:0:0:
256,192,113134,5,4,0:0:0:0:
165,284,113222,1,0,0:0:0:0:
75,192,113311,1,0,0:0:0:0:
165,101,113399,1,0,0:0:0:0:
256,192,113487,5,4,0:0:0:0:
345,281,113575,1,0,0:0:0:0:
435,192,113664,1,0,0:0:0:0:
345,98,113752,1,0,0:0:0:0:
256,56,113840,6,0,B|184:312|184:312|388:136|388:136|128:136|128:136|352:312|352:312|244:24,1,1356.24996304512
379,134,114192,6,0,B|116:177|116:177|362:287|362:287|252:52|252:52|187:329|187:329|403:110,1,1356.24996304512
192,312,114369,6,0,B|375:119|375:119|113:179|113:179|342:301|342:301|227:40|227:40|187:345,1,1356.24996304512
339,299,114545,6,0,B|238:53|238:53|186:317|186:317|391:157|391:157|106:156|106:156|368:316,1,1356.24996304512
112,324,114898,6,0,B|259:102|259:102|11:207|11:207|258:287|258:287|99:50|99:50|113:358,1,1356.24996304512
109,66,115075,6,0,B|124:331|124:331|259:98|259:98|14:183|14:183|283:276|283:276|87:39,1,1356.24996304512
18,182,115251,6,0,B|266:276|266:276|109:57|109:57|86:316|86:316|281:108|281:108|-14:191,1,1356.24996304512
388,28,115604,6,0,B|211:226|211:226|471:157|471:157|237:43|237:43|362:300|362:300|391:-6,1,1356.24996304512
148,156,115781,6,0,B|295:-65|295:-65|47:39|47:39|294:119|294:119|135:-117|135:-117|149:190,1,1356.24996304512
8,292,115957,6,0,B|183:92|183:92|146:359|146:359|5:141|5:141|274:233|274:233|5:292,1,1356.24996304512
256,56,116310,6,0,B|184:312|184:312|388:136|388:136|128:136|128:136|352:312|352:312|244:24,1,1356.24996304512
444,336,116663,6,0,B|290:118|290:118|298:388|298:388|462:186|462:186|184:249|184:249|476:346,1,1356.24996304512
56,80,117016,6,0,B|294:-37|294:-37|27:-71|27:-71|201:121|201:121|182:-162|182:-162|40:110,1,1356.24996304512
480,168,117192,6,0,B|228:253|228:253|393:40|393:40|406:300|406:300|219:85|219:85|512:178,1,1356.24996304512
128,312,117369,6,0,B|245:550|245:550|279:283|279:283|86:457|86:457|370:438|370:438|97:296,1,1356.24996304512
388,36,117722,6,0,B|505:274|505:274|539:7|539:7|346:181|346:181|630:162|630:162|357:20,1,1356.24996304512
116,172,117898,6,0,B|-1:410|-1:410|-35:143|-35:143|158:317|158:317|-126:298|-126:298|147:156,1,1356.24996304512
376,316,118075,6,0,B|222:98|222:98|230:368|230:368|394:166|394:166|116:229|116:229|408:326,1,1356.24996304512
476,80,118428,6,0,B|213:123|213:123|459:233|459:233|349:-2|349:-2|284:275|284:275|500:56,1,1356.24996304512
136,380,118605,6,0,B|319:187|319:187|57:247|57:247|286:369|286:369|171:108|171:108|131:413,1,1356.24996304512
212,216,118781,6,0,B|447:72|447:72|162:73|162:73|367:233|367:233|315:-30|315:-30|214:215,1,1356.24996304512
