osu file format v14

[General]
AudioFilename: audio.mp3
AudioLeadIn: 0
PreviewTime: 46075
Countdown: 0
SampleSet: None
StackLeniency: 0.2
Mode: 0
LetterboxInBreaks: 0
WidescreenStoryboard: 1

[Editor]
Bookmarks: 23487,34781,56663,57369,67251,79957,89840,108193,111016
DistanceSpacing: 1
BeatDivisor: 4
GridSize: 4
TimelineZoom: 4.099998

[Metadata]
Title:Der Wald (Kors K Remix)
TitleUnicode:Der Wald (Kors K Remix)
Artist:Erehamonika remixed by kors k
ArtistUnicode:エレハモニカ remixed by kors k
Creator:Rucker
Version:fuckface
Source:pop'n music 20 fantasia
Tags:aspire SnowNiNo_ xDololow what koalazy deyo
BeatmapID:1529756
BeatmapSetID:537048

[Difficulty]
HPDrainRate:0
CircleSize:4.2
OverallDifficulty:8.7
ApproachRate:9.4
SliderMultiplier:1.99999990463257
SliderTickRate:1

[Events]
//Background and Video events
0,0,"purple-sky-wallpaper-11.jpg",0,0
//Break Periods
//Storyboard Layer 0 (Background)
//Storyboard Layer 1 (Fail)
//Storyboard Layer 2 (Pass)
//Storyboard Layer 3 (Foreground)
//Storyboard Sound Samples

[TimingPoints]
899,352.941176470588,4,2,0,70,1,0
12193,-76.9230769230769,4,2,0,70,0,0
12281,-76.9230769230769,4,2,0,5,0,0
12898,-76.9230769230769,4,2,0,70,0,0
12987,-76.9230769230769,4,2,0,5,0,0
13957,-76.9230769230769,4,2,0,70,0,0
14046,-76.9230769230769,4,2,0,5,0,0
14310,-76.9230769230769,4,2,0,70,0,0
14398,-76.9230769230769,4,2,0,5,0,0
15016,-76.9230769230769,4,2,0,15,0,0
15369,-76.9230769230769,4,2,0,25,0,0
15722,-76.9230769230769,4,2,0,35,0,0
16075,-76.9230769230769,4,2,0,45,0,0
16428,-76.9230769230769,4,2,0,55,0,0
16781,-76.9230769230769,4,2,0,65,0,0
17134,-76.9230769230769,4,2,0,55,0,0
17840,-76.9230769230769,4,2,0,70,0,0
18546,-76.9230769230769,4,2,0,15,0,0
18898,-76.9230769230769,4,2,0,25,0,0
19251,-76.9230769230769,4,2,0,35,0,0
19604,-76.9230769230769,4,2,0,45,0,0
19957,-76.9230769230769,4,2,0,55,0,0
20310,-76.9230769230769,4,2,0,65,0,0
22075,-200,4,2,0,5,0,0
23487,-100,4,2,0,70,0,0
68663,-66.6666666666667,4,2,0,70,0,0
77134,-200,4,2,0,70,0,0
77487,-50,4,2,0,70,0,0
77840,-200,4,2,0,70,0,0
78193,-50,4,2,0,70,0,0
78546,-66.6666666666667,4,2,0,70,0,0
79604,-50,4,2,0,70,0,0
79957,-66.6666666666667,4,2,0,70,0,0
89840,-125,4,2,0,70,0,0
90193,-90.9090909090909,4,2,0,70,0,0
90546,-71.4285714285714,4,2,0,70,0,0
90898,-66.6666666666667,4,2,0,70,0,0
118428,-16.5,4,2,0,70,0,0

[HitObjects]
328,68,898,6,0,B|335:65|335:65|331:66|331:66|339:64|339:64|343:63|343:63|347:62|347:62|351:61|351:61|354:60|354:60|358:59|358:59|362:58|362:58|366:56|366:56|370:55|370:55|374:54|374:54|431:109|403:187,1,199.999990463257,4|0,0:0|0:0,0:0:0:0:
296,328,1428,1,0,0:0:0:0:
296,327,1604,2,0,P|389:309|451:382,1,199.999990463257
256,192,2134,1,0,0:0:0:0:
256,204,2487,5,0,0:0:0:0:
256,216,2840,1,0,0:0:0:0:
176,172,3016,2,0,P|256:120|336:176,1,199.999990463257
104,360,3722,6,0,B|60:324|60:324|60:176,1,199.999990463257,4|0,0:0|0:0,0:0:0:0:
156,276,4251,1,0,0:0:0:0:
8,100,4428,2,0,B|104:56|104:136|204:88,1,199.999990463257
60,180,4957,1,0,0:0:0:0:
56,188,5310,5,0,0:0:0:0:
52,196,5663,1,0,0:0:0:0:
132,228,5840,1,0,0:0:0:0:
212,260,6016,2,0,L|216:312,2,49.9999976158142
296,288,6369,1,0,0:0:0:0:
296,288,6546,5,4,0:0:0:0:
212,260,6722,1,0,0:0:0:0:
132,228,6898,1,0,0:0:0:0:
52,196,7075,1,0,0:0:0:0:
204,168,7252,1,8,0:0:0:0:
284,136,7428,1,0,0:0:0:0:
212,260,7604,1,0,0:0:0:0:
132,228,7780,1,0,0:0:0:0:
148,376,7957,5,0,0:0:0:0:
232,348,8133,1,0,0:0:0:0:
312,316,8309,1,8,0:0:0:0:
392,284,8486,1,0,0:0:0:0:
212,260,8663,1,8,0:0:0:0:
132,228,8839,1,0,0:0:0:0:
352,136,9016,1,0,0:0:0:0:
272,168,9192,1,0,0:0:0:0:
256,16,9369,5,4,0:0:0:0:
340,44,9545,1,0,0:0:0:0:
420,76,9721,1,0,0:0:0:0:
500,108,9898,1,0,0:0:0:0:
260,28,10075,5,8,0:0:0:0:
336,56,10251,1,0,0:0:0:0:
412,88,10428,1,0,0:0:0:0:
488,116,10604,1,0,0:0:0:0:
264,44,10781,5,0,0:0:0:0:
476,124,10957,1,0,0:0:0:0:
160,176,11134,5,8,0:0:0:0:
372,96,11310,1,0,0:0:0:0:
268,228,11487,5,8,0:0:0:0:
56,148,11663,2,0,L|60:200,1,49.9999976158142
68,336,11840,5,0,0:0:0:0:
156,126,12016,2,0,L|160:178,1,49.9999976158142
168,328,12193,6,0,P|200:324|232:328,1,64.9999939250949,4|0,0:0|0:0,0:0:0:0:
220,308,12369,2,0,P|252:312|284:308,1,64.9999939250949
272,328,12546,2,0,P|304:324|336:328,1,64.9999939250949
320,308,12722,2,0,P|352:312|384:308,1,64.9999939250949
440,164,12898,6,0,P|408:160|376:164,1,64.9999939250949,8|0,0:0|0:0,0:0:0:0:
388,144,13074,2,0,P|356:148|324:144,1,64.9999939250949
336,164,13251,2,0,P|304:160|272:164,1,64.9999939250949
288,144,13427,2,0,P|256:148|224:144,1,64.9999939250949
124,256,13604,6,0,L|60:268,1,64.9999939250949
104,183,13781,2,0,L|40:184,1,64.9999939250949
116,107,13957,2,0,L|52:96,1,64.9999939250949,8|0,0:0|0:0,0:0:0:0:
149,34,14134,2,0,L|88:12,1,64.9999939250949
388,104,14310,6,0,L|452:92,1,64.9999939250949,8|0,0:0|0:0,0:0:0:0:
407,176,14487,2,0,L|472:175,1,64.9999939250949
396,252,14663,2,0,P|461:258|499:310,1,129.99998785019
420,332,15016,5,4,0:0:0:0:
424,364,15104,1,0,0:0:0:0:
428,396,15192,1,0,0:0:0:0:
393,358,15369,5,0,0:0:0:0:
391,390,15457,1,0,0:0:0:0:
389,423,15545,1,0,0:0:0:0:
362,379,15722,5,8,0:0:0:0:
355,411,15810,1,0,0:0:0:0:
347,442,15898,1,0,0:0:0:0:
327,394,16075,5,0,0:0:0:0:
315,424,16163,1,0,0:0:0:0:
301,454,16251,1,0,0:0:0:0:
290,403,16428,5,0,0:0:0:0:
273,430,16516,1,0,0:0:0:0:
254,457,16604,1,0,0:0:0:0:
253,406,16781,5,8,0:0:0:0:
232,430,16869,1,0,0:0:0:0:
208,453,16957,1,0,0:0:0:0:
128,208,17134,6,0,L|64:196,1,64.9999939250949,8|0,0:0|0:0,0:0:0:0:
256,164,17310,2,0,L|298:114,1,64.9999939250949
228,296,17487,2,0,L|249:357,1,64.9999939250949
204,224,17840,5,6,0:0:0:0:
208,453,18546,5,8,0:0:0:0:
232,430,18634,1,0,0:0:0:0:
253,406,18722,1,0,0:0:0:0:
254,457,18899,5,0,0:0:0:0:
273,430,18987,1,0,0:0:0:0:
290,403,19075,1,0,0:0:0:0:
301,454,19251,5,0,0:0:0:0:
315,424,19339,1,0,0:0:0:0:
327,394,19427,1,0,0:0:0:0:
347,442,19604,5,8,0:0:0:0:
355,411,19692,1,0,0:0:0:0:
362,379,19780,1,0,0:0:0:0:
389,423,19957,5,8,0:0:0:0:
391,390,20045,1,0,0:0:0:0:
393,358,20133,1,0,0:0:0:0:
428,396,20310,5,0,0:0:0:0:
424,364,20398,1,0,0:0:0:0:
420,332,20486,1,0,0:0:0:0:
460,363,20663,5,4,0:0:0:0:
451,332,20751,1,0,0:0:0:0:
441,301,20839,1,0,0:0:0:0:
487,324,21016,5,0,0:0:0:0:
472,296,21104,1,0,0:0:0:0:
457,267,21192,1,0,0:0:0:0:
476,100,21369,2,0,P|416:72|356:88,1,129.99998785019,8|0,0:0|0:0,0:0:0:0:
312,192,21722,2,0,P|250:208|192:180,1,129.99998785019
96,80,22075,6,0,L|112:280,1,199.999990463257
200,376,23134,1,0,0:0:0:0:
201,357,23222,1,0,0:0:0:0:
203,338,23310,1,0,0:0:0:0:
205,320,23398,1,0,0:0:0:0:
208,300,23487,5,4,0:0:0:0:
241,316,23575,1,0,0:0:0:0:
278,319,23663,1,0,0:0:0:0:
313,307,23751,1,0,0:0:0:0:
341,284,23841,1,8,0:0:0:0:
369,259,23929,1,0,0:0:0:0:
404,247,24017,1,0,0:0:0:0:
441,250,24105,1,0,0:0:0:0:
474,267,24193,5,0,0:0:0:0:
491,245,24281,1,0,0:0:0:0:
488,218,24369,1,8,0:0:0:0:
467,200,24457,1,0,0:0:0:0:
440,202,24545,1,8,0:0:0:0:
422,223,24634,1,0,0:0:0:0:
424,250,24722,1,0,0:0:0:0:
444,269,24810,1,0,0:0:0:0:
474,267,24898,5,0,0:0:0:0:
452,289,24986,1,0,0:0:0:0:
437,316,25074,1,0,0:0:0:0:
429,346,25162,1,0,0:0:0:0:
429,378,25252,1,8,0:0:0:0:
399,368,25340,1,0,0:0:0:0:
368,365,25428,1,0,0:0:0:0:
337,371,25516,1,0,0:0:0:0:
309,384,25605,1,0,0:0:0:0:
310,352,25693,1,0,0:0:0:0:
305,321,25781,1,0,0:0:0:0:
291,293,25869,1,0,0:0:0:0:
272,269,25957,2,0,L|216:260,1,49.9999976158143,8|0,0:0|0:0,0:0:0:0:
180,340,26134,2,0,L|130:347,1,49.9999976158143
64,280,26310,5,4,0:0:0:0:
46,247,26398,1,0,0:0:0:0:
43,210,26486,1,0,0:0:0:0:
57,175,26574,1,0,0:0:0:0:
84,150,26662,1,8,0:0:0:0:
110,124,26752,1,0,0:0:0:0:
124,89,26840,1,0,0:0:0:0:
122,52,26928,1,0,0:0:0:0:
104,20,27016,5,0,0:0:0:0:
128,14,27104,1,0,0:0:0:0:
153,15,27192,1,8,0:0:0:0:
177,22,27280,1,0,0:0:0:0:
198,35,27368,1,8,0:0:0:0:
216,53,27457,1,0,0:0:0:0:
229,74,27545,1,0,0:0:0:0:
236,98,27633,1,0,0:0:0:0:
236,124,27722,6,0,L|224:176,3,49.9999976158143
296,236,28075,2,0,L|308:288,1,49.9999976158143,8|0,0:0|0:0,0:0:0:0:
200,344,28251,2,0,L|211:295,1,49.9999976158143
296,236,28428,2,0,L|360:228,3,49.9999976158143
128,224,28781,2,0,L|64:216,3,49.9999976158143,8|0|0|0,0:0|0:0|0:0|0:0,0:0:0:0:
138,192,29134,5,4,0:0:0:0:
153,162,29222,1,0,0:0:0:0:
174,136,29310,1,0,0:0:0:0:
199,114,29398,1,0,0:0:0:0:
228,97,29487,1,8,0:0:0:0:
259,86,29575,1,0,0:0:0:0:
292,80,29663,1,0,0:0:0:0:
325,81,29751,1,0,0:0:0:0:
358,87,29840,2,0,L|368:136,1,49.9999976158143
305,284,30016,2,0,L|295:235,1,49.9999976158143,8|0,0:0|0:0,0:0:0:0:
368,76,30193,2,0,L|377:124,1,49.9999976158143,8|0,0:0|0:0,0:0:0:0:
314,272,30369,2,0,L|304:223,1,49.9999976158143
380,64,30546,5,0,0:0:0:0:
417,61,30634,1,0,0:0:0:0:
452,72,30722,1,0,0:0:0:0:
481,95,30810,1,0,0:0:0:0:
500,128,30898,1,8,0:0:0:0:
502,109,30986,1,0,0:0:0:0:
505,91,31074,1,0,0:0:0:0:
508,72,31162,1,0,0:0:0:0:
512,52,31251,5,0,0:0:0:0:
479,69,31339,1,0,0:0:0:0:
457,100,31427,1,0,0:0:0:0:
451,136,31515,1,0,0:0:0:0:
462,172,31605,1,8,0:0:0:0:
429,189,31693,1,0,0:0:0:0:
407,220,31781,1,0,0:0:0:0:
401,256,31869,1,0,0:0:0:0:
411,292,31957,6,0,L|452:324,3,49.9999976158143,4|0|0|0,0:0|0:0|0:0|0:0,0:0:0:0:
296,292,32310,2,0,L|340:328,1,49.9999976158143,8|0,0:0|0:0,0:0:0:0:
176,288,32487,2,0,L|220:324,1,49.9999976158143
52,168,32663,6,0,L|11:199,3,49.9999976158143,0|0|8|0,0:0|0:0|0:0|0:0,0:0:0:0:
167,167,33016,2,0,L|123:203,1,49.9999976158143,8|0,0:0|0:0,0:0:0:0:
287,163,33193,2,0,L|243:199,1,49.9999976158143
408,40,33369,6,0,L|448:71,3,49.9999976158143
293,39,33722,2,0,L|337:75,1,49.9999976158143,8|0,0:0|0:0,0:0:0:0:
173,35,33899,2,0,L|217:71,1,49.9999976158143
56,136,34075,1,0,0:0:0:0:
58,160,34163,1,0,0:0:0:0:
61,185,34251,1,0,0:0:0:0:
64,210,34339,1,0,0:0:0:0:
96,244,34428,5,8,0:0:0:0:
100,194,34516,1,0,0:0:0:0:
105,144,34604,1,0,0:0:0:0:
110,94,34692,1,0,0:0:0:0:
56,136,34781,5,4,0:0:0:0:
456,136,35134,1,2,0:0:0:0:
56,248,35487,1,0,0:0:0:0:
456,248,35840,1,2,0:0:0:0:
56,24,36193,1,0,0:0:0:0:
456,24,36546,1,2,0:0:0:0:
56,360,36898,1,0,0:0:0:0:
456,360,37251,1,2,0:0:0:0:
200,0,37604,5,4,0:0:0:0:
200,392,37957,1,2,0:0:0:0:
312,0,38310,1,0,0:0:0:0:
312,392,38663,1,2,0:0:0:0:
88,0,39016,1,0,0:0:0:0:
88,392,39369,1,2,0:0:0:0:
424,0,39721,1,0,0:0:0:0:
424,392,40074,1,2,0:0:0:0:
56,136,40428,5,4,0:0:0:0:
456,136,40604,1,2,0:0:0:0:
56,248,40781,1,8,0:0:0:0:
456,248,40957,1,2,0:0:0:0:
56,24,41134,1,8,0:0:0:0:
456,24,41310,1,2,0:0:0:0:
56,360,41487,1,8,0:0:0:0:
456,360,41663,1,2,0:0:0:0:
200,0,41840,5,4,0:0:0:0:
200,392,42016,1,2,0:0:0:0:
312,0,42193,1,8,0:0:0:0:
312,392,42369,1,2,0:0:0:0:
88,0,42546,1,8,0:0:0:0:
88,392,42722,1,2,0:0:0:0:
424,0,42898,1,8,0:0:0:0:
424,392,43075,1,2,0:0:0:0:
56,136,43251,5,4,0:0:0:0:
113,136,43340,1,0,0:0:0:0:
170,136,43427,1,2,0:0:0:0:
227,136,43515,1,0,0:0:0:0:
284,136,43603,1,8,0:0:0:0:
341,136,43692,1,0,0:0:0:0:
398,136,43780,1,2,0:0:0:0:
455,136,43868,1,0,0:0:0:0:
455,248,43957,5,8,0:0:0:0:
398,248,44045,1,0,0:0:0:0:
341,248,44133,1,2,0:0:0:0:
284,248,44222,1,0,0:0:0:0:
227,248,44310,1,8,0:0:0:0:
170,248,44398,1,0,0:0:0:0:
113,248,44486,1,2,0:0:0:0:
56,248,44574,1,0,0:0:0:0:
0,0,44663,5,4,0:0:0:0:
0,0,45722,1,0,0:0:0:0:
1,24,45810,1,0,0:0:0:0:
3,49,45898,1,0,0:0:0:0:
5,74,45986,1,0,0:0:0:0:
8,100,46075,5,4,0:0:0:0:
69,49,46163,1,0,0:0:0:0:
148,48,46251,1,0,0:0:0:0:
210,99,46339,1,0,0:0:0:0:
225,177,46427,1,8,0:0:0:0:
188,247,46516,1,0,0:0:0:0:
114,277,46604,1,0,0:0:0:0:
38,253,46692,1,0,0:0:0:0:
0,184,46781,5,0,0:0:0:0:
71,163,46869,1,0,0:0:0:0:
145,173,46957,1,8,0:0:0:0:
210,210,47045,1,0,0:0:0:0:
254,269,47133,1,8,0:0:0:0:
298,209,47223,1,0,0:0:0:0:
363,172,47311,1,0,0:0:0:0:
437,162,47399,1,0,0:0:0:0:
508,183,47487,5,4,0:0:0:0:
495,102,47575,1,0,0:0:0:0:
437,49,47663,1,0,0:0:0:0:
357,46,47751,1,0,0:0:0:0:
293,93,47839,1,8,0:0:0:0:
274,170,47928,1,0,0:0:0:0:
309,242,48016,1,0,0:0:0:0:
382,275,48104,1,0,0:0:0:0:
409,194,48193,5,0,0:0:0:0:
367,121,48281,1,0,0:0:0:0:
293,93,48369,1,8,0:0:0:0:
218,119,48457,1,0,0:0:0:0:
174,186,48546,1,8,0:0:0:0:
185,264,48634,1,0,0:0:0:0:
243,320,48722,1,0,0:0:0:0:
323,323,48810,1,0,0:0:0:0:
392,276,48898,5,4,0:0:0:0:
392,276,48987,1,0,0:0:0:0:
392,276,49075,1,0,0:0:0:0:
112,236,49251,1,8,0:0:0:0:
112,236,49340,1,0,0:0:0:0:
112,236,49428,1,0,0:0:0:0:
408,144,49604,1,0,0:0:0:0:
408,144,49693,1,0,0:0:0:0:
408,144,49781,1,8,0:0:0:0:
80,60,49957,1,8,0:0:0:0:
80,60,50046,1,0,0:0:0:0:
80,60,50134,1,0,0:0:0:0:
424,4,50310,5,4,0:0:0:0:
424,4,50398,1,0,0:0:0:0:
424,4,50487,1,0,0:0:0:0:
424,4,50575,1,0,0:0:0:0:
424,4,50663,5,8,0:0:0:0:
393,42,50751,1,0,0:0:0:0:
348,62,50839,1,0,0:0:0:0:
298,57,50927,1,0,0:0:0:0:
257,30,51015,1,0,0:0:0:0:
216,2,51105,1,0,0:0:0:0:
166,0,51193,1,0,0:0:0:0:
121,17,51281,1,0,0:0:0:0:
90,56,51369,5,8,0:0:0:0:
94,80,51457,1,0,0:0:0:0:
97,105,51545,1,0,0:0:0:0:
100,130,51633,1,0,0:0:0:0:
103,155,51721,5,4,0:0:0:0:
166,117,51810,1,0,0:0:0:0:
240,124,51898,1,0,0:0:0:0:
295,173,51986,1,0,0:0:0:0:
236,136,52075,5,8,0:0:0:0:
168,128,52163,1,0,0:0:0:0:
108,168,52251,1,0,0:0:0:0:
92,236,52340,1,0,0:0:0:0:
112,180,52428,5,8,0:0:0:0:
168,140,52516,1,0,0:0:0:0:
232,148,52604,1,8,0:0:0:0:
288,188,52693,1,0,0:0:0:0:
316,248,52781,1,0,0:0:0:0:
372,288,52870,1,0,0:0:0:0:
436,296,52958,1,8,0:0:0:0:
500,280,53046,1,0,0:0:0:0:
436,308,53134,5,4,0:0:0:0:
368,300,53223,1,0,0:0:0:0:
312,256,53311,1,0,0:0:0:0:
292,196,53399,1,0,0:0:0:0:
308,264,53487,5,8,0:0:0:0:
362,313,53575,1,0,0:0:0:0:
436,320,53663,1,0,0:0:0:0:
499,282,53752,1,0,0:0:0:0:
476,212,53840,1,8,0:0:0:0:
422,163,53928,1,0,0:0:0:0:
348,156,54016,1,8,0:0:0:0:
285,194,54105,1,0,0:0:0:0:
248,256,54193,1,0,0:0:0:0:
185,294,54282,1,0,0:0:0:0:
111,287,54370,1,8,0:0:0:0:
57,238,54458,1,0,0:0:0:0:
40,164,54546,2,0,L|76:128,3,49.9999976158143,4|0|0|0,0:0|0:0|0:0|0:0,0:0:0:0:
96,0,54898,2,0,L|109:49,3,49.9999976158143,8|0|0|0,0:0|0:0|0:0|0:0,0:0:0:0:
216,132,55251,2,0,L|166:118,3,49.9999976158143,8|0|8|0,0:0|0:0|0:0|0:0,0:0:0:0:
289,142,55604,5,0,0:0:0:0:
360,120,55692,1,0,0:0:0:0:
415,70,55780,1,8,0:0:0:0:
443,1,55868,1,0,0:0:0:0:
389,52,55958,1,4,0:0:0:0:
359,120,56046,1,0,0:0:0:0:
359,195,56134,1,0,0:0:0:0:
388,263,56222,1,0,0:0:0:0:
448,308,56310,1,8,0:0:0:0:
480,240,56398,1,0,0:0:0:0:
480,164,56487,1,0,0:0:0:0:
456,92,56575,1,0,0:0:0:0:
389,52,56663,5,8,0:0:0:0:
388,86,56751,1,0,0:0:0:0:
392,120,56839,1,8,0:0:0:0:
401,153,56927,1,0,0:0:0:0:
414,185,57015,1,8,0:0:0:0:
432,214,57104,1,0,0:0:0:0:
454,241,57193,1,8,0:0:0:0:
479,264,57280,1,0,0:0:0:0:
508,280,57369,5,4,0:0:0:0:
448,336,57457,1,0,0:0:0:0:
363,335,57545,1,0,0:0:0:0:
301,284,57633,1,0,0:0:0:0:
286,206,57721,1,8,0:0:0:0:
323,136,57810,1,0,0:0:0:0:
397,106,57898,1,0,0:0:0:0:
473,130,57986,1,0,0:0:0:0:
512,200,58075,5,0,0:0:0:0:
440,220,58163,1,0,0:0:0:0:
366,210,58251,1,8,0:0:0:0:
301,173,58339,1,0,0:0:0:0:
257,114,58427,1,8,0:0:0:0:
213,174,58517,1,0,0:0:0:0:
148,211,58605,1,0,0:0:0:0:
74,221,58693,1,0,0:0:0:0:
4,201,58781,5,4,0:0:0:0:
17,282,58869,1,0,0:0:0:0:
75,335,58957,1,0,0:0:0:0:
155,338,59045,1,0,0:0:0:0:
219,291,59134,1,8,0:0:0:0:
238,214,59222,1,0,0:0:0:0:
203,142,59310,1,0,0:0:0:0:
130,109,59398,1,0,0:0:0:0:
103,190,59487,5,0,0:0:0:0:
145,263,59575,1,0,0:0:0:0:
219,291,59663,1,8,0:0:0:0:
294,265,59751,1,0,0:0:0:0:
338,198,59839,1,8,0:0:0:0:
327,120,59928,1,0,0:0:0:0:
269,64,60016,1,0,0:0:0:0:
189,61,60104,1,0,0:0:0:0:
120,108,60192,5,4,0:0:0:0:
120,108,60281,1,0,0:0:0:0:
120,108,60369,1,0,0:0:0:0:
400,148,60545,1,8,0:0:0:0:
400,148,60634,1,0,0:0:0:0:
400,148,60722,1,0,0:0:0:0:
104,240,60898,1,0,0:0:0:0:
104,240,60987,1,0,0:0:0:0:
104,240,61075,1,8,0:0:0:0:
432,324,61251,1,8,0:0:0:0:
432,324,61340,1,0,0:0:0:0:
432,324,61428,1,0,0:0:0:0:
88,380,61604,5,4,0:0:0:0:
88,380,61692,1,0,0:0:0:0:
88,380,61781,1,0,0:0:0:0:
88,380,61869,1,0,0:0:0:0:
88,380,61957,5,8,0:0:0:0:
118,341,62045,1,0,0:0:0:0:
163,321,62133,1,0,0:0:0:0:
213,326,62221,1,0,0:0:0:0:
254,353,62309,1,0,0:0:0:0:
295,381,62399,1,0,0:0:0:0:
345,386,62487,1,0,0:0:0:0:
390,366,62575,1,0,0:0:0:0:
421,327,62663,5,8,0:0:0:0:
417,303,62751,1,0,0:0:0:0:
414,278,62839,1,0,0:0:0:0:
411,253,62927,1,0,0:0:0:0:
408,228,63015,5,4,0:0:0:0:
345,266,63104,1,0,0:0:0:0:
271,259,63192,1,0,0:0:0:0:
216,210,63280,1,0,0:0:0:0:
276,248,63369,5,8,0:0:0:0:
344,256,63457,1,0,0:0:0:0:
404,216,63545,1,0,0:0:0:0:
420,148,63634,1,0,0:0:0:0:
400,204,63722,5,8,0:0:0:0:
344,244,63810,1,0,0:0:0:0:
280,236,63898,1,8,0:0:0:0:
224,196,63987,1,0,0:0:0:0:
196,136,64075,1,0,0:0:0:0:
140,96,64164,1,0,0:0:0:0:
76,88,64252,1,8,0:0:0:0:
16,112,64340,1,0,0:0:0:0:
76,76,64428,5,4,0:0:0:0:
144,84,64517,1,0,0:0:0:0:
200,128,64605,1,0,0:0:0:0:
227,190,64693,1,0,0:0:0:0:
204,120,64781,5,8,0:0:0:0:
150,71,64869,1,0,0:0:0:0:
76,64,64957,1,0,0:0:0:0:
13,102,65046,1,0,0:0:0:0:
36,172,65134,1,8,0:0:0:0:
90,221,65222,1,0,0:0:0:0:
164,228,65310,1,8,0:0:0:0:
227,190,65399,1,0,0:0:0:0:
264,128,65487,1,0,0:0:0:0:
327,90,65576,1,0,0:0:0:0:
401,97,65664,1,8,0:0:0:0:
455,146,65752,1,0,0:0:0:0:
472,220,65840,2,0,L|436:256,3,49.9999976158143,4|0|0|0,0:0|0:0|0:0|0:0,0:0:0:0:
416,384,66192,2,0,L|402:334,3,49.9999976158143,4|0|0|0,0:0|0:0|0:0|0:0,0:0:0:0:
296,252,66545,2,0,L|345:265,3,49.9999976158143,4|0|0|0,0:0|0:0|0:0|0:0,0:0:0:0:
224,308,66898,5,8,0:0:0:0:
174,311,66986,1,0,0:0:0:0:
124,315,67074,1,8,0:0:0:0:
92,272,67162,1,0,0:0:0:0:
72,224,67251,6,0,P|148:216|224:240,1,149.999992847443,12|0,0:0|0:0,0:0:0:0:
244,140,67604,2,0,P|288:84|284:0,1,149.999992847443,12|0,0:0|0:0,0:0:0:0:
312,212,67957,2,0,P|356:236|452:220,1,149.999992847443,4|0,0:0|0:0,0:0:0:0:
184,48,68310,2,0,B|76:60|76:60|120:76,1,149.999992847443,4|0,0:0|0:0,0:0:0:0:
376,48,68663,6,0,L|476:36,2,99.9999990463257,4|0|0,0:0|0:0|0:0,0:0:0:0:
472,144,69016,2,0,L|372:132,2,99.9999990463257
376,244,69369,2,0,L|476:232,2,99.9999990463257,8|0|0,0:0|0:0|0:0,0:0:0:0:
472,340,69722,2,0,L|372:328,2,99.9999990463257
284,360,70075,6,0,L|192:348,3,74.9999992847443,4|0|0|0,0:0|0:0|0:0|0:0,0:0:0:0:
301,253,70428,2,0,L|393:241,3,74.9999992847443,4|0|0|0,0:0|0:0|0:0|0:0,0:0:0:0:
92,156,70781,2,0,P|52:220|64:292,1,149.999998569489,6|0,0:0|0:0,0:0:0:0:
176,48,71134,2,0,L|24:40,1,149.999998569489
160,240,71487,5,4,0:0:0:0:
160,240,71840,5,0,0:0:0:0:
334,111,72016,1,0,0:0:0:0:
357,328,72193,2,0,L|364:368,7,37.4999996423721,8|0|0|0|0|0|0|0,0:0|0:0|0:0|0:0|0:0|0:0|0:0|0:0,0:0:0:0:
376,296,72546,2,0,L|392:376,3,74.9999992847443
424,328,72898,5,4,0:0:0:0:
444,168,73075,1,0,0:0:0:0:
332,336,73251,1,4,0:0:0:0:
326,125,73428,1,0,0:0:0:0:
236,344,73604,1,6,0:0:0:0:
208,82,73781,1,0,0:0:0:0:
143,372,73957,1,4,0:0:0:0:
142,368,74001,1,0,0:0:0:0:
141,363,74046,1,0,0:0:0:0:
140,358,74090,1,0,0:0:0:0:
139,354,74134,1,0,0:0:0:0:
138,349,74178,1,0,0:0:0:0:
137,345,74222,1,0,0:0:0:0:
136,340,74266,1,0,0:0:0:0:
136,336,74310,6,0,L|36:348,2,99.9999990463257,4|0|0,0:0|0:0|0:0,0:0:0:0:
40,240,74663,2,0,L|140:252,2,99.9999990463257
136,140,75016,2,0,L|36:152,2,99.9999990463257,6|0|0,0:0|0:0|0:0,0:0:0:0:
40,44,75369,2,0,L|140:56,2,99.9999990463257
228,24,75722,6,0,L|320:36,3,74.9999992847443,4|0|0|0,0:0|0:0|0:0|0:0,0:0:0:0:
211,131,76075,2,0,L|119:143,3,74.9999992847443,4|0|0|0,0:0|0:0|0:0|0:0,0:0:0:0:
420,228,76428,2,0,P|460:164|448:92,1,149.999998569489,6|0,0:0|0:0,0:0:0:0:
336,336,76693,1,0,0:0:0:0:
336,336,76781,2,0,L|488:344,1,149.999998569489
352,144,77134,6,0,L|300:148,1,49.9999976158143,4|0,0:0|0:0,0:0:0:0:
136,324,77487,2,0,L|336:336,1,199.999990463257
211,131,77840,6,0,L|161:146,1,49.9999976158143,6|0,0:0|0:0,0:0:0:0:
229,352,78193,2,0,L|426:318,1,199.999990463257
96,232,78546,5,4,0:0:0:0:
280,12,78722,1,0,0:0:0:0:
352,72,78810,1,0,0:0:0:0:
268,104,78898,1,4,0:0:0:0:
464,188,79075,1,0,0:0:0:0:
184,140,79251,2,0,B|202:195|202:195|170:295|170:295|186:359,1,224.999997854233,6|0,0:0|0:0,0:0:0:0:
216,384,79604,6,0,B|192:296|192:296|224:192|224:192|188:96,1,299.999985694885,4|0,0:0|0:0,0:0:0:0:
136,48,79957,6,0,L|36:36,2,99.9999990463257,4|0|0,0:0|0:0|0:0,0:0:0:0:
40,144,80310,2,0,L|140:132,2,99.9999990463257
136,244,80663,2,0,L|36:232,2,99.9999990463257,6|0|0,0:0|0:0|0:0,0:0:0:0:
40,340,81016,2,0,L|140:328,2,99.9999990463257
228,360,81369,6,0,L|320:348,3,74.9999992847443,4|0|0|0,0:0|0:0|0:0|0:0,0:0:0:0:
211,253,81722,2,0,L|119:241,3,74.9999992847443,4|0|0|0,0:0|0:0|0:0|0:0,0:0:0:0:
420,156,82075,2,0,P|460:220|448:292,1,149.999998569489,6|0,0:0|0:0,0:0:0:0:
336,48,82428,2,0,L|488:40,1,149.999998569489
352,240,82781,5,4,0:0:0:0:
352,240,83134,5,0,0:0:0:0:
178,111,83310,1,0,0:0:0:0:
155,328,83487,2,0,L|148:368,7,37.4999996423721,6|0|0|0|0|0|0|0,0:0|0:0|0:0|0:0|0:0|0:0|0:0|0:0,0:0:0:0:
136,296,83840,2,0,L|120:376,3,74.9999992847443
88,328,84192,5,4,0:0:0:0:
68,168,84369,1,0,0:0:0:0:
180,336,84546,1,4,0:0:0:0:
185,125,84722,1,0,0:0:0:0:
276,344,84898,1,6,0:0:0:0:
303,82,85075,1,0,0:0:0:0:
376,368,85251,1,4,0:0:0:0:
377,363,85295,1,0,0:0:0:0:
378,358,85339,1,0,0:0:0:0:
379,354,85383,1,0,0:0:0:0:
380,349,85427,1,0,0:0:0:0:
381,345,85471,1,0,0:0:0:0:
382,340,85515,1,0,0:0:0:0:
383,336,85560,1,0,0:0:0:0:
384,332,85604,6,0,B|440:36|440:36|384:332,1,599.999994277954,4|6,0:0|0:0,0:0:0:0:
224,336,86487,2,0,L|244:248,1,74.9999992847443
304,172,86663,1,0,0:0:0:0:
298,134,86751,1,0,0:0:0:0:
293,97,86839,1,0,0:0:0:0:
288,60,86927,1,0,0:0:0:0:
284,24,87016,6,0,L|192:36,3,74.9999992847443,4|0|0|0,0:0|0:0|0:0|0:0,0:0:0:0:
298,134,87369,2,0,L|390:146,3,74.9999992847443,4|0|0|0,0:0|0:0|0:0|0:0,0:0:0:0:
92,228,87722,2,0,P|52:164|64:92,1,149.999998569489,6|0,0:0|0:0,0:0:0:0:
176,336,87987,1,0,0:0:0:0:
176,336,88075,2,0,L|24:344,1,149.999998569489
186,141,88428,5,4,0:0:0:0:
400,340,88604,1,4,0:0:0:0:
344,54,88781,1,4,0:0:0:0:
221,318,88957,1,4,0:0:0:0:
476,176,89134,1,2,0:0:0:0:
441,161,89222,1,2,0:0:0:0:
404,158,89310,1,2,0:0:0:0:
368,167,89398,1,2,0:0:0:0:
337,188,89486,1,0,0:0:0:0:
314,218,89575,1,0,0:0:0:0:
303,253,89663,1,0,0:0:0:0:
303,291,89751,1,0,0:0:0:0:
316,326,89840,6,0,L|368:264,1,79.9999961853028,4|0,0:0|0:0,0:0:0:0:
258,232,90193,2,0,L|317:329,1,109.999998111725,4|0,0:0|0:0,0:0:0:0:
167,339,90559,2,0,L|266:220,1,139.999989051819,4|0,0:0|0:0,0:0:0:0:
76,64,90898,1,0,0:0:0:0:
78,101,90986,1,0,0:0:0:0:
81,138,91074,1,0,0:0:0:0:
84,176,91162,1,0,0:0:0:0:
87,213,91250,5,4,0:0:0:0:
104,140,91339,1,0,0:0:0:0:
153,84,91427,1,0,0:0:0:0:
222,57,91515,1,0,0:0:0:0:
296,64,91603,1,8,0:0:0:0:
358,104,91692,1,0,0:0:0:0:
395,169,91780,1,0,0:0:0:0:
399,243,91868,1,0,0:0:0:0:
368,310,91956,1,0,0:0:0:0:
300,272,92045,1,0,0:0:0:0:
227,259,92133,1,0,0:0:0:0:
155,280,92221,1,0,0:0:0:0:
102,331,92310,5,8,0:0:0:0:
99,312,92398,1,0,0:0:0:0:
97,293,92486,1,0,0:0:0:0:
94,275,92574,1,0,0:0:0:0:
92,256,92663,5,4,0:0:0:0:
151,301,92751,1,0,0:0:0:0:
223,320,92839,1,0,0:0:0:0:
296,310,92927,1,0,0:0:0:0:
360,271,93015,1,8,0:0:0:0:
405,211,93104,1,0,0:0:0:0:
422,139,93192,1,0,0:0:0:0:
410,65,93280,1,0,0:0:0:0:
371,2,93369,5,0,0:0:0:0:
342,26,93457,1,0,0:0:0:0:
307,40,93545,1,0,0:0:0:0:
270,43,93633,1,0,0:0:0:0:
234,33,93721,1,8,0:0:0:0:
197,23,93811,1,0,0:0:0:0:
160,25,93899,1,0,0:0:0:0:
126,39,93987,1,0,0:0:0:0:
97,63,94075,5,4,0:0:0:0:
95,113,94163,1,0,0:0:0:0:
94,163,94251,1,0,0:0:0:0:
92,213,94339,1,0,0:0:0:0:
166,317,94428,1,8,0:0:0:0:
168,267,94516,1,0,0:0:0:0:
170,217,94604,1,0,0:0:0:0:
172,168,94692,1,0,0:0:0:0:
256,248,94781,5,0,0:0:0:0:
311,264,94869,1,0,0:0:0:0:
358,231,94957,1,0,0:0:0:0:
361,173,95045,1,0,0:0:0:0:
317,135,95133,1,8,0:0:0:0:
260,147,95222,1,0,0:0:0:0:
228,200,95310,1,0,0:0:0:0:
170,217,95398,1,0,0:0:0:0:
112,204,95487,5,4,0:0:0:0:
89,187,95575,1,0,0:0:0:0:
71,165,95663,1,0,0:0:0:0:
60,139,95751,1,0,0:0:0:0:
55,112,95839,1,8,0:0:0:0:
58,84,95928,1,0,0:0:0:0:
67,57,96016,1,0,0:0:0:0:
83,34,96104,1,0,0:0:0:0:
104,16,96193,5,0,0:0:0:0:
209,9,96282,1,0,0:0:0:0:
248,106,96370,1,0,0:0:0:0:
168,174,96458,1,0,0:0:0:0:
57,219,96546,5,8,0:0:0:0:
64,339,96634,1,0,0:0:0:0:
182,368,96722,1,0,0:0:0:0:
244,266,96811,1,0,0:0:0:0:
168,174,96898,6,0,L|116:120,1,74.9999992847443,4|0,0:0|0:0,0:0:0:0:
248,106,97075,2,0,L|220:32,1,74.9999992847443,8|0,0:0|0:0,0:0:0:0:
352,92,97251,2,0,L|360:16,1,74.9999992847443,8|0,0:0|0:0,0:0:0:0:
440,252,97428,2,0,L|512:228,1,74.9999992847443
256,312,97604,6,0,L|184:336,1,74.9999992847443
96,192,97781,2,0,L|168:216,1,74.9999992847443,8|0,0:0|0:0,0:0:0:0:
336,196,97957,2,0,L|264:220,1,74.9999992847443
8,312,98134,2,0,L|80:288,1,74.9999992847443,8|0,0:0|0:0,0:0:0:0:
336,196,98310,6,0,L|408:172,1,74.9999992847443,4|0,0:0|0:0,0:0:0:0:
292,12,98487,2,0,L|220:36,1,74.9999992847443,8|0,0:0|0:0,0:0:0:0:
152,240,98663,2,0,L|176:312,1,74.9999992847443,8|0,0:0|0:0,0:0:0:0:
336,196,98840,2,0,L|312:124,1,74.9999992847443
80,48,99016,6,0,L|104:120,1,74.9999992847443
264,280,99193,2,0,L|240:208,1,74.9999992847443,8|0,0:0|0:0,0:0:0:0:
220,35,99369,2,0,L|196:107,1,74.9999992847443
72,376,99546,2,0,L|96:304,1,74.9999992847443,8|0,0:0|0:0,0:0:0:0:
220,35,99722,6,0,P|292:76|416:8,1,224.999997854233,4|0,0:0|0:0,0:0:0:0:
288,160,100075,2,0,L|276:240,1,74.9999992847443,8|0,0:0|0:0,0:0:0:0:
292,349,100251,2,0,P|220:308|96:376,1,224.999997854233
203,219,100604,2,0,L|283:235,1,74.9999992847443,8|0,0:0|0:0,0:0:0:0:
412,352,100781,2,0,B|432:272|432:272|412:216|412:216|436:132,1,224.999997854233
100,32,101134,6,0,B|80:112|80:112|100:168|100:168|76:252,1,224.999997854233,4|0,0:0|0:0,0:0:0:0:
276,233,101487,2,0,L|203:219,1,74.9999992847443,8|0,0:0|0:0,0:0:0:0:
101,365,101664,2,0,P|192:307|292:349,1,224.999997854233
288,160,102016,2,0,L|276:234,1,74.9999992847443,8|0,0:0|0:0,0:0:0:0:
436,320,102193,1,0,0:0:0:0:
434,283,102281,1,0,0:0:0:0:
431,246,102369,1,0,0:0:0:0:
428,208,102457,1,0,0:0:0:0:
425,171,102545,5,4,0:0:0:0:
407,243,102634,1,0,0:0:0:0:
358,299,102722,1,0,0:0:0:0:
289,326,102810,1,0,0:0:0:0:
215,319,102898,1,8,0:0:0:0:
153,279,102987,1,0,0:0:0:0:
116,214,103075,1,0,0:0:0:0:
112,140,103163,1,0,0:0:0:0:
143,73,103251,1,0,0:0:0:0:
212,112,103340,1,0,0:0:0:0:
285,125,103428,1,0,0:0:0:0:
357,104,103516,1,0,0:0:0:0:
410,53,103604,5,8,0:0:0:0:
412,71,103693,1,0,0:0:0:0:
414,90,103781,1,0,0:0:0:0:
417,108,103869,1,0,0:0:0:0:
420,128,103958,5,4,0:0:0:0:
360,82,104046,1,0,0:0:0:0:
288,63,104134,1,0,0:0:0:0:
215,73,104222,1,0,0:0:0:0:
151,112,104310,1,8,0:0:0:0:
106,172,104399,1,0,0:0:0:0:
89,244,104487,1,0,0:0:0:0:
101,318,104575,1,0,0:0:0:0:
140,381,104664,5,0,0:0:0:0:
169,357,104752,1,0,0:0:0:0:
204,343,104840,1,0,0:0:0:0:
241,340,104928,1,0,0:0:0:0:
277,350,105016,1,8,0:0:0:0:
314,360,105106,1,0,0:0:0:0:
351,358,105194,1,0,0:0:0:0:
385,344,105282,1,0,0:0:0:0:
414,320,105370,5,4,0:0:0:0:
416,270,105458,1,0,0:0:0:0:
417,220,105546,1,0,0:0:0:0:
419,170,105634,1,0,0:0:0:0:
345,66,105723,1,8,0:0:0:0:
343,116,105811,1,0,0:0:0:0:
341,166,105899,1,0,0:0:0:0:
340,216,105987,1,0,0:0:0:0:
256,136,106076,5,0,0:0:0:0:
201,120,106164,1,0,0:0:0:0:
154,153,106252,1,0,0:0:0:0:
151,211,106340,1,0,0:0:0:0:
195,249,106428,1,8,0:0:0:0:
252,237,106517,1,0,0:0:0:0:
284,184,106605,1,0,0:0:0:0:
341,166,106693,1,0,0:0:0:0:
400,180,106782,5,4,0:0:0:0:
423,197,106870,1,0,0:0:0:0:
441,219,106958,1,0,0:0:0:0:
452,245,107046,1,0,0:0:0:0:
457,272,107134,1,8,0:0:0:0:
454,300,107223,1,0,0:0:0:0:
445,327,107311,1,0,0:0:0:0:
429,350,107399,1,0,0:0:0:0:
408,368,107488,5,0,0:0:0:0:
303,375,107577,1,0,0:0:0:0:
264,278,107665,1,0,0:0:0:0:
344,210,107753,1,0,0:0:0:0:
455,165,107841,5,8,0:0:0:0:
448,45,107929,1,0,0:0:0:0:
330,16,108017,1,0,0:0:0:0:
268,118,108106,1,0,0:0:0:0:
344,210,108193,6,0,L|396:264,1,74.9999992847443,4|0,0:0|0:0,0:0:0:0:
264,278,108370,2,0,L|292:352,1,74.9999992847443,8|0,0:0|0:0,0:0:0:0:
160,292,108546,2,0,L|152:368,1,74.9999992847443,8|0,0:0|0:0,0:0:0:0:
72,132,108723,2,0,L|0:156,1,74.9999992847443
256,72,108899,6,0,L|328:48,1,74.9999992847443,8|0,0:0|0:0,0:0:0:0:
416,192,109075,2,0,L|344:168,1,74.9999992847443
176,188,109251,2,0,L|248:164,1,74.9999992847443
504,72,109428,2,0,L|432:96,1,74.9999992847443,8|0,0:0|0:0,0:0:0:0:
176,188,109604,6,0,L|104:212,1,74.9999992847443,4|0,0:0|0:0,0:0:0:0:
220,372,109781,2,0,L|292:348,1,74.9999992847443,8|0,0:0|0:0,0:0:0:0:
360,144,109957,2,0,L|336:72,1,74.9999992847443,8|0,0:0|0:0,0:0:0:0:
176,188,110134,2,0,L|200:260,1,74.9999992847443
432,336,110310,6,0,L|408:264,1,74.9999992847443,8|0,0:0|0:0,0:0:0:0:
248,104,110487,2,0,L|272:176,1,74.9999992847443
292,349,110663,2,0,L|316:277,1,74.9999992847443
440,8,110840,2,0,L|416:80,1,74.9999992847443,8|0,0:0|0:0,0:0:0:0:
292,348,111016,5,4,0:0:0:0:
274,351,111104,1,0,0:0:0:0:
257,352,111192,1,8,0:0:0:0:
239,352,111280,1,0,0:0:0:0:
222,350,111368,1,2,0:0:0:0:
205,346,111457,1,0,0:0:0:0:
188,341,111545,1,8,0:0:0:0:
172,334,111633,1,0,0:0:0:0:
156,325,111721,1,2,0:0:0:0:
142,315,111810,1,0,0:0:0:0:
129,304,111898,1,8,0:0:0:0:
116,291,111986,1,0,0:0:0:0:
105,277,112074,1,2,0:0:0:0:
96,263,112163,1,0,0:0:0:0:
88,247,112251,1,8,0:0:0:0:
82,231,112339,1,0,0:0:0:0:
77,214,112428,6,0,L|104:240,1,37.4999996423721,4|0,0:0|0:0,0:0:0:0:
76,196,112516,2,0,L|100:224,1,37.4999996423721
72,180,112604,2,0,L|100:208,1,37.4999996423721,8|0,0:0|0:0,0:0:0:0:
72,160,112692,2,0,L|96:188,1,37.4999996423721
76,144,112781,2,0,L|96:176,1,37.4999996423721,2|0,0:0|0:0,0:0:0:0:
80,128,112869,2,0,L|96:164,1,37.4999996423721
85,110,112957,2,0,L|93:150,1,37.4999996423721,8|0,0:0|0:0,0:0:0:0:
92,96,113046,2,0,L|92:136,1,37.4999996423721
100,88,113134,5,2,0:0:0:0:
104,87,113178,1,0,0:0:0:0:
109,86,113222,1,0,0:0:0:0:
113,86,113266,1,0,0:0:0:0:
118,85,113310,1,8,0:0:0:0:
123,85,113354,1,0,0:0:0:0:
127,84,113398,1,0,0:0:0:0:
132,83,113443,1,0,0:0:0:0:
136,84,113487,2,0,L|164:84,14,18.7499998211861
232,80,113840,5,6,0:0:0:0:
388,376,114193,1,4,0:0:0:0:
224,356,114369,1,4,0:0:0:0:
436,0,114546,5,6,0:0:0:0:
192,144,114898,1,4,0:0:0:0:
320,228,115075,1,4,0:0:0:0:
0,384,115251,5,6,0:0:0:0:
304,96,115604,1,4,0:0:0:0:
96,76,115781,1,4,0:0:0:0:
512,384,115957,5,6,0:0:0:0:
0,0,116310,1,6,0:0:0:0:
256,344,116663,5,6,0:0:0:0:
348,32,117016,1,4,0:0:0:0:
92,116,117193,1,4,0:0:0:0:
512,384,117369,5,6,0:0:0:0:
164,32,117722,1,4,0:0:0:0:
420,116,117899,1,4,0:0:0:0:
0,384,118075,5,6,0:0:0:0:
256,24,118428,2,4,B|252:24|252:24|260:24|260:24|244:24|244:24|268:24|268:24|248:24|248:24|264:24|264:24|240:24|240:24|272:24|272:24|236:24|236:24|276:24|276:24|232:24|232:24|280:24|280:24|236:20|236:20|276:20|276:20|236:28|236:28|276:28|276:28|240:20|240:20|272:20|272:20|240:28|240:28|272:28|272:28|244:20|244:20|268:20|268:20|244:28|244:28|268:28|268:28|248:20|248:20|264:20|264:20|248:28|248:28|264:28|264:28|252:20|252:20|260:20|260:20|252:28|252:28|260:28|260:28|256:12|256:12|224:192|288:192|252:384,1,1212.12115432277,4|14,0:0|0:0,0:0:0:0:
252,378,118781,5,4,0:0:0:0:
