osu file format v14

[General]
AudioFilename: audio.mp3
AudioLeadIn: 0
PreviewTime: 46075
Countdown: 1
SampleSet: Soft
StackLeniency: 0.7
Mode: 0
LetterboxInBreaks: 0
WidescreenStoryboard: 0

[Editor]
DistanceSpacing: 0.1
BeatDivisor: 8
GridSize: 4
TimelineZoom: 2.999999

[Metadata]
Title:Der Wald (Kors K Remix)
TitleUnicode:Der Wald (Kors K Remix)
Artist:Erehamonika remixed by kors k
ArtistUnicode:エレハモニカ remixed by kors k
Creator:Rucker
Version:Relius
Source:pop'n music 20 fantasia
Tags:aspire SnowNiNo_ xDololow what koalazy deyo
BeatmapID:1138154
BeatmapSetID:537048

[Difficulty]
HPDrainRate:4
CircleSize:4.2
OverallDifficulty:9
ApproachRate:9.4
SliderMultiplier:3.19999990463257
SliderTickRate:1

[Events]
//Background and Video events
0,0,"purple-sky-wallpaper-11.jpg",0,0
//Break Periods
//Storyboard Layer 0 (Background)
//Storyboard Layer 1 (Fail)
//Storyboard Layer 2 (Pass)
//Storyboard Layer 3 (Foreground)
//Storyboard Sound Samples

[TimingPoints]
899,352.941176470588,4,2,0,100,1,0
12193,-200,4,2,0,100,0,0
16428,-200,4,2,0,60,0,0
16604,-200,4,2,0,40,0,0
16781,-200,4,2,0,20,0,0
17840,-200,4,2,0,60,0,0
18193,-200,4,2,0,70,0,0
18546,-200,4,2,0,80,0,0
18898,-200,4,2,0,90,0,0
19251,-200,4,3,0,60,0,0
19604,-200,4,3,0,70,0,0
19957,-200,4,3,0,80,0,0
20310,-200,4,3,0,90,0,0
20663,-200,4,3,0,100,0,0
21016,-200,4,3,0,80,0,0
21369,-200,4,3,0,50,0,0
21722,-200,4,3,0,30,0,0
22075,-166.666666666667,4,2,0,60,0,0
22428,-142.857142857143,4,2,0,70,0,0
22781,-125,4,2,0,80,0,0
23134,-111.111111111111,4,2,0,90,0,0
23487,-100,4,1,0,100,0,0
26310,-100,4,3,0,100,0,0
29134,-100,4,1,0,100,0,0
31957,-100,4,3,0,100,0,0
34781,-80,4,1,0,100,0,0
43251,-66.6666666666667,4,1,0,100,0,0
46053,-66.6666666666667,4,1,0,5,0,0
46075,-66.6666666666667,4,1,0,100,0,0
51722,-66.6666666666667,4,3,0,100,0,0
57369,-66.6666666666667,4,1,0,100,0,0
63016,-58.8235294117647,4,3,0,100,0,0
66193,-62.5,4,3,0,100,0,0
66546,-58.8235294117647,4,3,0,100,0,0
66898,-55.5555555555556,4,3,0,100,0,0
67251,-52.6315789473684,4,1,0,100,0,0
67251,-52.6315789473684,4,3,0,100,0,0
67604,-50,4,1,0,100,0,0
68641,-50,4,1,0,5,0,0
68663,-50,4,3,0,100,0,0
74288,-50,4,3,0,5,0,0
74310,-50,4,3,0,100,0,0
75722,-50,4,1,0,100,0,0
77134,-50,4,3,0,100,0,0
78546,-50,4,1,0,100,0,0
79957,-50,4,3,0,100,0,0
82582,-50,4,3,0,5,0,0
82604,-50,4,3,0,100,0,0
82759,-50,4,3,0,5,0,0
82781,-50,4,1,0,100,0,0
84193,-133.333333333333,4,3,0,100,0,0
84546,-66.6666666666667,4,3,0,100,0,0
84898,-50,4,3,0,100,0,0
85251,-25,4,3,0,100,0,0
85604,-66.6666666666667,4,3,0,100,0,0
87016,-66.6666666666667,4,1,0,100,0,0
88075,-50,4,3,0,100,0,0
88428,-50,4,1,0,100,0,0
89840,-66.6666666666667,4,3,0,100,0,0
91251,-66.6666666666667,4,1,0,100,0,0
108193,-50,4,1,0,100,0,0
108281,-50,4,3,0,100,0,0
109604,-50,4,1,0,100,0,0
109693,-50,4,3,0,100,0,0
111016,-50,4,1,0,100,0,0

[HitObjects]
44,192,898,6,0,L|212:192,1,159.999995231628,2|0,0:0|0:0,0:0:0:0:
44,192,1251,2,0,P|136:180|212:192,1,159.999995231628
44,192,1604,2,0,P|136:168|212:192,1,159.999995231628
44,192,1957,2,0,P|136:156|212:192,1,159.999995231628
44,192,2310,2,0,P|136:144|212:192,1,159.999995231628
44,192,2663,2,0,P|136:132|212:192,1,159.999995231628
44,192,3016,2,0,P|136:120|208:184,1,159.999995231628
44,192,3369,2,0,P|136:108|200:168,1,159.999995231628
468,192,3722,6,0,L|300:192,1,159.999995231628,2|0,0:0|0:0,0:0:0:0:
468,192,4075,2,0,P|376:204|300:192,1,159.999995231628
468,192,4428,2,0,P|376:216|300:192,1,159.999995231628
468,192,4781,2,0,P|376:228|300:192,1,159.999995231628
468,192,5134,2,0,P|376:240|300:192,1,159.999995231628
468,192,5487,2,0,P|376:252|300:192,1,159.999995231628
468,192,5840,1,0,0:0:0:0:
468,192,6016,2,0,P|436:244|372:236,2,79.9999976158142
468,192,6369,1,0,0:0:0:0:
352,108,6546,6,0,L|512:72,1,159.999995231628,2|0,0:0|0:0,0:0:0:0:
376,224,6898,2,0,L|256:104,1,159.999995231628
40,256,7251,2,0,L|236:232,1,159.999995231628
248,340,7604,2,0,L|164:168,1,159.999995231628
336,60,7957,2,0,L|300:236,1,159.999995231628
48,120,8310,2,0,L|172:20,1,159.999995231628
240,176,8663,2,0,L|208:340,1,159.999995231628
432,208,9016,2,0,L|272:124,1,159.999995231628
36,188,9369,6,0,P|112:256|184:192,1,159.999995231628
276,168,9722,2,0,P|230:106|263:37,1,159.999995231628
444,268,10075,2,0,P|370:247|317:302,1,159.999995231628
368,68,10428,2,0,P|437:99|442:176,1,159.999995231628
172,232,10781,2,0,P|95:236|63:306,1,159.999995231628
192,64,11134,2,0,P|152:129|76:126,1,159.999995231628
228,312,11487,1,0,0:0:0:0:
400,188,11663,2,0,P|420:168|424:204,2,79.9999976158142
400,188,12016,1,0,0:0:0:0:
312,48,12193,5,2,0:0:0:0:
296,40,12369,1,0,0:0:0:0:
220,100,12546,1,0,0:0:0:0:
204,100,12722,1,0,0:0:0:0:
156,184,12898,1,8,0:0:0:0:
140,192,13075,1,0,0:0:0:0:
136,288,13251,1,0,0:0:0:0:
128,304,13428,1,0,0:0:0:0:
224,312,13604,5,0,0:0:0:0:
316,344,13781,1,0,0:0:0:0:
392,284,13957,1,0,0:0:0:0:
300,252,14134,1,0,0:0:0:0:
208,224,14310,1,8,0:0:0:0:
284,164,14487,1,0,0:0:0:0:
192,136,14663,1,0,0:0:0:0:
268,76,14840,1,0,0:0:0:0:
360,104,15016,6,0,L|432:88,2,39.9999988079071
372,192,15369,2,0,L|445:201,2,39.9999988079071,0|0|0,3:0|3:0|3:0,3:0:0:0:
356,280,15722,2,0,L|421:314,2,39.9999988079071,8|0|0,3:0|3:0|3:0,3:0:0:0:
308,352,16075,2,0,L|357:406,2,39.9999988079071,0|0|0,3:0|3:0|3:0,3:0:0:0:
284,268,16428,6,0,L|306:234,2,39.9999988079071,0|0|0,3:0|3:0|3:0,3:0:0:0:
201,238,16781,2,0,L|210:199,2,39.9999988079071,0|0|0,3:0|3:0|3:0,3:0:0:0:
113,244,17134,1,8,0:0:0:0:
36,284,17310,2,0,L|53:319,2,39.9999988079071
40,196,17663,1,0,0:0:0:0:
112,144,17840,6,0,L|32:84,1,79.9999976158142,2|0,0:0|0:0,0:0:0:0:
208,108,18193,2,0,L|153:24,1,79.9999976158142
316,96,18546,2,0,L|293:-1,1,79.9999976158142,8|0,0:0|0:0,0:0:0:0:
428,108,18898,2,0,L|439:8,1,79.9999976158142
476,200,19251,6,0,L|512:248,2,39.9999988079071
404,264,19604,2,0,L|411:323,2,39.9999988079071
316,304,19957,2,0,L|292:359,2,39.9999988079071,8|0|0,0:0|0:0|0:0,0:0:0:0:
220,324,20310,2,0,L|172:360,2,39.9999988079071
292,260,20663,6,0,L|360:288,2,39.9999988079071
320,176,21016,2,0,L|392:166,2,39.9999988079071
284,96,21369,2,0,L|342:51,2,39.9999988079071,8|0|0,0:0|0:0|0:0,0:0:0:0:
220,36,21722,2,0,L|248:-32,2,39.9999988079071
124,48,22075,6,0,P|72:72|48:112,1,95.9999942092898
128,152,22428,2,0,P|92:216|116:292,1,111.999993244171
196,232,22781,2,0,P|216:300|304:340,1,127.999996185303
344,256,23134,2,0,P|408:300|496:284,1,143.999991313935
468,84,23487,5,2,0:0:0:0:
424,68,23575,1,0,0:0:0:0:
376,68,23663,1,0,0:0:0:0:
332,88,23751,1,0,0:0:0:0:
300,124,23840,1,8,0:0:0:0:
280,168,23928,1,0,0:0:0:0:
248,204,24016,1,0,0:0:0:0:
204,220,24104,1,0,0:0:0:0:
156,216,24193,1,0,0:0:0:0:
116,188,24281,1,0,0:0:0:0:
92,148,24369,1,2,0:0:0:0:
96,100,24457,1,0,0:0:0:0:
124,60,24546,1,8,0:0:0:0:
164,36,24634,1,0,0:0:0:0:
212,32,24722,2,0,L|280:84,1,79.9999976158142
324,228,24898,5,2,0:0:0:0:
364,256,24987,1,0,0:0:0:0:
412,260,25075,1,0,0:0:0:0:
456,240,25163,1,0,0:0:0:0:
480,200,25251,1,8,0:0:0:0:
480,152,25340,1,0,0:0:0:0:
456,108,25428,1,0,0:0:0:0:
412,88,25516,1,0,0:0:0:0:
364,100,25604,1,0,0:0:0:0:
328,132,25693,1,0,0:0:0:0:
312,176,25781,1,2,0:0:0:0:
312,224,25869,1,0,0:0:0:0:
300,272,25957,1,8,0:0:0:0:
264,304,26046,1,0,0:0:0:0:
216,316,26134,2,0,L|168:236,1,79.9999976158142
64,56,26310,6,0,P|77:103|122:133,1,79.9999976158142
221,167,26487,2,0,P|207:119|162:89,1,79.9999976158142
55,70,26663,2,0,P|76:114|125:135,1,79.9999976158142,8|0,0:0|0:0,0:0:0:0:
228,152,26840,2,0,P|206:107|157:86,1,79.9999976158142
49,86,27016,2,0,P|78:126|130:138,1,79.9999976158142
234,136,27193,2,0,P|204:95|152:83,1,79.9999976158142
45,102,27369,2,0,P|80:136|134:139,1,79.9999976158142,8|0,0:0|0:0,0:0:0:0:
237,120,27546,2,0,P|201:85|147:82,1,79.9999976158142
52,284,27722,6,0,L|114:234,1,79.9999976158142,2|0,0:0|0:0,0:0:0:0:
231,228,27898,2,0,L|168:277,1,79.9999976158142
58,299,28075,2,0,L|110:239,1,79.9999976158142,8|0,0:0|0:0,0:0:0:0:
225,213,28251,2,0,L|172:272,1,79.9999976158142
67,313,28428,2,0,L|108:244,1,79.9999976158142
216,199,28604,2,0,L|174:267,1,79.9999976158142,2|0,0:0|0:0,0:0:0:0:
78,325,28781,2,0,L|107:250,1,79.9999976158142,8|0,0:0|0:0,0:0:0:0:
205,187,28957,2,0,L|175:261,1,79.9999976158142
256,336,29134,5,2,0:0:0:0:
296,308,29222,1,0,0:0:0:0:
340,292,29310,1,0,0:0:0:0:
388,288,29398,1,0,0:0:0:0:
432,304,29487,1,8,0:0:0:0:
476,288,29575,1,0,0:0:0:0:
500,248,29663,1,0,0:0:0:0:
500,200,29751,1,0,0:0:0:0:
484,156,29840,1,0,0:0:0:0:
448,124,29928,1,0,0:0:0:0:
400,112,30016,1,2,0:0:0:0:
352,124,30104,1,0,0:0:0:0:
304,132,30193,1,8,0:0:0:0:
260,112,30281,1,0,0:0:0:0:
240,68,30369,2,0,L|160:40,1,79.9999976158142
16,168,30546,5,2,0:0:0:0:
36,212,30634,1,0,0:0:0:0:
72,240,30722,1,0,0:0:0:0:
116,256,30810,1,0,0:0:0:0:
164,256,30898,1,8,0:0:0:0:
208,236,30987,1,0,0:0:0:0:
248,212,31075,1,0,0:0:0:0:
280,176,31163,1,0,0:0:0:0:
328,168,31251,1,0,0:0:0:0:
372,192,31340,1,0,0:0:0:0:
392,236,31428,1,2,0:0:0:0:
380,284,31516,1,0,0:0:0:0:
344,316,31604,1,8,0:0:0:0:
296,320,31693,1,0,0:0:0:0:
256,292,31781,2,0,L|256:196,1,79.9999976158142
256,45,31957,6,0,P|244:93|216:113,1,79.9999976158142,2|0,0:0|0:0,0:0:0:0:
360,89,32134,2,0,P|317:114|283:108,1,79.9999976158142
402,192,32310,2,0,P|354:180|334:152,1,79.9999976158142,8|0,0:0|0:0,0:0:0:0:
359,296,32487,2,0,P|333:253|339:219,1,79.9999976158142
255,338,32663,2,0,P|267:290|295:270,1,79.9999976158142
152,295,32840,2,0,P|194:269|228:275,1,79.9999976158142,2|0,0:0|0:0,0:0:0:0:
109,191,33016,2,0,P|157:203|177:231,1,79.9999976158142,8|0,0:0|0:0,0:0:0:0:
153,87,33193,2,0,P|178:130|172:164,1,79.9999976158142
288,111,33369,6,0,P|328:112|360:89,1,79.9999976158142,2|0,0:0|0:0,0:0:0:0:
222,111,33546,2,0,P|250:84|256:45,1,79.9999976158142
175,159,33722,2,0,P|176:119|153:88,1,79.9999976158142,8|0,0:0|0:0,0:0:0:0:
175,225,33899,2,0,P|148:197|109:191,1,79.9999976158142
223,272,34075,2,0,P|183:271|152:295,1,79.9999976158142
289,272,34252,2,0,P|261:299|255:338,1,79.9999976158142,2|0,0:0|0:0,0:0:0:0:
336,224,34428,2,0,P|335:264|359:296,1,79.9999976158142,8|0,0:0|0:0,0:0:0:0:
337,157,34605,2,0,P|364:185|403:192,1,79.9999976158142
256,84,34781,6,0,P|156:112|72:44,1,199.999994039536,4|0,0:0|0:0,0:0:0:0:
72,320,35134,2,0,L|172:100,1,199.999994039536,8|0,0:0|0:0,0:0:0:0:
288,36,35487,2,0,P|360:136|440:76,1,199.999994039536
512,240,35840,2,0,L|280:344,1,199.999994039536,8|0,0:0|0:0,0:0:0:0:
164,272,36193,2,0,P|136:152|208:112,1,199.999994039536
52,32,36546,2,0,L|220:200,1,199.999994039536,8|0,0:0|0:0,0:0:0:0:
400,228,36898,2,0,P|316:136|248:176,1,199.999994039536
264,352,37251,2,0,L|348:144,1,199.999994039536,8|0,0:0|0:0,0:0:0:0:
72,80,37604,5,0,0:0:0:0:
244,248,37781,1,0,0:0:0:0:
300,24,37957,1,8,0:0:0:0:
80,200,38134,1,0,0:0:0:0:
360,168,38310,2,0,P|316:292|228:288,1,199.999994039536
136,196,38663,2,0,L|224:0,1,199.999994039536,8|0,0:0|0:0,0:0:0:0:
444,116,39016,5,0,0:0:0:0:
236,208,39193,1,0,0:0:0:0:
428,340,39369,2,0,P|324:316|288:216,1,199.999994039536,8|0,0:0|0:0,0:0:0:0:
368,64,39722,2,0,L|476:240,1,199.999994039536
128,160,40075,2,0,P|180:64|268:56,1,199.999994039536,8|0,0:0|0:0,0:0:0:0:
280,288,40428,5,0,0:0:0:0:
332,88,40604,1,0,0:0:0:0:
124,140,40781,1,8,0:0:0:0:
376,216,40957,1,0,0:0:0:0:
224,48,41134,1,0,0:0:0:0:
144,268,41310,1,0,0:0:0:0:
348,96,41487,1,8,0:0:0:0:
112,172,41663,1,0,0:0:0:0:
296,328,41840,5,0,0:0:0:0:
268,52,42016,1,0,0:0:0:0:
152,296,42193,1,8,0:0:0:0:
452,248,42369,1,0,0:0:0:0:
100,112,42546,1,0,0:0:0:0:
340,340,42722,1,0,0:0:0:0:
424,52,42898,1,8,0:0:0:0:
180,344,43075,1,0,0:0:0:0:
56,28,43251,5,0,0:0:0:0:
36,84,43340,1,0,0:0:0:0:
44,144,43428,1,0,0:0:0:0:
80,192,43516,1,0,0:0:0:0:
132,220,43604,1,8,0:0:0:0:
192,216,43693,1,0,0:0:0:0:
240,184,43781,1,0,0:0:0:0:
260,128,43869,1,0,0:0:0:0:
320,120,43957,1,0,0:0:0:0:
372,152,44046,1,0,0:0:0:0:
396,208,44134,1,0,0:0:0:0:
384,268,44222,1,0,0:0:0:0:
340,308,44310,1,8,0:0:0:0:
284,324,44398,1,0,0:0:0:0:
224,312,44487,1,0,0:0:0:0:
184,268,44575,1,0,0:0:0:0:
168,212,44663,1,0,0:0:0:0:
256,192,44685,12,0,45016,0:0:0:0:
256,192,45016,12,0,45369,0:0:0:0:
256,192,45369,12,0,45722,0:0:0:0:
256,192,45722,12,0,46053,0:0:0:0:
332,56,46075,6,0,L|512:16,1,120.000001001358,4|0,0:0|0:0,0:0:0:0:
332,152,46251,2,0,L|512:112,1,120.000001001358
332,248,46428,2,0,L|512:208,1,120.000001001358,8|0,0:0|0:0,0:0:0:0:
332,344,46604,2,0,L|512:304,1,120.000001001358
180,328,46781,6,0,L|0:368,1,120.000001001358
180,232,46957,2,0,L|0:272,1,120.000001001358
180,136,47134,2,0,L|0:176,1,120.000001001358,8|0,0:0|0:0,0:0:0:0:
180,40,47310,2,0,L|0:80,1,120.000001001358
484,148,47487,5,0,0:0:0:0:
452,96,47575,1,0,0:0:0:0:
392,84,47663,1,0,0:0:0:0:
336,108,47751,1,0,0:0:0:0:
320,168,47840,2,0,P|380:224|464:188,1,120.000001001358,8|0,0:0|0:0,0:0:0:0:
264,328,48016,2,0,P|204:271|120:308,1,120.000001001358
44,164,48193,5,0,0:0:0:0:
56,104,48281,1,0,0:0:0:0:
104,72,48369,1,0,0:0:0:0:
164,64,48457,1,0,0:0:0:0:
220,88,48546,1,8,0:0:0:0:
248,140,48634,1,0,0:0:0:0:
252,200,48722,1,0,0:0:0:0:
232,256,48810,1,0,0:0:0:0:
272,300,48898,1,0,0:0:0:0:
332,312,48987,1,0,0:0:0:0:
388,296,49075,1,0,0:0:0:0:
428,252,49163,1,0,0:0:0:0:
440,192,49251,1,8,0:0:0:0:
420,136,49340,1,0,0:0:0:0:
372,100,49428,1,0,0:0:0:0:
312,88,49516,1,0,0:0:0:0:
256,108,49604,6,0,L|304:224,1,120.000001001358
196,304,49781,2,0,L|148:188,1,120.000001001358
232,96,49957,2,0,L|280:212,1,120.000001001358,8|0,0:0|0:0,0:0:0:0:
172,292,50134,2,0,L|124:176,1,120.000001001358
348,36,50310,5,0,0:0:0:0:
324,92,50398,1,0,0:0:0:0:
340,152,50487,1,0,0:0:0:0:
392,184,50575,1,0,0:0:0:0:
412,240,50663,1,8,0:0:0:0:
400,300,50751,1,0,0:0:0:0:
356,344,50840,1,0,0:0:0:0:
296,348,50928,1,0,0:0:0:0:
244,316,51016,1,0,0:0:0:0:
216,264,51104,1,0,0:0:0:0:
224,204,51193,1,0,0:0:0:0:
272,164,51281,1,0,0:0:0:0:
332,152,51369,6,0,P|408:112|416:40,1,120.000001001358,8|0,0:0|0:0,0:0:0:0:
396,252,51546,2,0,P|320:292|312:364,1,120.000001001358
152,116,51722,6,0,P|216:112|248:152,1,120.000001001358,2|0,0:0|0:0,0:0:0:0:
360,268,51898,2,0,P|296:272|263:232,1,120.000001001358
166,99,52075,2,0,P|230:106|255:151,1,120.000001001358,8|0,0:0|0:0,0:0:0:0:
345,284,52251,2,0,P|281:277|256:232,1,120.000001001358
184,85,52428,2,0,P|245:103|262:151,1,120.000001001358,0|0,2:0|2:0,2:0:0:0:
327,298,52604,2,0,P|266:280|249:232,1,120.000001001358,2|0,2:0|2:0,2:0:0:0:
184,85,52781,2,0,P|245:103|262:151,1,120.000001001358,8|0,0:0|0:0,0:0:0:0:
327,298,52957,2,0,P|266:280|249:232,1,120.000001001358
203,74,53134,2,0,P|261:102|269:153,1,120.000001001358,2|0,0:0|0:0,0:0:0:0:
308,309,53310,2,0,P|250:281|242:230,1,120.000001001358
225,66,53487,2,0,P|276:105|275:156,1,120.000001001358,8|0,0:0|0:0,0:0:0:0:
286,317,53663,2,0,P|235:278|236:227,1,120.000001001358
247,63,53840,2,0,P|291:109|281:160,1,120.000001001358
264,320,54016,2,0,P|220:274|230:223,1,120.000001001358,2|0,0:0|0:0,0:0:0:0:
269,63,54193,2,0,P|305:117|286:165,1,120.000001001358,8|0,0:0|0:0,0:0:0:0:
242,320,54369,2,0,P|206:266|225:218,1,120.000001001358
286,270,54546,6,0,P|364:288|391:345,1,120.000001001358,2|0,0:0|0:0,0:0:0:0:
225,113,54722,2,0,P|147:95|120:38,1,120.000001001358
321,244,54898,2,0,P|398:221|450:257,1,120.000001001358,8|0,0:0|0:0,0:0:0:0:
190,139,55074,2,0,P|113:162|61:126,1,120.000001001358
339,204,55251,2,0,P|393:145|456:151,1,120.000001001358
172,179,55427,2,0,P|118:238|55:232,1,120.000001001358,2|0,0:0|0:0,0:0:0:0:
334,161,55604,2,0,P|352:83|409:56,1,120.000001001358,8|0,0:0|0:0,0:0:0:0:
177,222,55780,2,0,P|159:300|102:327,1,120.000001001358
308,126,55957,2,0,P|285:49|321:-2,1,120.000001001358,2|0,0:0|0:0,0:0:0:0:
203,257,56133,2,0,P|226:334|190:386,1,120.000001001358
268,108,56310,2,0,P|209:54|215:-8,1,120.000001001358,8|0,0:0|0:0,0:0:0:0:
243,275,56486,2,0,P|302:329|296:392,1,120.000001001358
225,113,56663,2,0,P|147:95|120:38,1,120.000001001358
286,270,56839,2,0,P|364:288|391:345,1,120.000001001358,2|0,0:0|0:0,0:0:0:0:
190,139,57016,2,0,P|113:162|61:126,1,120.000001001358,8|0,0:0|0:0,0:0:0:0:
321,244,57192,2,0,P|398:221|450:257,1,120.000001001358
188,280,57369,5,0,0:0:0:0:
140,310,57457,1,0,0:0:0:0:
80,299,57546,1,0,0:0:0:0:
42,253,57634,1,0,0:0:0:0:
42,193,57722,1,8,0:0:0:0:
80,147,57810,1,0,0:0:0:0:
140,137,57898,1,0,0:0:0:0:
192,167,57987,1,0,0:0:0:0:
220,220,58075,1,0,0:0:0:0:
268,250,58163,1,0,0:0:0:0:
328,239,58252,1,0,0:0:0:0:
366,193,58340,1,0,0:0:0:0:
366,133,58428,1,8,0:0:0:0:
328,87,58516,1,0,0:0:0:0:
268,77,58604,1,0,0:0:0:0:
216,107,58693,1,0,0:0:0:0:
192,167,58781,6,0,L|76:216,1,120.000001001358
68,352,58957,2,0,L|178:305,1,120.000001001358
160,148,59134,2,0,L|67:233,1,120.000001001358,8|0,0:0|0:0,0:0:0:0:
106,364,59310,2,0,L|193:282,1,120.000001001358
324,308,59487,5,0,0:0:0:0:
380,328,59575,1,0,0:0:0:0:
436,312,59663,1,0,0:0:0:0:
472,264,59751,1,0,0:0:0:0:
468,208,59840,2,0,L|392:100,1,120.000001001358,8|0,0:0|0:0,0:0:0:0:
236,40,60016,2,0,L|305:138,1,120.000001001358
324,308,60193,5,0,0:0:0:0:
312,248,60281,1,0,0:0:0:0:
268,208,60369,1,0,0:0:0:0:
208,196,60457,1,0,0:0:0:0:
148,212,60546,1,8,0:0:0:0:
92,196,60634,1,0,0:0:0:0:
52,148,60722,1,0,0:0:0:0:
52,88,60810,1,0,0:0:0:0:
92,44,60898,1,0,0:0:0:0:
152,28,60987,1,0,0:0:0:0:
208,52,61075,1,0,0:0:0:0:
236,104,61163,1,0,0:0:0:0:
224,164,61251,6,0,P|168:208|184:280,1,120.000001001358,8|0,0:0|0:0,0:0:0:0:
252,356,61428,2,0,P|308:312|292:239,1,120.000001001358
460,120,61604,5,0,0:0:0:0:
400,108,61693,1,0,0:0:0:0:
340,96,61781,1,0,0:0:0:0:
280,84,61869,1,0,0:0:0:0:
220,72,61957,2,0,L|88:40,1,120.000001001358,8|0,0:0|0:0,0:0:0:0:
148,172,62134,2,0,L|264:200,1,120.000001001358
40,232,62310,5,0,0:0:0:0:
36,292,62398,1,0,0:0:0:0:
76,340,62487,1,0,0:0:0:0:
136,352,62575,1,0,0:0:0:0:
196,336,62663,2,0,L|312:364,1,120.000001001358,8|0,0:0|0:0,0:0:0:0:
432,240,62840,2,0,L|315:268,1,120.000001001358
84,72,63016,6,0,P|132:16|220:16,1,120.000001001358,2|0,0:0|0:0,0:0:0:0:
180,200,63193,2,0,P|132:255|44:256,1,120.000001001358
58,104,63369,2,0,P|71:31|147:-12,1,120.000001001358,8|0,2:0|2:0,2:0:0:0:
205,167,63546,2,0,P|191:239|115:283,1,120.000001001358,0|0,2:0|2:0,2:0:0:0:
52,145,63722,2,0,P|27:75|71:0,1,120.000001001358,0|0,2:0|2:0,2:0:0:0:
211,126,63899,2,0,P|235:195|191:271,1,120.000001001358,2|0,2:0|2:0,2:0:0:0:
68,184,64075,2,0,P|12:136|11:47,1,120.000001001358,8|0,2:0|2:0,2:0:0:0:
196,88,64252,2,0,P|252:136|251:223,1,120.000001001358,0|0,2:0|2:0,2:0:0:0:
428,312,64428,6,0,P|379:368|292:367,1,120.000001001358,2|0,0:0|0:0,0:0:0:0:
332,184,64605,2,0,P|380:128|468:128,1,120.000001001358
454,280,64781,2,0,P|440:352|364:396,1,120.000001001358,8|0,2:0|2:0,2:0:0:0:
307,216,64958,2,0,P|320:144|396:100,1,120.000001001358,0|0,2:0|2:0,2:0:0:0:
460,239,65134,2,0,P|484:308|440:384,1,120.000001001358,0|0,2:0|2:0,2:0:0:0:
301,258,65311,2,0,P|276:188|320:112,1,120.000001001358,2|0,2:0|2:0,2:0:0:0:
444,200,65487,2,0,P|500:248|500:336,1,120.000001001358,8|0,2:0|2:0,2:0:0:0:
316,296,65664,2,0,P|260:248|260:160,1,120.000001001358,0|0,2:0|2:0,2:0:0:0:
336,120,65840,6,0,L|196:156,1,120.000001001358,2|0,0:0|0:0,0:0:0:0:
176,264,66016,2,0,L|316:228,1,120.000001001358
400,160,66193,2,0,L|236:176,1,127.999996185303,2|0,0:0|0:0,0:0:0:0:
112,224,66369,2,0,L|276:208,1,127.999996185303
448,220,66546,2,0,L|272:212,1,135.999998540878,2|0,0:0|0:0,0:0:0:0:
64,164,66722,2,0,L|240:172,1,135.999998540878
484,288,66898,2,0,L|312:256,1,143.999991313935,2|0,0:0|0:0,0:0:0:0:
28,96,67075,2,0,L|200:128,1,143.999991313935
256,192,67251,5,2,0:0:0:0:
256,192,67273,12,0,67604,0:0:0:0:
256,192,67604,12,0,67957,0:0:0:0:
256,192,67957,12,0,68310,0:0:0:0:
256,192,68310,12,0,68641,0:0:0:0:
72,256,68663,6,0,P|45:333|105:277,2,213.333326975505
160,136,69016,2,0,P|186:58|126:114,2,213.333326975505
284,244,69369,6,0,P|372:348|464:228,2,213.333326975505
440,156,69722,2,0,P|352:52|260:172,2,213.333326975505
252,268,70075,6,0,L|460:356,2,213.333326975505
260,116,70428,2,0,L|52:28,2,213.333326975505
103,287,70781,6,0,B|161:336|161:336|185:204|306:302,2,213.333326975505
408,248,71134,2,0,B|349:198|349:198|325:330|204:232,2,213.333326975505
48,120,71487,6,0,B|128:-8|324:52|324:52|236:220|56:216|56:216|120:312|248:252|248:252|272:368|272:368|316:252|464:296|492:356|492:360,1,1119.9999666214
472,276,72193,6,0,B|332:188|348:36|348:36|272:96|272:96|224:36|224:36|172:100|172:100|112:36|112:36|-4:152|76:256|76:256|156:188|248:288|168:384|100:352,1,1119.9999666214
256,76,72898,6,0,B|180:116|172:192|172:192|180:268|256:312|256:312|332:268|340:192|340:192|332:116|256:76|256:76|180:116|172:192|172:192|180:268|256:312|256:312|332:268|340:192|340:192|332:116|256:76|256:76|332:116|340:192|340:192|332:268|256:312|256:312|180:268|172:192|172:192|180:116|256:76|256:76|332:116|340:192|340:192|332:268|256:312|256:312|180:268|172:192|172:192|180:116|260:72|260:72,1,2399.99992847443
256,76,74310,6,0,P|104:92|88:200,2,213.333326975505
256,160,74663,2,0,P|408:144|424:36,2,213.333326975505
256,244,75016,2,0,P|104:260|88:368,2,213.333326975505
256,328,75369,2,0,P|408:312|424:204,2,213.333326975505
128,188,75722,5,0,0:0:0:0:
230,159,75840,1,0,0:0:0:0:
203,263,75957,1,0,0:0:0:0:
155,84,76075,5,0,0:0:0:0:
305,235,76193,1,0,0:0:0:0:
100,290,76310,1,0,0:0:0:0:
155,84,76428,6,0,B|207:52|255:84|255:84|311:52|355:84,2,213.333326975505
216,200,76781,2,0,B|164:232|116:200|116:200|60:232|16:200,2,213.333326975505
388,324,77134,6,0,B|418:303|418:303|376:291|376:291|425:280|425:280|383:268|383:268|432:257|432:257|389:245|389:245|438:234|438:234|396:222|396:222|445:211|445:211|402:199|402:199|451:188|451:188|409:176|409:176|458:165|458:165,1,479.999985694885,2|0,0:0|0:0,0:0:0:0:
492,144,77487,2,0,P|392:20|244:92,1,319.999990463257
20,136,77840,6,0,B|22:172|22:172|53:142|53:142|38:190|38:190|70:159|70:159|55:207|55:207|87:176|87:176|72:224|72:224|103:194|103:194|88:241|88:241|120:211|120:211|105:259|105:259|137:228|137:228|122:276|122:276,1,479.999985694885
64,312,78193,2,0,B|152:264|164:376|308:392|400:272|320:124,1,319.999990463257
176,172,78546,5,0,0:0:0:0:
440,32,78722,1,0,0:0:0:0:
424,112,78810,1,0,0:0:0:0:
408,192,78898,1,0,0:0:0:0:
284,92,79075,1,0,0:0:0:0:
184,356,79251,6,0,P|48:268|104:80,1,319.999990463257
328,28,79604,1,0,0:0:0:0:
404,52,79693,1,0,0:0:0:0:
460,112,79781,1,0,0:0:0:0:
476,192,79869,1,0,0:0:0:0:
452,268,79957,2,0,B|408:252|408:252|472:328|400:396|320:356|324:292,2,213.333326975505
296,204,80310,2,0,B|236:180|264:92|344:96|344:96|412:168,2,213.333326975505
168,292,80663,2,0,B|196:310|204:358|204:358|268:310|236:238,2,213.333326975505
104,192,81016,6,0,B|84:186|84:186|101:166|101:166|61:162|61:162|90:149|90:149|46:138|46:138|77:129|77:129|46:107|46:107|71:105|71:105|48:72|48:72|78:81|78:81|57:42|57:42|85:56|85:56|75:9|75:9|99:36|99:36|99:-1,1,479.999985694885
256,104,81369,6,0,B|280:40|352:20|352:20|356:88|288:140,2,213.333326975505
179,236,81722,2,0,B|112:247|59:194|59:194|115:157|194:190,2,213.333326975505
332,235,82075,2,0,B|375:288|356:361|356:361|296:330|285:245,2,213.333326975505
376,60,82428,6,0,L|64:60,1,279.99999165535
44,80,82604,2,0,L|352:80,1,279.99999165535
444,40,82781,6,0,B|279:-2|279:-2|322:159|322:159|444:40,1,479.999985694885
60,116,83134,6,0,B|156:144|156:144|123:268|123:268|0:235|0:235|36:108,1,479.999985694885,0|0,2:0|2:0,2:0:0:0:
284,308,83487,6,0,B|372:348|372:348|440:276|440:276|388:192|388:192|296:212|296:212|284:308|284:308|372:348|372:348|440:276|440:276|388:192|388:192|296:212|296:212|284:308,1,959.999971389771
196,160,84193,6,0,P|244:104|312:160,1,180.000001502037
196,160,84546,6,0,P|256:32|308:168,1,360.000003004074
196,160,84898,6,0,P|256:-12|284:176,1,479.999985694885
196,160,85251,6,0,P|220:-168|288:168,1,959.999971389771
44,288,85604,2,0,B|216:288|216:288|172:288|172:288|252:288|252:288|204:288|204:288|264:288|264:288|228:288|228:288|276:288|276:288|240:288|240:288|288:288|288:288|256:288|256:288|296:288|296:288|280:288|280:288|304:288|304:288|284:288|284:288|312:288|312:288|300:288|300:288|328:288,1,720.000006008149
480,144,86310,2,0,B|412:184|412:184|400:120|472:96|472:96|348:48|324:164,1,360.000003004074
132,36,86663,6,0,P|180:88|264:52,1,120.000001001358
132,172,86840,2,0,P|76:215|0:167,1,120.000001001358
280,296,87016,5,0,0:0:0:0:
152,352,87134,1,0,0:0:0:0:
168,220,87251,1,0,0:0:0:0:
344,288,87369,5,0,0:0:0:0:
204,203,87487,1,0,0:0:0:0:
348,116,87604,1,0,0:0:0:0:
164,52,87722,5,0,0:0:0:0:
172,136,87810,1,0,0:0:0:0:
244,180,87898,1,0,0:0:0:0:
328,172,87987,1,0,0:0:0:0:
384,108,88075,2,0,P|236:184|152:48,1,319.999990463257
48,232,88428,5,0,0:0:0:0:
340,296,88604,1,0,0:0:0:0:
40,252,88781,1,0,0:0:0:0:
376,212,88957,1,0,0:0:0:0:
112,236,89134,2,0,B|184:236|256:192|256:192|320:172|352:112|320:48|256:32|192:48|160:112|192:172|256:192|256:192|328:236|344:236|344:236|356:216|356:216|356:236|356:236|364:216|364:216|364:236|364:236|372:216|372:216|372:236|372:236|380:216|380:216|380:236|380:236|388:216|388:216|388:236|388:236|396:216|396:216|396:236|396:236|404:216|404:216|404:236|404:236|412:216|412:216|412:236|412:236|420:216|420:216|420:236|420:236|428:216|428:216|428:236|428:236|440:220,1,959.999971389771
256,192,89840,12,0,90193,0:0:0:0:
256,192,90193,12,0,90546,0:0:0:0:
256,192,90546,12,0,90898,0:0:0:0:
256,192,90898,12,0,91229,0:0:0:0:
40,120,91251,6,0,L|152:68,1,120.000001001358,2|0,0:0|0:0,0:0:0:0:
272,312,91428,5,0,0:0:0:0:
212,356,91516,1,0,0:0:0:0:
140,344,91604,2,0,P|112:296|140:212,1,120.000001001358,8|0,0:0|0:0,0:0:0:0:
224,40,91781,5,2,0:0:0:0:
296,52,91869,2,0,L|440:88,1,120.000001001358
312,300,92046,5,0,0:0:0:0:
252,264,92134,1,0,0:0:0:0:
216,200,92222,1,0,0:0:0:0:
212,128,92310,2,0,P|160:112|112:152,1,120.000001001358,10|0,0:0|0:0,0:0:0:0:
28,276,92487,6,0,P|80:292|128:252,1,120.000001001358
316,184,92663,6,0,L|268:312,1,120.000001001358,2|0,0:0|0:0,0:0:0:0:
128,96,92840,5,0,0:0:0:0:
196,76,92928,1,0,0:0:0:0:
264,56,93016,2,0,P|328:88|372:40,1,120.000001001358,8|0,0:0|0:0,0:0:0:0:
204,256,93193,5,2,0:0:0:0:
132,240,93281,2,0,L|48:112,1,120.000001001358
360,144,93457,5,0,0:0:0:0:
388,212,93546,2,0,L|320:312,1,120.000001001358
232,144,93722,6,0,L|300:44,1,120.000001001358,10|0,0:0|0:0,0:0:0:0:
96,168,93898,6,0,L|164:68,1,120.000001001358
148,280,94075,6,0,P|80:348|28:320,1,120.000001001358,2|0,0:0|0:0,0:0:0:0:
292,184,94251,5,0,0:0:0:0:
296,256,94340,1,0,0:0:0:0:
360,288,94428,2,0,L|444:192,1,120.000001001358,8|0,0:0|0:0,0:0:0:0:
228,148,94604,5,2,0:0:0:0:
288,108,94693,2,0,P|240:64|168:84,1,120.000001001358
96,240,94869,5,0,0:0:0:0:
120,308,94957,1,0,0:0:0:0:
188,332,95046,1,0,0:0:0:0:
256,316,95134,2,0,L|376:244,1,120.000001001358,10|0,0:0|0:0,0:0:0:0:
352,92,95310,6,0,L|472:164,1,120.000001001358
68,76,95487,5,2,0:0:0:0:
124,120,95575,1,0,0:0:0:0:
152,188,95663,1,0,0:0:0:0:
124,256,95751,1,0,0:0:0:0:
68,300,95840,2,0,P|20:248|32:184,1,120.000001001358,8|0,0:0|0:0,0:0:0:0:
208,120,96016,5,2,0:0:0:0:
248,180,96104,2,0,P|292:136|280:72,1,120.000001001358
336,348,96281,5,0,0:0:0:0:
304,284,96370,1,0,0:0:0:0:
336,220,96457,1,0,0:0:0:0:
408,204,96546,2,0,P|448:152|408:88,1,120.000001001358,10|0,0:0|0:0,0:0:0:0:
248,84,96722,6,0,P|225:22|149:22,1,120.000001001358
48,276,96898,5,2,0:0:0:0:
120,292,96987,1,0,0:0:0:0:
192,304,97075,1,0,0:0:0:0:
264,316,97163,1,0,0:0:0:0:
336,332,97251,2,0,L|440:272,1,120.000001001358,8|0,0:0|0:0,0:0:0:0:
296,64,97428,5,2,0:0:0:0:
252,121,97516,1,0,0:0:0:0:
293,180,97605,1,0,0:0:0:0:
362,159,97693,1,0,0:0:0:0:
364,87,97781,2,0,P|432:120|432:176,1,120.000001001358
328,360,97957,5,10,0:0:0:0:
292,296,98046,1,0,0:0:0:0:
260,232,98134,2,0,B|224:200|224:200|168:200|176:128,1,120.000001001358
156,28,98310,6,0,B|191:60|191:60|248:60|240:132,1,120.000001001358,2|0,0:0|0:0,0:0:0:0:
92,304,98487,5,0,0:0:0:0:
164,288,98575,1,0,0:0:0:0:
212,340,98663,2,0,P|276:364|336:332,1,120.000001001358,8|0,0:0|0:0,0:0:0:0:
384,116,98840,5,2,0:0:0:0:
404,184,98928,2,0,P|340:208|272:172,1,120.000001001358
76,216,99104,5,0,0:0:0:0:
44,148,99193,1,0,0:0:0:0:
88,92,99281,1,0,0:0:0:0:
160,92,99369,2,0,P|220:120|288:64,1,120.000001001358,10|0,0:0|0:0,0:0:0:0:
456,60,99546,6,0,P|404:32|349:51,1,120.000001001358
388,308,99722,5,2,0:0:0:0:
344,252,99810,1,0,0:0:0:0:
360,184,99898,2,0,L|216:220,1,120.000001001358
144,64,100075,6,0,L|0:100,1,120.000001001358,8|0,0:0|0:0,0:0:0:0:
96,320,100251,5,2,0:0:0:0:
164,296,100340,1,0,0:0:0:0:
232,272,100428,2,0,P|292:296|284:352,1,120.000001001358
96,188,100604,6,0,P|36:164|44:108,1,120.000001001358
216,48,100781,5,10,0:0:0:0:
252,112,100869,1,0,0:0:0:0:
324,116,100957,2,0,L|428:180,1,120.000001001358
256,352,101134,5,2,0:0:0:0:
224,288,101222,1,0,0:0:0:0:
160,260,101310,1,0,0:0:0:0:
100,224,101398,1,0,0:0:0:0:
76,156,101487,2,0,P|100:96|148:64,1,120.000001001358,8|0,0:0|0:0,0:0:0:0:
312,56,101663,5,2,0:0:0:0:
340,124,101751,2,0,L|404:244,1,120.000001001358
192,136,101928,5,0,0:0:0:0:
240,188,102016,1,0,0:0:0:0:
292,236,102104,1,0,0:0:0:0:
344,284,102193,2,0,P|316:364|256:352,1,120.000001001358,10|0,0:0|0:0,0:0:0:0:
76,232,102369,6,0,L|148:116,1,120.000001001358
356,48,102546,5,6,0:0:0:0:
296,88,102634,1,0,0:0:0:0:
304,160,102722,2,0,P|384:176|416:108,1,120.000001001358
396,356,102898,6,0,L|288:272,1,120.000001001358,8|0,0:0|0:0,0:0:0:0:
40,288,103075,5,2,0:0:0:0:
112,304,103163,2,0,P|92:216|52:200,1,120.000001001358
256,60,103340,5,0,0:0:0:0:
324,40,103428,1,0,0:0:0:0:
392,56,103516,1,0,0:0:0:0:
440,108,103604,2,0,P|464:208|424:260,1,120.000001001358,10|0,0:0|0:0,0:0:0:0:
260,344,103781,5,0,0:0:0:0:
224,280,103869,1,0,0:0:0:0:
232,208,103957,1,2,0:0:0:0:
288,160,104046,1,0,0:0:0:0:
360,152,104134,2,0,P|444:172|480:212,1,120.000001001358
260,344,104310,6,0,P|176:324|140:284,1,120.000001001358,8|0,0:0|0:0,0:0:0:0:
100,44,104487,5,2,0:0:0:0:
124,112,104575,1,0,0:0:0:0:
152,180,104663,2,0,P|228:176|260:120,1,120.000001001358
388,192,104840,6,0,P|430:128|405:69,1,120.000001001358
180,348,105016,5,10,0:0:0:0:
252,336,105104,1,0,0:0:0:0:
324,328,105193,2,0,P|344:256|284:200,1,120.000001001358
416,80,105369,5,2,0:0:0:0:
364,128,105457,1,0,0:0:0:0:
292,132,105546,1,0,0:0:0:0:
232,92,105634,1,0,0:0:0:0:
216,24,105722,2,0,L|96:72,1,120.000001001358,8|0,0:0|0:0,0:0:0:0:
104,320,105898,5,2,0:0:0:0:
72,256,105987,1,0,0:0:0:0:
96,188,106075,2,0,L|207:143,1,120.000001001358
252,316,106251,6,0,L|363:271,1,120.000001001358
408,64,106428,5,10,0:0:0:0:
440,128,106517,1,0,0:0:0:0:
416,195,106605,2,0,L|304:240,1,120.000001001358
96,344,106781,5,2,0:0:0:0:
76,276,106869,1,0,0:0:0:0:
108,212,106957,1,0,0:0:0:0:
176,184,107046,1,0,0:0:0:0:
248,200,107134,2,0,P|324:196|336:128,1,120.000001001358,8|0,0:0|0:0,0:0:0:0:
284,32,107310,5,2,0:0:0:0:
288,104,107398,2,0,P|216:104|168:52,1,120.000001001358
248,328,107575,5,0,0:0:0:0:
176,316,107663,1,0,0:0:0:0:
132,260,107751,1,0,0:0:0:0:
124,188,107840,2,0,L|256:120,1,120.000001001358,10|0,0:0|0:0,0:0:0:0:
436,272,108016,6,0,P|388:216|316:240,1,120.000001001358
272,304,108193,6,0,P|198:329|121:312,1,159.999995231628,2|0,0:0|0:0,0:0:0:0:
240,82,108369,2,0,P|314:57|392:72,1,159.999995231628,2|0,0:0|0:0,0:0:0:0:
323,281,108546,2,0,P|273:341|198:365,1,159.999995231628,2|0,0:0|0:0,0:0:0:0:
187,106,108722,2,0,P|237:46|313:22,1,159.999995231628,2|0,0:0|0:0,0:0:0:0:
359,236,108898,2,0,P|343:312|291:371,1,159.999995231628,2|0,0:0|0:0,0:0:0:0:
151,151,109074,2,0,P|167:74|220:16,1,159.999995231628,2|0,0:0|0:0,0:0:0:0:
368,178,109251,2,0,P|393:251|374:328,1,159.999995231628,2|0,0:0|0:0,0:0:0:0:
144,209,109427,2,0,P|118:134|136:58,1,159.999995231628,2|0,0:0|0:0,0:0:0:0:
355,138,109604,2,4,P|404:199|415:277,1,159.999995231628,4|0,0:0|0:0,0:0:0:0:
158,244,109780,2,0,P|109:183|96:105,1,159.999995231628,2|0,0:0|0:0,0:0:0:0:
316,97,109957,2,0,P|390:125|438:187,1,159.999995231628,2|0,0:0|0:0,0:0:0:0:
198,286,110133,2,0,P|124:258|76:196,1,159.999995231628,2|0,0:0|0:0,0:0:0:0:
261,79,110309,2,0,P|339:67|412:97,1,159.999995231628,2|0,0:0|0:0,0:0:0:0:
253,304,110485,2,0,P|175:315|102:286,1,159.999995231628,2|0,0:0|0:0,0:0:0:0:
204,91,110662,2,0,P|265:42|344:33,1,159.999995231628,2|0,0:0|0:0,0:0:0:0:
310,291,110838,2,0,P|249:341|171:350,1,159.999995231628,2|0,0:0|0:0,0:0:0:0:
208,0,111016,5,4,0:0:0:0:
304,24,111104,1,0,0:0:0:0:
208,48,111193,1,0,0:0:0:0:
304,72,111281,1,0,0:0:0:0:
208,96,111369,1,0,0:0:0:0:
304,120,111457,1,0,0:0:0:0:
208,144,111546,1,0,0:0:0:0:
304,168,111634,1,0,0:0:0:0:
208,192,111722,1,4,0:0:0:0:
304,216,111810,1,0,0:0:0:0:
208,240,111898,1,0,0:0:0:0:
304,264,111986,1,0,0:0:0:0:
208,288,112075,1,0,0:0:0:0:
304,312,112163,1,0,0:0:0:0:
208,336,112251,1,0,0:0:0:0:
304,360,112339,1,0,0:0:0:0:
208,384,112428,5,4,0:0:0:0:
304,360,112516,1,0,0:0:0:0:
208,336,112605,1,0,0:0:0:0:
304,312,112693,1,0,0:0:0:0:
208,288,112781,1,4,0:0:0:0:
304,264,112869,1,0,0:0:0:0:
208,240,112958,1,0,0:0:0:0:
304,216,113046,1,0,0:0:0:0:
208,192,113134,1,4,0:0:0:0:
304,168,113222,1,0,0:0:0:0:
208,144,113310,1,0,0:0:0:0:
304,120,113398,1,0,0:0:0:0:
208,96,113487,1,4,0:0:0:0:
304,72,113575,1,0,0:0:0:0:
208,48,113663,1,0,0:0:0:0:
304,24,113751,1,0,0:0:0:0:
208,0,113840,1,4,0:0:0:0:
256,192,113928,12,0,114193,0:0:0:0:
256,192,114193,12,0,114369,0:0:0:0:
256,192,114369,12,0,114546,0:0:0:0:
256,192,114546,12,0,114898,0:0:0:0:
256,192,114898,12,0,115075,0:0:0:0:
256,192,115075,12,0,115251,0:0:0:0:
256,192,115251,12,0,115604,0:0:0:0:
256,192,115604,12,0,115781,0:0:0:0:
256,192,115781,12,4,115957,0:0:0:0:
256,192,115957,12,4,116310,0:0:0:0:
256,192,116310,12,0,116663,0:0:0:0:
256,192,116663,12,4,117016,0:0:0:0:
256,192,117016,12,4,117193,0:0:0:0:
256,192,117193,12,4,117369,0:0:0:0:
256,192,117369,12,4,117722,0:0:0:0:
256,192,117722,12,4,117898,0:0:0:0:
256,192,117898,12,4,118075,0:0:0:0:
256,192,118075,12,4,118428,0:0:0:0:
256,192,118428,12,4,118604,0:0:0:0:
256,192,118604,12,4,118781,0:0:0:0:
