osu file format v14

[General]
AudioFilename: audio.mp3
AudioLeadIn: 0
PreviewTime: 46075
Countdown: 1
SampleSet: None
StackLeniency: 0.7
Mode: 0
LetterboxInBreaks: 0
WidescreenStoryboard: 1

[Editor]
DistanceSpacing: 0.6
BeatDivisor: 4
GridSize: 8
TimelineZoom: 2.999999

[Metadata]
Title:Der Wald (Kors K Remix)
TitleUnicode:Der Wald (Kors K Remix)
Artist:Erehamonika remixed by kors k
ArtistUnicode:エレハモニカ remixed by kors k
Creator:Rucker
Version:Maze
Source:pop'n music 20 fantasia
Tags:aspire SnowNiNo_ xDololow what koalazy deyo
BeatmapID:1529759
BeatmapSetID:537048

[Difficulty]
HPDrainRate:0
CircleSize:4
OverallDifficulty:0
ApproachRate:9.4
SliderMultiplier:2.99999990463257
SliderTickRate:2

[Events]
//Background and Video events
0,0,"purple-sky-wallpaper-11.jpg",0,0
//Break Periods
//Storyboard Layer 0 (Background)
//Storyboard Layer 1 (Fail)
//Storyboard Layer 2 (Pass)
//Storyboard Layer 3 (Foreground)
//Storyboard Sound Samples

[TimingPoints]
898,705.882352941176,3,2,0,100,1,0
898,-200,3,2,0,100,0,0
12193,-200,3,2,0,100,0,0
16428,-200,3,2,0,60,0,0
16604,-200,3,2,0,40,0,0
16781,-200,3,2,0,20,0,0
17840,-200,3,2,0,60,0,0
18193,-200,3,2,0,70,0,0
18546,-200,3,2,0,80,0,0
18898,-200,3,2,0,90,0,0
19251,-200,3,3,0,60,0,0
19604,-200,3,3,0,70,0,0
19957,-200,3,3,0,80,0,0
20310,-200,3,3,0,90,0,0
20663,-200,3,3,0,100,0,0
21016,-200,3,3,0,80,0,0
21369,-200,3,3,0,50,0,0
21722,-200,3,3,0,30,0,0
22075,-166.666666666667,3,2,0,60,0,0
22428,-142.857142857143,3,2,0,70,0,0
22781,-125,3,2,0,80,0,0
23134,-111.111111111111,3,2,0,90,0,0
23486,352.941176470588,3,2,0,100,1,0
23487,-100,3,1,0,100,0,0
26310,-100,3,3,0,100,0,0
29134,-100,3,1,0,100,0,0
31957,-100,3,3,0,100,0,0
34781,-80,3,1,0,100,0,0
43251,-66.6666666666667,3,1,0,100,0,0
46053,-66.6666666666667,3,1,0,5,0,0
46075,-66.6666666666667,3,1,0,100,0,0
51722,-66.6666666666667,3,3,0,100,0,0
57369,-66.6666666666667,3,1,0,100,0,0
63016,-58.8235294117647,3,3,0,100,0,0
66193,-62.5,3,3,0,100,0,0
66546,-58.8235294117647,3,3,0,100,0,0
66898,-55.5555555555556,3,3,0,100,0,0
67251,-52.6315789473684,3,1,0,100,0,0
67251,-52.6315789473684,3,3,0,100,0,0
67603,-200,3,1,0,100,0,0
82582,-50,3,3,0,5,0,0
82604,-50,3,3,0,100,0,0
82759,-50,3,3,0,5,0,0
82781,-50,3,1,0,100,0,0
84898,-50,3,3,0,100,0,0
85251,-25,3,3,0,100,0,0
86309,-50,3,3,0,100,0,0
86662,-200,3,3,0,100,0,0
88427,-50,3,1,0,100,0,0
89133,-153.846153846154,3,1,0,100,0,0
89838,-100,3,3,0,100,0,0
90544,-50,3,3,0,100,0,0
91251,-66.6666666666667,3,1,0,100,0,0
108193,-50,3,1,0,100,0,0
108281,-50,3,3,0,100,0,0
109604,-50,3,1,0,100,0,0
109693,-50,3,3,0,100,0,0
111016,-50,3,1,0,100,0,0
114897,-200,3,1,0,100,0,0
115603,-66.6666666666667,3,1,0,100,0,0
116309,-100,3,1,0,100,0,0
117015,-50,3,1,0,100,0,0
118427,-100,3,1,0,100,0,0

[HitObjects]
64,200,898,6,0,B|64:272|64:272|128:272|128:272|128:320|128:320|192:320|192:320|192:128|192:128|264:128|264:128|264:192|264:192|320:192|320:192|320:160|320:160|376:160|376:160|376:64|376:64|432:64|432:64|432:264|432:264|320:264,1,1162.49996304512
328,344,6545,2,0,B|248:344|248:344|248:264|248:264|192:264|192:264|192:216|192:216|144:216|144:216|144:112|144:112|192:112|192:112|192:160|192:160|280:160|280:160|280:56|280:56|64:56|64:56|64:240|64:240|96:240|96:240|96:296,1,1162.49996304512
144,344,12192,2,0,B|208:344|208:344|208:288|208:288|264:288|264:288|264:328|264:328|360:328|360:328|360:224|360:224|216:224|216:224|216:120|216:120|272:120|272:120|272:160|272:160|432:160|432:160|432:248|432:248|512:248|512:248|512:160,1,1162.49996304512
480,80,17839,2,0,B|344:80|344:80|344:24|344:24|120:24|120:24|120:72|120:72|40:72|40:72|40:160|40:160|160:160|160:160|160:112|160:112|96:112|96:112|96:240|96:240|136:240|136:240|136:296|136:296|192:296,1,1124.99996423721
448,144,23486,6,0,B|336:144|336:144|336:232|336:232|512:232|512:232|512:288|512:288|440:288|440:288|440:360|440:360|272:360|272:360|272:176|272:176|168:176|168:176|168:256|168:256|64:256|64:256|64:48|64:48|200:48|200:48|200:152,1,1649.99994754791
328,232,25603,2,0,L|480:232,1,149.999995231629
384,72,25956,2,0,L|224:72,1,149.999995231629
88,160,26309,6,0,B|88:320|88:320|8:320|8:320|8:240|8:240|224:240|224:240|224:360|224:360|312:360|312:360|312:288|312:288|160:288|160:288|160:136|160:136|288:136|288:136|288:208|288:208|384:208|384:208|384:312|384:312|480:312|480:312|480:224,1,1649.99994754791
416,112,28427,2,0,B|416:32|416:32|328:32,1,149.999995231629
288,136,28780,2,0,L|288:296,1,149.999995231629
168,352,29133,6,0,B|168:216|168:216|408:216|408:216|408:320|408:320|288:320|288:320|288:128|288:128|96:128|96:128|96:272|96:272|64:272|64:272|64:328|64:328|16:328|16:328|16:32|16:32|136:32|136:32|136:56|136:56|192:56|192:56|192:16|192:16|304:16|304:16|304:64|304:64|224:64|224:64|224:152|224:152|416:152,1,2249.99992847443
480,32,31956,2,0,L|480:200,1,149.999995231629
408,320,32309,2,0,L|224:320,1,149.999995231629
144,184,32662,2,0,B|144:96|144:96|56:96,2,149.999995231629
280,56,33191,2,0,B|280:96|280:96|360:96|360:96|360:0,2,149.999995231629
480,192,33721,2,0,L|480:360,1,149.999995231629
480,192,34074,2,0,L|480:368,1,149.999995231629
480,192,34427,2,0,L|480:376,1,149.999995231629
392,328,34780,6,0,B|224:327|224:327|224:280|224:280|392:280|392:280|392:224|392:224|224:224|224:224|224:168|224:168|400:168|400:168|400:104|400:104|216:104|216:104|216:48|216:48|336:48|336:48|336:247|336:247|136:247|136:247|136:96|136:96|56:96|56:96|56:167|56:167|96:168|96:168|95:320|95:320|-16:320,1,2249.99992847443
16,176,37603,2,0,B|16:64|16:64|168:64|168:64|168:8|168:8|104:8|104:8|104:136|104:136|288:136|288:136|288:208|288:208|232:208|232:208|232:64|232:64|384:64|384:64|384:288,1,1312.49995827675
320,352,39015,2,0,B|200:352|200:352|200:248|200:248|296:248|296:248|296:288|296:288|384:288|384:288|384:184|384:184|448:184|448:184|448:80|448:80|328:80|328:80|328:144|328:144|264:144|264:144|264:32|264:32|144:32|144:32|144:104|144:104|184:104,1,1312.49995827675
88,144,40427,6,0,B|88:40|88:40|88:152,1,187.499994039536
200,144,40780,2,0,B|200:40|200:40|200:152,1,187.499994039536
312,144,41133,2,0,B|312:40|312:40|312:152,1,187.499994039536
424,144,41486,2,0,B|424:40|424:40|424:152,1,187.499994039536
424,240,41838,6,0,B|424:344|424:344|424:232,1,187.499994039536
312,240,42191,2,0,B|312:344|312:344|312:232,1,187.499994039536
200,240,42544,2,0,B|200:344|200:344|200:232,1,187.499994039536
88,240,42897,2,0,B|88:344|88:344|88:232,1,187.499994039536
256,192,43250,6,0,B|256:144|256:144|256:224,1,93.7499970197678
256,192,43427,2,0,B|289:158|289:158|233:214,1,93.7499970197678
256,192,43603,2,0,B|304:191|304:191|224:192,1,93.7499970197678
256,192,43780,2,0,B|289:225|289:225|233:169,1,93.7499970197678
256,192,43956,2,0,B|256:239|256:239|256:160,1,93.7499970197678
256,192,44133,2,0,B|222:225|222:225|278:169,1,93.7499970197678
256,192,44309,2,0,B|208:192|208:192|288:192,1,93.7499970197678
256,192,44485,2,0,B|222:158|222:158|278:214,1,93.7499970197678
256,168,44662,6,0,B|254:158|254:158|286:190|286:190|254:222|254:222|222:190|222:190|254:158|254:158|286:190|286:190|254:222|254:222|222:190|222:190|254:158|254:158|286:190|286:190|254:222|254:222|222:190|222:190|254:158|254:158|286:190|286:190|254:222|254:222|222:190|222:190|254:158|254:158|286:190|286:190|254:222|254:222|222:190|222:190|222:190|222:190|254:158|254:158|286:190|286:190|254:222|254:222|222:190|222:190|254:158|254:158|286:190|286:190|254:222|254:222|222:190|222:190|254:158|254:158|286:190|286:190|254:222|254:222|254:222|254:222|222:190|222:190|254:158|254:158|286:190|286:190|254:222|254:222|222:190|222:190|254:158|254:158|286:190|286:190,1,1575.00001001358
256,192,46074,6,0,B|200:192|200:192|200:24|200:24|112:24|112:24|112:96|112:96|320:96|320:96|320:32|320:32|368:32|368:32|368:144|368:144|496:144|496:144|496:208|496:208|416:208|416:208|416:368|416:368|352:368|352:368|352:264|352:264|480:264|480:264|480:328|480:328|256:328|256:328|256:256|256:256|160:256|160:256|160:296|160:296|208:296|208:296|208:360|208:360|80:360|80:360|80:256|80:256|32:256|32:256|32:168,1,2475.00001573563
112,96,48191,2,0,B|112:248|112:248|48:248|48:248|48:160|48:160|176:160|176:160|176:16|176:16|32:16|32:16|32:96|32:96|272:96|272:96|272:216|272:216|200:216|200:216|200:352|200:352|408:352|408:352|408:288|408:288|312:288|312:288|312:216|312:216|360:216|360:216|360:120|360:120|432:120|432:120|432:200|432:200|496:200|496:200|496:40|496:40|280:40,1,2475.00001573563
240,152,50309,6,0,B|128:152|128:152|128:0,1,225.000001430512
16,280,50662,2,0,L|264:280,1,225.000001430512
456,152,51015,2,0,L|200:152,1,225.000001430512
352,88,51368,2,0,B|352:248|352:248|432:248,1,225.000001430512
256,352,51721,2,0,B|208:352|208:352|208:288|208:288|288:288|288:288|288:232|288:232|144:232|144:232|144:336|144:336|-8:336|-8:336|-8:256|-8:256|64:256|64:256|64:56|64:56|0:56|0:56|0:128|0:128|208:128|208:128|208:192|208:192|144:192|144:192|144:40|144:40|296:40|296:40|296:104|296:104|336:104|336:104|336:160|336:160|272:160|272:160|272:192|272:192|408:192|408:192|408:256|408:256|352:256|352:256|352:352|352:352|488:352|488:352|488:32|488:32|528:32|528:32|528:80|528:80|384:80|384:80|384:0,1,3150.00002002716
184,216,54544,2,0,B|144:216|144:216|144:160|144:160|240:160|240:160|240:280|240:280|72:280|72:280|72:88|72:88|312:88|312:88|312:208|312:208|376:208|376:208|376:120|376:120|464:120|464:120|464:280|464:280|320:280|320:280|320:360|320:360|-8:360|-8:360|-8:8|-8:8|416:8|416:8|416:360|416:360|544:360,1,3150.00002002716
152,192,57368,2,0,B|152:72|152:72|72:72|72:72|72:152|72:152|224:152|224:152|224:352|224:352|64:352|64:352|64:192|64:192|464:192|464:192|464:16|464:16|304:16|304:16|304:256|304:256|456:256|456:256|456:344|456:344|368:344|368:344|368:88,1,2475.00001573563
232,40,59485,2,0,B|232:184|232:184|320:184,1,225.000001430512
112,248,59838,2,0,L|112:16,1,225.000001430512
336,112,60191,6,0,B|232:112|232:112|232:144|232:144|472:144|472:144|472:192|472:192|384:192|384:192|384:360|384:360|472:360|472:360|472:272|472:272|296:272|296:272|296:216|296:216|232:216|232:216|232:368|232:368|72:368|72:368|72:296|72:296|160:296|160:296|160:240|160:240|88:240|88:240|88:192|88:192|176:192|176:192|176:128|176:128|16:128|16:128|16:24|16:24|112:24|112:24|112:80|112:80|48:80|48:80|48:48|48:48|240:48|240:48|240:16|240:16|312:16|312:16|312:56|312:56|392:56|392:56|392:80|392:80|464:80|464:80|464:24,1,2925.00001859665
256,224,62662,2,0,B|256:344|256:344|256:208,1,225.000001430512
80,128,63015,2,0,B|496:128|496:128|432:224|432:224|24:224|24:224|-24:312|-24:312|488:312|488:312|560:200|560:200|80:200|80:200|32:296|32:296|456:296|456:296|576:56|576:56|32:56|32:56|-80:264|-80:264|264:264|264:264|335:89|335:89|169:91|169:91|144:168|144:168|392:168|392:168|416:104|416:104|240:104|240:104|224:152|224:152|336:152|336:152|352:112|352:112|144:112,1,5400.00003433228
256,336,67603,2,0,L|256:168,2,149.999995231629
48,56,68662,6,0,B|264:56|264:56|232:128|232:128|56:128|56:128|16:224|16:224|280:224|280:224|368:24|368:24,1,1049.9999666214
488,64,71485,6,0,B|488:296|488:296|400:336|400:336|400:216|400:216|488:168|488:168|488:296|488:296|400:336|400:336|328:336|328:336|328:248|328:248|256:288|256:288|256:336|256:336,1,1049.9999666214
96,336,74309,2,0,B|24:336|24:224|104:224|104:224|192:224|192:112|104:112|104:112|24:112|24:8|104:8|104:8|104:224|104:224|176:232|176:336|96:336|96:336|88:336|88:336|104:336|104:336|88:336|88:336|104:336|104:336|88:336|88:336|104:336|104:336|88:336|88:336|104:336,1,1049.9999666214
256,328,77133,6,0,B|360:328|360:328|336:328|336:328|368:328,1,149.999995231629
480,240,77838,2,0,B|376:240|376:240|400:240|400:240|368:240,1,149.999995231629
272,152,78544,2,0,L|208:152,3,37.4999988079071
272,152,78897,2,0,L|272:72,1,74.9999976158143
376,56,79250,2,0,B|392:56|392:56|416:72|416:72|440:96|440:96|448:152|448:152|448:152|448:152|448:120|448:120|440:176|440:176|416:200|416:200|384:216|384:216|352:216,1,299.999990463257
377,216,79956,6,0,B|432:304|432:304|376:376|376:376|288:376|288:376|328:304|328:304|288:224|288:224|200:224|200:224|232:304|232:304|200:376|200:376|104:376|104:376|136:304|136:304|88:224|88:224|0:224,1,1049.9999666214
176,160,82780,6,0,B|176:90|176:90|336:90|336:90|336:178,1,299.999990463257
336,160,83133,2,0,B|336:90|336:90|176:90|176:90|176:178,1,299.999990463257
336,160,83485,2,0,B|336:90|336:90|176:90|176:90|176:178,1,299.999990463257
176,160,83838,2,0,B|176:90|176:90|336:90|336:90|336:178,1,299.999990463257
176,192,84191,6,0,B|208:192|208:192|192:192|192:192|224:192|224:192|200:192|200:192|240:192|240:192|216:192|216:192|256:192|256:192|232:192|232:192|272:192|272:192|248:192|248:192|288:192|288:192|264:192|264:192|304:192|304:192|280:192|280:192|320:192,1,449.999985694885
344,192,84544,6,0,B|312:192|312:192|328:192|328:192|296:192|296:192|320:192|320:192|280:192|280:192|304:192|304:192|264:192|264:192|288:192|288:192|248:192|248:192|272:192|272:192|256:192|256:192|216:192|216:192|240:192|240:192|104:192,1,449.999985694885
112,192,84897,6,0,B|144:192|144:192|136:192|136:192|176:192|176:192|152:192|152:192|192:192|192:192|168:192|168:192|208:192|208:192|184:192|184:192|200:192|200:192|240:192|240:192|216:192|216:192|384:192,1,449.999985694885
400,192,85250,6,0,B|336:192|336:192|360:192|360:192|344:192|344:192|328:192|328:192|312:192|312:192|272:192|272:192|296:192|296:192|16:192,1,449.999985694885
0,192,85603,6,0,B|112:192|112:192|64:192|64:192|192:192|192:192|152:192|152:192|448:192|448:192|432:192|432:192|456:192|456:192|424:192|424:192|440:192|440:192|432:192|432:192|448:192|448:192|432:192|432:192|464:192|464:192|456:192|456:192|448:192|448:192|456:192|456:192|512:192|512:192|472:192|472:192|440:192|440:192|496:192|496:192|256:192|256:192|0:192|0:192|256:192|256:192|256:96,1,1799.99994277954
255,93,86309,6,0,P|255:-59|259:93,1,449.999985694885
256,16,86662,2,0,L|256:64,3,37.4999988079071
368,40,87015,6,0,L|432:40,2,49.9999984105428
464,112,87368,2,0,L|392:112,2,49.9999984105428
368,184,87721,2,0,L|432:184,2,49.9999984105428
464,256,88074,2,0,L|392:256,2,49.9999984105428
256,344,88427,6,0,L|256:24,3,299.999990463257
256,44,89133,6,0,L|256:376,1,292.499977312089
256,344,89838,6,0,L|256:32,1,299.999990463257
256,344,90544,6,0,L|256:24,2,299.999990463257
8,56,91250,6,0,B|8:304|8:304|160:304|160:304|160:176|160:176|64:176|64:176|64:272|64:272|360:272|360:272|360:368|360:368|272:368|272:368|272:120|272:120|200:120|200:120|200:8|200:8|368:8|368:8|368:80|368:80|72:80|72:80|72:24|72:24|456:24|456:24|456:216|456:216|544:216|544:216|544:128|544:128|336:128|336:128|336:208|336:208|192:208|192:208|192:376|192:376|104:376|104:376|104:126|104:126|216:128|216:128|216:312|216:312|448:312|448:312|448:264|448:264|400:264|400:264|400:368|400:368|608:368|608:368|608:280,1,4799.99984741211
424,96,94780,2,0,B|272:96|272:96|272:192|272:192|160:192|160:192|160:16|160:16|344:16,1,675.000004291535
392,224,95485,2,0,B|392:376|392:376|472:376|472:376|472:288|472:288|256:288|256:288|256:360|256:360|168:360,1,675.000004291535
40,240,96191,2,0,B|40:136|40:136|168:136,1,225.000001430512
232,256,96544,2,0,B|232:336|232:336|328:336|328:336|328:248,1,225.000001430512
480,32,96897,2,0,B|16:32|16:32|16:368|16:368|160:368|160:368|160:280|160:280|88:280|88:280|88:96|88:96|464:96|464:96|464:240|464:240|528:240|528:240|528:152|528:152|344:152|344:152|344:264|344:264|400:264|400:264|400:320|400:320|520:320|520:320|520:384|520:384|216:384|216:384|216:304|216:304|320:304|320:304|320:384|320:384|224:384|224:384|224:248|224:248|136:248|136:248|136:152|136:152|288:152|288:152|288:48|288:48|48:48|48:48|48:208|48:208|400:208|400:208|400:80|400:80|192:80|192:80|192:208|192:208|496:208|496:208|496:344|496:344|592:344|592:344|592:232|592:232|640:232|640:232|640:192|640:192|592:192|592:192|592:80,1,5850.0000371933
64,320,101838,2,0,B|64:232|64:232|144:232|144:232|144:160|144:160|80:160|80:160|80:88|80:88|232:88|232:88|232:272|232:272|168:272,1,675.000004291535
376,344,102544,2,0,B|304:344|304:344|304:248|304:248|424:248|424:248|424:320|424:320|504:320|504:320|504:176|504:176|360:176|360:176|360:112|360:112|512:112|512:112|512:24|512:24|304:24|304:24|304:128|304:128|256:128|256:128|256:16|256:16|208:16|208:16|208:160|208:160|312:160|312:160|312:200|312:200|256:200|256:200|256:376|256:376|8:376|8:376|8:248|8:248|184:248|184:248|184:344|184:344|136:344|136:344|136:8|136:8|64:8|64:8|64:80|64:80|192:80|192:80|192:200|192:200|88:200|88:200|88:40|88:40|24:40|24:40|24:152|24:152|448:152|448:152|448:296|448:296|72:288|72:288|72:192|72:192|-56:192|-56:192|-56:80|-56:80|-88:80|-88:80|-88:288,1,5400.00003433228
256,24,107133,2,0,B|256:136|256:136|432:136|432:136|432:48|432:48|336:48|336:48|336:224|336:224|480:224|480:224|480:360,1,900.000005722047
192,368,108191,6,0,B|192:280|192:280|104:280|104:280|104:352|104:352|32:352|32:352|32:224|32:224|-16:224|-16:224|-16:160|-16:160|104:160|104:160|104:232|104:232|208:232|208:232|208:104|208:104|304:104|304:104|304:56|304:56|256:56|256:56|256:288|256:288|448:288|448:288|448:344|448:344|360:344|360:344|360:224|360:224|320:224|320:224|320:168|320:168|384:168|384:168|384:16|384:16|488:16|488:16|488:80|488:80|440:80|440:80|440:144|440:144|520:144|520:144|520:208|520:208|144:208|144:208|144:16,1,3150.00002002716
56,40,111015,6,0,B|192:40|192:40|192:160|192:160|80:160|80:160|80:96|80:96|240:96|240:96|240:224|240:224|128:224|128:224|128:144|128:144|320:144|320:144|320:24|320:24|480:24|480:24|480:80|480:80|368:80|368:80|368:216|368:216|448:216|448:216|448:144|448:144|544:144|544:144|544:280|544:280|472:280|472:280|472:376|472:376|544:376|544:376|544:336|544:336|400:336|400:336|400:280|400:280|320:280|320:280|320:208|320:208|288:208|288:208|288:320|288:320|352:320|352:320|352:376|352:376|88:376|88:376|88:272|88:272|144:272|144:272|144:344|144:344|224:344|224:344|224:312|224:312|48:312|48:312|48:208|48:208|-48:208|-48:208|-48:272|-48:272|8:272|8:272|8:120|8:120|-56:120|-56:120|-56:160|-56:160|-24:160|-24:160|-24:56|-24:56|16:56|16:56|16:352,1,4799.99984741211
256,48,114191,6,0,L|256:360,2,299.999990463257
256,48,114897,6,0,L|256:136,2,74.9999976158143
256,48,115603,6,0,L|256:280,2,225.000001430512
256,48,116309,6,0,L|256:360,1,299.999990463257
256,48,117015,6,0,L|256:360,2,299.999990463257
256,48,117721,6,0,L|256:360,2,299.999990463257
256,48,118427,6,0,L|256:232,2,149.999995231629
