osu file format v14

[General]
AudioFilename: audio.mp3
AudioLeadIn: 0
PreviewTime: 46075
Countdown: 0
SampleSet: None
StackLeniency: 0
Mode: 0
LetterboxInBreaks: 0
WidescreenStoryboard: 1

[Editor]
Bookmarks: 23487,34781,56663,57369,67251,79957,89840,108193,111016
DistanceSpacing: 1
BeatDivisor: 4
GridSize: 4
TimelineZoom: 1.999999

[Metadata]
Title:Der Wald (Kors K Remix)
TitleUnicode:Der Wald (Kors K Remix)
Artist:Erehamonika remixed by kors k
ArtistUnicode:エレハモニカ remixed by kors k
Creator:Rucker
Version:Koa%wer
Source:pop'n music 20 fantasia
Tags:aspire SnowNiNo_ xDololow what koalazy deyo
BeatmapID:1529758
BeatmapSetID:537048

[Difficulty]
HPDrainRate:4.87
CircleSize:4.26
OverallDifficulty:9
ApproachRate:9.87
SliderMultiplier:1.69999990463257
SliderTickRate:1

[Events]
//Background and Video events
0,0,"purple-sky-wallpaper-11.jpg",0,0
//Break Periods
//Storyboard Layer 0 (Background)
//Storyboard Layer 1 (Fail)
//Storyboard Layer 2 (Pass)
//Storyboard Layer 3 (Foreground)
//Storyboard Sound Samples

[TimingPoints]
899,352.941176470588,4,2,0,70,1,0
44663,-50,4,2,0,100,0,0
46075,-100,4,2,0,100,0,0
71134,-50,4,2,0,100,0,0
72193,705.882352941176,4,2,0,100,1,0
72193,-25,4,2,0,100,0,0
74310,352.941176470588,4,2,0,100,1,0
77133,-50,4,2,0,100,0,0
77486,-133.333333333333,4,2,0,100,0,0
77839,-50,4,2,0,100,0,0
78192,-133.333333333333,4,2,0,100,0,0
79251,-25,4,2,0,100,0,0
79604,-12.5,4,2,0,100,0,0
79957,-100,4,2,0,100,0,0
82427,-25,4,2,0,100,0,0
83486,-100,4,2,0,100,0,0
84545,-95.2380952380952,4,2,0,100,0,0
84898,-90.9090909090909,4,2,0,100,0,0
85251,-86.9565217391304,4,2,0,100,0,0
85604,-166.666666666667,4,2,0,100,0,0
86662,-100,4,2,0,100,0,0
89133,-1600,4,2,0,100,0,0
91251,-100,4,2,0,100,0,1
113839,-100,4,2,0,100,0,0

[Colours]
Combo1 : 255,128,192
Combo2 : 90,225,255

[HitObjects]
103,78,898,5,2,0:0:0:0:
103,78,1251,1,0,0:0:0:0:
202,70,1604,1,0,0:0:0:0:
202,70,1957,1,0,0:0:0:0:
301,62,2310,5,0,0:0:0:0:
301,62,2663,1,0,0:0:0:0:
400,54,3016,1,0,0:0:0:0:
400,54,3369,1,0,0:0:0:0:
467,299,3722,5,2,0:0:0:0:
467,299,4075,1,0,0:0:0:0:
368,291,4428,1,8,0:0:0:0:
368,291,4781,1,0,0:0:0:0:
269,283,5134,5,0,0:0:0:0:
269,283,5487,1,0,0:0:0:0:
170,275,5840,1,8,0:0:0:0:
170,275,6016,2,0,L|218:279,1,42.4999976158142
71,267,6193,2,0,L|169:275,1,84.9999952316285,8|0,0:0|0:0,0:0:0:0:
71,267,6546,5,2,0:0:0:0:
59,161,6898,1,0,0:0:0:0:
59,161,7251,1,8,0:0:0:0:
47,55,7604,1,0,0:0:0:0:
47,55,7957,5,0,0:0:0:0:
152,74,8310,1,0,0:0:0:0:
152,74,8663,1,8,0:0:0:0:
257,93,9016,1,0,0:0:0:0:
257,93,9193,1,0,0:0:0:0:
177,192,9369,5,2,0:0:0:0:
177,192,9722,1,0,0:0:0:0:
303,212,10075,1,8,0:0:0:0:
303,212,10428,1,0,0:0:0:0:
429,232,10604,1,0,0:0:0:0:
429,232,10781,5,0,0:0:0:0:
348,331,11133,1,0,0:0:0:0:
348,331,11487,1,8,0:0:0:0:
303,212,11663,2,0,L|286:166,1,42.4999976158142,8|8,0:0|0:0,0:0:0:0:
303,212,11840,1,8,0:0:0:0:
348,331,12016,1,8,0:0:0:0:
348,331,12193,5,2,0:0:0:0:
303,212,12546,1,0,0:0:0:0:
303,212,12898,1,8,0:0:0:0:
258,93,13251,1,0,0:0:0:0:
258,93,13604,5,0,0:0:0:0:
174,158,13957,1,0,0:0:0:0:
174,158,14310,1,8,0:0:0:0:
90,223,14663,1,0,0:0:0:0:
90,223,14840,1,0,0:0:0:0:
258,93,15016,5,2,0:0:0:0:
258,93,15369,1,0,0:0:0:0:
342,158,15722,1,8,0:0:0:0:
342,158,16075,1,0,0:0:0:0:
426,223,16428,5,0,0:0:0:0:
426,223,16781,1,0,0:0:0:0:
342,158,17134,1,8,0:0:0:0:
342,158,17310,2,0,L|385:192,1,42.4999976158142
426,223,17487,1,8,0:0:0:0:
426,223,17663,1,0,0:0:0:0:
342,158,17840,5,2,0:0:0:0:
342,158,18193,1,0,0:0:0:0:
256,221,18546,1,8,0:0:0:0:
256,221,18898,1,0,0:0:0:0:
170,158,19251,5,0,0:0:0:0:
170,158,19604,1,0,0:0:0:0:
256,221,19957,1,8,0:0:0:0:
256,221,20310,1,0,0:0:0:0:
428,95,20663,5,2,0:0:0:0:
428,95,21016,1,0,0:0:0:0:
256,221,21369,1,8,0:0:0:0:
256,221,21722,1,0,0:0:0:0:
84,95,22075,5,0,0:0:0:0:
84,95,22428,1,0,0:0:0:0:
256,221,22781,1,8,0:0:0:0:
256,221,23134,1,0,0:0:0:0:
256,107,23487,5,6,0:0:0:0:
256,107,23575,1,0,0:0:0:0:
256,107,23663,1,0,0:0:0:0:
256,107,23751,1,0,0:0:0:0:
314,132,23840,1,10,0:0:0:0:
314,132,23928,1,0,0:0:0:0:
314,132,24016,1,0,0:0:0:0:
314,132,24104,1,0,0:0:0:0:
339,192,24193,1,2,0:0:0:0:
339,192,24281,1,0,0:0:0:0:
339,192,24369,1,8,0:0:0:0:
339,192,24457,1,0,0:0:0:0:
314,250,24546,1,10,0:0:0:0:
314,250,24634,1,0,0:0:0:0:
314,250,24722,1,0,0:0:0:0:
314,250,24810,1,0,0:0:0:0:
256,275,24898,5,2,0:0:0:0:
256,275,24986,1,0,0:0:0:0:
256,275,25074,1,0,0:0:0:0:
256,275,25162,1,0,0:0:0:0:
196,250,25251,1,8,0:0:0:0:
196,250,25339,1,0,0:0:0:0:
196,250,25427,1,0,0:0:0:0:
196,250,25515,1,0,0:0:0:0:
171,191,25605,1,2,0:0:0:0:
171,191,25693,1,0,0:0:0:0:
171,191,25781,1,8,0:0:0:0:
171,191,25869,1,0,0:0:0:0:
196,132,25957,1,8,0:0:0:0:
196,132,26045,1,0,0:0:0:0:
196,132,26133,1,0,0:0:0:0:
196,132,26221,1,0,0:0:0:0:
256,43,26310,6,0,L|256:0,1,42.4999976158143,2|0,0:0|0:0,0:0:0:0:
256,107,26487,1,0,0:0:0:0:
256,107,26575,1,0,0:0:0:0:
311,75,26663,2,0,L|348:53,1,42.4999976158143,10|0,0:0|0:0,0:0:0:0:
256,107,26840,1,0,0:0:0:0:
256,107,26928,1,0,0:0:0:0:
311,139,27016,2,0,L|348:160,1,42.4999976158143,2|0,0:0|0:0,0:0:0:0:
256,107,27193,1,8,0:0:0:0:
256,107,27281,1,0,0:0:0:0:
256,171,27369,2,0,L|256:214,1,42.4999976158143,10|0,0:0|0:0,0:0:0:0:
256,107,27546,1,0,0:0:0:0:
256,107,27634,1,0,0:0:0:0:
256,341,27722,6,0,L|256:384,1,42.4999976158143,2|0,0:0|0:0,0:0:0:0:
256,277,27899,1,0,0:0:0:0:
256,277,27987,1,0,0:0:0:0:
201,309,28075,2,0,L|163:330,1,42.4999976158143,10|0,0:0|0:0,0:0:0:0:
256,277,28252,1,0,0:0:0:0:
256,277,28340,1,0,0:0:0:0:
201,245,28428,2,0,L|163:223,1,42.4999976158143,2|0,0:0|0:0,0:0:0:0:
256,277,28605,1,8,0:0:0:0:
256,277,28693,1,0,0:0:0:0:
256,213,28781,2,0,L|256:170,1,42.4999976158143,8|0,0:0|0:0,0:0:0:0:
256,277,28957,1,0,0:0:0:0:
256,277,29046,1,0,0:0:0:0:
336,143,29134,5,2,0:0:0:0:
336,143,29222,1,0,0:0:0:0:
336,143,29310,1,0,0:0:0:0:
336,143,29398,1,0,0:0:0:0:
288,100,29487,1,10,0:0:0:0:
288,100,29575,1,0,0:0:0:0:
288,100,29663,1,0,0:0:0:0:
288,100,29751,1,0,0:0:0:0:
224,100,29840,1,2,0:0:0:0:
224,100,29928,1,0,0:0:0:0:
224,100,30016,1,8,0:0:0:0:
224,100,30104,1,0,0:0:0:0:
176,143,30193,1,10,0:0:0:0:
176,143,30281,1,0,0:0:0:0:
176,143,30369,1,0,0:0:0:0:
176,143,30457,1,0,0:0:0:0:
176,241,30546,5,2,0:0:0:0:
176,241,30634,1,0,0:0:0:0:
176,241,30722,1,0,0:0:0:0:
176,241,30810,1,0,0:0:0:0:
224,284,30899,1,10,0:0:0:0:
224,284,30987,1,0,0:0:0:0:
224,284,31075,1,0,0:0:0:0:
224,284,31163,1,0,0:0:0:0:
288,284,31252,1,2,0:0:0:0:
288,284,31340,1,0,0:0:0:0:
288,284,31428,1,8,0:0:0:0:
288,284,31516,1,0,0:0:0:0:
336,241,31605,1,10,0:0:0:0:
336,241,31693,1,0,0:0:0:0:
336,241,31781,1,0,0:0:0:0:
336,241,31869,1,0,0:0:0:0:
405,192,31957,6,0,L|460:192,1,42.4999976158143,2|0,0:0|0:0,0:0:0:0:
291,192,32134,2,0,L|346:192,1,42.4999976158143
405,192,32310,2,0,L|460:192,1,42.4999976158143,8|0,0:0|0:0,0:0:0:0:
178,192,32487,2,0,L|221:192,1,42.4999976158143
178,192,32663,2,0,L|221:192,1,42.4999976158143
291,192,32840,2,0,L|346:192,1,42.4999976158143,8|0,0:0|0:0,0:0:0:0:
64,192,33016,2,0,L|107:192,3,42.4999976158143,8|0|0|0,0:0|0:0|0:0|0:0,0:0:0:0:
64,192,33369,6,0,L|107:192,1,42.4999976158143,2|0,0:0|0:0,0:0:0:0:
178,192,33546,2,0,L|221:192,1,42.4999976158143
178,192,33722,2,0,L|220:192,1,42.4999976158143,8|0,0:0|0:0,0:0:0:0:
291,192,33899,2,0,L|333:192,1,42.4999976158143
291,192,34075,2,0,L|346:192,1,42.4999976158143
405,192,34251,2,0,L|460:192,1,42.4999976158143,8|0,0:0|0:0,0:0:0:0:
291,192,34428,2,0,L|346:192,3,42.4999976158143,8|0|0|0,0:0|0:0|0:0|0:0,0:0:0:0:
405,192,34781,6,0,L|460:192,3,42.4999976158143,2|0|0|0,0:0|0:0|0:0|0:0,0:0:0:0:
385,117,35134,2,0,L|432:90,3,42.4999976158143,10|0|0|0,0:0|0:0|0:0|0:0,0:0:0:0:
330,62,35487,2,0,L|358:15,3,42.4999976158143,2|0|0|0,0:0|0:0|0:0|0:0,0:0:0:0:
256,43,35840,2,0,L|256:-12,3,42.4999976158143,10|0|0|0,0:0|0:0|0:0|0:0,0:0:0:0:
181,62,36193,6,0,L|154:15,3,42.4999976158143,2|0|0|0,0:0|0:0|0:0|0:0,0:0:0:0:
126,117,36546,2,0,L|79:89,3,42.4999976158143,10|0|0|0,0:0|0:0|0:0|0:0,0:0:0:0:
107,192,36898,2,0,L|51:192,3,42.4999976158143,2|0|0|0,0:0|0:0|0:0|0:0,0:0:0:0:
126,266,37251,2,0,L|79:294,3,42.4999976158143,10|0|0|0,0:0|0:0|0:0|0:0,0:0:0:0:
181,321,37604,6,0,L|154:368,1,42.4999976158143,2|0,0:0|0:0,0:0:0:0:
181,321,37781,2,0,L|154:368,1,42.4999976158143
256,341,37957,2,0,L|256:396,1,42.4999976158143,10|0,0:0|0:0,0:0:0:0:
256,341,38134,2,0,L|256:396,1,42.4999976158143
330,321,38310,2,0,L|358:368,3,42.4999976158143,2|0|0|0,0:0|0:0|0:0|0:0,0:0:0:0:
385,266,38663,2,0,L|432:294,3,42.4999976158143,10|0|0|0,0:0|0:0|0:0|0:0,0:0:0:0:
405,192,39016,6,0,L|460:192,3,42.4999976158143,2|0|0|0,0:0|0:0|0:0|0:0,0:0:0:0:
385,117,39369,2,0,L|432:90,3,42.4999976158143,10|0|0|0,0:0|0:0|0:0|0:0,0:0:0:0:
330,62,39722,2,0,L|358:15,3,42.4999976158143,2|0|0|0,0:0|0:0|0:0|0:0,0:0:0:0:
256,43,40075,2,0,L|256:-12,3,42.4999976158143,10|0|0|0,0:0|0:0|0:0|0:0,0:0:0:0:
181,62,40428,5,2,0:0:0:0:
181,62,40604,1,2,0:0:0:0:
126,117,40781,1,10,0:0:0:0:
126,117,40957,1,2,0:0:0:0:
107,192,41134,1,2,0:0:0:0:
107,192,41310,1,2,0:0:0:0:
126,266,41487,1,10,0:0:0:0:
126,266,41663,1,0,0:0:0:0:
181,321,41840,5,2,0:0:0:0:
181,321,42016,1,2,0:0:0:0:
256,341,42193,1,10,0:0:0:0:
256,341,42369,1,2,0:0:0:0:
330,321,42546,1,2,0:0:0:0:
330,321,42722,1,2,0:0:0:0:
385,266,42898,1,10,0:0:0:0:
385,266,43075,1,2,0:0:0:0:
405,192,43251,5,2,0:0:0:0:
405,192,43340,1,2,0:0:0:0:
405,192,43428,1,2,0:0:0:0:
405,192,43516,1,2,0:0:0:0:
385,117,43604,1,10,0:0:0:0:
385,117,43693,1,2,0:0:0:0:
385,117,43781,1,2,0:0:0:0:
385,117,43869,1,2,0:0:0:0:
330,62,43957,1,2,0:0:0:0:
330,62,44046,1,2,0:0:0:0:
330,62,44134,1,2,0:0:0:0:
330,62,44222,1,2,0:0:0:0:
256,43,44310,1,10,0:0:0:0:
256,43,44398,1,2,0:0:0:0:
256,43,44487,1,2,0:0:0:0:
256,43,44575,1,2,0:0:0:0:
181,63,44663,6,0,B|256:136|329:63|329:63|256:136|181:63|181:63|256:136|329:63|329:63|256:136|181:63|181:63|256:136|329:63|329:63|256:136|181:63|181:63|256:136|329:63|329:63|256:136|181:63,1,1274.99992847443,6|0,0:0|0:0,0:0:0:0:
250,99,46075,5,2,0:0:0:0:
250,99,46163,1,0,0:0:0:0:
209,110,46251,1,0,0:0:0:0:
209,110,46340,1,0,0:0:0:0:
179,140,46428,1,8,0:0:0:0:
179,140,46516,1,0,0:0:0:0:
168,181,46604,1,0,0:0:0:0:
168,181,46693,1,0,0:0:0:0:
179,223,46781,1,0,0:0:0:0:
179,223,46869,1,0,0:0:0:0:
209,253,46957,1,8,0:0:0:0:
209,253,47046,1,0,0:0:0:0:
250,264,47134,1,8,0:0:0:0:
250,264,47223,1,0,0:0:0:0:
291,253,47310,1,0,0:0:0:0:
291,253,47399,1,0,0:0:0:0:
322,223,47487,5,2,0:0:0:0:
322,223,47575,1,0,0:0:0:0:
271,209,47663,1,0,0:0:0:0:
271,209,47751,1,0,0:0:0:0:
228,241,47840,1,8,0:0:0:0:
228,241,47928,1,0,0:0:0:0:
200,286,48016,1,0,0:0:0:0:
200,286,48104,1,0,0:0:0:0:
148,298,48193,1,0,0:0:0:0:
148,298,48281,1,0,0:0:0:0:
97,283,48369,1,8,0:0:0:0:
97,283,48457,1,0,0:0:0:0:
73,235,48546,1,8,0:0:0:0:
73,235,48634,1,0,0:0:0:0:
89,185,48722,1,0,0:0:0:0:
89,185,48810,1,0,0:0:0:0:
130,152,48898,5,2,0:0:0:0:
130,152,48987,1,0,0:0:0:0:
130,152,49075,1,0,0:0:0:0:
130,152,49163,1,0,0:0:0:0:
130,152,49251,1,8,0:0:0:0:
130,152,49340,1,0,0:0:0:0:
130,152,49428,1,0,0:0:0:0:
130,152,49516,1,0,0:0:0:0:
130,152,49604,1,0,0:0:0:0:
130,152,49693,1,0,0:0:0:0:
130,152,49781,1,0,0:0:0:0:
130,152,49869,1,0,0:0:0:0:
130,152,49957,1,8,0:0:0:0:
130,152,50046,1,0,0:0:0:0:
130,152,50134,1,0,0:0:0:0:
130,152,50222,1,0,0:0:0:0:
130,152,50310,6,0,L|157:105,1,42.4999976158143,2|0,0:0|0:0,0:0:0:0:
181,145,50487,1,0,0:0:0:0:
181,145,50575,1,0,0:0:0:0:
181,145,50663,2,0,L|151:115,1,42.4999976158143,8|0,0:0|0:0,0:0:0:0:
188,93,50840,1,0,0:0:0:0:
188,93,50928,1,0,0:0:0:0:
188,93,51016,2,0,L|151:115,1,42.4999976158143
140,74,51193,1,8,0:0:0:0:
140,74,51281,1,0,0:0:0:0:
140,74,51369,2,0,L|151:115,1,42.4999976158143,8|0,0:0|0:0,0:0:0:0:
108,115,51546,1,0,0:0:0:0:
108,115,51634,1,0,0:0:0:0:
151,115,51722,6,0,P|172:106|192:90,1,42.4999976158143,2|0,0:0|0:0,0:0:0:0:
151,115,51898,2,0,P|172:106|192:90,1,42.4999976158143
305,102,52075,2,0,P|284:111|264:127,1,42.4999976158143,8|0,0:0|0:0,0:0:0:0:
305,102,52251,2,0,P|284:111|264:127,1,42.4999976158143
151,115,52428,2,0,P|173:111|197:101,1,42.4999976158143
151,115,52604,2,0,P|173:111|197:101,1,42.4999976158143,8|0,0:0|0:0,0:0:0:0:
305,102,52781,2,0,P|282:105|258:115,1,42.4999976158143,8|0,0:0|0:0,0:0:0:0:
305,102,52957,2,0,P|282:105|258:115,1,42.4999976158143
191,187,53134,6,0,P|213:189|239:185,1,42.4999976158143,2|0,0:0|0:0,0:0:0:0:
191,187,53310,2,0,P|213:189|239:185,1,42.4999976158143
330,252,53487,2,0,P|307:249|281:253,1,42.4999976158143,8|0,0:0|0:0,0:0:0:0:
330,252,53663,2,0,P|307:249|281:253,1,42.4999976158143
191,187,53840,2,0,P|212:195|237:198,1,42.4999976158143
191,187,54016,2,0,P|212:195|237:198,1,42.4999976158143,8|0,0:0|0:0,0:0:0:0:
330,252,54193,2,0,P|308:243|283:240,1,42.4999976158143,8|0,0:0|0:0,0:0:0:0:
330,252,54369,2,0,P|308:243|283:240,1,42.4999976158143
189,298,54545,6,0,P|210:294|234:283,1,42.4999976158143,2|0,0:0|0:0,0:0:0:0:
339,324,54722,1,0,0:0:0:0:
339,324,54810,1,0,0:0:0:0:
339,324,54898,2,0,P|316:327|291:337,1,42.4999976158143,8|0,0:0|0:0,0:0:0:0:
189,298,55075,1,0,0:0:0:0:
189,298,55163,1,0,0:0:0:0:
189,298,55251,2,0,P|211:300|236:296,1,42.4999976158143
339,324,55428,1,8,0:0:0:0:
339,324,55516,1,0,0:0:0:0:
339,324,55604,2,0,P|315:321|290:324,1,42.4999976158143,8|0,0:0|0:0,0:0:0:0:
189,298,55781,1,0,0:0:0:0:
189,298,55869,1,0,0:0:0:0:
189,298,55957,5,2,0:0:0:0:
189,298,56046,1,0,0:0:0:0:
219,230,56134,1,0,0:0:0:0:
219,230,56222,1,0,0:0:0:0:
210,156,56310,1,8,0:0:0:0:
210,156,56398,1,0,0:0:0:0:
166,96,56487,1,0,0:0:0:0:
166,96,56575,1,0,0:0:0:0:
98,66,56663,5,2,0:0:0:0:
98,66,56751,1,0,0:0:0:0:
98,66,56840,1,8,0:0:0:0:
98,66,56928,1,0,0:0:0:0:
48,121,57016,1,10,0:0:0:0:
48,121,57104,1,0,0:0:0:0:
48,121,57193,1,0,0:0:0:0:
48,121,57281,1,0,0:0:0:0:
67,193,57369,5,2,0:0:0:0:
67,193,57457,1,0,0:0:0:0:
106,174,57546,1,0,0:0:0:0:
106,174,57634,1,0,0:0:0:0:
148,179,57722,1,8,0:0:0:0:
148,179,57810,1,0,0:0:0:0:
179,208,57898,1,0,0:0:0:0:
179,208,57987,1,0,0:0:0:0:
191,249,58075,1,0,0:0:0:0:
191,249,58163,1,0,0:0:0:0:
224,278,58252,1,8,0:0:0:0:
224,278,58340,1,0,0:0:0:0:
265,284,58428,1,8,0:0:0:0:
265,284,58516,1,0,0:0:0:0:
303,264,58604,1,0,0:0:0:0:
303,264,58693,1,0,0:0:0:0:
258,205,58781,5,2,0:0:0:0:
258,205,58869,1,0,0:0:0:0:
258,205,58957,1,0,0:0:0:0:
258,205,59046,1,0,0:0:0:0:
203,236,59134,1,10,0:0:0:0:
203,236,59222,1,0,0:0:0:0:
203,236,59310,1,0,0:0:0:0:
203,236,59399,1,0,0:0:0:0:
189,298,59487,1,2,0:0:0:0:
189,298,59575,1,0,0:0:0:0:
189,298,59663,1,8,0:0:0:0:
189,298,59752,1,0,0:0:0:0:
119,323,59840,5,8,0:0:0:0:
119,323,59928,1,0,0:0:0:0:
61,277,60016,1,0,0:0:0:0:
61,277,60104,1,0,0:0:0:0:
77,204,60193,5,2,0:0:0:0:
77,204,60281,1,0,0:0:0:0:
113,165,60369,1,0,0:0:0:0:
113,165,60457,1,0,0:0:0:0:
111,111,60546,1,8,0:0:0:0:
111,111,60634,1,0,0:0:0:0:
79,68,60722,1,0,0:0:0:0:
79,68,60810,1,0,0:0:0:0:
158,38,60898,1,0,0:0:0:0:
158,38,60986,1,0,0:0:0:0:
133,84,61074,1,8,0:0:0:0:
133,84,61162,1,0,0:0:0:0:
149,136,61251,1,8,0:0:0:0:
149,136,61339,1,0,0:0:0:0:
191,169,61427,1,0,0:0:0:0:
191,169,61515,1,0,0:0:0:0:
274,190,61604,5,2,0:0:0:0:
274,190,61693,1,0,0:0:0:0:
274,190,61781,1,0,0:0:0:0:
274,190,61869,1,0,0:0:0:0:
322,148,61957,1,10,0:0:0:0:
322,148,62046,1,0,0:0:0:0:
322,148,62134,1,0,0:0:0:0:
322,148,62222,1,0,0:0:0:0:
262,128,62310,1,2,0:0:0:0:
262,128,62398,1,0,0:0:0:0:
262,128,62487,1,8,0:0:0:0:
262,128,62575,1,0,0:0:0:0:
274,190,62663,5,8,0:0:0:0:
274,190,62751,1,0,0:0:0:0:
341,224,62840,1,0,0:0:0:0:
341,224,62928,1,0,0:0:0:0:
408,258,63016,5,2,0:0:0:0:
408,258,63104,1,0,0:0:0:0:
441,203,63193,1,0,0:0:0:0:
441,203,63281,1,0,0:0:0:0:
425,139,63369,1,8,0:0:0:0:
425,139,63457,1,0,0:0:0:0:
370,106,63546,1,0,0:0:0:0:
370,106,63634,1,0,0:0:0:0:
307,121,63722,1,0,0:0:0:0:
307,121,63810,1,0,0:0:0:0:
273,176,63898,1,8,0:0:0:0:
273,176,63987,1,0,0:0:0:0:
213,196,64075,1,8,0:0:0:0:
213,196,64163,1,0,0:0:0:0:
157,167,64251,1,0,0:0:0:0:
157,167,64340,1,0,0:0:0:0:
194,67,64428,5,2,0:0:0:0:
194,67,64516,1,0,0:0:0:0:
240,111,64604,1,0,0:0:0:0:
240,111,64692,1,0,0:0:0:0:
257,172,64781,1,8,0:0:0:0:
257,172,64869,1,0,0:0:0:0:
241,233,64957,1,0,0:0:0:0:
241,233,65045,1,0,0:0:0:0:
178,308,65134,5,0,0:0:0:0:
178,308,65222,1,0,0:0:0:0:
193,246,65310,1,8,0:0:0:0:
193,246,65398,1,0,0:0:0:0:
238,201,65487,1,8,0:0:0:0:
238,201,65575,1,0,0:0:0:0:
299,184,65663,1,0,0:0:0:0:
299,184,65751,1,0,0:0:0:0:
395,200,65840,5,2,0:0:0:0:
395,200,65928,1,0,0:0:0:0:
334,218,66016,1,0,0:0:0:0:
334,218,66104,1,0,0:0:0:0:
272,202,66193,1,10,0:0:0:0:
272,202,66281,1,0,0:0:0:0:
227,158,66369,1,0,0:0:0:0:
227,158,66457,1,0,0:0:0:0:
210,97,66546,5,2,0:0:0:0:
210,97,66634,1,0,0:0:0:0:
140,49,66722,1,0,0:0:0:0:
140,49,66810,1,0,0:0:0:0:
45,94,66898,1,10,0:0:0:0:
45,94,66986,1,0,0:0:0:0:
52,222,67075,1,0,0:0:0:0:
52,222,67163,1,0,0:0:0:0:
218,256,67251,5,2,0:0:0:0:
218,256,67604,1,2,0:0:0:0:
135,239,67957,1,2,0:0:0:0:
135,239,68310,1,2,0:0:0:0:
52,222,68663,5,4,0:0:0:0:
52,222,68781,1,0,0:0:0:0:
52,222,68898,1,0,0:0:0:0:
111,160,69016,1,0,0:0:0:0:
111,160,69134,1,0,0:0:0:0:
111,160,69251,1,0,0:0:0:0:
193,135,69369,1,8,0:0:0:0:
193,135,69487,1,0,0:0:0:0:
193,135,69604,1,0,0:0:0:0:
52,222,69722,2,0,B|113:158,1,84.9999952316285
193,135,70075,5,0,0:0:0:0:
193,135,70193,1,0,0:0:0:0:
193,135,70310,1,0,0:0:0:0:
134,197,70428,1,0,0:0:0:0:
134,197,70546,1,0,0:0:0:0:
134,197,70663,1,0,0:0:0:0:
52,222,70781,1,8,0:0:0:0:
52,222,70899,1,0,0:0:0:0:
52,222,71016,1,0,0:0:0:0:
193,135,71134,2,0,B|196:135|196:135|193:135|193:135|196:135|196:135|193:135|193:135|196:135|196:135|193:135|193:135|196:135|196:135|193:135|193:135|196:135|196:135|193:135|193:135|196:135|196:135|193:135|193:135|196:135|196:135|193:135|193:135|196:135|196:135|193:135|193:135|196:135|196:135|193:135|193:135|196:135|196:135|193:135|193:135|196:135|196:135|193:135|193:135|196:135|196:135|193:135|193:135|196:135|196:135|193:135|193:135|196:135|196:135|193:135|193:135|196:135|196:135|193:135|193:135|196:135|196:135|193:135|193:135|196:135|196:135|193:135|193:135|196:135|196:135|193:135|193:135|196:135|196:135|193:135|193:135|196:135|196:135|193:135|193:135|196:135|196:135|193:135|193:135|196:135|196:135|193:135|193:135|196:135|196:135|193:135|193:135|196:135|196:135|193:135|193:135|196:135|196:135|193:135|193:135|196:135|196:135|193:135|193:135|196:135|196:135|193:135|193:135|196:135|196:135|193:135|193:135|196:135|196:135|193:135|193:135|196:135|196:135|193:135|193:135|196:135|196:135|193:135|193:135|333:141,1,254.999985694886
363,144,71487,6,0,B|594:153|594:153|464:148,1,339.999980926514,2|0,0:0|0:0,0:0:0:0:
363,144,72016,1,0,0:0:0:0:
485,148,72193,2,0,P|250:112|485:140,1,679.999961853028,8|0,0:0|0:0,0:0:0:0:
485,148,73251,5,0,0:0:0:0:
316,167,73516,1,8,0:0:0:0:
316,167,73604,2,0,L|529:143,1,169.999990463257,8|0,0:0|0:0,0:0:0:0:
485,147,74045,1,0,0:0:0:0:
485,147,74134,1,0,0:0:0:0:
485,147,74310,6,0,L|473:216,1,56.6666634877523
485,147,74545,1,0,0:0:0:0:
405,206,74662,2,0,L|393:274,1,56.6666634877523
405,206,74897,1,0,0:0:0:0:
325,264,75015,2,0,L|313:332,1,56.6666634877523,8|0,0:0|0:0,0:0:0:0:
325,264,75251,1,0,0:0:0:0:
245,322,75368,2,0,L|233:390,1,56.6666634877523
245,322,75604,1,0,0:0:0:0:
27,237,75721,5,0,0:0:0:0:
27,237,75839,2,0,L|39:168,1,56.6666634877523
107,178,76074,1,0,0:0:0:0:
107,178,76192,2,0,L|119:110,1,56.6666634877523
187,120,76427,1,8,0:0:0:0:
187,120,76545,2,0,L|199:52,1,56.6666634877523
267,62,76780,1,0,0:0:0:0:
267,62,76898,2,0,L|279:-6,1,56.6666634877523
485,147,77133,6,0,B|517:-22|517:-22|490:121,1,254.999985694886,2|0,0:0|0:0,0:0:0:0:
485,147,77486,2,0,L|473:216,1,63.7499988555908
27,237,77839,2,0,B|-5:406|-5:406|22:263,1,254.999985694886,10|0,0:0|0:0,0:0:0:0:
27,237,78192,2,0,L|39:168,1,63.7499988555908
256,192,78545,5,2,0:0:0:0:
256,129,78721,1,2,0:0:0:0:
256,129,78810,1,2,0:0:0:0:
256,192,78898,1,2,0:0:0:0:
409,288,79074,1,2,0:0:0:0:
409,287,79251,2,0,P|260:358|110:288,1,339.999980926514,2|0,0:0|0:0,0:0:0:0:
409,287,79604,2,0,B|250:431|111:288|111:288|256:141|418:296,1,679.999961853028,2|0,0:0|0:0,0:0:0:0:
409,288,79692,1,0,0:0:0:0:
409,288,79780,1,0,0:0:0:0:
409,288,79868,1,0,0:0:0:0:
409,288,79957,6,0,P|446:253|465:225,2,56.6666634877523,4|0|0,0:0|0:0|0:0,0:0:0:0:
409,288,80310,2,0,P|360:273|326:271,2,56.6666634877523
409,288,80662,2,0,P|420:337|435:367,2,56.6666634877523,8|0|0,0:0|0:0|0:0,0:0:0:0:
103,96,81015,1,0,0:0:0:0:
103,96,81368,6,0,P|66:131|47:159,2,56.6666634877523
103,96,81721,2,0,P|152:111|186:113,2,56.6666634877523
103,96,82074,2,0,P|92:47|77:17,2,56.6666634877523,8|0|0,0:0|0:0|0:0,0:0:0:0:
256,192,82427,2,0,B|217:220|182:233|182:233|217:220|277:176,1,169.999990463257
256,192,82604,2,0,B|294:163|329:150|329:150|294:163|234:207,1,169.999990463257
389,278,82780,5,2,0:0:0:0:
389,278,83133,1,0,0:0:0:0:
191,88,83310,1,0,0:0:0:0:
191,88,83486,2,0,B|140:152|43:163|43:163|140:152|196:82,1,339.999980926514,8|0,0:0|0:0,0:0:0:0:
43,163,83839,1,0,0:0:0:0:
191,88,84192,6,0,B|134:158|43:163|43:163,1,169.999990463257
42,162,84545,2,0,B|142:184|191:86|191:86,1,178.499984539033
191,88,84898,2,0,B|146:204|43:163|43:163,1,186.99999521637
42,162,85251,2,0,B|167:215|191:86|191:86,1,195.499992761612
191,88,85604,6,0,B|165:233|43:163|43:163,1,203.999982330323
469,162,86662,1,0,0:0:0:0:
469,162,86751,1,0,0:0:0:0:
408,179,86839,1,0,0:0:0:0:
408,179,86927,1,0,0:0:0:0:
367,227,87015,5,4,0:0:0:0:
367,227,87133,1,0,0:0:0:0:
367,227,87251,1,0,0:0:0:0:
474,284,87368,1,0,0:0:0:0:
474,284,87486,1,0,0:0:0:0:
474,284,87604,1,0,0:0:0:0:
469,162,87721,1,8,0:0:0:0:
469,162,87839,1,0,0:0:0:0:
469,162,87957,1,0,0:0:0:0:
367,227,88074,1,0,0:0:0:0:
367,227,88251,1,0,0:0:0:0:
145,227,88427,5,2,0:0:0:0:
145,227,88604,1,2,0:0:0:0:
367,227,88780,1,2,0:0:0:0:
367,227,88957,1,2,0:0:0:0:
256,35,89133,2,0,L|256:64,1,29.74999833107,10|0,0:0|0:0,0:0:0:0:
256,35,89839,5,2,0:0:0:0:
256,349,90192,1,2,0:0:0:0:
256,349,90545,1,2,0:0:0:0:
256,35,90898,1,2,0:0:0:0:
256,35,91251,5,6,0:0:0:0:
256,35,91339,1,0,0:0:0:0:
199,64,91427,1,0,0:0:0:0:
199,64,91515,1,0,0:0:0:0:
169,120,91604,1,10,0:0:0:0:
169,120,91692,1,0,0:0:0:0:
178,183,91780,1,0,0:0:0:0:
178,183,91868,1,0,0:0:0:0:
169,120,91957,5,2,0:0:0:0:
169,120,92045,1,0,0:0:0:0:
178,183,92133,1,0,0:0:0:0:
178,183,92221,1,0,0:0:0:0:
222,229,92310,1,10,0:0:0:0:
222,229,92398,1,0,0:0:0:0:
285,239,92486,1,0,0:0:0:0:
285,239,92574,1,0,0:0:0:0:
222,229,92662,5,2,0:0:0:0:
222,229,92750,1,0,0:0:0:0:
285,239,92838,1,0,0:0:0:0:
285,239,92926,1,0,0:0:0:0:
342,211,93015,1,10,0:0:0:0:
342,211,93103,1,0,0:0:0:0:
372,155,93191,1,0,0:0:0:0:
372,155,93279,1,0,0:0:0:0:
342,211,93368,5,2,0:0:0:0:
342,211,93456,1,0,0:0:0:0:
370,154,93544,1,0,0:0:0:0:
370,154,93632,1,0,0:0:0:0:
361,91,93721,1,10,0:0:0:0:
361,91,93809,1,0,0:0:0:0:
317,45,93897,1,0,0:0:0:0:
317,45,93985,1,0,0:0:0:0:
256,35,94074,5,2,0:0:0:0:
256,35,94162,1,0,0:0:0:0:
256,35,94251,1,0,0:0:0:0:
256,35,94339,1,0,0:0:0:0:
256,35,94427,1,10,0:0:0:0:
256,35,94515,1,0,0:0:0:0:
256,35,94604,1,0,0:0:0:0:
256,35,94692,1,0,0:0:0:0:
240,118,94780,5,2,0:0:0:0:
240,118,94868,1,0,0:0:0:0:
194,162,94957,1,0,0:0:0:0:
194,162,95045,1,0,0:0:0:0:
130,170,95133,1,10,0:0:0:0:
130,170,95221,1,0,0:0:0:0:
73,139,95309,1,0,0:0:0:0:
73,139,95397,1,0,0:0:0:0:
45,80,95486,5,2,0:0:0:0:
45,80,95575,1,0,0:0:0:0:
106,97,95662,1,0,0:0:0:0:
106,97,95751,1,0,0:0:0:0:
145,149,95839,1,10,0:0:0:0:
145,149,95927,1,0,0:0:0:0:
146,214,96015,1,0,0:0:0:0:
146,214,96104,1,0,0:0:0:0:
109,267,96192,5,2,0:0:0:0:
109,267,96280,1,0,0:0:0:0:
118,145,96368,1,0,0:0:0:0:
118,145,96457,1,0,0:0:0:0:
239,119,96545,2,0,L|278:157,3,42.4999976158143,10|0|0|0,0:0|0:0|0:0|0:0,0:0:0:0:
239,119,96898,5,2,0:0:0:0:
239,119,96986,1,0,0:0:0:0:
285,164,97074,1,0,0:0:0:0:
285,164,97162,1,0,0:0:0:0:
330,118,97251,1,10,0:0:0:0:
330,118,97339,1,0,0:0:0:0:
284,73,97427,1,0,0:0:0:0:
284,73,97515,1,0,0:0:0:0:
236,119,97604,5,2,0:0:0:0:
236,119,97692,1,0,0:0:0:0:
285,166,97780,1,0,0:0:0:0:
285,166,97868,1,0,0:0:0:0:
332,117,97957,1,10,0:0:0:0:
332,117,98045,1,0,0:0:0:0:
283,70,98133,1,0,0:0:0:0:
283,70,98221,1,0,0:0:0:0:
234,119,98309,5,2,0:0:0:0:
234,119,98398,1,0,0:0:0:0:
285,168,98485,1,0,0:0:0:0:
285,168,98573,1,0,0:0:0:0:
334,117,98662,1,10,0:0:0:0:
334,117,98750,1,0,0:0:0:0:
283,68,98838,1,0,0:0:0:0:
283,68,98926,1,0,0:0:0:0:
231,119,99015,5,2,0:0:0:0:
231,119,99103,1,0,0:0:0:0:
285,171,99191,1,0,0:0:0:0:
285,171,99279,1,0,0:0:0:0:
337,117,99368,1,10,0:0:0:0:
337,117,99456,1,0,0:0:0:0:
283,65,99544,1,0,0:0:0:0:
283,65,99632,1,0,0:0:0:0:
198,55,99721,5,2,0:0:0:0:
198,55,99809,1,0,0:0:0:0:
198,55,99898,1,0,0:0:0:0:
198,55,99986,1,0,0:0:0:0:
148,123,100074,1,10,0:0:0:0:
148,123,100162,1,0,0:0:0:0:
148,123,100251,1,0,0:0:0:0:
148,123,100339,1,0,0:0:0:0:
147,207,100427,1,2,0:0:0:0:
147,207,100515,1,0,0:0:0:0:
147,207,100604,1,0,0:0:0:0:
147,207,100692,1,0,0:0:0:0:
196,275,100780,1,10,0:0:0:0:
196,275,100868,1,0,0:0:0:0:
196,275,100957,1,2,0:0:0:0:
196,275,101045,1,0,0:0:0:0:
316,275,101133,5,2,0:0:0:0:
316,275,101221,1,0,0:0:0:0:
316,275,101310,1,0,0:0:0:0:
316,275,101398,1,0,0:0:0:0:
365,207,101486,1,10,0:0:0:0:
365,207,101574,1,0,0:0:0:0:
365,207,101663,1,0,0:0:0:0:
365,207,101751,1,0,0:0:0:0:
364,123,101839,1,2,0:0:0:0:
364,123,101927,1,0,0:0:0:0:
364,123,102016,1,0,0:0:0:0:
364,123,102104,1,0,0:0:0:0:
314,55,102192,1,10,0:0:0:0:
314,55,102280,1,0,0:0:0:0:
314,55,102369,1,0,0:0:0:0:
314,55,102457,1,0,0:0:0:0:
256,117,102545,5,6,0:0:0:0:
256,117,102633,1,0,0:0:0:0:
286,173,102721,1,0,0:0:0:0:
286,173,102809,1,0,0:0:0:0:
348,161,102898,1,10,0:0:0:0:
348,161,102986,1,0,0:0:0:0:
356,98,103074,1,0,0:0:0:0:
356,98,103162,1,0,0:0:0:0:
300,72,103251,1,2,0:0:0:0:
300,72,103339,1,0,0:0:0:0:
300,72,103427,1,0,0:0:0:0:
300,72,103515,1,0,0:0:0:0:
300,72,103604,1,10,0:0:0:0:
300,72,103692,1,0,0:0:0:0:
300,72,103780,1,0,0:0:0:0:
300,72,103868,1,0,0:0:0:0:
222,146,103957,5,2,0:0:0:0:
222,146,104045,1,0,0:0:0:0:
192,202,104133,1,0,0:0:0:0:
192,202,104221,1,0,0:0:0:0:
130,190,104310,1,10,0:0:0:0:
130,190,104398,1,0,0:0:0:0:
122,127,104486,1,0,0:0:0:0:
122,127,104574,1,0,0:0:0:0:
178,101,104663,1,2,0:0:0:0:
178,101,104751,1,0,0:0:0:0:
178,101,104839,1,0,0:0:0:0:
178,101,104927,1,0,0:0:0:0:
178,101,105016,1,10,0:0:0:0:
178,101,105104,1,0,0:0:0:0:
178,101,105192,1,0,0:0:0:0:
178,101,105280,1,0,0:0:0:0:
294,154,105368,5,2,0:0:0:0:
294,154,105457,1,0,0:0:0:0:
342,112,105545,1,0,0:0:0:0:
342,112,105634,1,0,0:0:0:0:
342,48,105721,1,10,0:0:0:0:
342,48,105810,1,0,0:0:0:0:
296,4,105898,1,0,0:0:0:0:
296,4,105987,1,0,0:0:0:0:
218,154,106074,5,2,0:0:0:0:
218,154,106163,1,0,0:0:0:0:
170,112,106251,1,0,0:0:0:0:
170,112,106340,1,0,0:0:0:0:
170,48,106427,1,10,0:0:0:0:
170,48,106516,1,0,0:0:0:0:
216,4,106604,1,0,0:0:0:0:
216,4,106693,1,0,0:0:0:0:
294,154,106780,5,2,0:0:0:0:
294,154,106869,1,0,0:0:0:0:
318,95,106957,1,0,0:0:0:0:
318,95,107046,1,0,0:0:0:0:
365,53,107133,1,10,0:0:0:0:
365,53,107222,1,0,0:0:0:0:
256,89,107309,1,0,0:0:0:0:
256,89,107398,1,0,0:0:0:0:
218,154,107486,5,2,0:0:0:0:
218,154,107575,1,0,0:0:0:0:
194,95,107663,1,0,0:0:0:0:
194,95,107752,1,0,0:0:0:0:
147,53,107839,1,10,0:0:0:0:
147,53,107928,1,0,0:0:0:0:
256,89,108015,1,0,0:0:0:0:
256,89,108104,1,0,0:0:0:0:
296,202,108192,5,2,0:0:0:0:
296,202,108368,1,2,0:0:0:0:
215,181,108545,1,10,0:0:0:0:
215,181,108721,1,2,0:0:0:0:
266,151,108898,1,2,0:0:0:0:
266,151,109074,1,2,0:0:0:0:
245,232,109251,1,10,0:0:0:0:
245,232,109427,1,2,0:0:0:0:
301,218,109604,5,2,0:0:0:0:
301,218,109780,1,2,0:0:0:0:
210,165,109957,1,10,0:0:0:0:
210,165,110133,1,2,0:0:0:0:
282,146,110309,1,2,0:0:0:0:
282,146,110485,1,2,0:0:0:0:
229,237,110662,1,10,0:0:0:0:
229,237,110838,1,2,0:0:0:0:
302,238,111015,5,2,0:0:0:0:
302,238,111104,1,2,0:0:0:0:
209,145,111191,1,2,0:0:0:0:
209,145,111280,1,2,0:0:0:0:
302,145,111368,1,10,0:0:0:0:
302,145,111457,1,2,0:0:0:0:
209,238,111544,1,2,0:0:0:0:
209,238,111633,1,2,0:0:0:0:
297,263,111720,5,2,0:0:0:0:
297,263,111809,1,2,0:0:0:0:
214,120,111898,1,2,0:0:0:0:
214,120,111986,1,2,0:0:0:0:
327,150,112074,1,10,0:0:0:0:
327,150,112162,1,2,0:0:0:0:
184,233,112251,1,2,0:0:0:0:
184,233,112339,1,2,0:0:0:0:
282,291,112427,5,2,0:0:0:0:
282,291,112515,1,2,0:0:0:0:
229,92,112604,1,2,0:0:0:0:
229,92,112692,1,2,0:0:0:0:
355,165,112780,1,10,0:0:0:0:
355,165,112868,1,2,0:0:0:0:
156,218,112957,1,2,0:0:0:0:
156,218,113045,1,2,0:0:0:0:
255,320,113133,5,2,0:0:0:0:
255,320,113221,1,2,0:0:0:0:
256,63,113309,1,2,0:0:0:0:
256,63,113398,1,2,0:0:0:0:
384,192,113486,1,10,0:0:0:0:
384,192,113575,1,2,0:0:0:0:
127,191,113662,1,2,0:0:0:0:
127,191,113751,1,2,0:0:0:0:
256,192,113839,5,6,0:0:0:0:
256,192,114192,1,4,0:0:0:0:
256,192,114368,1,4,0:0:0:0:
256,192,114545,1,4,0:0:0:0:
256,192,114898,1,4,0:0:0:0:
256,192,115074,1,4,0:0:0:0:
256,192,115251,5,4,0:0:0:0:
256,192,115604,1,4,0:0:0:0:
256,192,115780,1,4,0:0:0:0:
256,192,115957,1,4,0:0:0:0:
256,192,116309,1,4,0:0:0:0:
256,192,116662,5,4,0:0:0:0:
256,192,117015,1,4,0:0:0:0:
256,192,117192,1,4,0:0:0:0:
256,192,117368,1,4,0:0:0:0:
256,192,117721,1,4,0:0:0:0:
256,192,117898,1,4,0:0:0:0:
256,192,118074,5,4,0:0:0:0:
256,192,118427,1,4,0:0:0:0:
256,192,118604,1,0,0:0:0:0:
256,192,118780,1,4,0:0:0:0:
