osu file format v14

[General]
AudioFilename: audio.mp3
AudioLeadIn: 0
PreviewTime: 46075
Countdown: 1
SampleSet: None
StackLeniency: 0.7
Mode: 0
LetterboxInBreaks: 0
WidescreenStoryboard: 1

[Editor]
Bookmarks: 57363
DistanceSpacing: 0.4
BeatDivisor: 4
GridSize: 8
TimelineZoom: 2.999999

[Metadata]
Title:Der Wald (Kors K Remix)
TitleUnicode:Der Wald (Kors K Remix)
Artist:Erehamonika remixed by kors k
ArtistUnicode:エレハモニカ remixed by kors k
Creator:Rucker
Version:Hey jia
Source:pop'n music 20 fantasia
Tags:aspire SnowNiNo_ xDololow what koalazy deyo
BeatmapID:1529757
BeatmapSetID:537048

[Difficulty]
HPDrainRate:0
CircleSize:4
OverallDifficulty:8
ApproachRate:9.4
SliderMultiplier:3.59999990463257
SliderTickRate:1

[Events]
//Background and Video events
0,0,"purple-sky-wallpaper-11.jpg",0,0
//Break Periods
//Storyboard Layer 0 (Background)
//Storyboard Layer 1 (Fail)
//Storyboard Layer 2 (Pass)
//Storyboard Layer 3 (Foreground)
//Storyboard Sound Samples

[TimingPoints]
-514,352.941176470588,4,2,1,60,1,0
23485,-50,4,2,1,60,0,0
34780,-100,4,2,1,60,0,0
43250,1E-298,4,2,1,70,1,0
44658,352.941176470588,4,2,1,60,1,0
44662,-200,4,2,1,60,0,0
45015,-100,4,2,1,60,0,0
45368,-66.6666666666667,4,2,1,60,0,0
45721,-50,4,2,1,60,0,0
46074,-50,4,2,1,60,0,1
67246,-200,4,2,1,60,0,0
67599,-100,4,2,1,60,0,0
67952,-66.6666666666667,4,2,1,60,0,0
68305,-50,4,2,1,60,0,0
68657,-100,4,2,1,60,0,0
85599,-66.6666666666667,4,2,1,60,0,0
86305,-100,4,2,1,60,0,0
88422,1E-298,4,2,1,70,1,0
89834,352.941176470588,4,2,1,60,1,0
89834,-200,4,2,1,60,0,0
90187,-100,4,2,1,60,0,0
90540,-66.6666666666667,4,2,1,60,0,0
90893,-50,4,2,1,60,0,0
91246,-50,4,2,1,60,0,1
111010,1E-298,4,2,1,70,1,1
113833,352.941176470588,4,2,1,60,1,0

[HitObjects]
65,250,897,6,0,B|82:161|82:161|157:242,1,179.999995231628
142,226,1250,2,0,B|159:137|159:137|234:218,1,179.999995231628
244,92,1603,2,0,B|266:54|298:55|319:92|288:133|288:133|312:198,1,179.999995231628
337,261,1956,1,0,0:0:0:0:
337,261,2133,1,0,0:0:0:0:
500,218,2309,6,0,B|483:129|483:129|408:210,1,179.999995231628
423,194,2662,2,0,B|406:105|406:105|331:186,1,179.999995231628
321,60,3015,2,0,B|299:22|267:23|246:60|277:101|277:101|253:166,1,179.999995231628
228,229,3368,1,0,0:0:0:0:
228,229,3545,1,0,0:0:0:0:
148,244,3721,6,0,B|204:314|204:314|232:207,1,179.999995231628
228,229,4074,2,0,B|284:299|284:299|312:192,1,179.999995231628
381,299,4427,2,0,B|418:322|446:306|447:263|400:242|400:242|391:173,1,179.999995231628
383,106,4780,1,0,0:0:0:0:
383,106,4957,1,0,0:0:0:0:
259,139,5133,6,0,B|202:209|202:209|174:102,1,179.999995231628
179,124,5486,2,0,B|122:194|122:194|94:87,1,179.999995231628
26,194,5839,2,0,B|-11:217|-39:201|-40:158|6:137|6:137|15:68,1,179.999995231628
13,84,6103,1,0,0:0:0:0:
13,84,6192,1,0,0:0:0:0:
24,1,6369,1,0,0:0:0:0:
334,8,6544,6,0,L|346:191,1,179.999995231628
345,187,6897,2,0,L|162:199,1,179.999995231628
165,198,7250,2,0,L|153:15,1,179.999995231628
154,19,7603,2,0,L|337:7,1,179.999995231628
161,114,7956,2,0,L|344:102,1,179.999995231628
256,193,8309,2,0,L|244:10,1,179.999995231628
255,192,8662,2,0,L|267:372,1,179.999995231628
267,372,9015,2,0,L|255:192,1,179.999995231628
37,10,9368,6,0,L|25:193,1,179.999995231628
26,189,9721,2,0,L|209:201,1,179.999995231628
206,200,10074,2,0,L|218:17,1,179.999995231628
217,21,10427,2,0,L|34:9,1,179.999995231628
210,116,10780,2,0,L|27:104,1,179.999995231628
115,195,11133,2,0,L|127:12,1,179.999995231628
116,194,11486,2,0,L|104:373,1,179.999995231628
104,373,11750,1,0,0:0:0:0:
104,374,11839,2,0,L|115:194,1,179.999995231628
250,212,12191,6,0,P|234:256|261:209,1,179.999995231629
277,175,12544,2,0,P|293:130|266:177,1,179.999995231629
491,87,12897,2,0,B|370:92|370:92|398:166,1,179.999995231629
474,266,13250,2,0,L|493:56,1,179.999995231629
261,212,13603,6,0,P|277:256|250:209,1,179.999995231629
235,175,13956,2,0,P|218:130|245:177,1,179.999995231629
21,87,14309,2,0,B|142:92|142:92|114:166,1,179.999995231629
38,266,14662,2,0,L|19:56,1,179.999995231629
167,289,15015,5,0,0:0:0:0:
167,289,15103,1,0,0:0:0:0:
167,289,15191,1,0,0:0:0:0:
243,224,15368,1,0,0:0:0:0:
243,224,15456,1,0,0:0:0:0:
243,224,15544,1,0,0:0:0:0:
295,337,15721,1,0,0:0:0:0:
295,337,15809,1,0,0:0:0:0:
295,337,15897,1,0,0:0:0:0:
371,272,16074,1,0,0:0:0:0:
371,272,16162,1,0,0:0:0:0:
371,272,16250,1,0,0:0:0:0:
194,143,16427,6,0,L|203:332,1,179.999995231629
379,92,16780,2,0,L|370:281,1,179.999995231629
202,322,17133,2,0,L|194:143,1,179.999995231629
194,143,17397,1,0,0:0:0:0:
194,143,17485,1,0,0:0:0:0:
379,92,17662,1,0,0:0:0:0:
84,105,17838,6,0,B|84:212|84:212|72:248|37:253|12:200,1,179.999995231629
201,38,18191,1,0,0:0:0:0:
194,143,18544,2,0,L|182:322,1,179.999995231629
350,194,18897,2,0,B|294:172|270:229|314:265|352:227|352:227|375:269,1,179.999995231629
428,110,19250,6,0,B|428:212|428:212|440:248|475:253|483:225,1,179.999995231629
311,38,19603,1,0,0:0:0:0:
318,143,19956,2,0,L|329:322,1,179.999995231629
162,194,20309,2,0,B|218:172|242:229|198:265|160:227|160:227|141:259,1,179.999995231629
32,64,20662,6,0,B|65:35|89:65|89:87|67:110|41:105|41:105|57:205,1,179.999995231629
68,264,21015,1,0,0:0:0:0:
68,264,21191,1,0,0:0:0:0:
199,64,21368,6,0,B|239:46|252:82|246:103|218:118|194:105|194:105|179:205,1,179.999995231629
171,265,21721,1,0,0:0:0:0:
171,265,21897,1,0,0:0:0:0:
314,71,22074,6,0,B|347:42|371:72|371:94|349:117|323:112|323:112|339:212,1,179.999995231629
350,271,22427,1,0,0:0:0:0:
350,271,22603,1,0,0:0:0:0:
481,71,22780,6,0,B|521:53|534:89|528:110|500:125|476:112|476:112|461:212,1,179.999995231629
453,272,23133,1,0,0:0:0:0:
453,272,23309,1,0,0:0:0:0:
82,64,23485,6,0,B|-6:85|-6:85|107:57,1,179.999995231629
75,143,23662,2,0,B|-13:164|-13:164|100:136,1,179.999995231629
67,230,23838,2,0,B|-21:251|-21:251|92:223,1,179.999995231629
60,309,24015,2,0,B|-28:330|-28:330|85:302,1,179.999995231629
196,203,24191,6,0,B|204:24|204:24|194:229,1,359.999990463257
315,182,24544,2,0,B|323:3|323:3|313:208,1,359.999990463257
401,337,24897,6,0,B|357:279|277:284|277:284|403:340,1,179.999995231629
104,282,25074,2,0,B|148:224|228:229|228:229|102:285,1,179.999995231629
410,179,25250,2,0,B|366:121|286:126|286:126|412:182,1,179.999995231629
113,124,25427,2,0,B|157:66|237:71|237:71|111:127,1,179.999995231629
11,161,25603,6,0,B|-12:57|89:18|89:18|-12:57|16:181,1,359.999990463257
214,90,25956,2,0,B|237:194|136:233|136:233|237:194|209:70,1,359.999990463257
362,35,26309,6,0,P|402:34|358:39,1,179.999995231629
424,179,26485,2,0,P|464:178|420:183,1,179.999995231629
250,170,26662,2,0,P|290:169|246:174,1,179.999995231629
312,315,26838,2,0,P|352:314|308:319,1,179.999995231629
49,199,27015,6,0,B|32:114|32:114|81:34|81:35|81:35|32:114|32:114|56:227,1,359.999990463257
151,233,27368,2,0,B|168:318|168:318|119:398|119:397|119:397|168:318|168:318|144:205,1,359.999990463257
176,74,27721,6,0,L|366:24,1,179.999995231629
350,28,27897,2,0,L|176:74,1,179.999995231629
176,74,28074,2,0,L|366:24,1,179.999995231629
350,28,28250,2,0,L|176:74,1,179.999995231629
1,278,28427,6,0,B|-3:166|107:160|107:160|-3:167|2:298,1,359.999990463257
329,205,28780,2,0,B|333:317|223:323|223:323|333:316|328:185,1,359.999990463257
249,56,29133,6,0,P|203:132|231:228,1,179.999995231629
384,300,29309,2,0,P|430:224|402:128,1,179.999995231629
219,73,29485,2,0,P|195:158|249:243,1,179.999995231629
416,270,29661,2,0,P|439:184|385:99,1,179.999995231629
103,324,29838,6,0,B|282:341|282:341|85:322,1,359.999990463257
58,218,30191,2,0,B|237:235|237:235|40:216,1,359.999990463257
254,110,30544,6,0,P|285:60|398:44,1,179.999995231629
397,43,30721,2,0,P|310:43|254:110,1,179.999995231629
254,110,30897,2,0,P|285:60|398:44,1,179.999995231629
397,43,31074,2,0,P|310:43|254:110,1,179.999995231629
512,337,31250,2,0,B|683:291|683:291|507:244,1,359.999990463257
0,254,31603,2,0,B|-171:300|-171:300|5:347,1,359.999990463257
366,360,31956,6,0,L|366:164,1,179.999995231629
366,180,32133,2,0,L|366:-16,1,179.999995231629
145,1,32309,2,0,L|145:197,1,179.999995231629
145,181,32486,2,0,L|145:377,1,179.999995231629
29,154,32662,6,0,P|-107:186|29:178,1,359.999990463257
483,154,33015,2,0,P|619:186|483:178,1,359.999990463257
124,363,33368,6,0,L|117:164,1,179.999995231629
216,0,33544,2,0,L|222:179,1,179.999995231629
337,369,33721,2,0,L|330:170,1,179.999995231629
429,6,33897,2,0,L|435:185,1,179.999995231629
2,222,34074,6,0,B|-177:245|-177:245|13:220,1,359.999990463257
510,222,34427,2,0,B|689:245|689:245|499:220,1,359.999990463257
60,243,34780,6,0,L|94:153,1,89.9999976158143
91,158,35133,2,0,L|157:232,1,89.9999976158143
151,226,35485,2,0,L|185:136,1,89.9999976158143
182,141,35838,2,0,L|247:214,1,89.9999976158143
311,105,36191,6,0,B|329:69|372:69|366:124|338:156|338:156|352:246,1,179.999995231629
363,306,36544,1,0,0:0:0:0:
363,306,36897,1,0,0:0:0:0:
363,306,37250,1,0,0:0:0:0:
60,141,37603,6,0,L|94:231,1,89.9999976158143
91,225,37956,2,0,L|157:152,1,89.9999976158143
151,158,38308,2,0,L|185:248,1,89.9999976158143
182,243,38661,2,0,L|247:169,1,89.9999976158143
311,279,39014,6,0,B|329:315|372:315|366:260|338:228|338:228|352:138,1,179.999995231629
363,78,39367,1,0,0:0:0:0:
363,78,39720,1,0,0:0:0:0:
363,78,40073,1,0,0:0:0:0:
155,115,40427,5,0,0:0:0:0:
364,159,40603,1,0,0:0:0:0:
184,326,40780,5,0,0:0:0:0:
393,282,40956,1,0,0:0:0:0:
78,239,41133,5,0,0:0:0:0:
448,183,41309,1,0,0:0:0:0:
26,179,41485,5,0,0:0:0:0:
488,249,41661,1,0,0:0:0:0:
337,61,41838,5,0,0:0:0:0:
172,317,42015,1,0,0:0:0:0:
337,323,42191,5,0,0:0:0:0:
172,67,42368,1,0,0:0:0:0:
359,24,42544,5,0,0:0:0:0:
148,351,42721,1,0,0:0:0:0:
359,359,42897,5,0,0:0:0:0:
148,32,43074,1,0,0:0:0:0:
118,201,43250,6,0,B|-456:-107287|-456:-107287|721:109002|721:109002|119:192,1,432539.988541603
364,188,43339,6,0,B|-210:-107300|-210:-107300|967:108989|967:108989|365:179,1,432539.988541603
281,196,43427,6,0,B|-293:-107292|-293:-107292|884:108997|884:108997|282:187,1,432539.988541603
281,196,43515,6,0,B|-293:-107292|-293:-107292|884:108997|884:108997|282:187,1,432539.988541603
198,200,43603,6,0,B|-376:-107288|-376:-107288|801:109001|801:109001|199:191,1,432539.988541603
198,200,43692,6,0,B|-376:-107288|-376:-107288|801:109001|801:109001|199:191,1,432539.988541603
118,201,43780,6,0,B|-456:-107287|-456:-107287|721:109002|721:109002|119:192,1,432539.988541603
118,201,43868,6,0,B|-210:-107300|-210:-107300|967:108989|967:108989|365:179,1,432539.988541603
364,188,43956,6,0,B|-210:-107300|-210:-107300|967:108989|967:108989|365:179,1,432539.988541603
281,196,44045,6,0,B|-293:-107292|-293:-107292|884:108997|884:108997|282:187,1,432539.988541603
364,188,44133,6,0,B|-210:-107300|-210:-107300|967:108989|967:108989|365:179,1,432539.988541603
281,196,44221,6,0,B|-293:-107292|-293:-107292|884:108997|884:108997|282:187,1,432539.988541603
198,200,44309,6,0,B|-376:-107288|-376:-107288|801:109001|801:109001|199:191,1,432539.988541603
198,200,44398,6,0,B|-376:-107288|-376:-107288|801:109001|801:109001|199:191,1,432539.988541603
118,201,44486,6,0,B|-456:-107287|-456:-107287|721:109002|721:109002|119:192,1,432539.988541603
271,165,44662,6,0,P|252:116|251:169,1,134.999996423721
271,165,45015,6,0,P|229:59|227:173,1,269.999992847443
271,165,45368,6,0,P|203:-8|200:179,1,405.000004720688
271,165,45721,6,0,P|185:-55|180:183,1,539.999985694885
411,375,46069,5,0,0:0:0:0:
416,323,46157,1,0,0:0:0:0:
421,272,46245,1,0,0:0:0:0:
427,221,46333,1,0,0:0:0:0:
432,170,46421,1,0,0:0:0:0:
438,119,46510,1,0,0:0:0:0:
443,68,46598,1,0,0:0:0:0:
448,17,46686,1,0,0:0:0:0:
448,17,46775,5,0,0:0:0:0:
442,68,46863,1,0,0:0:0:0:
437,119,46951,1,0,0:0:0:0:
431,170,47039,1,0,0:0:0:0:
426,221,47127,1,0,0:0:0:0:
420,272,47216,1,0,0:0:0:0:
415,323,47304,1,0,0:0:0:0:
410,374,47392,1,0,0:0:0:0:
330,324,47481,6,0,L|142:308,1,179.999995231629
250,240,47658,2,0,L|62:224,1,179.999995231629
253,155,47834,2,0,L|441:139,1,179.999995231629
333,71,48011,2,0,L|521:55,1,179.999995231629
166,37,48187,5,0,0:0:0:0:
119,97,48275,1,0,0:0:0:0:
102,172,48363,1,0,0:0:0:0:
118,247,48451,1,0,0:0:0:0:
164,308,48539,1,0,0:0:0:0:
231,345,48628,1,0,0:0:0:0:
307,350,48716,1,0,0:0:0:0:
379,323,48804,1,0,0:0:0:0:
319,281,48893,6,0,L|92:318,1,179.999995231629
10,242,49069,2,0,L|187:213,1,179.999995231629
305,303,49246,2,0,L|75:300,1,179.999995231629,8|0,0:0|0:0,0:0:0:0:
7,210,49422,2,0,L|186:212,1,179.999995231629
288,321,49599,6,0,L|62:278,1,179.999995231629
10,178,49775,2,0,L|186:211,1,179.999995231629
267,336,49952,2,0,L|51:254,1,179.999995231629,8|0,0:0|0:0,0:0:0:0:
19,147,50128,2,0,L|187:210,1,179.999995231629,0|0,0:0|0:0,0:0:0:0:
322,249,50305,6,0,P|335:158|260:86,1,179.999995231629
434,0,50481,2,0,P|421:91|496:163,1,179.999995231629
322,249,50658,2,0,P|350:161|289:77,1,179.999995231629
475,23,50834,2,0,P|446:110|507:194,1,179.999995231629
322,249,51010,2,0,P|350:161|289:77,1,179.999995231629
475,23,51186,2,0,P|446:110|507:194,1,179.999995231629
322,249,51363,2,0,P|365:167|319:74,1,179.999995231629
511,53,51539,2,0,P|467:134|513:227,1,179.999995231629
200,361,51716,5,0,0:0:0:0:
163,293,51804,1,0,0:0:0:0:
161,217,51892,1,0,0:0:0:0:
195,148,51980,1,0,0:0:0:0:
256,103,52068,1,0,0:0:0:0:
331,90,52157,1,0,0:0:0:0:
404,114,52245,1,0,0:0:0:0:
458,168,52333,1,0,0:0:0:0:
387,184,52422,5,0,0:0:0:0:
312,170,52511,1,0,0:0:0:0:
251,123,52599,1,0,0:0:0:0:
220,54,52687,1,0,0:0:0:0:
291,38,52775,1,0,0:0:0:0:
366,52,52864,1,0,0:0:0:0:
427,99,52952,1,0,0:0:0:0:
458,168,53040,1,0,0:0:0:0:
448,239,53128,5,0,0:0:0:0:
413,307,53216,1,0,0:0:0:0:
350,350,53304,1,0,0:0:0:0:
274,358,53392,1,0,0:0:0:0:
203,329,53480,1,0,0:0:0:0:
155,270,53569,1,0,0:0:0:0:
141,195,53657,1,0,0:0:0:0:
164,122,53745,1,0,0:0:0:0:
198,187,53834,5,0,0:0:0:0:
217,260,53922,1,0,0:0:0:0:
278,303,54010,1,0,0:0:0:0:
354,297,54098,1,0,0:0:0:0:
407,244,54186,1,0,0:0:0:0:
414,169,54275,1,0,0:0:0:0:
371,107,54363,1,0,0:0:0:0:
298,87,54451,1,0,0:0:0:0:
312,158,54540,5,0,0:0:0:0:
270,221,54628,1,0,0:0:0:0:
199,247,54716,1,0,0:0:0:0:
126,226,54804,1,0,0:0:0:0:
80,166,54892,1,0,0:0:0:0:
79,90,54981,1,0,0:0:0:0:
124,28,55069,1,0,0:0:0:0:
196,6,55157,1,0,0:0:0:0:
257,46,55246,5,0,0:0:0:0:
251,105,55334,1,0,0:0:0:0:
246,165,55422,1,0,0:0:0:0:
240,225,55510,1,0,0:0:0:0:
298,209,55599,1,0,0:0:0:0:
357,206,55687,1,0,0:0:0:0:
410,178,55775,1,0,0:0:0:0:
446,131,55863,1,0,0:0:0:0:
469,199,55952,5,0,0:0:0:0:
463,274,56040,1,0,0:0:0:0:
415,334,56128,1,0,0:0:0:0:
343,356,56216,1,0,0:0:0:0:
270,334,56304,1,0,0:0:0:0:
222,275,56393,1,0,0:0:0:0:
216,199,56481,1,0,0:0:0:0:
254,133,56569,1,0,0:0:0:0:
284,198,56657,5,0,0:0:0:0:
278,273,56745,1,0,0:0:0:0:
230,333,56833,1,0,0:0:0:0:
158,355,56921,1,0,0:0:0:0:
85,333,57009,1,0,0:0:0:0:
37,274,57098,1,0,0:0:0:0:
31,198,57186,1,0,0:0:0:0:
69,132,57274,1,0,0:0:0:0:
96,199,57363,5,0,0:0:0:0:
146,207,57451,1,0,0:0:0:0:
197,216,57539,1,0,0:0:0:0:
248,224,57627,1,0,0:0:0:0:
298,233,57715,1,0,0:0:0:0:
349,242,57804,1,0,0:0:0:0:
400,250,57892,1,0,0:0:0:0:
450,259,57980,1,0,0:0:0:0:
450,259,58069,5,0,0:0:0:0:
400,250,58157,1,0,0:0:0:0:
349,242,58245,1,0,0:0:0:0:
298,233,58334,1,0,0:0:0:0:
248,224,58422,1,0,0:0:0:0:
197,216,58510,1,0,0:0:0:0:
146,207,58598,1,0,0:0:0:0:
96,199,58686,1,0,0:0:0:0:
100,122,58775,6,0,L|299:157,1,179.999995231629
454,184,58952,2,0,L|276:152,1,179.999995231629
78,274,59128,2,0,L|277:309,1,179.999995231629
432,336,59305,2,0,L|254:304,1,179.999995231629
253,94,59481,5,0,0:0:0:0:
315,50,59569,1,0,0:0:0:0:
390,56,59657,1,0,0:0:0:0:
445,109,59745,1,0,0:0:0:0:
454,184,59833,1,0,0:0:0:0:
413,248,59922,1,0,0:0:0:0:
341,271,60010,1,0,0:0:0:0:
271,244,60098,1,0,0:0:0:0:
217,194,60187,5,0,0:0:0:0:
150,157,60275,1,0,0:0:0:0:
77,172,60363,1,0,0:0:0:0:
31,233,60451,1,0,0:0:0:0:
36,308,60539,1,0,0:0:0:0:
90,361,60628,1,0,0:0:0:0:
165,367,60716,1,0,0:0:0:0:
225,321,60804,1,0,0:0:0:0:
140,264,60893,5,0,0:0:0:0:
95,201,60981,1,0,0:0:0:0:
91,125,61069,1,0,0:0:0:0:
128,59,61157,1,0,0:0:0:0:
194,22,61245,1,0,0:0:0:0:
270,26,61334,1,0,0:0:0:0:
332,70,61422,1,0,0:0:0:0:
362,140,61510,1,0,0:0:0:0:
292,121,61599,5,0,0:0:0:0:
218,110,61687,1,0,0:0:0:0:
156,153,61775,1,0,0:0:0:0:
140,226,61863,1,0,0:0:0:0:
179,291,61951,1,0,0:0:0:0:
251,311,62040,1,0,0:0:0:0:
318,276,62128,1,0,0:0:0:0:
343,205,62216,1,0,0:0:0:0:
271,219,62305,5,0,0:0:0:0:
303,287,62393,1,0,0:0:0:0:
369,324,62481,1,0,0:0:0:0:
444,314,62569,1,0,0:0:0:0:
499,261,62657,1,0,0:0:0:0:
512,186,62746,1,0,0:0:0:0:
479,118,62834,1,0,0:0:0:0:
412,83,62922,1,0,0:0:0:0:
382,154,63010,6,0,L|177:193,1,179.999995231629
298,37,63187,2,0,L|93:76,1,179.999995231629
461,270,63363,2,0,L|256:309,1,179.999995231629
205,187,63540,2,0,L|0:226,1,179.999995231629
205,187,63716,6,0,L|382:154,1,179.999995231629
121,70,63893,2,0,L|298:37,1,179.999995231629
284,303,64069,2,0,L|461:270,1,179.999995231629
28,220,64246,2,0,L|205:187,1,179.999995231629
384,0,64422,6,0,B|396:146|396:146|370:199,1,179.999995231629
202,363,64599,2,0,B|190:217|190:217|216:164,1,179.999995231629
381,176,64775,2,0,B|396:146|396:146|384:0,1,179.999995231629
204,186,64952,2,0,B|190:217|190:217|202:363,1,179.999995231629
197,77,65128,6,0,L|-12:96,1,179.999995231629
315,307,65305,2,0,L|524:288,1,179.999995231629
315,77,65481,2,0,L|524:96,1,179.999995231629
197,307,65658,2,0,L|-12:288,1,179.999995231629
2,1,65834,6,0,B|-16:-179|-16:-179|4:17,1,359.999990463257
510,1,66187,6,0,B|528:-179|528:-179|508:17,1,359.999990463257
2,383,66540,6,0,B|-16:563|-16:563|4:367,1,359.999990463257
504,383,66893,6,0,B|522:563|522:563|502:367,1,359.999990463257
0,192,67246,6,0,L|149:192,1,134.999996423721
0,192,67599,6,0,L|297:192,1,269.999992847443
0,192,67952,6,0,L|467:192,1,405.000004720688
0,192,68305,6,0,L|576:192,1,539.999985694885
88,0,68657,6,0,L|98:135,2,119.999996821086
172,40,69010,2,0,L|182:175,2,119.999996821086
271,222,69363,2,0,P|301:275|281:357,1,119.999996821086
194,365,69599,1,0,0:0:0:0:
59,299,69716,2,0,P|29:246|49:164,1,119.999996821086
136,156,69952,1,0,0:0:0:0:
271,222,70069,6,0,L|411:195,2,119.999996821086
136,156,70422,2,0,L|-4:129,2,119.999996821086
280,109,70775,2,0,L|420:82,2,119.999996821086
145,43,71128,2,0,L|5:16,2,119.999996821086
214,162,71481,6,0,B|181:142|160:177|164:210|202:212|202:212|249:222|253:254|240:284|207:309|166:284|167:250|209:208,1,239.999993642171
316,142,71834,2,0,B|406:126|406:126|382:286,1,239.999993642171
146,31,72187,2,0,B|113:11|92:46|96:79|134:81|134:81|181:91|185:123|172:153|139:178|98:153|99:119|141:77,1,239.999993642171
248,11,72540,2,0,B|338:-5|338:-5|314:155,1,239.999993642171
125,209,72893,6,0,B|109:334|109:334|71:279|48:314|45:333|84:367|108:317,1,239.999993642171
219,306,73246,2,0,B|270:291|270:291|254:266|209:246|171:298|178:327|214:355|225:360|269:355,1,239.999993642171
300,190,73599,2,0,B|350:227|350:227|385:181|385:181|343:319,1,239.999993642171
471,346,73952,2,0,P|515:282|452:338,1,239.999993642171
83,88,74305,6,0,B|105:212|105:212|103:237|85:254|54:261|17:256|5:204,1,239.999993642171
182,17,74657,1,0,0:0:0:0:
196,127,75010,2,0,L|226:379,1,239.999993642171
350,99,75363,2,0,B|279:124|280:171|322:194|361:181|373:131|373:131|382:162|414:190,1,239.999993642171
83,88,75716,6,0,B|105:212|105:212|103:237|85:254|54:261|17:256|5:204,1,239.999993642171
182,17,76068,1,0,0:0:0:0:
196,127,76421,2,0,L|226:379,1,239.999993642171
350,99,76774,2,0,B|279:124|280:171|322:194|361:181|373:131|373:131|382:162|414:190,1,239.999993642171
45,291,77128,6,0,B|104:231|104:231|107:299|107:299|40:225,1,239.999993642171
186,157,77481,1,0,0:0:0:0:
192,246,77599,2,0,L|200:368,1,119.999996821086
334,254,77834,2,0,B|274:273|297:331|342:334|376:267|376:267|382:321|411:348,1,239.999993642171
4,51,78187,2,0,B|24:159|24:159|10:84|10:84|51:52|88:60,1,239.999993642171
115,210,78540,2,0,B|166:195|166:195|150:170|105:150|67:202|74:231|110:259|121:264|165:259,1,239.999993642171
245,92,78893,2,0,B|234:212|234:212|250:51,1,239.999993642171
337,0,79246,1,0,0:0:0:0:
343,89,79364,2,0,L|351:211,1,119.999996821086
444,21,79599,2,0,B|384:40|407:98|452:101|486:34|486:34|492:88|521:115,1,239.999993642171
121,308,79952,6,0,P|80:267|92:175,2,119.999996821086
224,132,80305,2,0,P|265:173|253:265,2,119.999996821086
174,220,80657,1,0,0:0:0:0:
174,220,80775,1,0,0:0:0:0:
174,220,80893,1,0,0:0:0:0:
26,82,81010,1,0,0:0:0:0:
144,30,81128,1,0,0:0:0:0:
122,148,81246,1,0,0:0:0:0:
224,132,81363,6,0,L|375:110,2,119.999996821086
292,237,81716,2,0,L|141:215,2,119.999996821086
444,150,82069,1,0,0:0:0:0:
480,233,82187,1,0,0:0:0:0:
445,316,82305,1,0,0:0:0:0:
328,154,82422,1,0,0:0:0:0:
292,237,82540,1,0,0:0:0:0:
327,320,82658,1,0,0:0:0:0:
15,51,82775,6,0,B|41:169|41:169|159:137,1,239.999993642171
186,26,83128,2,0,L|202:290,1,239.999993642171
286,32,83481,2,0,B|312:150|312:150|430:118,1,239.999993642171
457,7,83834,2,0,L|473:271,1,239.999993642171
150,320,84187,6,0,P|270:282|414:338,1,269.999992847443
401,327,84540,2,0,P|277:282|150:320,1,269.999992847443
150,320,84893,2,0,P|270:282|414:338,1,269.999992847443
401,327,85246,2,0,P|277:282|150:320,1,269.999992847443
0,68,85599,6,0,P|-78:-53|74:96,1,945.000011014939
87,196,86305,2,0,L|85:3,1,179.999995231629
87,196,86657,2,0,L|86:92,3,89.9999976158143
196,250,87010,5,0,0:0:0:0:
287,172,87128,5,0,0:0:0:0:
308,291,87246,5,0,0:0:0:0:
182,218,87363,5,0,0:0:0:0:
305,144,87481,5,0,0:0:0:0:
308,291,87599,5,0,0:0:0:0:
404,65,87716,6,0,B|414:184|414:184|402:38,1,239.999993642171
182,218,88069,6,0,B|192:337|192:337|180:191,1,239.999993642171
85,192,88422,6,0,B|128:13125|128:13125|320:102|81:-1117,1,27179.9992799759
427,192,88599,6,0,B|383:13125|383:13125|107:118|431:-1117,1,27179.9992799759
85,192,88775,6,0,B|128:13125|128:13125|81:-1117,1,27089.9992823601
427,192,88952,6,0,B|383:13125|383:13125|584:116|431:-1117,1,27179.9992799759
85,192,89128,6,0,B|128:13125|128:13125|-73:117|81:-1117,1,27179.9992799759
427,192,89305,6,0,B|383:13125|383:13125|431:-1117,1,27089.9992823601
85,192,89481,6,0,B|128:13125|128:13125|81:-1117,1,27089.9992823601
427,192,89658,6,0,B|383:13125|383:13125|431:-1117,1,27089.9992823601
271,165,89834,6,0,P|252:116|251:169,1,134.999996423721
271,165,90187,6,0,P|229:59|227:173,1,269.999992847443
271,165,90540,6,0,P|203:-8|200:179,1,405.000004720688
271,165,90893,6,0,P|185:-55|180:183,1,539.999985694885
117,384,91245,5,0,0:0:0:0:
193,383,91333,1,0,0:0:0:0:
262,350,91421,1,0,0:0:0:0:
311,291,91509,1,0,0:0:0:0:
330,217,91597,1,0,0:0:0:0:
314,142,91686,1,0,0:0:0:0:
270,80,91774,1,0,0:0:0:0:
203,43,91862,1,0,0:0:0:0:
189,114,91951,5,0,0:0:0:0:
202,188,92039,1,0,0:0:0:0:
254,245,92127,1,0,0:0:0:0:
327,265,92215,1,0,0:0:0:0:
400,245,92303,1,0,0:0:0:0:
451,188,92392,1,0,0:0:0:0:
465,113,92480,1,0,0:0:0:0:
438,42,92568,1,0,0:0:0:0:
457,121,92657,5,0,0:0:0:0:
416,55,92745,1,0,0:0:0:0:
353,12,92833,1,0,0:0:0:0:
278,0,92921,1,0,0:0:0:0:
204,17,93009,1,0,0:0:0:0:
143,65,93098,1,0,0:0:0:0:
108,133,93186,1,0,0:0:0:0:
103,209,93274,1,0,0:0:0:0:
90,137,93363,5,0,0:0:0:0:
110,63,93451,1,0,0:0:0:0:
165,10,93539,1,0,0:0:0:0:
239,0,93627,1,0,0:0:0:0:
312,15,93715,1,0,0:0:0:0:
363,71,93804,1,0,0:0:0:0:
378,146,93892,1,0,0:0:0:0:
354,218,93980,1,0,0:0:0:0:
304,271,94069,5,0,0:0:0:0:
269,203,94157,1,0,0:0:0:0:
286,129,94245,1,0,0:0:0:0:
346,83,94333,1,0,0:0:0:0:
422,86,94421,1,0,0:0:0:0:
478,137,94510,1,0,0:0:0:0:
489,211,94598,1,0,0:0:0:0:
450,276,94686,1,0,0:0:0:0:
385,310,94775,5,0,0:0:0:0:
408,236,94863,1,0,0:0:0:0:
395,161,94951,1,0,0:0:0:0:
350,99,95039,1,0,0:0:0:0:
283,64,95127,1,0,0:0:0:0:
207,62,95216,1,0,0:0:0:0:
138,95,95304,1,0,0:0:0:0:
90,155,95392,1,0,0:0:0:0:
63,222,95481,5,0,0:0:0:0:
136,246,95569,1,0,0:0:0:0:
213,251,95657,1,0,0:0:0:0:
288,235,95745,1,0,0:0:0:0:
357,201,95833,1,0,0:0:0:0:
415,150,95922,1,0,0:0:0:0:
458,86,96010,1,0,0:0:0:0:
483,21,96098,1,0,0:0:0:0:
458,86,96186,5,0,0:0:0:0:
386,59,96274,1,0,0:0:0:0:
309,60,96362,1,0,0:0:0:0:
239,90,96450,1,0,0:0:0:0:
185,145,96538,1,0,0:0:0:0:
155,215,96627,1,0,0:0:0:0:
154,292,96715,1,0,0:0:0:0:
182,364,96803,1,0,0:0:0:0:
225,306,96892,5,0,0:0:0:0:
215,235,96980,1,0,0:0:0:0:
174,176,97068,1,0,0:0:0:0:
111,143,97156,1,0,0:0:0:0:
40,143,97244,1,0,0:0:0:0:
0,175,97333,1,0,0:0:0:0:
40,143,97422,1,0,0:0:0:0:
82,83,97511,1,0,0:0:0:0:
112,18,97598,5,0,0:0:0:0:
187,30,97686,1,0,0:0:0:0:
251,72,97774,1,0,0:0:0:0:
291,137,97862,1,0,0:0:0:0:
301,213,97950,1,0,0:0:0:0:
278,286,98039,1,0,0:0:0:0:
227,343,98127,1,0,0:0:0:0:
157,374,98215,1,0,0:0:0:0:
183,306,98304,5,0,0:0:0:0:
241,264,98392,1,0,0:0:0:0:
311,251,98480,1,0,0:0:0:0:
381,266,98568,1,0,0:0:0:0:
439,308,98656,1,0,0:0:0:0:
474,370,98745,1,0,0:0:0:0:
502,303,98834,1,0,0:0:0:0:
472,237,98922,1,0,0:0:0:0:
430,178,99010,5,0,0:0:0:0:
356,154,99098,1,0,0:0:0:0:
279,149,99186,1,0,0:0:0:0:
204,163,99274,1,0,0:0:0:0:
134,195,99362,1,0,0:0:0:0:
74,244,99451,1,0,0:0:0:0:
28,305,99539,1,0,0:0:0:0:
0,376,99627,1,0,0:0:0:0:
0,376,99716,5,0,0:0:0:0:
28,305,99804,1,0,0:0:0:0:
74,244,99892,1,0,0:0:0:0:
134,195,99981,1,0,0:0:0:0:
204,163,100069,1,0,0:0:0:0:
279,149,100157,1,0,0:0:0:0:
356,154,100245,1,0,0:0:0:0:
430,178,100333,1,0,0:0:0:0:
396,242,100422,5,0,0:0:0:0:
337,291,100510,1,0,0:0:0:0:
263,310,100598,1,0,0:0:0:0:
188,295,100686,1,0,0:0:0:0:
126,251,100774,1,0,0:0:0:0:
88,184,100863,1,0,0:0:0:0:
83,108,100951,1,0,0:0:0:0:
111,36,101039,1,0,0:0:0:0:
119,108,101128,5,0,0:0:0:0:
128,185,101216,1,0,0:0:0:0:
168,249,101304,1,0,0:0:0:0:
233,291,101393,1,0,0:0:0:0:
309,300,101481,1,0,0:0:0:0:
382,278,101569,1,0,0:0:0:0:
438,227,101657,1,0,0:0:0:0:
468,156,101745,1,0,0:0:0:0:
419,212,101834,5,0,0:0:0:0:
382,278,101922,1,0,0:0:0:0:
311,302,102010,1,0,0:0:0:0:
242,270,102098,1,0,0:0:0:0:
215,200,102186,1,0,0:0:0:0:
242,130,102275,1,0,0:0:0:0:
310,97,102363,1,0,0:0:0:0:
382,121,102451,1,0,0:0:0:0:
330,171,102539,5,0,0:0:0:0:
310,97,102627,1,0,0:0:0:0:
342,29,102715,1,0,0:0:0:0:
411,0,102803,1,0,0:0:0:0:
478,23,102891,1,0,0:0:0:0:
510,88,102980,1,0,0:0:0:0:
496,158,103068,1,0,0:0:0:0:
436,198,103156,1,0,0:0:0:0:
364,184,103245,5,0,0:0:0:0:
306,134,103333,1,0,0:0:0:0:
231,135,103421,1,0,0:0:0:0:
174,184,103509,1,0,0:0:0:0:
163,259,103597,1,0,0:0:0:0:
204,323,103686,1,0,0:0:0:0:
277,344,103774,1,0,0:0:0:0:
345,312,103862,1,0,0:0:0:0:
281,263,103951,5,0,0:0:0:0:
240,199,104040,1,0,0:0:0:0:
167,178,104128,1,0,0:0:0:0:
99,210,104216,1,0,0:0:0:0:
55,267,104304,5,0,0:0:0:0:
47,207,104392,1,0,0:0:0:0:
39,148,104480,1,0,0:0:0:0:
31,88,104568,1,0,0:0:0:0:
18,17,104657,5,0,0:0:0:0:
68,48,104745,1,0,0:0:0:0:
126,43,104833,1,0,0:0:0:0:
171,4,104921,1,0,0:0:0:0:
230,19,105010,6,0,L|435:50,1,179.999995231629
503,151,105186,2,0,L|325:124,1,179.999995231629
61,190,105363,5,0,0:0:0:0:
49,264,105451,1,0,0:0:0:0:
85,331,105539,1,0,0:0:0:0:
155,360,105627,1,0,0:0:0:0:
228,341,105715,1,0,0:0:0:0:
274,281,105804,1,0,0:0:0:0:
273,205,105892,1,0,0:0:0:0:
226,146,105980,1,0,0:0:0:0:
253,214,106069,5,0,0:0:0:0:
253,289,106157,1,0,0:0:0:0:
207,349,106245,1,0,0:0:0:0:
134,369,106334,1,0,0:0:0:0:
64,339,106422,1,0,0:0:0:0:
28,272,106510,1,0,0:0:0:0:
40,198,106598,1,0,0:0:0:0:
95,146,106686,1,0,0:0:0:0:
197,213,106775,5,0,0:0:0:0:
215,139,106863,1,0,0:0:0:0:
186,69,106951,1,0,0:0:0:0:
121,30,107039,1,0,0:0:0:0:
45,37,107127,1,0,0:0:0:0:
0,88,107216,1,0,0:0:0:0:
0,162,107304,1,0,0:0:0:0:
6,231,107392,1,0,0:0:0:0:
0,159,107481,5,0,0:0:0:0:
15,85,107569,1,0,0:0:0:0:
71,34,107657,1,0,0:0:0:0:
146,26,107746,1,0,0:0:0:0:
211,64,107834,1,0,0:0:0:0:
241,134,107922,1,0,0:0:0:0:
224,208,108010,1,0,0:0:0:0:
166,256,108098,1,0,0:0:0:0:
94,257,108186,5,0,0:0:0:0:
381,94,108363,1,0,0:0:0:0:
418,257,108539,5,0,0:0:0:0:
131,94,108716,1,0,0:0:0:0:
73,265,108892,5,0,0:0:0:0:
396,81,109069,1,0,0:0:0:0:
438,265,109245,5,0,0:0:0:0:
115,81,109422,1,0,0:0:0:0:
46,276,109598,5,0,0:0:0:0:
417,64,109775,1,0,0:0:0:0:
465,276,109951,5,0,0:0:0:0:
94,64,110128,1,0,0:0:0:0:
26,283,110304,5,0,0:0:0:0:
432,53,110481,1,0,0:0:0:0:
485,283,110657,5,0,0:0:0:0:
79,53,110834,1,0,0:0:0:0:
257,165,111010,6,0,B|-1658:-4022|-1658:-4022|3869:-2574|3869:-2574|227:167|227:167|5186:1637|5186:1637|1346:4775|1346:4775|271:211|271:211|-3326:3217|-3326:3217|-4379:-1214|-4379:-1214|291:190,1,43739.9988412857
261,164,111098,6,0,B|-898:-4292|-898:-4292|4294:-1906|4294:-1906|232:161|232:161|4859:2470|4859:2470|533:4893|533:4893|267:212|267:212|-3797:2547|-3797:2547|-4065:-1999|-4065:-1999|290:194,1,43739.9988412857
265,166,111186,6,0,B|-102:-4424|-102:-4424|4597:-1172|4597:-1172|237:158|237:158|4393:3235|4393:3235|-287:4870|-287:4870|263:214|263:214|-4145:1808|-4145:1808|-3619:-2716|-3619:-2716|288:200,1,43739.9988412857
269,168,111275,6,0,B|704:-4416|704:-4416|4768:-398|4768:-398|242:155|242:155|3801:3907|3801:3907|-1091:4705|-1091:4705|258:215|258:215|-4360:1019|-4360:1019|-3056:-3345|-3056:-3345|286:206,1,43739.9988412857
273,171,111363,6,0,B|1497:-4268|1497:-4268|4802:394|4802:394|249:154|249:154|3102:4467|3102:4467|-1854:4402|-1854:4402|254:216|254:216|-4433:205|-4433:205|-2391:-3866|-2391:-3866|283:211,1,43739.9988412857
276,174,111451,6,0,B|2253:-3985|2253:-3985|4697:1180|4697:1180|255:153|255:153|2317:4896|2317:4896|-2554:3972|-2554:3972|250:215|250:215|-4364:-609|-4364:-609|-1646:-4264|-1646:-4264|279:215,1,43739.9988412857
279,178,111539,6,0,B|2948:-3575|2948:-3575|4458:1936|4458:1936|262:154|262:154|1469:5183|1469:5183|-3167:3426|-3167:3426|246:214|246:214|-4155:-1399|-4155:-1399|-843:-4527|-843:-4527|275:219,1,43739.9988412857
281,183,111628,6,0,B|3561:-3049|3561:-3049|4092:2640|4092:2640|269:156|269:156|584:5318|584:5318|-3677:2783|-3677:2783|243:212|243:212|-3811:-2140|-3811:-2140|-7:-4645|-7:-4645|270:223,1,43739.9988412857
282,187,111716,6,0,B|4074:-2426|4074:-2426|3608:3269|3608:3269|275:158|275:158|-311:5297|-311:5297|-4067:2060|-4067:2060|239:209|239:209|-3345:-2811|-3345:-2811|836:-4618|836:-4618|264:224,1,43739.9988412857
282,192,111804,6,0,B|4470:-1723|4470:-1723|3022:3805|3022:3805|280:163|280:163|-1189:5121|-1189:5121|-4326:1281|-4326:1281|236:206|236:206|-2769:-3391|-2769:-3391|1662:-4444|1662:-4444|258:226,1,43739.9988412857
281,196,111892,6,0,B|4739:-963|4739:-963|2353:4230|2353:4230|284:167|284:167|-2024:4794|-2024:4794|-4447:469|-4447:469|233:202|233:202|-2101:-3862|-2101:-3862|2445:-4130|2445:-4130|251:225,1,43739.9988412857
280,201,111981,6,0,B|4871:-166|4871:-166|1620:4533|1620:4533|288:173|288:173|-2788:4329|-2788:4329|-4423:-351|-4423:-351|232:199|232:199|-1361:-4209|-1361:-4209|3163:-3683|3163:-3683|246:224,1,43739.9988412857
278,205,112069,6,0,B|4864:640|4864:640|845:4704|845:4704|291:178|291:178|-3460:3738|-3460:3738|-4258:-1155|-4258:-1155|231:195|231:195|-572:-4423|-572:-4423|3792:-3119|3792:-3119|240:222,1,43739.9988412857
275,209,112157,6,0,B|4715:1433|4715:1433|52:4738|52:4738|292:185|292:185|-4020:3039|-4020:3039|-3955:-1918|-3955:-1918|231:191|231:191|241:-4497|241:-4497|4313:-2455|4313:-2455|235:219,1,43739.9988412857
272,212,112245,6,0,B|4432:2189|4432:2189|-733:4633|-733:4633|293:192|293:192|-4449:2253|-4449:2253|-3524:-2618|-3524:-2618|232:186|232:186|1056:-4428|1056:-4428|4711:-1710|4711:-1710|231:215,1,43739.9988412857
268,215,112333,6,0,B|4022:2884|4022:2884|-1489:4395|-1489:4395|293:199|293:199|-4735:1405|-4735:1405|-2979:-3231|-2979:-3231|233:183|233:183|1846:-4219|1846:-4219|4974:-907|4974:-907|227:211,1,43739.9988412857
253,217,112422,6,0,B|2169:4406|2169:4406|-3358:2958|-3358:2958|283:215|283:215|-4675:-1254|-4675:-1254|-835:-4391|-835:-4391|239:171|239:171|3837:-2834|3837:-2834|4890:1597|4890:1597|220:193,1,43739.9988412857
249,217,112510,6,0,B|1409:4675|1409:4675|-3783:2289|-3783:2289|279:220|279:220|-4348:-2087|-4348:-2087|-22:-4510|-22:-4510|243:169|243:169|4308:-2165|4308:-2165|4576:2382|4576:2382|220:187,1,43739.9988412857
245,216,112598,6,0,B|613:4807|613:4807|-4086:1556|-4086:1556|274:224|274:224|-3882:-2852|-3882:-2852|798:-4487|798:-4487|247:168|247:168|4657:-1425|4657:-1425|4130:3099|4130:3099|222:182,1,43739.9988412857
241,214,112687,6,0,B|-192:4800|-192:4800|-4257:781|-4257:781|268:227|268:227|-3290:-3524|-3290:-3524|1602:-4321|1602:-4321|252:167|252:167|4871:-636|4871:-636|3567:3728|3567:3728|224:176,1,43739.9988412857
237,211,112775,6,0,B|-986:4652|-986:4652|-4291:-11|-4291:-11|261:229|261:229|-2591:-4084|-2591:-4084|2365:-4019|2365:-4019|256:167|256:167|4944:177|4944:177|2902:4249|2902:4249|227:171,1,43739.9988412857
234,207,112863,6,0,B|-1742:4368|-1742:4368|-4186:-798|-4186:-798|255:229|255:229|-1805:-4514|-1805:-4514|3065:-3589|3065:-3589|260:167|260:167|4875:991|4875:991|2157:4646|2157:4646|231:166,1,43739.9988412857
231,203,112951,6,0,B|-2437:3957|-2437:3957|-3947:-1554|-3947:-1554|248:228|248:228|-958:-4800|-958:-4800|3678:-3044|3678:-3044|264:168|264:168|4666:1781|4666:1781|1354:4909|1354:4909|235:162,1,43739.9988412857
229,199,113040,6,0,B|-3050:3433|-3050:3433|-3581:-2257|-3581:-2257|241:226|241:226|-72:-4935|-72:-4935|4188:-2400|4188:-2400|267:170|267:170|4322:2523|4322:2523|518:5029|518:5029|240:159,1,43739.9988412857
228,195,113128,6,0,B|-3563:2810|-3563:2810|-3097:-2885|-3097:-2885|235:224|235:224|822:-4913|822:-4913|4578:-1677|4578:-1677|271:173|271:173|3856:3195|3856:3195|-325:5001|-325:5001|246:158,1,43739.9988412857
228,190,113216,6,0,B|-3959:2107|-3959:2107|-2511:-3421|-2511:-3421|230:220|230:220|1700:-4738|1700:-4738|4837:-898|4837:-898|274:176|274:176|3280:3774|3280:3774|-1151:4827|-1151:4827|252:157,1,43739.9988412857
229,185,113304,6,0,B|-4228:1345|-4228:1345|-1841:-3847|-1841:-3847|226:215|226:215|2535:-4412|2535:-4412|4958:-86|4958:-86|277:179|277:179|2612:4245|2612:4245|-1934:4512|-1934:4512|259:156,1,43739.9988412857
230,181,113393,6,0,B|-4360:550|-4360:550|-1109:-4150|-1109:-4150|222:210|222:210|3299:-3946|3299:-3946|4934:734|4934:734|278:184|278:184|1872:4593|1872:4593|-2652:4066|-2652:4066|264:158,1,43739.9988412857
232,176,113481,6,0,B|-4352:-257|-4352:-257|-334:-4321|-334:-4321|219:203|219:203|3971:-3355|3971:-3355|4769:1538|4769:1538|279:187|279:187|1083:4806|1083:4806|-3281:3502|-3281:3502|270:159,1,43739.9988412857
235,173,113569,6,0,B|-4204:-1050|-4204:-1050|458:-4355|458:-4355|218:197|218:197|4531:-2655|4531:-2655|4466:2302|4466:2302|279:192|279:192|269:4880|269:4880|-3802:2838|-3802:2838|275:163,1,43739.9988412857
238,169,113657,6,0,B|-3921:-1806|-3921:-1806|1244:-4251|1244:-4251|217:190|217:190|4960:-1870|4960:-1870|4035:3000|4035:3000|279:195|279:195|-545:4811|-545:4811|-4200:2093|-4200:2093|279:166,1,43739.9988412857
242,167,113745,6,0,B|-3511:-2501|-3511:-2501|2000:-4011|2000:-4011|217:184|217:184|5247:-1021|5247:-1021|3490:3614|3490:3614|277:200|277:200|-1335:4602|-1335:4602|-4463:1290|-4463:1290|283:172,1,43739.9988412857
120,315,113833,6,0,L|108:216,1,89.9999976158143
135,325,114185,6,0,L|123:226,1,89.9999976158143
135,325,114362,2,0,L|123:226,1,89.9999976158143
135,325,114538,1,0,0:0:0:0:
135,325,114891,6,0,L|123:226,1,89.9999976158143
135,325,115068,2,0,L|123:226,1,89.9999976158143
135,325,115244,1,0,0:0:0:0:
135,325,115597,6,0,L|123:226,1,89.9999976158143
135,325,115774,2,0,L|123:226,1,89.9999976158143
135,325,115950,1,0,0:0:0:0:
120,315,116303,6,0,L|108:216,1,89.9999976158143
120,315,116656,6,0,L|108:216,1,89.9999976158143
135,325,117008,6,0,L|123:226,1,89.9999976158143
135,325,117185,2,0,L|123:226,1,89.9999976158143
135,325,117361,1,0,0:0:0:0:
135,325,117714,6,0,L|123:226,1,89.9999976158143
135,325,117891,2,0,L|123:226,1,89.9999976158143
135,325,118067,1,0,0:0:0:0:
135,325,118420,6,0,L|123:226,1,89.9999976158143
135,325,118597,2,0,L|123:226,1,89.9999976158143
135,325,118773,1,0,0:0:0:0:
