osu file format v14

[General]
AudioFilename: audio.mp3
AudioLeadIn: 0
PreviewTime: 78019
Countdown: 0
SampleSet: Soft
StackLeniency: 0.7
Mode: 3
LetterboxInBreaks: 0
SpecialStyle: 0
WidescreenStoryboard: 0

[Editor]
DistanceSpacing: 1.3
BeatDivisor: 2
GridSize: 4
TimelineZoom: 1.8

[Metadata]
Title:Picon de Metafiction
TitleUnicode:ピコンでメタフィクション
Artist:Erabareshi
ArtistUnicode:エラバレシ
Creator:Rivals_7
Version:Priest // Beginner Lv. 5
Source:四女神オンライン CYBER DIMENSION NEPTUNE
Tags:Neptunia Hyperdimension Four Goddesses Online cyberdimension choujigen game neptune idea factory compile heart opening OP JRPG 超次元ゲイム ネプテューヌ tamsoft pikon
BeatmapID:1189173
BeatmapSetID:562475

[Difficulty]
HPDrainRate:6.5
CircleSize:4
OverallDifficulty:7
ApproachRate:5
SliderMultiplier:1.4
SliderTickRate:1

[Events]
//Background and Video events
0,0,"Cyberdimension.jpg",0,0
Video,0,"video.avi"
//Break Periods
//Storyboard Layer 0 (Background)
//Storyboard Layer 1 (Fail)
//Storyboard Layer 2 (Pass)
//Storyboard Layer 3 (Foreground)
//Storyboard Sound Samples
Sample,53365,0,"Cymbal.wav",50
Sample,54642,0,"Cymbal.wav",50
Sample,54642,0,"Clap.wav",50
Sample,57195,0,"Cymbal.wav",50
Sample,57195,0,"Clap.wav",50
Sample,72833,0,"Cymbal.wav",50
Sample,78897,0,"Kick.wav",50
Sample,84163,0,"Cymbal.wav",50
Sample,89110,0,"Cymbal.wav",50
Sample,90387,0,"Cymbal.wav",50
Sample,94216,0,"Cymbal.wav",50
Sample,94216,0,"Clap.wav",50
Sample,96929,0,"Cymbal.wav",50
Sample,101876,0,"Cymbal.wav",50
Sample,104589,0,"Cymbal.wav",50
Sample,109535,0,"Cymbal.wav",50

[TimingPoints]
2047,491.803278688525,4,2,1,30,1,0
2047,-64.9350649350649,4,2,1,30,0,0
22409,319.148936170213,4,2,1,30,1,0
22887,319.148936170213,4,2,1,30,1,1
33099,-100,4,2,1,30,0,0
78897,-100,4,2,1,30,0,1
88950,-100,4,2,1,30,0,0
89110,-100,4,2,1,30,0,1
101876,-100,4,2,1,30,0,0
114801,-100,4,2,1,30,0,1
124535,-100,4,2,1,30,0,0

[HitObjects]
448,192,2047,5,0,0:0:0:50:normal-hitwhistle.wav
320,192,2292,1,0,0:0:0:0:
192,192,2538,1,0,0:0:0:0:
448,192,2784,1,0,0:0:0:0:
64,192,3030,1,0,0:0:0:0:
320,192,3276,1,0,0:0:0:0:
192,192,3522,1,0,0:0:0:0:
64,192,3768,1,0,0:0:0:0:
448,192,4014,1,0,0:0:0:0:
320,192,4260,1,0,0:0:0:0:
192,192,4506,1,0,0:0:0:0:
64,192,4751,1,0,0:0:0:0:
192,192,5735,1,0,0:0:0:0:
448,192,5981,1,0,0:0:0:0:
64,192,6227,1,0,0:0:0:0:
192,192,6473,1,0,0:0:0:0:
320,192,6719,1,0,0:0:0:0:
448,192,7948,1,0,0:0:0:0:
64,192,8194,1,0,0:0:0:0:
320,192,8440,1,0,0:0:0:0:
192,192,8686,1,0,0:0:0:0:
320,192,8932,1,0,0:0:0:0:
448,192,9178,1,0,0:0:0:0:
64,192,9424,1,0,0:0:0:0:
320,192,9669,1,0,0:0:0:0:
192,192,9915,1,0,0:0:0:50:normal-hitwhistle.wav
448,192,10161,1,0,0:0:0:0:
320,192,10407,1,0,0:0:0:0:
192,192,10653,1,0,0:0:0:0:
64,192,11883,1,0,0:0:0:0:
192,192,12128,1,0,0:0:0:0:
448,192,12374,1,0,0:0:0:0:
320,192,12620,1,0,0:0:0:0:
448,192,13850,1,0,0:0:0:0:
64,192,13850,128,0,15817:0:0:0:0:
448,192,17784,128,0,22210:0:0:0:0:
64,192,17784,1,0,0:0:0:0:
192,192,22409,128,0,22887:0:0:0:0:
64,192,22887,1,0,0:0:0:50:Clap.wav
448,192,22887,1,0,0:0:0:50:Cymbal.wav
320,192,23206,1,0,0:0:0:50:Clap.wav
192,192,23525,1,0,0:0:0:50:Clap.wav
448,192,23844,1,0,0:0:0:50:Clap.wav
64,192,24004,1,0,0:0:0:50:Kick.wav
320,192,24323,1,0,0:0:0:50:Kick.wav
192,192,24482,1,0,0:0:0:50:Clap.wav
448,192,24801,1,0,0:0:0:50:Clap.wav
64,192,25121,1,0,0:0:0:50:Clap.wav
320,192,25440,1,0,0:0:0:50:Clap.wav
192,192,25759,1,0,0:0:0:50:Clap.wav
448,192,26078,1,0,0:0:0:50:Clap.wav
64,192,26397,1,0,0:0:0:50:Clap.wav
320,192,26557,1,0,0:0:0:50:Kick.wav
192,192,26876,1,0,0:0:0:50:Kick.wav
448,192,27035,1,0,0:0:0:50:Clap.wav
64,192,27355,1,0,0:0:0:50:Kick.wav
448,192,27674,128,0,27993:0:0:0:50:Clap.wav
192,192,27993,1,0,0:0:0:50:Clap.wav
320,192,28312,1,0,0:0:0:50:Clap.wav
64,192,28631,1,0,0:0:0:50:Clap.wav
448,192,28950,1,0,0:0:0:50:Clap.wav
192,192,29110,1,0,0:0:0:50:Kick.wav
448,192,29429,1,0,0:0:0:50:Kick.wav
64,192,29589,1,0,0:0:0:50:Clap.wav
320,192,29908,1,0,0:0:0:50:Clap.wav
192,192,30227,1,0,0:0:0:50:Clap.wav
448,192,30546,1,0,0:0:0:50:Clap.wav
64,192,30865,1,0,0:0:0:50:Clap.wav
320,192,31184,1,0,0:0:0:50:Clap.wav
192,192,31504,1,0,0:0:0:50:Clap.wav
448,192,31663,128,0,31982:0:0:0:50:Kick.wav
64,192,31982,1,0,0:0:0:50:Kick.wav
320,192,32142,1,0,0:0:0:50:Clap.wav
192,192,32461,1,0,0:0:0:50:Clap.wav
448,192,32621,1,0,0:0:0:50:Kick.wav
64,192,32780,1,0,0:0:0:50:Clap.wav
320,192,33099,1,0,0:0:0:50:hithat.wav
192,192,33418,1,0,0:0:0:50:hithat.wav
64,192,33738,1,0,0:0:0:50:hithat.wav
448,192,34057,1,0,0:0:0:50:hithat.wav
320,192,34376,1,0,0:0:0:50:hithat.wav
192,192,34695,1,0,0:0:0:50:hithat.wav
320,192,35014,1,0,0:0:0:50:hithat.wav
448,192,35333,1,0,0:0:0:50:hithat.wav
64,192,35652,1,0,0:0:0:50:hithat.wav
192,192,35972,1,0,0:0:0:50:hithat.wav
448,192,36291,1,0,0:0:0:50:hithat.wav
320,192,36610,1,0,0:0:0:50:hithat.wav
64,192,36929,1,0,0:0:0:50:hithat.wav
448,192,37248,1,0,0:0:0:50:hithat.wav
192,192,37567,1,0,0:0:0:50:hithat.wav
320,192,37887,1,0,0:0:0:50:hithat.wav
192,192,38206,1,0,0:0:0:50:hithat.wav
64,192,38525,1,0,0:0:0:50:hithat.wav
448,192,38844,1,0,0:0:0:50:hithat.wav
320,192,39163,1,0,0:0:0:50:hithat.wav
192,192,39482,1,0,0:0:0:50:hithat.wav
448,192,39801,1,0,0:0:0:50:hithat.wav
64,192,40121,1,0,0:0:0:50:hithat.wav
192,192,40440,1,0,0:0:0:50:hithat.wav
448,192,40759,128,0,41397:0:0:0:50:hithat.wav
320,192,41397,128,0,42035:0:0:0:50:hithat.wav
192,192,42035,128,0,42674:0:0:0:50:hithat.wav
64,192,42674,128,0,43312:0:0:0:50:hithat.wav
320,192,43312,1,0,0:0:0:50:hithat.wav
448,192,43631,1,0,0:0:0:50:hithat.wav
192,192,43950,1,0,0:0:0:50:hithat.wav
320,192,44269,1,0,0:0:0:50:hithat.wav
64,192,44589,1,0,0:0:0:50:hithat.wav
448,192,44908,1,0,0:0:0:50:hithat.wav
320,192,45227,1,0,0:0:0:50:hithat.wav
192,192,45546,1,0,0:0:0:50:hithat.wav
448,192,45865,1,0,0:0:0:50:hithat.wav
64,192,46184,1,0,0:0:0:50:hithat.wav
192,192,46504,1,0,0:0:0:50:hithat.wav
320,192,46823,1,0,0:0:0:50:hithat.wav
64,192,47142,1,0,0:0:0:50:hithat.wav
448,192,47461,1,0,0:0:0:50:hithat.wav
192,192,47780,1,0,0:0:0:50:hithat.wav
320,192,48099,1,0,0:0:0:50:hithat.wav
64,192,48418,1,0,0:0:0:50:hithat.wav
448,192,48738,1,0,0:0:0:50:hithat.wav
320,192,49057,1,0,0:0:0:50:hithat.wav
192,192,49376,1,0,0:0:0:50:hithat.wav
448,192,49695,1,0,0:0:0:50:hithat.wav
64,192,50014,1,0,0:0:0:50:hithat.wav
320,192,50333,1,0,0:0:0:50:hithat.wav
192,192,50652,1,0,0:0:0:50:hithat.wav
448,192,50972,1,0,0:0:0:50:hithat.wav
64,192,52089,1,0,0:0:0:50:Kick.wav
448,192,52089,1,0,0:0:0:50:Clap.wav
320,192,52408,1,0,0:0:0:50:Kick.wav
192,192,52567,1,0,0:0:0:50:Clap.wav
64,192,52727,1,0,0:0:0:50:Clap.wav
448,192,52887,1,0,0:0:0:50:Clap.wav
320,192,53046,1,0,0:0:0:50:Kick.wav
64,192,53365,1,0,0:0:0:50:Kick.wav
192,192,53365,1,0,0:0:0:50:Clap.wav
320,192,53684,1,0,0:0:0:50:Kick.wav
64,192,53844,1,0,0:0:0:50:Clap.wav
448,192,54163,1,0,0:0:0:50:Kick.wav
192,192,54482,1,0,0:0:0:50:Clap.wav
320,192,54642,1,0,0:0:0:50:Kick.wav
64,192,54961,1,0,0:0:0:50:Kick.wav
448,192,55121,1,0,0:0:0:50:Clap.wav
192,192,55440,1,0,0:0:0:50:Kick.wav
320,192,55759,1,0,0:0:0:50:Clap.wav
192,192,56078,1,0,0:0:0:50:Kick.wav
448,192,56397,1,0,0:0:0:50:Clap.wav
64,192,56716,1,0,0:0:0:50:Kick.wav
320,192,57035,1,0,0:0:0:50:Clap.wav
192,192,57195,1,0,0:0:0:50:Kick.wav
448,192,57514,1,0,0:0:0:50:Kick.wav
64,192,57674,1,0,0:0:0:50:Clap.wav
192,192,57993,1,0,0:0:0:50:Clap.wav
448,192,58312,1,0,0:0:0:50:Clap.wav
320,192,58472,1,0,0:0:0:50:Clap.wav
64,192,58631,1,0,0:0:0:50:Kick.wav
192,192,58950,1,0,0:0:0:50:Clap.wav
448,192,59269,1,0,0:0:0:50:Kick.wav
64,192,59589,1,0,0:0:0:50:Clap.wav
320,192,59908,1,0,0:0:0:50:Kick.wav
448,192,60227,1,0,0:0:0:50:Clap.wav
64,192,60546,1,0,0:0:0:50:Kick.wav
448,192,60865,1,0,0:0:0:50:Clap.wav
192,192,61184,1,0,0:0:0:50:Kick.wav
320,192,61504,1,0,0:0:0:50:Clap.wav
64,192,61663,1,0,0:0:0:50:Kick.wav
448,192,61982,1,0,0:0:0:50:Kick.wav
320,192,62142,1,0,0:0:0:0:
192,192,62301,1,0,0:0:0:50:Kick.wav
64,192,62621,128,0,63099:0:0:0:50:Kick.wav
448,192,63099,1,0,0:0:0:50:Clap.wav
320,192,63259,1,0,0:0:0:50:Kick.wav
192,192,63578,1,0,0:0:0:25:Kick.wav
448,192,63578,1,0,0:0:0:25:Kick.wav
64,192,63897,1,0,0:0:0:50:Kick.wav
320,192,64057,1,0,0:0:0:50:Kick.wav
192,192,64376,1,0,0:0:0:50:Clap.wav
448,192,64535,1,0,0:0:0:50:Kick.wav
64,192,64855,1,0,0:0:0:50:Kick.wav
448,192,65174,1,0,0:0:0:50:Clap.wav
192,192,65333,1,0,0:0:0:50:Kick.wav
320,192,65652,1,0,0:0:0:50:Clap.wav
64,192,65972,1,0,0:0:0:50:Kick.wav
192,192,66291,1,0,0:0:0:50:Clap.wav
448,192,66450,1,0,0:0:0:0:
64,192,66610,1,0,0:0:0:0:
320,192,66769,1,0,0:0:0:50:Clap.wav
192,192,67089,1,0,0:0:0:50:Kick.wav
448,192,67248,1,0,0:0:0:0:
64,192,67408,128,0,67727:0:0:0:50:Clap.wav
448,192,67727,1,0,0:0:0:50:Kick.wav
192,192,67887,1,0,0:0:0:50:Clap.wav
320,192,68046,1,0,0:0:0:50:Kick.wav
448,192,68206,128,0,68525:0:0:0:50:Clap.wav
320,192,68525,128,0,68844:0:0:0:50:Clap.wav
64,192,68844,128,0,69482:0:0:0:0:
192,192,69482,128,0,70121:0:0:0:0:
320,192,70121,128,0,70759:0:0:0:0:
448,192,70759,128,0,71397:0:0:0:0:
192,192,71397,1,0,0:0:0:50:Clap.wav
64,192,71716,1,0,0:0:0:50:Clap.wav
320,192,72035,1,0,0:0:0:50:Clap.wav
64,192,72195,1,0,0:0:0:50:Kick.wav
448,192,72355,1,0,0:0:0:50:Clap.wav
192,192,72514,1,0,0:0:0:50:Kick.wav
320,192,72833,1,0,0:0:0:50:Clap.wav
64,192,72993,1,0,0:0:0:50:Clap.wav
448,192,73152,1,0,0:0:0:50:Kick.wav
192,192,73312,1,0,0:0:0:50:Clap.wav
320,192,73472,1,0,0:0:0:50:Kick.wav
64,192,73791,1,0,0:0:0:50:Kick.wav
448,192,74110,1,0,0:0:0:0:
192,192,74269,1,0,0:0:0:0:
320,192,74589,1,0,0:0:0:0:
64,192,74908,1,0,0:0:0:0:
192,192,75227,1,0,0:0:0:25:Kick.wav
448,192,75546,1,0,0:0:0:50:Clap.wav
320,192,75706,1,0,0:0:0:50:Kick.wav
192,192,75865,1,0,0:0:0:50:Clap.wav
64,192,76025,1,0,0:0:0:50:Clap.wav
320,192,76344,1,0,0:0:0:50:Kick.wav
64,192,76663,1,0,0:0:0:50:Kick.wav
448,192,76823,1,0,0:0:0:50:Clap.wav
192,192,76982,1,0,0:0:0:0:
320,192,77142,1,0,0:0:0:50:Kick.wav
64,192,77301,1,0,0:0:0:0:
192,192,77461,1,0,0:0:0:50:Clap.wav
448,192,77621,1,0,0:0:0:50:Kick.wav
64,192,78418,128,0,78897:0:0:0:0:
320,192,78897,1,0,0:0:0:50:Clap.wav
448,192,78897,1,0,0:0:0:50:Cymbal.wav
192,192,79376,1,0,0:0:0:50:Clap.wav
448,192,79695,1,0,0:0:0:50:Kick.wav
320,192,80014,1,0,0:0:0:50:Clap.wav
64,192,80333,1,0,0:0:0:50:Kick.wav
448,192,80652,1,0,0:0:0:50:Clap.wav
192,192,80972,1,0,0:0:0:50:Kick.wav
320,192,81291,1,0,0:0:0:50:Clap.wav
64,192,81610,1,0,0:0:0:50:Kick.wav
448,192,81929,1,0,0:0:0:50:Clap.wav
320,192,82248,1,0,0:0:0:50:Kick.wav
192,192,82567,1,0,0:0:0:50:Clap.wav
448,192,82887,1,0,0:0:0:50:Kick.wav
64,192,83206,1,0,0:0:0:50:Clap.wav
192,192,83525,1,0,0:0:0:50:Kick.wav
320,192,83844,1,0,0:0:0:50:Clap.wav
448,192,84163,1,0,0:0:0:50:Kick.wav
64,192,84482,1,0,0:0:0:50:Clap.wav
320,192,84801,1,0,0:0:0:50:Kick.wav
192,192,85121,1,0,0:0:0:50:Clap.wav
448,192,85440,1,0,0:0:0:50:Kick.wav
64,192,85759,1,0,0:0:0:50:Clap.wav
320,192,86078,1,0,0:0:0:50:Kick.wav
448,192,86397,1,0,0:0:0:50:Clap.wav
192,192,86716,1,0,0:0:0:50:Clap.wav
192,192,87035,1,0,0:0:0:50:Clap.wav
320,192,87355,1,0,0:0:0:50:Clap.wav
320,192,87674,1,0,0:0:0:50:Clap.wav
64,192,87993,1,0,0:0:0:50:Clap.wav
448,192,88312,1,0,0:0:0:50:Kick.wav
192,192,88472,1,0,0:0:0:50:Clap.wav
320,192,88791,1,0,0:0:0:50:Kick.wav
64,192,89110,1,0,0:0:0:50:Clap.wav
448,192,89110,1,0,0:0:0:50:Kick.wav
320,192,89429,1,0,0:0:0:50:Kick.wav
192,192,89589,1,0,0:0:0:50:Clap.wav
448,192,89908,1,0,0:0:0:50:Clap.wav
320,192,90227,1,0,0:0:0:50:Clap.wav
64,192,90387,1,0,0:0:0:50:Clap.wav
448,192,90706,1,0,0:0:0:50:Kick.wav
192,192,90865,1,0,0:0:0:50:Clap.wav
320,192,91184,1,0,0:0:0:50:Clap.wav
64,192,91504,1,0,0:0:0:50:Clap.wav
192,192,91823,1,0,0:0:0:50:Kick.wav
448,192,92142,1,0,0:0:0:50:Clap.wav
320,192,92461,1,0,0:0:0:50:Kick.wav
64,192,92780,1,0,0:0:0:50:Clap.wav
448,192,93099,1,0,0:0:0:50:Clap.wav
192,192,93259,1,0,0:0:0:50:Clap.wav
320,192,93578,1,0,0:0:0:50:Kick.wav
64,192,93897,1,0,0:0:0:50:Kick.wav
192,192,94216,1,0,0:0:0:50:Kick.wav
448,192,94535,1,0,0:0:0:50:Kick.wav
64,192,94695,1,0,0:0:0:50:Clap.wav
320,192,95014,1,0,0:0:0:50:Kick.wav
192,192,95333,1,0,0:0:0:50:Clap.wav
448,192,95493,1,0,0:0:0:50:Kick.wav
64,192,95812,1,0,0:0:0:50:Kick.wav
320,192,95972,1,0,0:0:0:50:Clap.wav
192,192,96291,1,0,0:0:0:50:Kick.wav
448,192,96610,1,0,0:0:0:50:Clap.wav
320,192,96929,1,0,0:0:0:50:Clap.wav
64,192,97248,1,0,0:0:0:50:Clap.wav
448,192,97567,1,0,0:0:0:50:Clap.wav
192,192,97887,1,0,0:0:0:50:Clap.wav
64,192,98206,1,0,0:0:0:50:Clap.wav
448,192,98525,1,0,0:0:0:50:Clap.wav
320,192,98844,1,0,0:0:0:50:Clap.wav
192,192,99163,1,0,0:0:0:50:Clap.wav
448,192,99482,1,0,0:0:0:50:Clap.wav
64,192,99801,1,0,0:0:0:50:Clap.wav
192,192,99961,1,0,0:0:0:50:Kick.wav
320,192,100121,1,0,0:0:0:50:Kick.wav
448,192,100280,1,0,0:0:0:50:Kick.wav
192,192,100440,1,0,0:0:0:50:Kick.wav
64,192,100599,128,0,100918:0:0:0:50:Kick.wav
448,192,100918,1,0,0:0:0:50:Kick.wav
320,192,101078,1,0,0:0:0:50:Kick.wav
64,192,101557,1,0,0:0:0:0:
192,192,101716,1,0,0:0:0:0:
448,192,101876,1,0,0:0:0:50:Kick.wav
320,192,101876,1,0,0:0:0:50:Clap.wav
192,192,102355,1,0,0:0:0:0:
448,192,102514,1,0,0:0:0:50:Kick.wav
64,192,102674,1,0,0:0:0:50:Clap.wav
320,192,102993,1,0,0:0:0:0:
192,192,103152,1,0,0:0:0:50:Kick.wav
448,192,103472,1,0,0:0:0:50:Clap.wav
320,192,103631,1,0,0:0:0:50:Kick.wav
192,192,103950,1,0,0:0:0:50:Clap.wav
448,192,104269,1,0,0:0:0:0:
320,192,104429,1,0,0:0:0:0:
64,192,104589,1,0,0:0:0:50:Clap.wav
192,192,104908,1,0,0:0:0:50:Kick.wav
320,192,105227,1,0,0:0:0:50:Clap.wav
448,192,105546,1,0,0:0:0:0:
64,192,105865,1,0,0:0:0:50:Clap.wav
320,192,106184,1,0,0:0:0:50:Kick.wav
192,192,106504,1,0,0:0:0:50:Clap.wav
448,192,106823,1,0,0:0:0:50:Kick.wav
64,192,107142,1,0,0:0:0:50:Clap.wav
448,192,107621,1,0,0:0:0:50:Kick.wav
64,192,107940,1,0,0:0:0:50:Kick.wav
448,192,108099,1,0,0:0:0:50:Kick.wav
320,192,108897,128,0,109535:0:0:0:0:
64,192,109535,1,0,0:0:0:50:Kick.wav
192,192,109535,1,0,0:0:0:50:Clap.wav
448,192,110014,1,0,0:0:0:50:Clap.wav
64,192,110333,1,0,0:0:0:50:Kick.wav
320,192,110652,1,0,0:0:0:50:Clap.wav
192,192,110972,1,0,0:0:0:50:Kick.wav
448,192,111291,1,0,0:0:0:50:Clap.wav
320,192,111610,1,0,0:0:0:50:Kick.wav
64,192,111929,1,0,0:0:0:50:Clap.wav
192,192,112248,1,0,0:0:0:50:Kick.wav
448,192,112567,1,0,0:0:0:50:Clap.wav
64,192,112887,1,0,0:0:0:50:Kick.wav
320,192,113206,1,0,0:0:0:50:Clap.wav
192,192,113525,1,0,0:0:0:50:Kick.wav
448,192,113844,1,0,0:0:0:50:Clap.wav
64,192,114163,1,0,0:0:0:50:Clap.wav
320,192,114323,1,0,0:0:0:50:Kick.wav
192,192,114482,128,0,114801:0:0:0:50:Kick.wav
448,192,114801,1,0,0:0:0:50:Kick.wav
64,192,115121,1,0,0:0:0:50:Clap.wav
320,192,115440,1,0,0:0:0:50:Clap.wav
64,192,115759,1,0,0:0:0:50:Clap.wav
448,192,115918,1,0,0:0:0:50:Kick.wav
192,192,116238,1,0,0:0:0:50:Kick.wav
320,192,116397,1,0,0:0:0:50:Clap.wav
64,192,116716,1,0,0:0:0:50:Clap.wav
448,192,117035,1,0,0:0:0:50:Clap.wav
192,192,117355,1,0,0:0:0:50:Clap.wav
320,192,117674,1,0,0:0:0:50:Clap.wav
64,192,117993,1,0,0:0:0:50:Clap.wav
448,192,118312,1,0,0:0:0:50:Clap.wav
192,192,118472,1,0,0:0:0:50:Kick.wav
64,192,118791,1,0,0:0:0:50:Kick.wav
320,192,118950,1,0,0:0:0:50:Clap.wav
448,192,119269,1,0,0:0:0:50:Kick.wav
64,192,119589,128,0,119908:0:0:0:50:Clap.wav
320,192,119908,1,0,0:0:0:50:Clap.wav
192,192,120227,1,0,0:0:0:50:Clap.wav
448,192,120546,1,0,0:0:0:50:Clap.wav
64,192,120865,1,0,0:0:0:50:Clap.wav
320,192,121025,1,0,0:0:0:50:Kick.wav
192,192,121344,1,0,0:0:0:50:Kick.wav
448,192,121504,1,0,0:0:0:50:Clap.wav
192,192,121823,1,0,0:0:0:50:Clap.wav
320,192,122142,1,0,0:0:0:50:Clap.wav
64,192,122461,1,0,0:0:0:50:Clap.wav
448,192,122780,1,0,0:0:0:50:Clap.wav
192,192,123099,1,0,0:0:0:50:Clap.wav
320,192,123418,1,0,0:0:0:50:Clap.wav
64,192,123578,1,0,0:0:0:50:Kick.wav
448,192,123897,1,0,0:0:0:50:Kick.wav
320,192,124057,1,0,0:0:0:0:
192,192,124216,1,0,0:0:0:50:Clap.wav
64,192,124535,1,0,0:0:0:50:Clap.wav
448,192,124535,1,0,0:0:0:50:Cymbal.wav
