osu file format v14

[General]
AudioFilename: audio.mp3
AudioLeadIn: 0
PreviewTime: 78019
Countdown: 0
SampleSet: Soft
StackLeniency: 0.7
Mode: 3
LetterboxInBreaks: 0
SpecialStyle: 0
WidescreenStoryboard: 0

[Editor]
DistanceSpacing: 1.3
BeatDivisor: 4
GridSize: 4
TimelineZoom: 3.8

[Metadata]
Title:Picon de Metafiction
TitleUnicode:ピコンでメタフィクション
Artist:Erabareshi
ArtistUnicode:エラバレシ
Creator:Rivals_7
Version:Paladin // Another Lv. 20
Source:四女神オンライン CYBER DIMENSION NEPTUNE
Tags:Neptunia Hyperdimension Four Goddesses Online cyberdimension choujigen game neptune idea factory compile heart opening OP JRPG 超次元ゲイム ネプテューヌ tamsoft pikon
BeatmapID:1189176
BeatmapSetID:562475

[Difficulty]
HPDrainRate:8
CircleSize:4
OverallDifficulty:8
ApproachRate:5
SliderMultiplier:1.4
SliderTickRate:1

[Events]
//Background and Video events
0,0,"Cyberdimension.jpg",0,0
Video,0,"video.avi"
//Break Periods
//Storyboard Layer 0 (Background)
//Storyboard Layer 1 (Fail)
//Storyboard Layer 2 (Pass)
//Storyboard Layer 3 (Foreground)
//Storyboard Sound Samples

[TimingPoints]
2047,491.803278688525,4,2,1,30,1,0
2047,-64.9350649350649,4,2,1,30,0,0
22409,319.148936170213,4,2,1,30,1,0
22887,319.148936170213,4,2,1,30,1,1
33099,-100,4,2,1,30,0,0
50972,-11.7647058823529,4,2,1,30,0,0
51051,-400,4,2,1,30,0,0
51849,-133.333333333333,4,2,1,30,0,0
51929,-80,4,2,1,30,0,0
52009,-57.1428571428571,4,2,1,30,0,0
52089,-100,4,2,1,30,0,0
53046,-400,4,2,1,30,0,0
53126,-133.333333333333,4,2,1,30,0,0
53206,-80,4,2,1,30,0,0
53285,-57.1428571428571,4,2,1,30,0,0
53365,-100,4,2,1,30,0,0
63259,-400,4,2,1,30,0,0
63339,-133.333333333333,4,2,1,30,0,0
63418,-80,4,2,1,30,0,0
63498,-57.1428571428571,4,2,1,30,0,0
63578,-100,4,2,1,30,0,0
70759,-1000,4,2,1,30,0,0
71078,-400,4,2,1,30,0,0
71158,-133.333333333333,4,2,1,30,0,0
71238,-80,4,2,1,30,0,0
71317,-57.1428571428571,4,2,1,30,0,0
71397,-100,4,2,1,30,0,0
73472,-400,4,2,1,30,0,0
73551,-133.333333333333,4,2,1,30,0,0
73631,-80,4,2,1,30,0,0
73711,-57.1428571428571,4,2,1,30,0,0
73791,-100,4,2,1,30,0,0
76025,-400,4,2,1,30,0,0
76105,-133.333333333333,4,2,1,30,0,0
76184,-80,4,2,1,30,0,0
76264,-57.1428571428571,4,2,1,30,0,0
76344,-100,4,2,1,30,0,0
78897,-100,4,2,1,30,0,1
88950,-100,4,2,1,30,0,0
89110,-100,4,2,1,30,0,1
93578,-400,4,2,1,30,0,1
93658,-133.333333333333,4,2,1,30,0,1
93738,-79.9999999999999,4,2,1,30,0,1
93817,-57.1428571428571,4,2,1,30,0,1
93897,-400,4,2,1,30,0,1
93977,-133.333333333333,4,2,1,30,0,1
94057,-80,4,2,1,30,0,1
94137,-57.1428571428571,4,2,1,30,0,1
94216,-100,4,2,1,30,0,1
101876,-100,4,2,1,30,0,0
107142,-28.5714285714286,4,2,1,30,0,0
107222,-200,4,2,1,30,0,0
107621,-40,4,2,1,30,0,0
107700,-200,4,2,1,30,0,0
107940,-66.6666666666667,4,2,1,30,0,0
108019,-200,4,2,1,30,0,0
108099,-66.6666666666667,4,2,1,30,0,0
108179,-200,4,2,1,30,0,0
108418,-40,4,2,1,30,0,0
108498,-200,4,2,1,30,0,0
108578,-166.666666666667,4,2,1,30,0,0
108658,-142.857142857143,4,2,1,30,0,0
108738,-125,4,2,1,30,0,0
108817,-111.111111111111,4,2,1,30,0,0
108897,-100,4,2,1,30,0,0
114801,-100,4,2,1,30,0,1
124535,-100,4,2,1,30,0,0

[HitObjects]
64,192,2047,128,0,4014:0:0:0:25:normal-hitwhistle.wav
448,192,2047,1,0,0:0:0:25:normal-hitwhistle.wav
320,192,2292,1,0,0:0:0:0:
448,192,2538,1,0,0:0:0:0:
192,192,2784,1,0,0:0:0:0:
320,192,3030,1,0,0:0:0:0:
448,192,3276,1,0,0:0:0:0:
320,192,3522,1,0,0:0:0:0:
192,192,3768,1,0,0:0:0:0:
320,192,4014,128,0,5981:0:0:0:0:
448,192,4014,1,0,0:0:0:0:
192,192,4260,1,0,0:0:0:0:
64,192,4506,1,0,0:0:0:0:
448,192,4751,1,0,0:0:0:0:
64,192,5735,1,0,0:0:0:0:
192,192,5981,128,0,7948:0:0:0:0:
448,192,5981,1,0,0:0:0:0:
64,192,6227,1,0,0:0:0:0:
320,192,6473,1,0,0:0:0:0:
448,192,6719,1,0,0:0:0:0:
448,192,7948,128,0,9915:0:0:0:0:
64,192,7948,1,0,0:0:0:0:
192,192,8194,1,0,0:0:0:0:
320,192,8440,1,0,0:0:0:0:
64,192,8686,1,0,0:0:0:0:
192,192,8932,1,0,0:0:0:0:
320,192,9178,1,0,0:0:0:0:
192,192,9424,1,0,0:0:0:0:
320,192,9669,1,0,0:0:0:0:
64,192,9915,128,0,11883:0:0:0:25:normal-hitwhistle.wav
192,192,9915,1,0,0:0:0:25:normal-hitwhistle.wav
448,192,10161,1,0,0:0:0:0:
192,192,10407,1,0,0:0:0:0:
320,192,10653,1,0,0:0:0:0:
320,192,11883,1,0,0:0:0:0:
192,192,11883,128,0,13850:0:0:0:0:
448,192,12128,1,0,0:0:0:0:
64,192,12374,1,0,0:0:0:0:
320,192,12620,1,0,0:0:0:0:
320,192,13850,1,0,0:0:0:0:
448,192,13850,1,0,0:0:0:0:
64,192,14424,1,0,0:0:0:0:
192,192,14506,1,0,0:0:0:0:
320,192,14587,1,0,0:0:0:0:
448,192,14669,1,0,0:0:0:0:
64,192,14751,1,0,0:0:0:0:
192,192,14833,1,0,0:0:0:0:
320,192,14915,1,0,0:0:0:0:
448,192,15079,1,0,0:0:0:0:
320,192,15161,1,0,0:0:0:0:
192,192,15243,1,0,0:0:0:0:
64,192,15325,1,0,0:0:0:0:
448,192,15407,1,0,0:0:0:0:
320,192,15489,1,0,0:0:0:0:
192,192,15571,1,0,0:0:0:0:
64,192,15653,1,0,0:0:0:0:
448,192,15735,1,0,0:0:0:0:
64,192,17784,128,0,22210:0:0:0:0:
448,192,17784,128,0,22210:0:0:0:0:
448,192,22409,1,0,0:0:0:0:
320,192,22448,1,0,0:0:0:0:
64,192,22488,1,0,0:0:0:0:
192,192,22528,1,0,0:0:0:0:
320,192,22568,1,0,0:0:0:0:
448,192,22608,1,0,0:0:0:0:
64,192,22648,1,0,0:0:0:0:
192,192,22688,1,0,0:0:0:0:
448,192,22728,1,0,0:0:0:0:
320,192,22768,1,0,0:0:0:0:
192,192,22807,1,0,0:0:0:0:
64,192,22847,1,0,0:0:0:0:
320,192,22887,1,0,0:0:0:50:Cymbal.wav
448,192,22887,1,0,0:0:0:50:Clap.wav
64,192,23046,1,0,0:0:0:0:
320,192,23206,1,0,0:0:0:17:Clap.wav
448,192,23206,1,0,0:0:0:17:Clap.wav
64,192,23206,1,0,0:0:0:17:Clap.wav
192,192,23365,1,0,0:0:0:0:
192,192,23525,1,0,0:0:0:17:Clap.wav
320,192,23525,1,0,0:0:0:17:Clap.wav
64,192,23525,1,0,0:0:0:17:Clap.wav
448,192,23684,1,0,0:0:0:0:
448,192,23844,1,0,0:0:0:17:Clap.wav
192,192,23844,1,0,0:0:0:17:Clap.wav
64,192,23844,1,0,0:0:0:17:Clap.wav
320,192,24004,1,0,0:0:0:25:Kick.wav
64,192,24004,1,0,0:0:0:25:Kick.wav
192,192,24323,1,0,0:0:0:25:Kick.wav
320,192,24323,1,0,0:0:0:25:Kick.wav
64,192,24482,1,0,0:0:0:17:Clap.wav
192,192,24482,1,0,0:0:0:17:Clap.wav
448,192,24482,1,0,0:0:0:17:Clap.wav
320,192,24642,1,0,0:0:0:25:Kick.wav
64,192,24642,1,0,0:0:0:25:Kick.wav
320,192,24801,1,0,0:0:0:17:Clap.wav
448,192,24801,1,0,0:0:0:17:Clap.wav
192,192,24801,1,0,0:0:0:17:Clap.wav
64,192,24961,1,0,0:0:0:25:Kick.wav
448,192,24961,1,0,0:0:0:25:Kick.wav
192,192,25121,1,0,0:0:0:17:Clap.wav
64,192,25121,1,0,0:0:0:17:Clap.wav
320,192,25121,1,0,0:0:0:17:Clap.wav
448,192,25280,1,0,0:0:0:25:Kick.wav
320,192,25280,1,0,0:0:0:25:Kick.wav
448,192,25440,1,0,0:0:0:17:Clap.wav
64,192,25440,1,0,0:0:0:17:Clap.wav
192,192,25440,1,0,0:0:0:17:Clap.wav
192,192,25599,1,0,0:0:0:25:Kick.wav
320,192,25599,1,0,0:0:0:25:Kick.wav
64,192,25759,1,0,0:0:0:17:Clap.wav
320,192,25759,1,0,0:0:0:17:Clap.wav
448,192,25759,1,0,0:0:0:17:Clap.wav
192,192,25918,1,0,0:0:0:0:
192,192,26078,1,0,0:0:0:17:Clap.wav
448,192,26078,1,0,0:0:0:17:Clap.wav
64,192,26078,1,0,0:0:0:17:Clap.wav
320,192,26238,1,0,0:0:0:25:Kick.wav
64,192,26238,1,0,0:0:0:25:Kick.wav
320,192,26397,1,0,0:0:0:17:Clap.wav
448,192,26397,1,0,0:0:0:17:Clap.wav
192,192,26397,1,0,0:0:0:17:Clap.wav
192,192,26557,1,0,0:0:0:25:Kick.wav
64,192,26557,1,0,0:0:0:25:Kick.wav
320,192,26876,1,0,0:0:0:25:Kick.wav
448,192,26876,1,0,0:0:0:25:Kick.wav
320,192,27035,1,0,0:0:0:17:Clap.wav
448,192,27035,1,0,0:0:0:17:Clap.wav
64,192,27035,1,0,0:0:0:17:Clap.wav
192,192,27195,1,0,0:0:0:0:
320,192,27275,1,0,0:0:0:0:
64,192,27355,1,0,0:0:0:25:Kick.wav
448,192,27355,1,0,0:0:0:25:Kick.wav
320,192,27514,1,0,0:0:0:25:Kick.wav
192,192,27514,1,0,0:0:0:25:Kick.wav
448,192,27674,1,0,0:0:0:17:Clap.wav
320,192,27674,1,0,0:0:0:17:Clap.wav
64,192,27674,1,0,0:0:0:17:Clap.wav
192,192,27754,1,0,0:0:0:0:
320,192,27833,1,0,0:0:0:0:
192,192,27913,1,0,0:0:0:0:
64,192,27993,1,0,0:0:0:17:Clap.wav
320,192,27993,1,0,0:0:0:17:Clap.wav
448,192,27993,1,0,0:0:0:17:Clap.wav
192,192,28152,1,0,0:0:0:0:
192,192,28312,1,0,0:0:0:17:Clap.wav
320,192,28312,1,0,0:0:0:17:Clap.wav
448,192,28312,1,0,0:0:0:17:Clap.wav
64,192,28472,1,0,0:0:0:0:
64,192,28631,1,0,0:0:0:17:Clap.wav
192,192,28631,1,0,0:0:0:17:Clap.wav
448,192,28631,1,0,0:0:0:17:Clap.wav
320,192,28791,1,0,0:0:0:25:Kick.wav
192,192,28791,1,0,0:0:0:25:Kick.wav
320,192,28950,1,0,0:0:0:17:Clap.wav
448,192,28950,1,0,0:0:0:17:Clap.wav
64,192,28950,1,0,0:0:0:17:Clap.wav
192,192,29110,1,0,0:0:0:25:Kick.wav
448,192,29110,1,0,0:0:0:25:Kick.wav
320,192,29429,1,0,0:0:0:25:Kick.wav
64,192,29429,1,0,0:0:0:25:Kick.wav
192,192,29589,1,0,0:0:0:17:Clap.wav
320,192,29589,1,0,0:0:0:17:Clap.wav
448,192,29589,1,0,0:0:0:17:Clap.wav
64,192,29748,1,0,0:0:0:0:
64,192,29908,1,0,0:0:0:17:Clap.wav
192,192,29908,1,0,0:0:0:17:Clap.wav
320,192,29908,1,0,0:0:0:17:Clap.wav
448,192,30067,1,0,0:0:0:25:Kick.wav
192,192,30067,1,0,0:0:0:25:Kick.wav
448,192,30227,1,0,0:0:0:17:Clap.wav
320,192,30227,1,0,0:0:0:17:Clap.wav
64,192,30227,1,0,0:0:0:17:Clap.wav
192,192,30387,1,0,0:0:0:25:Kick.wav
320,192,30387,1,0,0:0:0:25:Kick.wav
64,192,30546,1,0,0:0:0:17:Clap.wav
192,192,30546,1,0,0:0:0:17:Clap.wav
448,192,30546,1,0,0:0:0:17:Clap.wav
64,192,30865,1,0,0:0:0:17:Clap.wav
320,192,30865,1,0,0:0:0:17:Clap.wav
448,192,30865,1,0,0:0:0:17:Clap.wav
192,192,31025,1,0,0:0:0:0:
192,192,31184,1,0,0:0:0:17:Clap.wav
320,192,31184,1,0,0:0:0:17:Clap.wav
448,192,31184,1,0,0:0:0:17:Clap.wav
64,192,31344,1,0,0:0:0:25:Kick.wav
448,192,31344,1,0,0:0:0:25:Kick.wav
320,192,31504,1,0,0:0:0:17:Clap.wav
192,192,31504,1,0,0:0:0:17:Clap.wav
64,192,31504,1,0,0:0:0:17:Clap.wav
192,192,31663,1,0,0:0:0:17:Kick.wav
320,192,31663,1,0,0:0:0:17:Kick.wav
448,192,31663,128,0,31982:0:0:0:17:Kick.wav
320,192,31982,128,0,32142:0:0:0:25:Kick.wav
192,192,31982,1,0,0:0:0:25:Kick.wav
192,192,32142,128,0,32301:0:0:0:17:Clap.wav
64,192,32142,1,0,0:0:0:17:Clap.wav
448,192,32142,1,0,0:0:0:17:Clap.wav
64,192,32301,128,0,32461:0:0:0:0:
192,192,32461,1,0,0:0:0:17:Clap.wav
320,192,32461,1,0,0:0:0:17:Clap.wav
448,192,32461,1,0,0:0:0:17:Clap.wav
448,192,32621,128,0,33099:0:0:0:25:Kick.wav
64,192,32621,1,0,0:0:0:25:Kick.wav
64,192,32780,1,0,0:0:0:50:Cymbal.wav
192,192,32780,1,0,0:0:0:25:Clap.wav
320,192,32780,1,0,0:0:0:25:Clap.wav
64,192,33099,1,0,0:0:0:25:hithat.wav
320,192,33099,1,0,0:0:0:25:hithat.wav
192,192,33259,1,0,0:0:0:0:
320,192,33418,1,0,0:0:0:25:hithat.wav
448,192,33418,1,0,0:0:0:25:hithat.wav
64,192,33578,1,0,0:0:0:0:
192,192,33738,1,0,0:0:0:25:hithat.wav
448,192,33738,1,0,0:0:0:25:hithat.wav
320,192,33897,1,0,0:0:0:0:
64,192,34057,1,0,0:0:0:25:hithat.wav
192,192,34057,1,0,0:0:0:25:hithat.wav
448,192,34216,1,0,0:0:0:0:
320,192,34376,1,0,0:0:0:25:hithat.wav
64,192,34376,1,0,0:0:0:25:hithat.wav
192,192,34535,1,0,0:0:0:0:
320,192,34695,1,0,0:0:0:25:hithat.wav
448,192,34695,1,0,0:0:0:25:hithat.wav
64,192,34855,1,0,0:0:0:0:
192,192,35014,1,0,0:0:0:25:hithat.wav
320,192,35014,1,0,0:0:0:25:hithat.wav
448,192,35174,1,0,0:0:0:0:
320,192,35254,1,0,0:0:0:0:
64,192,35333,1,0,0:0:0:25:hithat.wav
192,192,35333,1,0,0:0:0:25:hithat.wav
320,192,35493,1,0,0:0:0:0:
192,192,35573,1,0,0:0:0:0:
448,192,35652,1,0,0:0:0:25:hithat.wav
64,192,35652,1,0,0:0:0:25:hithat.wav
320,192,35732,1,0,0:0:0:0:
192,192,35812,1,0,0:0:0:0:
320,192,35972,1,0,0:0:0:25:hithat.wav
448,192,35972,1,0,0:0:0:25:hithat.wav
64,192,36131,1,0,0:0:0:0:
192,192,36291,1,0,0:0:0:25:hithat.wav
448,192,36291,1,0,0:0:0:25:hithat.wav
320,192,36450,1,0,0:0:0:0:
192,192,36610,1,0,0:0:0:25:hithat.wav
64,192,36610,1,0,0:0:0:25:hithat.wav
320,192,36690,1,0,0:0:0:0:
448,192,36769,1,0,0:0:0:0:
64,192,36849,1,0,0:0:0:0:
448,192,36929,1,0,0:0:0:25:hithat.wav
192,192,36929,1,0,0:0:0:25:hithat.wav
320,192,37009,1,0,0:0:0:0:
64,192,37089,1,0,0:0:0:0:
320,192,37248,1,0,0:0:0:25:hithat.wav
448,192,37248,1,0,0:0:0:25:hithat.wav
64,192,37328,1,0,0:0:0:0:
192,192,37408,1,0,0:0:0:0:
320,192,37488,1,0,0:0:0:0:
448,192,37567,1,0,0:0:0:25:hithat.wav
64,192,37567,1,0,0:0:0:25:hithat.wav
192,192,37647,1,0,0:0:0:0:
320,192,37727,1,0,0:0:0:0:
448,192,37807,1,0,0:0:0:0:
192,192,37887,1,0,0:0:0:25:hithat.wav
64,192,37887,1,0,0:0:0:25:hithat.wav
448,192,37966,1,0,0:0:0:0:
320,192,38046,1,0,0:0:0:0:
192,192,38126,1,0,0:0:0:0:
64,192,38206,1,0,0:0:0:25:hithat.wav
448,192,38206,1,0,0:0:0:25:hithat.wav
320,192,38285,1,0,0:0:0:0:
192,192,38365,1,0,0:0:0:0:
320,192,38445,1,0,0:0:0:0:
448,192,38525,1,0,0:0:0:25:hithat.wav
64,192,38525,1,0,0:0:0:25:hithat.wav
192,192,38684,1,0,0:0:0:0:
64,192,38844,1,0,0:0:0:25:hithat.wav
448,192,38844,1,0,0:0:0:25:hithat.wav
192,192,39004,1,0,0:0:0:0:
64,192,39083,1,0,0:0:0:0:
320,192,39163,1,0,0:0:0:25:hithat.wav
448,192,39163,1,0,0:0:0:25:hithat.wav
192,192,39243,1,0,0:0:0:0:
64,192,39323,1,0,0:0:0:0:
320,192,39402,1,0,0:0:0:0:
448,192,39482,1,0,0:0:0:25:hithat.wav
192,192,39482,1,0,0:0:0:25:hithat.wav
320,192,39642,1,0,0:0:0:0:
192,192,39722,1,0,0:0:0:0:
64,192,39801,1,0,0:0:0:25:hithat.wav
448,192,39801,1,0,0:0:0:25:hithat.wav
320,192,39881,1,0,0:0:0:0:
192,192,39961,1,0,0:0:0:0:
320,192,40041,1,0,0:0:0:0:
448,192,40121,1,0,0:0:0:25:hithat.wav
64,192,40121,1,0,0:0:0:25:hithat.wav
192,192,40200,1,0,0:0:0:0:
320,192,40280,1,0,0:0:0:0:
64,192,40440,1,0,0:0:0:25:hithat.wav
448,192,40440,1,0,0:0:0:25:hithat.wav
192,192,40599,1,0,0:0:0:0:
320,192,40759,1,0,0:0:0:25:hithat.wav
64,192,40759,1,0,0:0:0:25:hithat.wav
448,192,40918,1,0,0:0:0:0:
192,192,41078,1,0,0:0:0:25:hithat.wav
64,192,41078,1,0,0:0:0:25:hithat.wav
320,192,41238,1,0,0:0:0:0:
64,192,41397,1,0,0:0:0:25:hithat.wav
448,192,41397,1,0,0:0:0:25:hithat.wav
192,192,41557,1,0,0:0:0:0:
320,192,41716,1,0,0:0:0:25:hithat.wav
448,192,41716,1,0,0:0:0:25:hithat.wav
192,192,41876,1,0,0:0:0:0:
320,192,41956,1,0,0:0:0:0:
448,192,42035,1,0,0:0:0:25:hithat.wav
64,192,42035,1,0,0:0:0:25:hithat.wav
192,192,42115,1,0,0:0:0:0:
320,192,42195,1,0,0:0:0:0:
448,192,42275,1,0,0:0:0:0:
192,192,42355,1,0,0:0:0:25:hithat.wav
64,192,42355,1,0,0:0:0:25:hithat.wav
448,192,42434,1,0,0:0:0:0:
320,192,42514,1,0,0:0:0:25:hithat.wav
192,192,42514,1,0,0:0:0:25:hithat.wav
64,192,42594,1,0,0:0:0:0:
320,192,42674,1,0,0:0:0:25:hithat.wav
448,192,42674,1,0,0:0:0:25:hithat.wav
192,192,42833,1,0,0:0:0:25:hithat.wav
448,192,42833,1,0,0:0:0:25:hithat.wav
320,192,42993,1,0,0:0:0:25:hithat.wav
64,192,42993,1,0,0:0:0:25:hithat.wav
192,192,43152,1,0,0:0:0:25:hithat.wav
64,192,43152,1,0,0:0:0:25:hithat.wav
320,192,43312,1,0,0:0:0:25:hithat.wav
448,192,43312,128,0,45865:0:0:0:25:hithat.wav
64,192,43472,1,0,0:0:0:0:
64,192,43631,1,0,0:0:0:25:hithat.wav
320,192,43631,1,0,0:0:0:25:hithat.wav
192,192,43791,1,0,0:0:0:0:
320,192,43950,1,0,0:0:0:25:hithat.wav
192,192,43950,1,0,0:0:0:25:hithat.wav
64,192,44110,1,0,0:0:0:0:
192,192,44269,1,0,0:0:0:25:hithat.wav
64,192,44269,1,0,0:0:0:25:hithat.wav
320,192,44429,1,0,0:0:0:0:
64,192,44589,1,0,0:0:0:25:hithat.wav
320,192,44589,1,0,0:0:0:25:hithat.wav
192,192,44748,1,0,0:0:0:0:
192,192,44908,1,0,0:0:0:25:hithat.wav
64,192,44908,1,0,0:0:0:25:hithat.wav
320,192,45067,1,0,0:0:0:0:
64,192,45227,1,0,0:0:0:25:hithat.wav
320,192,45227,1,0,0:0:0:25:hithat.wav
192,192,45387,1,0,0:0:0:0:
192,192,45546,1,0,0:0:0:25:hithat.wav
320,192,45546,1,0,0:0:0:25:hithat.wav
64,192,45706,1,0,0:0:0:0:
192,192,45865,128,0,47621:0:0:0:25:hithat.wav
64,192,45865,1,0,0:0:0:25:hithat.wav
320,192,46025,1,0,0:0:0:0:
320,192,46184,1,0,0:0:0:25:hithat.wav
448,192,46184,1,0,0:0:0:25:hithat.wav
64,192,46344,1,0,0:0:0:0:
64,192,46504,1,0,0:0:0:25:hithat.wav
448,192,46504,1,0,0:0:0:25:hithat.wav
320,192,46663,1,0,0:0:0:0:
320,192,46823,1,0,0:0:0:25:hithat.wav
64,192,46823,1,0,0:0:0:25:hithat.wav
448,192,46982,1,0,0:0:0:0:
448,192,47142,1,0,0:0:0:25:hithat.wav
64,192,47142,1,0,0:0:0:25:hithat.wav
320,192,47301,1,0,0:0:0:0:
320,192,47461,1,0,0:0:0:25:hithat.wav
448,192,47461,1,0,0:0:0:25:hithat.wav
64,192,47621,1,0,0:0:0:0:
192,192,47700,1,0,0:0:0:0:
320,192,47780,128,0,48418:0:0:0:25:hithat.wav
448,192,47780,1,0,0:0:0:25:hithat.wav
64,192,47940,1,0,0:0:0:0:
448,192,48099,1,0,0:0:0:25:hithat.wav
64,192,48099,1,0,0:0:0:25:hithat.wav
192,192,48259,1,0,0:0:0:0:
64,192,48418,128,0,50972:0:0:0:25:hithat.wav
192,192,48418,1,0,0:0:0:25:hithat.wav
448,192,48578,1,0,0:0:0:0:
192,192,48738,1,0,0:0:0:25:hithat.wav
448,192,48738,1,0,0:0:0:25:hithat.wav
320,192,48897,1,0,0:0:0:0:
320,192,49057,1,0,0:0:0:25:hithat.wav
192,192,49057,1,0,0:0:0:25:hithat.wav
448,192,49216,1,0,0:0:0:0:
192,192,49376,1,0,0:0:0:25:hithat.wav
448,192,49376,1,0,0:0:0:25:hithat.wav
320,192,49535,1,0,0:0:0:0:
320,192,49695,1,0,0:0:0:25:hithat.wav
448,192,49695,1,0,0:0:0:25:hithat.wav
192,192,49855,1,0,0:0:0:0:
192,192,50014,1,0,0:0:0:25:hithat.wav
448,192,50014,1,0,0:0:0:25:hithat.wav
320,192,50174,1,0,0:0:0:0:
320,192,50333,1,0,0:0:0:25:hithat.wav
448,192,50333,1,0,0:0:0:25:hithat.wav
192,192,50493,1,0,0:0:0:0:
192,192,50652,1,0,0:0:0:25:hithat.wav
448,192,50652,1,0,0:0:0:25:hithat.wav
320,192,50812,1,0,0:0:0:0:
448,192,50972,1,0,0:0:0:50:hithat.wav
320,192,52089,1,0,0:0:0:50:Clap.wav
448,192,52089,1,0,0:0:0:25:Kick.wav
64,192,52089,128,0,52408:0:0:0:25:Kick.wav
192,192,52408,1,0,0:0:0:25:Kick.wav
448,192,52408,1,0,0:0:0:25:Kick.wav
64,192,52488,1,0,0:0:0:25:Kick.wav
320,192,52488,1,0,0:0:0:25:Kick.wav
448,192,52567,1,0,0:0:0:25:Clap.wav
192,192,52567,1,0,0:0:0:25:Clap.wav
64,192,52727,1,0,0:0:0:17:Clap.wav
320,192,52727,1,0,0:0:0:17:Clap.wav
448,192,52727,1,0,0:0:0:17:Clap.wav
64,192,52887,1,0,0:0:0:17:Clap.wav
192,192,52887,1,0,0:0:0:17:Clap.wav
448,192,52887,1,0,0:0:0:17:Clap.wav
320,192,53046,1,0,0:0:0:25:Kick.wav
192,192,53046,1,0,0:0:0:25:Kick.wav
64,192,53365,1,0,0:0:0:50:Clap.wav
320,192,53365,1,0,0:0:0:50:Cymbal.wav
448,192,53365,1,0,0:0:0:25:Kick.wav
192,192,53365,1,0,0:0:0:25:Kick.wav
64,192,53684,1,0,0:0:0:25:Kick.wav
320,192,53684,1,0,0:0:0:25:Kick.wav
192,192,53844,1,0,0:0:0:17:Clap.wav
64,192,53844,1,0,0:0:0:17:Clap.wav
448,192,53844,1,0,0:0:0:17:Clap.wav
320,192,54004,1,0,0:0:0:0:
64,192,54163,1,0,0:0:0:25:Kick.wav
448,192,54163,1,0,0:0:0:25:Kick.wav
192,192,54323,1,0,0:0:0:25:Kick.wav
320,192,54323,1,0,0:0:0:25:Kick.wav
192,192,54482,1,0,0:0:0:17:Clap.wav
64,192,54482,1,0,0:0:0:17:Clap.wav
448,192,54482,1,0,0:0:0:17:Clap.wav
320,192,54642,1,0,0:0:0:50:Cymbal.wav
448,192,54642,1,0,0:0:0:50:Clap.wav
64,192,54642,1,0,0:0:0:25:Kick.wav
192,192,54642,1,0,0:0:0:25:Kick.wav
320,192,54961,1,0,0:0:0:25:Kick.wav
448,192,54961,1,0,0:0:0:25:Kick.wav
192,192,55121,1,0,0:0:0:17:Clap.wav
64,192,55121,1,0,0:0:0:17:Clap.wav
448,192,55121,1,0,0:0:0:17:Clap.wav
320,192,55280,1,0,0:0:0:0:
64,192,55440,1,0,0:0:0:25:Kick.wav
448,192,55440,1,0,0:0:0:25:Kick.wav
192,192,55599,1,0,0:0:0:25:Kick.wav
320,192,55599,1,0,0:0:0:25:Kick.wav
64,192,55759,1,0,0:0:0:17:Clap.wav
320,192,55759,1,0,0:0:0:17:Clap.wav
448,192,55759,1,0,0:0:0:17:Clap.wav
320,192,56078,1,0,0:0:0:25:Kick.wav
448,192,56078,1,0,0:0:0:25:Kick.wav
192,192,56238,1,0,0:0:0:25:Kick.wav
320,192,56238,1,0,0:0:0:25:Kick.wav
64,192,56397,1,0,0:0:0:17:Clap.wav
192,192,56397,1,0,0:0:0:17:Clap.wav
448,192,56397,1,0,0:0:0:17:Clap.wav
320,192,56557,1,0,0:0:0:0:
64,192,56716,1,0,0:0:0:25:Kick.wav
192,192,56716,1,0,0:0:0:25:Kick.wav
192,192,56876,1,0,0:0:0:25:Kick.wav
320,192,56876,1,0,0:0:0:25:Kick.wav
448,192,57035,1,0,0:0:0:17:Clap.wav
320,192,57035,1,0,0:0:0:17:Clap.wav
64,192,57035,1,0,0:0:0:17:Clap.wav
64,192,57195,1,0,0:0:0:50:Clap.wav
192,192,57195,1,0,0:0:0:50:Cymbal.wav
320,192,57195,1,0,0:0:0:25:Kick.wav
448,192,57195,1,0,0:0:0:25:Kick.wav
192,192,57514,1,0,0:0:0:25:Kick.wav
448,192,57514,1,0,0:0:0:25:Kick.wav
320,192,57674,1,0,0:0:0:17:Clap.wav
448,192,57674,1,0,0:0:0:17:Clap.wav
64,192,57674,1,0,0:0:0:17:Clap.wav
192,192,57833,1,0,0:0:0:25:Kick.wav
320,192,57833,1,0,0:0:0:25:Kick.wav
64,192,57993,1,0,0:0:0:17:Clap.wav
192,192,57993,1,0,0:0:0:17:Clap.wav
448,192,57993,1,0,0:0:0:17:Clap.wav
320,192,58152,1,0,0:0:0:25:Kick.wav
448,192,58152,1,0,0:0:0:25:Kick.wav
192,192,58312,1,0,0:0:0:17:Clap.wav
64,192,58312,1,0,0:0:0:17:Clap.wav
320,192,58312,1,0,0:0:0:17:Clap.wav
448,192,58472,1,0,0:0:0:50:Clap.wav
320,192,58551,1,0,0:0:0:50:Kick.wav
192,192,58631,1,0,0:0:0:25:Kick.wav
64,192,58631,1,0,0:0:0:25:Kick.wav
320,192,58791,1,0,0:0:0:0:
448,192,58950,1,0,0:0:0:17:Clap.wav
64,192,58950,1,0,0:0:0:17:Clap.wav
192,192,58950,1,0,0:0:0:17:Clap.wav
320,192,59110,1,0,0:0:0:0:
192,192,59190,1,0,0:0:0:0:
64,192,59269,1,0,0:0:0:25:Kick.wav
448,192,59269,1,0,0:0:0:25:Kick.wav
64,192,59429,1,0,0:0:0:25:Kick.wav
448,192,59429,1,0,0:0:0:25:Kick.wav
192,192,59589,1,0,0:0:0:17:Clap.wav
320,192,59589,1,0,0:0:0:17:Clap.wav
448,192,59589,1,0,0:0:0:17:Clap.wav
64,192,59748,1,0,0:0:0:0:
192,192,59908,1,0,0:0:0:25:Kick.wav
320,192,59908,1,0,0:0:0:25:Kick.wav
448,192,60067,1,0,0:0:0:0:
320,192,60227,1,0,0:0:0:17:Clap.wav
192,192,60227,1,0,0:0:0:17:Clap.wav
64,192,60227,1,0,0:0:0:17:Clap.wav
448,192,60387,1,0,0:0:0:0:
320,192,60466,1,0,0:0:0:0:
192,192,60546,1,0,0:0:0:25:Kick.wav
64,192,60546,1,0,0:0:0:25:Kick.wav
192,192,60706,1,0,0:0:0:25:Kick.wav
64,192,60706,1,0,0:0:0:25:Kick.wav
448,192,60865,1,0,0:0:0:17:Clap.wav
320,192,60865,1,0,0:0:0:17:Clap.wav
64,192,60865,1,0,0:0:0:17:Clap.wav
192,192,61025,1,0,0:0:0:0:
320,192,61184,1,0,0:0:0:25:Kick.wav
448,192,61184,1,0,0:0:0:25:Kick.wav
192,192,61344,1,0,0:0:0:25:Kick.wav
64,192,61344,1,0,0:0:0:25:Kick.wav
320,192,61504,1,0,0:0:0:17:Clap.wav
448,192,61504,1,0,0:0:0:17:Clap.wav
64,192,61504,1,0,0:0:0:17:Clap.wav
192,192,61663,1,0,0:0:0:17:Kick.wav
320,192,61663,1,0,0:0:0:17:Kick.wav
448,192,61663,1,0,0:0:0:17:Kick.wav
64,192,61982,128,0,62461:0:0:0:25:Clap.wav
192,192,61982,128,0,62142:0:0:0:25:Kick.wav
448,192,61982,1,0,0:0:0:25:Clap.wav
320,192,61982,1,0,0:0:0:25:Kick.wav
320,192,62142,128,0,62621:0:0:0:0:
448,192,62301,128,0,62621:0:0:0:50:Clap.wav
192,192,62301,128,0,62461:0:0:0:50:Kick.wav
64,192,62621,1,0,0:0:0:25:Kick.wav
192,192,62621,1,0,0:0:0:25:Kick.wav
320,192,62700,1,0,0:0:0:50:Kick.wav
64,192,62780,1,0,0:0:0:17:Clap.wav
192,192,62780,1,0,0:0:0:17:Clap.wav
448,192,62780,1,0,0:0:0:17:Clap.wav
320,192,62860,1,0,0:0:0:0:
64,192,62940,1,0,0:0:0:17:Clap.wav
192,192,62940,1,0,0:0:0:17:Clap.wav
448,192,62940,1,0,0:0:0:17:Clap.wav
320,192,63019,1,0,0:0:0:0:
192,192,63099,1,0,0:0:0:17:Clap.wav
448,192,63099,1,0,0:0:0:17:Clap.wav
64,192,63099,1,0,0:0:0:17:Clap.wav
320,192,63179,1,0,0:0:0:0:
64,192,63259,1,0,0:0:0:25:Kick.wav
192,192,63259,1,0,0:0:0:25:Kick.wav
192,192,63578,128,0,64855:0:0:0:25:Kick.wav
64,192,63578,1,0,0:0:0:25:Kick.wav
448,192,63897,1,0,0:0:0:50:Kick.wav
448,192,64057,1,0,0:0:0:50:Kick.wav
448,192,64216,1,0,0:0:0:50:Kick.wav
448,192,64376,1,0,0:0:0:17:Clap.wav
320,192,64376,1,0,0:0:0:17:Clap.wav
64,192,64376,1,0,0:0:0:17:Clap.wav
320,192,64535,1,0,0:0:0:50:Kick.wav
448,192,64855,128,0,66211:0:0:0:25:Kick.wav
64,192,64855,1,0,0:0:0:25:Kick.wav
320,192,65174,1,0,0:0:0:25:Clap.wav
64,192,65174,1,0,0:0:0:25:Clap.wav
192,192,65333,1,0,0:0:0:25:Kick.wav
192,192,65493,1,0,0:0:0:25:Kick.wav
64,192,65652,1,0,0:0:0:17:Clap.wav
192,192,65652,1,0,0:0:0:17:Clap.wav
320,192,65652,1,0,0:0:0:17:Clap.wav
64,192,65812,1,0,0:0:0:50:Kick.wav
64,192,65972,1,0,0:0:0:50:Kick.wav
64,192,66291,1,0,0:0:0:25:Clap.wav
448,192,66291,1,0,0:0:0:25:Kick.wav
320,192,66291,128,0,66610:0:0:0:25:Clap.wav
192,192,66291,1,0,0:0:0:25:Kick.wav
192,192,66450,128,0,66769:0:0:0:0:
64,192,66610,128,0,66769:0:0:0:0:
448,192,66769,128,0,66929:0:0:0:50:Clap.wav
320,192,66769,1,0,0:0:0:50:Kick.wav
64,192,67089,1,0,0:0:0:50:Clap.wav
192,192,67089,1,0,0:0:0:25:Kick.wav
320,192,67089,128,0,67248:0:0:0:25:Kick.wav
448,192,67168,128,0,67248:0:0:0:0:
320,192,67408,1,0,0:0:0:50:Kick.wav
448,192,67408,1,0,0:0:0:25:Clap.wav
64,192,67408,128,0,67727:0:0:0:25:Clap.wav
192,192,67727,1,0,0:0:0:25:Kick.wav
320,192,67727,1,0,0:0:0:25:Kick.wav
448,192,67887,1,0,0:0:0:17:Clap.wav
192,192,67887,1,0,0:0:0:17:Clap.wav
64,192,67887,1,0,0:0:0:17:Clap.wav
320,192,67966,1,0,0:0:0:0:
64,192,68046,1,0,0:0:0:25:Kick.wav
448,192,68046,1,0,0:0:0:25:Kick.wav
192,192,68126,1,0,0:0:0:0:
64,192,68206,1,0,0:0:0:17:Clap.wav
320,192,68206,1,0,0:0:0:17:Clap.wav
448,192,68206,1,0,0:0:0:17:Clap.wav
192,192,68285,1,0,0:0:0:0:
448,192,68365,1,0,0:0:0:25:Kick.wav
64,192,68365,1,0,0:0:0:25:Kick.wav
320,192,68445,1,0,0:0:0:0:
192,192,68525,1,0,0:0:0:17:Clap.wav
64,192,68525,1,0,0:0:0:17:Clap.wav
448,192,68525,1,0,0:0:0:17:Clap.wav
320,192,68605,1,0,0:0:0:0:
192,192,68684,1,0,0:0:0:25:Kick.wav
64,192,68684,1,0,0:0:0:25:Kick.wav
320,192,68764,1,0,0:0:0:0:
448,192,68844,128,0,70121:0:0:0:0:
192,192,69482,128,0,70121:0:0:0:0:
64,192,70121,128,0,70759:0:0:0:0:
448,192,70599,128,0,70679:0:0:0:0:
320,192,70679,128,0,70759:0:0:0:0:
192,192,70759,128,0,71397:0:0:0:0:
64,192,71397,1,0,0:0:0:17:Clap.wav
320,192,71397,1,0,0:0:0:17:Clap.wav
448,192,71397,1,0,0:0:0:17:Clap.wav
448,192,71557,1,0,0:0:0:0:
320,192,71716,1,0,0:0:0:17:Clap.wav
192,192,71716,1,0,0:0:0:17:Clap.wav
64,192,71716,1,0,0:0:0:17:Clap.wav
192,192,71876,1,0,0:0:0:0:
64,192,72035,1,0,0:0:0:17:Clap.wav
320,192,72035,1,0,0:0:0:17:Clap.wav
448,192,72035,1,0,0:0:0:17:Clap.wav
64,192,72195,1,0,0:0:0:25:Kick.wav
192,192,72195,1,0,0:0:0:25:Kick.wav
320,192,72355,1,0,0:0:0:17:Clap.wav
448,192,72355,1,0,0:0:0:17:Clap.wav
192,192,72355,1,0,0:0:0:17:Clap.wav
64,192,72514,1,0,0:0:0:25:Kick.wav
448,192,72514,1,0,0:0:0:25:Kick.wav
192,192,72674,1,0,0:0:0:50:Kick.wav
320,192,72754,1,0,0:0:0:50:Kick.wav
192,192,72833,1,0,0:0:0:50:Cymbal.wav
64,192,72833,1,0,0:0:0:25:Clap.wav
448,192,72833,1,0,0:0:0:25:Clap.wav
192,192,72993,1,0,0:0:0:17:Clap.wav
64,192,72993,1,0,0:0:0:17:Clap.wav
448,192,72993,1,0,0:0:0:17:Clap.wav
320,192,73152,1,0,0:0:0:25:Kick.wav
448,192,73152,1,0,0:0:0:25:Kick.wav
64,192,73312,1,0,0:0:0:17:Clap.wav
320,192,73312,1,0,0:0:0:17:Clap.wav
192,192,73312,1,0,0:0:0:17:Clap.wav
192,192,73472,1,0,0:0:0:25:Kick.wav
64,192,73472,1,0,0:0:0:25:Kick.wav
64,192,73791,1,0,0:0:0:25:Kick.wav
320,192,73791,1,0,0:0:0:25:Clap.wav
192,192,73791,1,0,0:0:0:25:Kick.wav
448,192,73791,128,0,74429:0:0:0:25:Clap.wav
320,192,74110,128,0,74589:0:0:0:0:
192,192,74269,128,0,74748:0:0:0:0:
64,192,74429,128,0,74908:0:0:0:0:
448,192,74589,128,0,74988:0:0:0:0:
320,192,74748,128,0,75147:0:0:0:0:
192,192,74908,128,0,75307:0:0:0:0:
64,192,75067,128,0,75387:0:0:0:13:Kick.wav
448,192,75067,1,0,0:0:0:13:Kick.wav
320,192,75227,1,0,0:0:0:25:Kick.wav
192,192,75387,1,0,0:0:0:18:Kick.wav
448,192,75387,1,0,0:0:0:18:Kick.wav
320,192,75466,1,0,0:0:0:0:
64,192,75546,1,0,0:0:0:17:Clap.wav
192,192,75546,1,0,0:0:0:17:Clap.wav
448,192,75546,1,0,0:0:0:17:Clap.wav
192,192,75706,1,0,0:0:0:25:Kick.wav
320,192,75706,1,0,0:0:0:25:Kick.wav
64,192,75865,1,0,0:0:0:17:Clap.wav
448,192,75865,1,0,0:0:0:17:Clap.wav
320,192,75865,1,0,0:0:0:17:Clap.wav
64,192,76025,1,0,0:0:0:17:Clap.wav
448,192,76025,1,0,0:0:0:17:Clap.wav
320,192,76025,1,0,0:0:0:17:Clap.wav
64,192,76344,1,0,0:0:0:50:Clap.wav
320,192,76344,1,0,0:0:0:25:Kick.wav
192,192,76344,1,0,0:0:0:25:Kick.wav
192,192,76663,1,0,0:0:0:25:Kick.wav
320,192,76663,1,0,0:0:0:25:Kick.wav
64,192,76823,1,0,0:0:0:17:Clap.wav
192,192,76823,1,0,0:0:0:17:Clap.wav
448,192,76823,1,0,0:0:0:17:Clap.wav
320,192,76982,1,0,0:0:0:0:
192,192,77062,1,0,0:0:0:0:
64,192,77142,1,0,0:0:0:25:Kick.wav
448,192,77142,1,0,0:0:0:25:Kick.wav
320,192,77182,1,0,0:0:0:0:
192,192,77222,1,0,0:0:0:0:
64,192,77262,1,0,0:0:0:0:
448,192,77301,1,0,0:0:0:0:
320,192,77341,1,0,0:0:0:0:
64,192,77381,1,0,0:0:0:0:
192,192,77421,1,0,0:0:0:0:
320,192,77461,1,0,0:0:0:25:Clap.wav
448,192,77461,1,0,0:0:0:25:Clap.wav
64,192,77621,1,0,0:0:0:25:Kick.wav
192,192,77621,1,0,0:0:0:25:Clap.wav
320,192,77621,1,0,0:0:0:25:Kick.wav
448,192,77621,1,0,0:0:0:25:Clap.wav
64,192,78099,128,0,78738:0:0:0:0:
448,192,78418,128,0,78738:0:0:0:0:
320,192,78578,128,0,78738:0:0:0:0:
64,192,78897,1,0,0:0:0:50:Cymbal.wav
192,192,78897,1,0,0:0:0:50:Kick.wav
320,192,78897,1,0,0:0:0:25:Clap.wav
448,192,78897,1,0,0:0:0:25:Clap.wav
192,192,79216,1,0,0:0:0:0:
64,192,79376,1,0,0:0:0:17:Clap.wav
192,192,79376,1,0,0:0:0:17:Clap.wav
448,192,79376,1,0,0:0:0:17:Clap.wav
320,192,79535,1,0,0:0:0:0:
64,192,79695,1,0,0:0:0:25:Kick.wav
448,192,79695,1,0,0:0:0:25:Kick.wav
192,192,79855,1,0,0:0:0:0:
192,192,80014,1,0,0:0:0:17:Clap.wav
320,192,80014,1,0,0:0:0:17:Clap.wav
448,192,80014,1,0,0:0:0:17:Clap.wav
64,192,80174,1,0,0:0:0:0:
320,192,80333,1,0,0:0:0:25:Kick.wav
448,192,80333,1,0,0:0:0:25:Kick.wav
64,192,80493,1,0,0:0:0:0:
64,192,80652,1,0,0:0:0:17:Clap.wav
448,192,80652,1,0,0:0:0:17:Clap.wav
320,192,80652,1,0,0:0:0:17:Clap.wav
192,192,80812,1,0,0:0:0:0:
64,192,80972,1,0,0:0:0:25:Kick.wav
448,192,80972,1,0,0:0:0:25:Kick.wav
320,192,81131,1,0,0:0:0:0:
320,192,81291,1,0,0:0:0:17:Clap.wav
192,192,81291,1,0,0:0:0:17:Clap.wav
64,192,81291,1,0,0:0:0:17:Clap.wav
448,192,81450,1,0,0:0:0:0:
320,192,81610,1,0,0:0:0:25:Kick.wav
64,192,81610,1,0,0:0:0:25:Kick.wav
192,192,81769,1,0,0:0:0:0:
320,192,81929,1,0,0:0:0:17:Clap.wav
192,192,81929,1,0,0:0:0:17:Clap.wav
448,192,81929,1,0,0:0:0:17:Clap.wav
64,192,82089,1,0,0:0:0:0:
192,192,82248,1,0,0:0:0:25:Kick.wav
320,192,82248,1,0,0:0:0:25:Kick.wav
448,192,82408,1,0,0:0:0:0:
448,192,82567,1,0,0:0:0:17:Clap.wav
320,192,82567,1,0,0:0:0:17:Clap.wav
64,192,82567,1,0,0:0:0:17:Clap.wav
192,192,82727,1,0,0:0:0:0:
320,192,82887,1,0,0:0:0:25:Kick.wav
64,192,82887,1,0,0:0:0:25:Kick.wav
448,192,83046,1,0,0:0:0:0:
448,192,83206,1,0,0:0:0:17:Clap.wav
320,192,83206,1,0,0:0:0:17:Clap.wav
192,192,83206,1,0,0:0:0:17:Clap.wav
64,192,83365,1,0,0:0:0:0:
320,192,83445,1,0,0:0:0:0:
192,192,83525,1,0,0:0:0:25:Kick.wav
448,192,83525,1,0,0:0:0:25:Kick.wav
320,192,83684,1,0,0:0:0:0:
320,192,83844,1,0,0:0:0:17:Clap.wav
64,192,83844,1,0,0:0:0:17:Clap.wav
448,192,83844,1,0,0:0:0:17:Clap.wav
192,192,84004,1,0,0:0:0:0:
64,192,84163,1,0,0:0:0:50:Cymbal.wav
448,192,84163,1,0,0:0:0:50:Kick.wav
320,192,84243,1,0,0:0:0:0:
192,192,84323,1,0,0:0:0:0:
320,192,84402,1,0,0:0:0:0:
448,192,84482,1,0,0:0:0:17:Clap.wav
192,192,84482,1,0,0:0:0:17:Clap.wav
64,192,84482,1,0,0:0:0:17:Clap.wav
320,192,84562,1,0,0:0:0:0:
448,192,84642,1,0,0:0:0:0:
64,192,84722,1,0,0:0:0:0:
320,192,84801,1,0,0:0:0:25:Kick.wav
192,192,84801,1,0,0:0:0:25:Kick.wav
448,192,84881,1,0,0:0:0:0:
64,192,84961,1,0,0:0:0:0:
192,192,85041,1,0,0:0:0:0:
64,192,85121,1,0,0:0:0:17:Clap.wav
320,192,85121,1,0,0:0:0:17:Clap.wav
448,192,85121,1,0,0:0:0:17:Clap.wav
192,192,85200,1,0,0:0:0:0:
320,192,85280,1,0,0:0:0:25:Cymbal.wav
448,192,85280,1,0,0:0:0:25:Cymbal.wav
64,192,85360,1,0,0:0:0:0:
448,192,85440,1,0,0:0:0:25:Kick.wav
192,192,85440,1,0,0:0:0:25:Kick.wav
320,192,85519,1,0,0:0:0:0:
192,192,85599,1,0,0:0:0:0:
320,192,85679,1,0,0:0:0:0:
64,192,85759,1,0,0:0:0:17:Clap.wav
448,192,85759,1,0,0:0:0:17:Clap.wav
192,192,85759,1,0,0:0:0:17:Clap.wav
320,192,85839,1,0,0:0:0:0:
64,192,85918,1,0,0:0:0:0:
192,192,85998,1,0,0:0:0:0:
320,192,86078,1,0,0:0:0:25:Kick.wav
448,192,86078,1,0,0:0:0:25:Kick.wav
64,192,86158,1,0,0:0:0:0:
192,192,86238,1,0,0:0:0:0:
320,192,86317,1,0,0:0:0:0:
448,192,86397,1,0,0:0:0:17:Clap.wav
192,192,86397,1,0,0:0:0:17:Clap.wav
64,192,86397,1,0,0:0:0:17:Clap.wav
320,192,86557,1,0,0:0:0:0:
64,192,86716,1,0,0:0:0:17:Clap.wav
320,192,86716,1,0,0:0:0:17:Clap.wav
448,192,86716,1,0,0:0:0:17:Clap.wav
192,192,86876,1,0,0:0:0:25:Kick.wav
64,192,86876,1,0,0:0:0:25:Kick.wav
192,192,87035,1,0,0:0:0:17:Clap.wav
320,192,87035,1,0,0:0:0:17:Clap.wav
448,192,87035,1,0,0:0:0:17:Clap.wav
64,192,87115,1,0,0:0:0:0:
448,192,87195,1,0,0:0:0:50:Kick.wav
320,192,87275,1,0,0:0:0:0:
64,192,87355,1,0,0:0:0:17:Clap.wav
192,192,87355,1,0,0:0:0:17:Clap.wav
448,192,87355,1,0,0:0:0:17:Clap.wav
320,192,87514,1,0,0:0:0:25:Kick.wav
192,192,87514,1,0,0:0:0:25:Kick.wav
320,192,87674,1,0,0:0:0:17:Clap.wav
448,192,87674,1,0,0:0:0:17:Clap.wav
64,192,87674,1,0,0:0:0:17:Clap.wav
192,192,87754,1,0,0:0:0:0:
320,192,87833,1,0,0:0:0:50:Kick.wav
192,192,87913,1,0,0:0:0:0:
64,192,87993,1,0,0:0:0:17:Clap.wav
320,192,87993,1,0,0:0:0:17:Clap.wav
448,192,87993,1,0,0:0:0:17:Clap.wav
192,192,88312,1,0,0:0:0:25:Kick.wav
448,192,88312,1,0,0:0:0:25:Kick.wav
64,192,88472,1,0,0:0:0:17:Clap.wav
320,192,88472,1,0,0:0:0:17:Clap.wav
448,192,88472,1,0,0:0:0:17:Clap.wav
64,192,88791,1,0,0:0:0:25:Kick.wav
448,192,88791,1,0,0:0:0:25:Kick.wav
320,192,88871,1,0,0:0:0:0:
192,192,88950,1,0,0:0:0:0:
320,192,89030,1,0,0:0:0:0:
448,192,89110,1,0,0:0:0:50:Clap.wav
192,192,89110,1,0,0:0:0:50:Kick.wav
64,192,89110,1,0,0:0:0:50:Cymbal.wav
320,192,89429,1,0,0:0:0:25:Kick.wav
64,192,89429,1,0,0:0:0:25:Kick.wav
192,192,89589,1,0,0:0:0:17:Clap.wav
64,192,89589,1,0,0:0:0:17:Clap.wav
448,192,89589,1,0,0:0:0:17:Clap.wav
320,192,89748,1,0,0:0:0:0:
320,192,89908,1,0,0:0:0:17:Clap.wav
448,192,89908,1,0,0:0:0:17:Clap.wav
64,192,89908,1,0,0:0:0:17:Clap.wav
192,192,90067,1,0,0:0:0:0:
192,192,90227,1,0,0:0:0:17:Clap.wav
320,192,90227,1,0,0:0:0:17:Clap.wav
448,192,90227,1,0,0:0:0:17:Clap.wav
64,192,90387,1,0,0:0:0:50:Cymbal.wav
320,192,90387,1,0,0:0:0:25:Clap.wav
448,192,90387,1,0,0:0:0:25:Clap.wav
192,192,90706,1,0,0:0:0:25:Kick.wav
320,192,90706,1,0,0:0:0:25:Kick.wav
192,192,90865,1,0,0:0:0:17:Clap.wav
64,192,90865,1,0,0:0:0:17:Clap.wav
448,192,90865,1,0,0:0:0:17:Clap.wav
320,192,91025,1,0,0:0:0:0:
320,192,91184,1,0,0:0:0:17:Clap.wav
448,192,91184,1,0,0:0:0:17:Clap.wav
64,192,91184,1,0,0:0:0:17:Clap.wav
192,192,91344,1,0,0:0:0:25:Kick.wav
448,192,91344,1,0,0:0:0:25:Kick.wav
192,192,91504,1,0,0:0:0:17:Clap.wav
64,192,91504,1,0,0:0:0:17:Clap.wav
320,192,91504,1,0,0:0:0:17:Clap.wav
448,192,91663,1,0,0:0:0:25:Kick.wav
320,192,91663,1,0,0:0:0:25:Kick.wav
448,192,91823,1,0,0:0:0:25:Kick.wav
64,192,91823,1,0,0:0:0:25:Kick.wav
192,192,91982,1,0,0:0:0:0:
320,192,92142,1,0,0:0:0:17:Clap.wav
448,192,92142,1,0,0:0:0:17:Clap.wav
64,192,92142,1,0,0:0:0:17:Clap.wav
192,192,92301,1,0,0:0:0:0:
320,192,92461,1,0,0:0:0:25:Kick.wav
64,192,92461,1,0,0:0:0:25:Kick.wav
448,192,92621,1,0,0:0:0:25:Kick.wav
192,192,92621,1,0,0:0:0:25:Kick.wav
320,192,92780,1,0,0:0:0:17:Clap.wav
448,192,92780,1,0,0:0:0:17:Clap.wav
64,192,92780,1,0,0:0:0:17:Clap.wav
64,192,93099,1,0,0:0:0:50:Kick.wav
192,192,93099,1,0,0:0:0:25:Clap.wav
320,192,93099,1,0,0:0:0:25:Clap.wav
64,192,93259,1,0,0:0:0:50:Kick.wav
192,192,93259,1,0,0:0:0:25:Clap.wav
320,192,93259,1,0,0:0:0:25:Clap.wav
448,192,93339,1,0,0:0:0:0:
64,192,93418,1,0,0:0:0:0:
192,192,93498,1,0,0:0:0:0:
320,192,93578,1,0,0:0:0:17:Kick.wav
448,192,93578,1,0,0:0:0:17:Kick.wav
64,192,93578,1,0,0:0:0:17:Kick.wav
64,192,93897,1,0,0:0:0:17:Kick.wav
320,192,93897,1,0,0:0:0:17:Kick.wav
192,192,93897,1,0,0:0:0:17:Kick.wav
192,192,94216,1,0,0:0:0:25:Kick.wav
320,192,94216,1,0,0:0:0:50:Clap.wav
448,192,94216,1,0,0:0:0:50:Cymbal.wav
64,192,94216,1,0,0:0:0:25:Kick.wav
64,192,94535,1,0,0:0:0:25:Kick.wav
448,192,94535,1,0,0:0:0:25:Kick.wav
192,192,94695,1,0,0:0:0:17:Clap.wav
320,192,94695,1,0,0:0:0:17:Clap.wav
64,192,94695,1,0,0:0:0:17:Clap.wav
448,192,94855,1,0,0:0:0:0:
320,192,95014,1,0,0:0:0:25:Kick.wav
64,192,95014,1,0,0:0:0:25:Kick.wav
192,192,95174,1,0,0:0:0:25:Kick.wav
448,192,95174,1,0,0:0:0:25:Kick.wav
64,192,95333,1,0,0:0:0:17:Clap.wav
320,192,95333,1,0,0:0:0:17:Clap.wav
448,192,95333,1,0,0:0:0:17:Clap.wav
192,192,95493,1,0,0:0:0:25:Kick.wav
320,192,95493,1,0,0:0:0:25:Kick.wav
448,192,95812,1,0,0:0:0:25:Kick.wav
64,192,95812,1,0,0:0:0:25:Kick.wav
192,192,95972,1,0,0:0:0:17:Clap.wav
64,192,95972,1,0,0:0:0:17:Clap.wav
448,192,95972,1,0,0:0:0:17:Clap.wav
320,192,96291,1,0,0:0:0:25:Kick.wav
448,192,96291,1,0,0:0:0:25:Kick.wav
320,192,96450,1,0,0:0:0:25:Kick.wav
448,192,96450,1,0,0:0:0:25:Kick.wav
64,192,96610,1,0,0:0:0:17:Clap.wav
192,192,96610,1,0,0:0:0:17:Clap.wav
448,192,96610,1,0,0:0:0:17:Clap.wav
320,192,96690,1,0,0:0:0:0:
192,192,96769,1,0,0:0:0:0:
64,192,96849,1,0,0:0:0:0:
320,192,96929,1,0,0:0:0:50:Cymbal.wav
448,192,96929,1,0,0:0:0:25:Clap.wav
192,192,96929,1,0,0:0:0:25:Clap.wav
64,192,97089,1,0,0:0:0:0:
64,192,97248,1,0,0:0:0:17:Clap.wav
192,192,97248,1,0,0:0:0:17:Clap.wav
448,192,97248,1,0,0:0:0:17:Clap.wav
320,192,97408,1,0,0:0:0:0:
320,192,97567,1,0,0:0:0:17:Clap.wav
448,192,97567,1,0,0:0:0:17:Clap.wav
64,192,97567,1,0,0:0:0:17:Clap.wav
192,192,97727,1,0,0:0:0:0:
192,192,97887,1,0,0:0:0:17:Clap.wav
320,192,97887,1,0,0:0:0:17:Clap.wav
448,192,97887,1,0,0:0:0:17:Clap.wav
64,192,98046,1,0,0:0:0:0:
64,192,98206,1,0,0:0:0:17:Clap.wav
192,192,98206,1,0,0:0:0:17:Clap.wav
448,192,98206,1,0,0:0:0:17:Clap.wav
320,192,98365,1,0,0:0:0:0:
320,192,98525,1,0,0:0:0:17:Clap.wav
448,192,98525,1,0,0:0:0:17:Clap.wav
64,192,98525,1,0,0:0:0:17:Clap.wav
192,192,98684,1,0,0:0:0:0:
64,192,98844,1,0,0:0:0:17:Clap.wav
192,192,98844,1,0,0:0:0:17:Clap.wav
448,192,98844,1,0,0:0:0:17:Clap.wav
320,192,99004,1,0,0:0:0:0:
320,192,99163,1,0,0:0:0:17:Clap.wav
448,192,99163,1,0,0:0:0:17:Clap.wav
64,192,99163,1,0,0:0:0:17:Clap.wav
192,192,99323,1,0,0:0:0:0:
64,192,99482,1,0,0:0:0:17:Clap.wav
192,192,99482,1,0,0:0:0:17:Clap.wav
448,192,99482,1,0,0:0:0:17:Clap.wav
64,192,99801,1,0,0:0:0:17:Clap.wav
320,192,99801,1,0,0:0:0:17:Clap.wav
448,192,99801,1,0,0:0:0:17:Clap.wav
192,192,99881,1,0,0:0:0:0:
320,192,99961,1,0,0:0:0:25:Kick.wav
448,192,99961,1,0,0:0:0:25:Kick.wav
64,192,100041,1,0,0:0:0:0:
320,192,100121,1,0,0:0:0:25:Kick.wav
448,192,100121,1,0,0:0:0:25:Kick.wav
64,192,100200,1,0,0:0:0:25:Kick.wav
192,192,100200,1,0,0:0:0:25:Kick.wav
320,192,100280,1,0,0:0:0:25:Kick.wav
448,192,100280,1,0,0:0:0:25:Kick.wav
192,192,100360,1,0,0:0:0:25:Kick.wav
64,192,100360,1,0,0:0:0:25:Kick.wav
320,192,100440,1,0,0:0:0:25:Kick.wav
448,192,100440,1,0,0:0:0:25:Kick.wav
64,192,100519,1,0,0:0:0:25:Kick.wav
192,192,100519,1,0,0:0:0:25:Kick.wav
320,192,100599,128,0,100918:0:0:0:50:Kick.wav
448,192,100599,128,0,100918:0:0:0:50:Clap.wav
64,192,100918,1,0,0:0:0:50:Kick.wav
192,192,100918,1,0,0:0:0:50:Clap.wav
64,192,101078,1,0,0:0:0:50:Kick.wav
192,192,101078,1,0,0:0:0:50:Clap.wav
448,192,101397,1,0,0:0:0:0:
320,192,101437,1,0,0:0:0:0:
192,192,101477,1,0,0:0:0:0:
64,192,101517,1,0,0:0:0:0:
448,192,101557,1,0,0:0:0:0:
320,192,101597,1,0,0:0:0:0:
192,192,101637,1,0,0:0:0:0:
64,192,101676,1,0,0:0:0:0:
448,192,101716,128,0,101876:0:0:0:0:
320,192,101876,1,0,0:0:0:50:Kick.wav
192,192,101876,1,0,0:0:0:50:Clap.wav
64,192,101876,1,0,0:0:0:50:Cymbal.wav
192,192,102195,128,0,102355:0:0:0:0:
64,192,102514,128,0,102674:0:0:0:25:Kick.wav
448,192,102514,1,0,0:0:0:25:Kick.wav
320,192,102594,1,0,0:0:0:50:Kick.wav
448,192,102674,128,0,102833:0:0:0:25:Clap.wav
192,192,102674,1,0,0:0:0:25:Clap.wav
192,192,102993,128,0,103152:0:0:0:0:
448,192,103152,128,0,103472:0:0:0:25:Kick.wav
320,192,103152,1,0,0:0:0:25:Kick.wav
192,192,103472,1,0,0:0:0:17:Clap.wav
64,192,103472,1,0,0:0:0:17:Clap.wav
320,192,103472,128,0,103631:0:0:0:17:Clap.wav
64,192,103631,1,0,0:0:0:25:Kick.wav
448,192,103631,1,0,0:0:0:25:Kick.wav
192,192,103791,128,0,104110:0:0:0:0:
64,192,103950,1,0,0:0:0:17:Clap.wav
320,192,103950,1,0,0:0:0:17:Clap.wav
448,192,103950,1,0,0:0:0:17:Clap.wav
64,192,104110,128,0,104269:0:0:0:0:
320,192,104269,1,0,0:0:0:0:
192,192,104429,1,0,0:0:0:0:
64,192,104589,1,0,0:0:0:50:Cymbal.wav
320,192,104589,1,0,0:0:0:25:Clap.wav
448,192,104589,1,0,0:0:0:25:Clap.wav
192,192,104908,1,0,0:0:0:25:Kick.wav
320,192,104908,1,0,0:0:0:25:Kick.wav
64,192,105227,1,0,0:0:0:17:Clap.wav
192,192,105227,1,0,0:0:0:17:Clap.wav
448,192,105227,1,0,0:0:0:17:Clap.wav
320,192,105307,1,0,0:0:0:0:
192,192,105387,1,0,0:0:0:0:
320,192,105466,1,0,0:0:0:0:
448,192,105546,1,0,0:0:0:0:
64,192,105626,1,0,0:0:0:0:
192,192,105706,1,0,0:0:0:0:
320,192,105785,1,0,0:0:0:0:
192,192,105865,1,0,0:0:0:50:Cymbal.wav
64,192,105865,1,0,0:0:0:25:Clap.wav
448,192,105865,1,0,0:0:0:25:Clap.wav
320,192,105945,1,0,0:0:0:0:
64,192,106025,1,0,0:0:0:25:Clap.wav
448,192,106025,1,0,0:0:0:25:Clap.wav
192,192,106105,1,0,0:0:0:0:
320,192,106184,1,0,0:0:0:25:Kick.wav
448,192,106184,1,0,0:0:0:25:Kick.wav
64,192,106264,1,0,0:0:0:0:
192,192,106344,1,0,0:0:0:0:
320,192,106424,1,0,0:0:0:0:
64,192,106504,1,0,0:0:0:17:Clap.wav
448,192,106504,1,0,0:0:0:17:Clap.wav
192,192,106504,1,0,0:0:0:17:Clap.wav
320,192,106583,1,0,0:0:0:0:
192,192,106663,1,0,0:0:0:0:
320,192,106743,1,0,0:0:0:0:
448,192,106823,1,0,0:0:0:25:Kick.wav
64,192,106823,1,0,0:0:0:25:Kick.wav
192,192,107142,128,0,108418:0:0:0:25:Clap.wav
64,192,107142,1,0,0:0:0:25:Kick.wav
320,192,107142,1,0,0:0:0:25:Clap.wav
448,192,107142,1,0,0:0:0:25:Kick.wav
64,192,107621,1,0,0:0:0:50:Clap.wav
320,192,107621,1,0,0:0:0:25:Kick.wav
448,192,107621,1,0,0:0:0:25:Kick.wav
64,192,107940,1,0,0:0:0:50:Clap.wav
320,192,107940,1,0,0:0:0:25:Kick.wav
448,192,107940,1,0,0:0:0:25:Kick.wav
64,192,108099,1,0,0:0:0:50:Clap.wav
320,192,108099,1,0,0:0:0:25:Kick.wav
448,192,108099,1,0,0:0:0:25:Kick.wav
448,192,108897,1,0,0:0:0:0:
320,192,108977,1,0,0:0:0:0:
192,192,109057,1,0,0:0:0:25:Kick.wav
64,192,109057,1,0,0:0:0:25:Kick.wav
448,192,109137,1,0,0:0:0:25:Kick.wav
320,192,109137,1,0,0:0:0:25:Kick.wav
192,192,109216,1,0,0:0:0:25:Kick.wav
64,192,109216,1,0,0:0:0:25:Kick.wav
320,192,109296,1,0,0:0:0:25:Kick.wav
448,192,109296,1,0,0:0:0:25:Kick.wav
64,192,109376,1,0,0:0:0:25:Kick.wav
192,192,109376,1,0,0:0:0:25:Kick.wav
320,192,109456,1,0,0:0:0:25:Kick.wav
448,192,109456,1,0,0:0:0:25:Kick.wav
192,192,109535,1,0,0:0:0:50:Kick.wav
64,192,109535,1,0,0:0:0:50:Clap.wav
448,192,109535,1,0,0:0:0:50:Cymbal.wav
64,192,110014,1,0,0:0:0:17:Clap.wav
192,192,110014,1,0,0:0:0:17:Clap.wav
320,192,110014,1,0,0:0:0:17:Clap.wav
448,192,110174,1,0,0:0:0:0:
64,192,110333,1,0,0:0:0:25:Kick.wav
320,192,110333,1,0,0:0:0:25:Kick.wav
192,192,110493,1,0,0:0:0:0:
64,192,110652,1,0,0:0:0:17:Clap.wav
320,192,110652,1,0,0:0:0:17:Clap.wav
448,192,110652,1,0,0:0:0:17:Clap.wav
192,192,110812,1,0,0:0:0:0:
320,192,110972,1,0,0:0:0:25:Kick.wav
448,192,110972,128,0,111131:0:0:0:25:Kick.wav
192,192,111131,128,0,111291:0:0:0:0:
320,192,111291,1,0,0:0:0:17:Clap.wav
448,192,111291,128,0,111450:0:0:0:17:Clap.wav
64,192,111291,1,0,0:0:0:17:Clap.wav
192,192,111450,128,0,111610:0:0:0:0:
320,192,111610,128,0,111769:0:0:0:25:Kick.wav
448,192,111610,1,0,0:0:0:25:Kick.wav
64,192,111769,128,0,111929:0:0:0:0:
448,192,111929,1,0,0:0:0:17:Clap.wav
192,192,111929,128,0,112089:0:0:0:17:Clap.wav
320,192,111929,1,0,0:0:0:17:Clap.wav
448,192,112089,128,0,112408:0:0:0:0:
64,192,112248,1,0,0:0:0:25:Kick.wav
320,192,112248,1,0,0:0:0:25:Kick.wav
192,192,112408,128,0,112567:0:0:0:0:
64,192,112567,128,0,112727:0:0:0:17:Clap.wav
320,192,112567,1,0,0:0:0:17:Clap.wav
448,192,112567,1,0,0:0:0:17:Clap.wav
448,192,112727,128,0,113046:0:0:0:25:Kick.wav
192,192,112727,1,0,0:0:0:25:Kick.wav
320,192,112807,1,0,0:0:0:50:Kick.wav
192,192,112887,1,0,0:0:0:25:Kick.wav
64,192,112887,1,0,0:0:0:25:Kick.wav
192,192,113046,128,0,113206:0:0:0:0:
320,192,113206,128,0,113365:0:0:0:17:Clap.wav
448,192,113206,1,0,0:0:0:17:Clap.wav
64,192,113206,1,0,0:0:0:17:Clap.wav
64,192,113365,128,0,113684:0:0:0:0:
192,192,113525,1,0,0:0:0:50:Kick.wav
448,192,113684,128,0,113844:0:0:0:0:
320,192,113844,128,0,114004:0:0:0:17:Clap.wav
64,192,113844,1,0,0:0:0:17:Clap.wav
192,192,113844,1,0,0:0:0:17:Clap.wav
448,192,114004,1,0,0:0:0:25:Kick.wav
64,192,114004,1,0,0:0:0:25:Kick.wav
192,192,114163,1,0,0:0:0:25:Clap.wav
320,192,114163,1,0,0:0:0:25:Clap.wav
64,192,114243,1,0,0:0:0:25:Clap.wav
448,192,114243,1,0,0:0:0:25:Clap.wav
192,192,114323,1,0,0:0:0:25:Kick.wav
320,192,114323,1,0,0:0:0:25:Kick.wav
64,192,114482,1,0,0:0:0:50:Kick.wav
192,192,114482,1,0,0:0:0:50:Clap.wav
448,192,114562,1,0,0:0:0:25:Kick.wav
320,192,114562,1,0,0:0:0:25:Kick.wav
64,192,114642,1,0,0:0:0:25:Kick.wav
192,192,114642,1,0,0:0:0:25:Kick.wav
448,192,114722,1,0,0:0:0:25:Kick.wav
320,192,114722,1,0,0:0:0:25:Kick.wav
64,192,114801,1,0,0:0:0:25:Kick.wav
192,192,114801,1,0,0:0:0:25:Kick.wav
448,192,114801,1,0,0:0:0:50:Clap.wav
64,192,114961,1,0,0:0:0:0:
320,192,114961,1,0,0:0:0:0:
192,192,115121,1,0,0:0:0:17:Clap.wav
320,192,115121,1,0,0:0:0:17:Clap.wav
448,192,115121,1,0,0:0:0:17:Clap.wav
192,192,115280,1,0,0:0:0:0:
64,192,115280,1,0,0:0:0:0:
320,192,115440,1,0,0:0:0:17:Clap.wav
64,192,115440,1,0,0:0:0:17:Clap.wav
448,192,115440,1,0,0:0:0:17:Clap.wav
192,192,115599,1,0,0:0:0:25:Kick.wav
448,192,115599,1,0,0:0:0:25:Kick.wav
64,192,115759,1,0,0:0:0:17:Clap.wav
320,192,115759,1,0,0:0:0:17:Clap.wav
192,192,115759,1,0,0:0:0:17:Clap.wav
320,192,115918,1,0,0:0:0:25:Kick.wav
448,192,115918,1,0,0:0:0:25:Kick.wav
320,192,116238,1,0,0:0:0:25:Kick.wav
192,192,116238,1,0,0:0:0:25:Kick.wav
448,192,116397,1,0,0:0:0:17:Clap.wav
320,192,116397,1,0,0:0:0:17:Clap.wav
64,192,116397,1,0,0:0:0:17:Clap.wav
192,192,116557,1,0,0:0:0:25:Kick.wav
448,192,116557,1,0,0:0:0:25:Kick.wav
192,192,116716,1,0,0:0:0:17:Clap.wav
64,192,116716,1,0,0:0:0:17:Clap.wav
320,192,116716,1,0,0:0:0:17:Clap.wav
448,192,116876,1,0,0:0:0:25:Kick.wav
64,192,116876,1,0,0:0:0:25:Kick.wav
320,192,117035,1,0,0:0:0:17:Clap.wav
448,192,117035,1,0,0:0:0:17:Clap.wav
192,192,117035,1,0,0:0:0:17:Clap.wav
64,192,117195,1,0,0:0:0:25:Kick.wav
320,192,117195,1,0,0:0:0:25:Kick.wav
64,192,117355,1,0,0:0:0:17:Clap.wav
192,192,117355,1,0,0:0:0:17:Clap.wav
448,192,117355,1,0,0:0:0:17:Clap.wav
320,192,117514,1,0,0:0:0:25:Kick.wav
192,192,117514,1,0,0:0:0:25:Kick.wav
448,192,117674,1,0,0:0:0:17:Clap.wav
320,192,117674,1,0,0:0:0:17:Clap.wav
64,192,117674,1,0,0:0:0:17:Clap.wav
320,192,117993,1,0,0:0:0:17:Clap.wav
192,192,117993,1,0,0:0:0:17:Clap.wav
448,192,117993,1,0,0:0:0:17:Clap.wav
64,192,118152,1,0,0:0:0:25:Kick.wav
448,192,118152,1,0,0:0:0:25:Kick.wav
192,192,118312,1,0,0:0:0:17:Clap.wav
64,192,118312,1,0,0:0:0:17:Clap.wav
320,192,118312,1,0,0:0:0:17:Clap.wav
320,192,118472,1,0,0:0:0:25:Kick.wav
448,192,118472,1,0,0:0:0:25:Kick.wav
192,192,118791,1,0,0:0:0:25:Kick.wav
320,192,118791,1,0,0:0:0:25:Kick.wav
192,192,118950,1,0,0:0:0:17:Clap.wav
64,192,118950,1,0,0:0:0:17:Clap.wav
448,192,118950,1,0,0:0:0:17:Clap.wav
320,192,119110,1,0,0:0:0:0:
64,192,119110,1,0,0:0:0:0:
320,192,119269,1,0,0:0:0:25:Kick.wav
192,192,119269,1,0,0:0:0:25:Kick.wav
64,192,119429,1,0,0:0:0:25:Kick.wav
448,192,119429,1,0,0:0:0:25:Kick.wav
64,192,119589,1,0,0:0:0:25:Clap.wav
192,192,119589,1,0,0:0:0:25:Clap.wav
448,192,119668,1,0,0:0:0:25:Kick.wav
320,192,119668,1,0,0:0:0:25:Kick.wav
192,192,119748,1,0,0:0:0:25:Clap.wav
64,192,119748,1,0,0:0:0:25:Clap.wav
320,192,119828,1,0,0:0:0:25:Clap.wav
448,192,119828,1,0,0:0:0:25:Clap.wav
192,192,119908,1,0,0:0:0:25:Clap.wav
64,192,119908,1,0,0:0:0:25:Clap.wav
320,192,120067,1,0,0:0:0:0:
448,192,120067,1,0,0:0:0:0:
320,192,120227,1,0,0:0:0:17:Clap.wav
192,192,120227,1,0,0:0:0:17:Clap.wav
64,192,120227,1,0,0:0:0:17:Clap.wav
448,192,120387,1,0,0:0:0:0:
64,192,120387,1,0,0:0:0:0:
448,192,120546,1,0,0:0:0:17:Clap.wav
320,192,120546,1,0,0:0:0:17:Clap.wav
192,192,120546,1,0,0:0:0:17:Clap.wav
192,192,120706,1,0,0:0:0:25:Kick.wav
64,192,120706,1,0,0:0:0:25:Kick.wav
64,192,120865,1,0,0:0:0:17:Clap.wav
320,192,120865,1,0,0:0:0:17:Clap.wav
448,192,120865,1,0,0:0:0:17:Clap.wav
320,192,121025,1,0,0:0:0:25:Kick.wav
192,192,121025,1,0,0:0:0:25:Kick.wav
192,192,121344,1,0,0:0:0:25:Kick.wav
448,192,121344,1,0,0:0:0:25:Kick.wav
320,192,121504,1,0,0:0:0:17:Clap.wav
192,192,121504,1,0,0:0:0:17:Clap.wav
64,192,121504,1,0,0:0:0:17:Clap.wav
448,192,121663,1,0,0:0:0:0:
64,192,121663,1,0,0:0:0:0:
448,192,121823,1,0,0:0:0:17:Clap.wav
320,192,121823,1,0,0:0:0:17:Clap.wav
192,192,121823,1,0,0:0:0:17:Clap.wav
64,192,121982,1,0,0:0:0:25:Kick.wav
320,192,121982,1,0,0:0:0:25:Kick.wav
64,192,122142,1,0,0:0:0:17:Clap.wav
192,192,122142,1,0,0:0:0:17:Clap.wav
448,192,122142,1,0,0:0:0:17:Clap.wav
320,192,122301,1,0,0:0:0:25:Kick.wav
192,192,122301,1,0,0:0:0:25:Kick.wav
448,192,122461,1,0,0:0:0:17:Clap.wav
320,192,122461,1,0,0:0:0:17:Clap.wav
64,192,122461,1,0,0:0:0:17:Clap.wav
448,192,122780,1,0,0:0:0:17:Clap.wav
192,192,122780,1,0,0:0:0:17:Clap.wav
64,192,122780,1,0,0:0:0:17:Clap.wav
320,192,122940,1,0,0:0:0:0:
448,192,122940,1,0,0:0:0:0:
320,192,123099,1,0,0:0:0:17:Clap.wav
192,192,123099,1,0,0:0:0:17:Clap.wav
64,192,123099,1,0,0:0:0:17:Clap.wav
448,192,123259,1,0,0:0:0:25:Kick.wav
64,192,123259,1,0,0:0:0:25:Kick.wav
192,192,123418,1,0,0:0:0:17:Clap.wav
320,192,123418,1,0,0:0:0:17:Clap.wav
448,192,123418,1,0,0:0:0:17:Clap.wav
320,192,123578,1,0,0:0:0:17:Kick.wav
192,192,123578,1,0,0:0:0:17:Kick.wav
64,192,123578,128,0,123897:0:0:0:17:Kick.wav
192,192,123897,128,0,124057:0:0:0:17:Kick.wav
320,192,123897,1,0,0:0:0:17:Kick.wav
448,192,123897,1,0,0:0:0:17:Kick.wav
320,192,124057,128,0,124216:0:0:0:0:
448,192,124216,128,0,124376:0:0:0:17:Clap.wav
192,192,124216,1,0,0:0:0:17:Clap.wav
64,192,124216,1,0,0:0:0:17:Clap.wav
320,192,124376,1,0,0:0:0:0:
64,192,124535,128,0,125014:0:0:0:25:Cymbal.wav
192,192,124535,1,0,0:0:0:25:Clap.wav
320,192,124535,1,0,0:0:0:25:Clap.wav
448,192,124535,1,0,0:0:0:25:Cymbal.wav
448,192,124695,128,0,125014:0:0:0:0:
