osu file format v14

[General]
AudioFilename: Picon de Metafiction.mp3
AudioLeadIn: 0
PreviewTime: 78019
Countdown: 0
SampleSet: Soft
StackLeniency: 0.5
Mode: 0
LetterboxInBreaks: 0
WidescreenStoryboard: 1

[Editor]
DistanceSpacing: 0.9
BeatDivisor: 6
GridSize: 4
TimelineZoom: 1.7

[Metadata]
Title:Picon de Metafiction
TitleUnicode:ピコンでメタフィクション
Artist:Erabareshi
ArtistUnicode:エラバレシ
Creator:Darksonic
Version:Online
Source:四女神オンライン CYBER DIMENSION NEPTUNE
Tags:Neptunia Hyperdimension Four Goddesses Online cyberdimension choujigen game neptune idea factory compile heart opening OP JRPG 超次元ゲイム ネプテューヌ tamsoft pikon japanese videogame video game hazu- crissa theshadowofdark [-crissaegrim-]
BeatmapID:1918185
BeatmapSetID:913092

[Difficulty]
HPDrainRate:6
CircleSize:4
OverallDifficulty:9.2
ApproachRate:9.5
SliderMultiplier:1.9
SliderTickRate:1

[Events]
//Background and Video events
0,0,"BG.jpg",0,0
//Break Periods
//Storyboard Layer 0 (Background)
//Storyboard Layer 1 (Fail)
//Storyboard Layer 2 (Pass)
//Storyboard Layer 3 (Foreground)
//Storyboard Layer 4 (Overlay)
//Storyboard Sound Samples

[TimingPoints]
79,491.803278688525,4,2,0,30,1,0
79,-133.333333333333,4,2,0,30,0,0
11872,491.803278688525,4,2,0,30,1,0
11872,-133.333333333333,4,2,0,30,0,0
12855,444.444444444444,4,2,0,30,1,0
12855,-133.333333333333,4,2,0,30,0,0
13299,491.803278688525,4,2,0,30,1,0
13299,-133.333333333333,4,2,0,30,0,0
13865,491.803278688525,4,2,0,30,1,0
16324,-133.333333333333,4,2,0,30,0,0
22409,319.148936170213,4,2,3,50,1,0
22409,-100,4,2,3,50,0,0
22887,319.148936170213,4,2,3,70,1,0
32780,-76.9230769230769,4,2,4,60,0,0
33099,-166.666666666667,4,2,2,45,0,0
33259,-166.666666666667,4,2,5,45,0,0
38206,-166.666666666667,4,2,2,45,0,0
38365,-166.666666666667,4,2,5,45,0,0
43312,-166.666666666667,4,2,2,45,0,0
43472,-166.666666666667,4,2,5,45,0,0
50972,-333.333333333333,4,2,0,30,0,0
52089,-100,4,2,3,60,0,0
68844,-166.666666666667,4,2,2,40,0,0
69004,-166.666666666667,4,2,3,40,0,0
71397,-100,4,2,3,60,0,0
78099,-166.666666666667,4,2,0,20,0,0
78897,-83.3333333333333,4,2,3,70,0,1
88631,-133.333333333333,4,2,0,60,0,0
89110,-83.3333333333333,4,2,4,70,0,1
89269,-83.3333333333333,4,2,3,70,0,1
101876,-125,4,2,3,60,0,0
108418,-166.666666666667,4,2,2,40,0,0
108578,-166.666666666667,4,2,3,40,0,0
109535,-100,4,2,3,60,0,0
124535,-100,4,2,4,60,0,0
125014,-100,4,2,4,30,0,0

[Colours]
Combo1 : 255,255,128
Combo2 : 194,150,254
Combo3 : 132,215,255
Combo4 : 255,168,81

[HitObjects]
111,280,1800,5,0,0:0:0:0:
111,280,2046,6,0,P|136:254|147:221,1,71.2500027179719,2|0,0:0|0:0,0:0:0:0:
172,144,2538,1,0,0:0:0:0:
300,110,2783,2,0,P|230:105|171:144,1,142.500005435944,2|0,0:0|0:0,0:0:0:0:
224,204,3521,1,0,0:0:0:0:
304,220,3767,1,2,0:0:0:0:
375,180,4013,6,0,P|394:149|400:114,1,71.2500027179719,2|2,0:0|0:0,0:0:0:0:
304,220,4505,2,0,P|283:288|304:355,2,142.500005435944,2|2|2,0:0|0:0|0:0,0:0:0:0:
444,304,5734,1,2,0:0:0:0:
444,304,5980,6,0,P|411:290|375:288,1,71.2500027179719,2|0,0:0|0:0,0:0:0:0:
304,328,6472,1,0,0:0:0:0:
228,296,6718,1,2,0:0:0:0:
295,248,6964,2,0,P|323:183|312:113,1,142.500005435944,2|2,0:0|0:0,0:0:0:0:
72,160,7947,5,2,0:0:0:0:
71,159,8193,2,0,P|92:188|122:208,1,71.2500027179719,2|0,0:0|0:0,0:0:0:0:
248,68,8685,1,2,0:0:0:0:
248,68,9177,2,0,P|185:93|180:161,1,142.500005435944,2|0,0:0|0:0,0:0:0:0:
252,200,9915,5,2,0:0:0:0:
332,184,10160,1,0,0:0:0:0:
296,256,10406,1,2,0:0:0:0:
376,240,10652,1,0,0:0:0:0:
411,168,10898,2,0,P|404:99|347:60,1,142.500005435944,2|2,0:0|0:0,0:0:0:0:
200,120,11872,6,0,L|271:117,1,71.2500027179719,2|0,0:0|0:0,0:0:0:0:
220,240,12363,2,0,L|148:242,1,71.2500027179719,2|0,0:0|0:0,0:0:0:0:
340,176,12855,2,0,P|361:204|367:239,1,71.2500027179719,2|0,0:0|0:0,0:0:0:0:
108,116,13299,2,0,P|113:81|135:52,1,71.2500027179719,2|0,0:0|0:0,0:0:0:0:
317,94,13865,1,2,0:0:0:0:
256,192,13987,12,2,15750,0:0:0:0:
400,256,16324,5,2,0:0:0:0:
400,255,16569,2,0,P|339:291|269:286,1,142.500005435944,2|0,0:0|0:0,0:0:0:0:
204,236,17307,1,2,0:0:0:0:
196,155,17553,1,0,0:0:0:0:
252,96,17799,1,2,0:0:0:0:
256,192,17922,12,0,22225,0:0:0:0:
78,62,22887,6,0,P|148:122|145:214,1,190,6|8,0:0|0:0,0:0:0:0:
36,296,23365,1,0,0:0:0:0:
78,62,23525,1,10,0:0:0:0:
236,172,23684,1,2,0:0:0:0:
16,176,23844,1,10,0:0:0:0:
328,284,24004,6,0,L|350:95,1,190,6|0,0:0|0:0,0:0:0:0:
200,32,24482,1,8,0:0:0:0:
340,184,24642,1,0,0:0:0:0:
112,100,24801,1,8,0:0:0:0:
312,48,24961,1,2,0:0:0:0:
452,248,25121,1,10,0:0:0:0:
256,182,25280,1,2,0:0:0:0:
463,28,25440,6,0,P|493:112|428:174,1,190,14|8,0:0|0:0,0:0:0:0:
324,264,25918,1,0,0:0:0:0:
240,56,26078,1,10,0:0:0:0:
416,92,26238,1,2,0:0:0:0:
276,328,26397,1,10,0:0:0:0:
61,71,26557,6,0,B|124:48|181:83|181:83|204:64|240:56,1,190,6|0,0:0|0:0,0:0:0:0:
112,268,27035,2,0,P|95:223|103:177,1,95,8|0,0:0|0:0,0:0:0:0:
312,120,27355,1,8,0:0:0:0:
188,216,27514,1,2,0:0:0:0:
416,296,27674,2,0,L|423:201,1,95,10|2,0:0|0:0,0:0:0:0:
179,35,27993,6,0,P|158:128|203:235,1,190,14|8,0:0|0:0,0:0:0:0:
384,84,28472,1,0,0:0:0:0:
156,116,28631,1,10,0:0:0:0:
355,228,28791,1,2,0:0:0:0:
244,32,28950,1,10,0:0:0:0:
56,264,29110,6,0,P|140:224|231:244,1,190,6|0,0:0|0:0,0:0:0:0:
360,312,29589,1,8,0:0:0:0:
372,108,29748,1,0,0:0:0:0:
468,320,29908,1,8,0:0:0:0:
273,167,30067,1,2,0:0:0:0:
488,40,30227,1,10,0:0:0:0:
360,312,30387,1,2,0:0:0:0:
102,130,30546,6,0,B|153:104|192:148|192:148|232:188|273:167,1,190,14|8,0:0|0:0,0:0:0:0:
248,32,31025,1,0,0:0:0:0:
102,130,31184,1,10,0:0:0:0:
344,96,31344,1,2,0:0:0:0:
84,36,31504,1,10,0:0:0:0:
71,327,31663,6,0,P|118:335|165:330,1,95,14|0,0:0|0:0,0:0:0:0:
292,152,31982,1,2,0:0:0:0:
28,248,32142,1,10,0:0:0:0:
355,296,32301,2,0,P|374:252|379:205,1,95,2|8,0:0|0:0,0:0:0:0:
328,48,32621,1,0,0:0:0:0:
28,248,32780,6,0,L|150:263,1,123.499994346619,6|0,0:0|0:0,0:0:0:0:
251,36,33099,6,0,P|213:76|208:132,1,113.999996520996,4|2,0:2|1:2,0:0:0:0:
264,192,33578,1,0,0:0:0:0:
392,80,33738,2,0,L|335:85,1,56.9999982604981,2|0,1:2|0:0,0:0:0:0:
436,224,34057,2,0,L|493:219,1,56.9999982604981,2|0,1:2|0:0,0:0:0:0:
352,216,34376,2,0,L|344:272,1,56.9999982604981,2|0,1:2|0:0,0:0:0:0:
252,340,34695,2,0,L|259:283,1,56.9999982604981,2|0,1:2|0:0,0:0:0:0:
443,167,35014,2,0,L|435:223,1,56.9999982604981,2|0,1:2|0:0,0:0:0:0:
272,192,35333,1,2,1:2:0:0:
272,192,35493,1,0,0:0:0:0:
84,156,35652,6,0,P|139:146|194:162,1,113.999996520996,2|2,1:2|1:2,0:0:0:0:
192,244,36131,1,0,0:0:0:0:
128,296,36291,2,0,L|71:303,1,56.9999982604981,2|0,1:2|0:0,0:0:0:0:
200,344,36610,1,2,1:2:0:0:
200,344,36769,2,0,L|256:336,1,56.9999982604981,2|0,0:2|1:0,0:0:0:0:
340,320,37089,1,0,0:0:0:0:
468,228,37248,6,0,L|412:236,1,56.9999982604981,0|0,1:0|0:0,0:0:0:0:
260,192,37567,2,0,L|316:184,1,56.9999982604981,2|0,1:2|0:0,0:0:0:0:
396,164,37887,1,2,1:2:0:0:
396,164,38046,1,0,0:0:0:0:
191,148,38206,6,0,P|175:201|197:252,1,113.999996520996,4|2,0:0|1:2,0:0:0:0:
272,288,38684,1,0,0:0:0:0:
191,148,38844,2,0,P|167:133|138:132,1,56.9999982604981,2|0,1:2|0:0,0:0:0:0:
32,256,39163,2,0,P|60:254|84:240,1,56.9999982604981,2|0,1:2|0:0,0:0:0:0:
180,92,39482,6,0,L|191:149,1,56.9999982604981,2|0,1:2|0:0,0:0:0:0:
312,196,39801,2,0,L|301:139,1,56.9999982604981,2|0,1:2|0:0,0:0:0:0:
204,236,40121,2,0,L|215:293,1,56.9999982604981,2|0,1:2|0:0,0:0:0:0:
339,345,40440,2,0,L|328:288,1,56.9999982604981,2|0,1:2|0:0,0:0:0:0:
359,79,40759,6,0,P|305:64|248:66,1,113.999996520996,2|0,1:2|1:0,0:0:0:0:
168,88,41238,1,0,0:0:0:0:
346,190,41397,2,0,P|361:136|359:79,1,113.999996520996,2|0,1:2|1:0,0:0:0:0:
276,64,41876,1,0,0:0:0:0:
234,177,42035,6,0,P|288:192|345:189,1,113.999996520996,2|0,1:2|1:0,0:0:0:0:
199,107,42514,1,0,0:0:0:0:
117,229,42674,1,2,1:2:0:0:
259,261,42833,1,2,0:2:0:0:
293,118,42993,2,0,L|275:62,1,56.9999982604981,2|0,1:2|0:0,0:0:0:0:
28,136,43312,6,0,P|80:155|136:145,1,113.999996520996,4|0,0:0|1:0,0:0:0:0:
160,68,43791,1,0,0:0:0:0:
172,239,43950,2,0,P|145:229|117:231,1,56.9999982604981,2|0,1:2|0:0,0:0:0:0:
172,320,44269,2,0,P|198:330|226:328,1,56.9999982604981,2|0,1:2|0:0,0:0:0:0:
276,176,44589,6,0,L|219:169,1,56.9999982604981,2|0,1:2|0:0,0:0:0:0:
320,104,44908,2,0,L|376:110,1,56.9999982604981,2|0,1:2|0:0,0:0:0:0:
368,260,45227,2,0,L|311:253,1,56.9999982604981,2|0,1:2|0:0,0:0:0:0:
356,184,45546,1,2,1:2:0:0:
356,184,45706,1,0,0:0:0:0:
271,339,45865,6,0,P|220:317|196:267,1,113.999996520996,2|0,1:2|1:0,0:0:0:0:
224,188,46344,1,0,0:0:0:0:
272,340,46504,2,0,L|352:328,1,56.9999982604981,2|0,1:2|0:0,0:0:0:0:
368,260,46823,1,2,1:2:0:0:
455,151,46982,6,0,P|401:139|348:160,1,113.999996520996,2|0,0:2|0:0,0:0:0:0:
279,204,47461,2,0,P|252:211|224:210,1,56.9999982604981,0|0,1:0|0:0,0:0:0:0:
96,124,47780,2,0,P|123:131|151:130,1,56.9999982604981,2|0,1:2|0:0,0:0:0:0:
192,60,48099,1,2,1:2:0:0:
192,60,48259,1,2,0:2:0:0:
84,216,48418,6,0,L|97:271,1,56.9999982604981,2|0,1:2|0:0,0:0:0:0:
32,320,48738,1,2,1:2:0:0:
165,185,48897,2,0,L|151:129,1,56.9999982604981,2|0,0:2|1:0,0:0:0:0:
84,80,49216,1,0,0:0:0:0:
172,268,49376,2,0,P|199:275|227:274,1,56.9999982604981,2|0,1:2|0:0,0:0:0:0:
364,184,49695,6,0,P|335:183|308:190,1,56.9999982604981,2|0,1:2|0:0,0:0:0:0:
236,348,50014,2,0,P|264:348|291:341,1,56.9999982604981,2|0,1:2|0:0,0:0:0:0:
256,116,50333,2,0,P|235:135|221:160,1,56.9999982604981,2|0,1:2|0:0,0:0:0:0:
436,304,50652,2,0,P|443:276|442:248,1,56.9999982604981,2|0,1:2|0:0,0:0:0:0:
164,80,50972,6,0,P|122:153|127:237,1,170.999994781494,2|2,0:0|0:0,0:0:0:0:
372,332,52089,6,0,L|277:320,1,95,6|0,0:0|0:0,0:0:0:0:
84,148,52408,1,2,0:0:0:0:
122,152,52488,1,2,0:0:0:0:
160,156,52567,1,10,0:0:0:0:
392,184,52727,1,8,0:0:0:0:
188,320,52887,1,10,0:0:0:0:
380,39,53046,1,2,0:0:0:0:
380,39,53365,6,0,P|335:56|303:90,1,95,6|0,0:0|0:0,0:0:0:0:
312,256,53684,1,0,0:0:0:0:
303,89,53844,1,10,0:0:0:0:
404,272,54004,1,0,0:0:0:0:
220,124,54163,1,2,0:0:0:0:
488,263,54323,2,0,P|479:310|452:349,1,95,2|8,0:0|0:0,0:0:0:0:
156,180,54642,6,0,B|205:220|256:196|256:196|296:204|324:239,1,190,2|0,0:0|0:0,0:0:0:0:
168,288,55121,1,10,0:0:0:0:
220,124,55280,1,0,0:0:0:0:
268,308,55440,1,2,0:0:0:0:
124,104,55599,1,2,0:0:0:0:
367,163,55759,2,0,P|414:163|454:137,1,95,8|0,0:0|0:0,0:0:0:0:
124,103,56078,6,0,P|107:148|107:195,1,95,2|2,0:0|0:0,0:0:0:0:
140,328,56397,1,10,0:0:0:0:
356,72,56557,2,0,L|261:62,1,95,2|0,0:0|0:0,0:0:0:0:
192,188,56876,1,2,0:0:0:0:
424,160,57035,1,10,0:0:0:0:
128,91,57195,6,0,P|52:145|34:236,1,190,6|0,0:0|0:0,0:0:0:0:
172,320,57674,1,8,0:0:0:0:
289,120,57833,1,0,0:0:0:0:
256,352,57993,1,10,0:0:0:0:
236,48,58152,1,0,0:0:0:0:
340,336,58312,1,10,0:0:0:0:
96,180,58472,1,2,0:0:0:0:
96,180,58551,1,2,0:0:0:0:
95,180,58631,6,0,P|187:178|239:253,1,190,6|8,0:0|0:0,0:0:0:0:
100,316,59110,1,2,0:0:0:0:
104,44,59269,1,2,0:0:0:0:
192,184,59429,1,2,0:0:0:0:
408,52,59589,2,0,B|360:40|313:43,1,95,8|0,0:0|0:0,0:0:0:0:
371,344,59908,6,0,P|417:266|363:194,1,190,2|10,0:0|0:0,0:0:0:0:
208,192,60387,1,2,0:0:0:0:
496,208,60546,1,2,0:0:0:0:
332,268,60706,1,2,0:0:0:0:
103,92,60865,2,0,P|148:75|195:78,1,95,8|0,0:0|0:0,0:0:0:0:
256,335,61184,6,0,P|209:336|173:306,1,95,6|0,0:0|0:0,0:0:0:0:
196,176,61504,1,8,0:0:0:0:
412,48,61663,2,0,P|445:80|449:126,1,95,2|0,0:0|0:0,0:0:0:0:
120,184,61982,2,0,P|124:137|157:105,1,95,2|0,0:0|0:0,0:0:0:0:
432,332,62301,6,0,L|242:339,1,190,6|2,0:0|0:0,0:0:0:0:
200,344,62700,1,2,0:0:0:0:
158,349,62780,1,10,0:0:0:0:
284,92,62940,1,8,0:0:0:0:
242,338,63099,1,10,0:0:0:0:
192,28,63259,1,2,0:0:0:0:
191,28,63578,6,0,P|239:27|284:41,1,95,6|0,0:0|0:0,0:0:0:0:
312,216,63897,1,0,0:0:0:0:
124,184,64057,1,10,0:0:0:0:
320,320,64216,1,0,0:0:0:0:
296,120,64376,1,2,0:0:0:0:
320,320,64535,2,0,P|366:332|414:333,1,95,2|8,0:0|0:0,0:0:0:0:
136,108,64855,6,0,P|55:145|62:234,1,190,2|0,0:0|0:0,0:0:0:0:
232,260,65333,1,10,0:0:0:0:
228,64,65493,1,0,0:0:0:0:
140,232,65652,1,10,0:0:0:0:
400,128,65812,2,0,P|352:127|305:135,1,95,2|8,0:0|0:0,0:0:0:0:
172,152,66131,1,0,0:0:0:0:
360,332,66291,5,14,0:0:0:0:
348,52,66450,1,2,0:0:0:0:
84,204,66610,1,10,0:0:0:0:
348,256,66769,2,0,L|442:248,1,95,10|0,0:0|0:0,0:0:0:0:
176,112,67089,2,0,L|81:119,1,95,10|0,0:0|0:0,0:0:0:0:
442,247,67408,6,10,B|476:199|450:151|450:151|424:119|447:68,1,190,6|0,0:0|0:0,0:0:0:0:
376,196,67887,1,8,0:0:0:0:
158,100,68046,1,0,0:0:0:0:
334,312,68206,1,10,0:0:0:0:
264,44,68365,1,2,0:0:0:0:
142,296,68525,1,10,0:0:0:0:
486,224,68684,1,2,0:0:0:0:
486,224,68764,1,2,0:0:0:0:
486,224,68844,6,0,P|429:219|373:232,1,113.999996520996,6|0,0:0|0:0,0:0:0:0:
90,216,69482,2,0,P|146:220|202:207,1,113.999996520996,2|0,0:0|0:0,0:0:0:0:
466,116,70121,2,0,P|409:111|353:124,1,113.999996520996,2|0,0:0|0:0,0:0:0:0:
292,356,70599,1,0,0:0:0:0:
292,356,70759,2,0,L|285:242,1,113.999996520996,2|0,0:0|0:0,0:0:0:0:
348,56,71397,5,14,0:0:0:0:
320,204,71557,1,0,0:0:0:0:
136,96,71716,1,10,0:0:0:0:
178,318,71876,1,0,0:0:0:0:
408,140,72035,5,10,0:0:0:0:
136,96,72195,1,2,0:0:0:0:
284,328,72355,1,10,0:0:0:0:
244,32,72514,2,0,L|149:26,1,95,6|0,0:0|0:0,0:0:0:0:
112,256,72833,5,10,0:0:0:0:
300,128,72993,1,10,0:0:0:0:
232,384,73152,1,2,0:0:0:0:
244,32,73312,1,10,0:0:0:0:
428,336,73472,1,10,0:0:0:0:
428,336,73791,6,0,P|346:290|252:294,1,190,14|0,0:0|0:0,0:0:0:0:
72,296,74269,1,10,0:0:0:0:
112,88,74429,1,2,0:0:0:0:
304,216,74589,1,10,0:0:0:0:
80,88,74748,1,2,0:0:0:0:
328,48,74908,1,10,0:0:0:0:
48,88,75067,1,2,0:0:0:0:
304,216,75227,2,0,L|320:96,1,95,10|10,0:0|0:0,0:0:0:0:
164,336,75546,5,10,0:0:0:0:
320,28,75706,1,10,0:0:0:0:
320,380,75865,1,10,0:0:0:0:
152,32,76025,1,10,0:0:0:0:
152,32,76344,6,0,P|74:76|91:164,1,190,6|0,0:0|0:0,0:0:0:0:
200,260,76823,1,10,0:0:0:0:
288,88,76982,1,2,0:0:0:0:
352,272,77142,1,10,0:0:0:0:
121,137,77301,1,2,0:0:0:0:
456,171,77461,5,10,0:0:0:0:
68,288,77621,1,14,0:0:0:0:
220,68,78099,5,2,0:0:0:0:
404,276,78418,1,2,0:0:0:0:
404,276,78578,2,0,L|346:283,1,56.9999982604981,2|0,0:0|0:0,0:0:0:0:
135,327,78897,6,0,P|104:281|105:225,1,113.999996520996,6|0,0:0|0:0,0:0:0:0:
288,92,79216,1,2,0:0:0:0:
48,144,79376,1,10,0:0:0:0:
376,204,79535,2,0,L|379:90,1,113.999996520996,2|0,0:0|0:0,0:0:0:0:
192,208,79855,1,2,0:0:0:0:
464,204,80014,1,10,0:0:0:0:
220,64,80174,6,0,P|112:48|47:136,1,227.999993041992,2|0,0:0|0:0,0:0:0:0:
236,344,80652,2,0,P|262:293|266:237,1,113.999996520996,10|0,0:0|0:0,0:0:0:0:
108,52,80972,2,0,P|112:108|138:158,1,113.999996520996,2|0,0:0|0:0,0:0:0:0:
456,192,81291,2,0,P|405:165|349:161,1,113.999996520996,10|0,0:0|0:0,0:0:0:0:
56,328,81610,6,0,P|162:305|196:202,1,227.999993041992,2|8,0:0|0:0,0:0:0:0:
108,52,82089,1,0,0:0:0:0:
272,220,82248,2,0,P|268:276|246:328,1,113.999996520996,2|0,0:0|0:0,0:0:0:0:
196,36,82567,2,0,P|252:39|304:61,1,113.999996520996,10|0,0:0|0:0,0:0:0:0:
428,216,82887,5,2,0:0:0:0:
128,236,83046,2,0,L|139:122,1,113.999996520996,2|8,0:0|0:0,0:0:0:0:
488,160,83365,2,0,L|476:273,1,113.999996520996,2|0,0:0|0:0,0:0:0:0:
288,272,83684,1,2,0:0:0:0:
312,46,83844,1,8,0:0:0:0:
400,336,84004,1,0,0:0:0:0:
400,336,84083,1,0,0:0:0:0:
399,336,84163,6,0,P|345:351|288:348,1,113.999996520996,6|0,0:0|0:0,0:0:0:0:
76,124,84482,2,0,P|132:120|187:136,1,113.999996520996,10|0,0:0|0:0,0:0:0:0:
128,332,84801,1,2,0:0:0:0:
195,25,84961,2,0,P|202:81|187:135,1,113.999996520996,2|8,0:0|0:0,0:0:0:0:
352,347,85280,6,0,P|282:278|367:229,1,227.999993041992,2|0,0:0|0:0,0:0:0:0:
220,352,85759,2,0,P|205:298|213:242,1,113.999996520996,10|0,0:0|0:0,0:0:0:0:
432,52,86078,2,0,P|447:106|439:162,1,113.999996520996,2|0,0:0|0:0,0:0:0:0:
84,188,86397,2,0,P|111:138|156:104,1,113.999996520996,10|0,0:0|0:0,0:0:0:0:
352,212,86716,5,14,0:0:0:0:
84,188,86876,1,0,0:0:0:0:
272,284,87035,1,10,0:0:0:0:
216,24,87195,1,0,0:0:0:0:
192,336,87355,5,14,0:0:0:0:
316,100,87514,1,0,0:0:0:0:
100,88,87674,1,10,0:0:0:0:
328,332,87833,1,2,0:0:0:0:
328,332,87913,1,2,0:0:0:0:
327,331,87993,6,0,P|384:340|441:337,1,113.999996520996,6|0,0:0|0:0,0:0:0:0:
416,88,88312,1,10,0:0:0:0:
327,331,88472,2,0,P|270:322|213:325,1,113.999996520996,2|0,0:0|0:0,0:0:0:0:
40,208,88791,6,0,L|110:196,1,71.2500027179719,2|0,0:0|0:0,0:0:0:0:
464,184,89110,6,0,L|351:203,1,113.999996520996,6|0,0:0|0:0,0:0:0:0:
216,104,89429,1,2,0:0:0:0:
96,328,89589,5,10,0:0:0:0:
322,290,89748,1,2,0:0:0:0:
442,66,89908,1,8,0:0:0:0:
216,104,90067,1,2,0:0:0:0:
444,284,90227,1,10,0:0:0:0:
284,50,90387,6,0,B|223:3|165:36|165:36|112:72|71:54,1,227.999993041992,6|0,0:0|0:0,0:0:0:0:
52,252,90865,1,10,0:0:0:0:
296,216,91025,1,0,0:0:0:0:
64,132,91184,1,10,0:0:0:0:
236,307,91344,1,0,0:0:0:0:
332,40,91504,1,10,0:0:0:0:
160,215,91663,1,0,0:0:0:0:
455,296,91823,6,0,P|487:187|466:76,1,227.999993041992,6|8,0:0|0:0,0:0:0:0:
268,36,92301,1,0,0:0:0:0:
64,288,92461,2,0,L|177:293,1,113.999996520996,2|0,0:0|0:0,0:0:0:0:
466,76,92780,2,0,L|352:70,1,113.999996520996,10|0,0:0|0:0,0:0:0:0:
64,288,93099,1,6,0:0:0:0:
456,208,93259,6,0,L|342:202,1,113.999996520996,2|0,0:0|0:0,0:0:0:0:
64,84,93578,2,0,L|177:89,1,113.999996520996,2|0,0:0|0:0,0:0:0:0:
340,356,93897,2,0,L|226:350,1,113.999996520996,2|0,0:0|0:0,0:0:0:0:
436,27,94216,2,0,P|459:79|456:135,1,113.999996520996,6|0,0:0|0:0,0:0:0:0:
292,272,94535,5,2,0:0:0:0:
372,96,94695,1,8,0:0:0:0:
456,304,94855,1,2,0:0:0:0:
212,131,95014,2,0,P|222:76|245:24,1,113.999996520996,2|0,0:0|0:0,0:0:0:0:
456,135,95333,1,10,0:0:0:0:
216,220,95493,2,0,L|104:196,1,113.999996520996,2|0,0:0|0:0,0:0:0:0:
324,60,95812,1,0,0:0:0:0:
360,344,95972,1,10,0:0:0:0:
323,59,96131,6,0,P|352:166|285:254,1,227.999993041992,2|0,0:0|0:0,0:0:0:0:
100,76,96610,1,10,0:0:0:0:
142,75,96690,1,0,0:0:0:0:
183,85,96769,1,2,0:0:0:0:
220,107,96849,1,0,0:0:0:0:
250,138,96929,6,0,P|294:171|348:160,1,113.999996520996,14|0,0:0|0:0,0:0:0:0:
140,184,97248,2,0,P|85:173|41:206,1,113.999996520996,10|0,0:0|0:0,0:0:0:0:
240,332,97567,5,10,0:0:0:0:
212,64,97727,1,0,0:0:0:0:
64,332,97887,1,10,0:0:0:0:
332,304,98046,1,0,0:0:0:0:
104,100,98206,5,10,0:0:0:0:
240,332,98365,1,0,0:0:0:0:
292,24,98525,1,10,0:0:0:0:
157,258,98684,1,0,0:0:0:0:
436,108,98844,5,10,0:0:0:0:
168,120,99004,1,0,0:0:0:0:
396,328,99163,1,10,0:0:0:0:
260,96,99323,1,0,0:0:0:0:
47,323,99482,6,0,P|154:348|230:270,1,227.999993041992,6|8,0:0|0:0,0:0:0:0:
260,96,99961,1,2,0:0:0:0:
40,228,100121,1,10,0:0:0:0:
376,256,100280,1,2,0:0:0:0:
72,32,100440,1,10,0:0:0:0:
251,368,100599,6,0,P|308:366|362:347,1,113.999996520996,14|0,0:0|0:0,0:0:0:0:
240,24,100918,1,2,0:0:0:0:
251,368,101078,1,6,0:0:0:0:
240,24,101876,6,0,P|260:96|242:169,1,152,6|0,0:0|0:0,0:0:0:0:
172,252,102355,1,2,0:0:0:0:
48,128,102514,1,2,0:0:0:0:
76,332,102674,1,10,0:0:0:0:
130,131,102833,1,2,0:0:0:0:
266,291,102993,1,2,0:0:0:0:
287,39,103152,6,0,P|217:46|206:116,1,152,2|2,0:0|0:0,0:0:0:0:
266,291,103631,1,0,0:0:0:0:
266,291,103791,2,0,P|244:260|241:222,1,76,2|8,0:0|0:0,0:0:0:0:
336,136,104110,1,2,0:0:0:0:
440,304,104269,1,2,0:0:0:0:
266,291,104429,1,2,0:0:0:0:
439,304,104589,6,0,P|384:354|310:357,1,152,6|2,0:0|0:0,0:0:0:0:
216,212,105067,1,0,0:0:0:0:
392,236,105227,1,10,0:0:0:0:
192,360,105387,2,0,P|184:316|196:280,1,76,2|0,0:0|0:0,0:0:0:0:
391,139,105706,6,0,P|400:176|391:213,1,76,2|2,0:0|0:0,0:0:0:0:
292,352,106025,1,2,0:0:0:0:
284,208,106184,1,2,0:0:0:0:
84,200,106344,2,0,P|120:191|157:200,1,76,2|8,0:0|0:0,0:0:0:0:
264,40,106663,1,2,0:0:0:0:
280,184,106823,1,2,0:0:0:0:
380,88,106982,1,2,0:0:0:0:
169,97,107142,6,0,P|103:128|83:199,1,152,14|0,0:0|0:0,0:0:0:0:
440,320,107621,2,0,P|420:248|353:218,1,152,10|8,0:0|0:0,0:0:0:0:
96,324,108099,1,8,0:0:0:0:
440,320,108418,5,6,0:0:0:0:
288,324,108578,2,0,P|316:328|345:324,1,56.9999982604981,2|0,0:0|0:0,0:0:0:0:
255,119,108897,2,0,P|199:111|143:119,1,113.999996520996,2|0,0:0|0:0,0:0:0:0:
72,236,109376,1,2,0:0:0:0:
431,164,109535,6,0,P|401:77|315:42,1,190,6|0,0:0|0:0,0:0:0:0:
142,120,110014,2,0,P|174:153|221:157,1,95,8|0,0:0|0:0,0:0:0:0:
440,296,110333,2,0,P|407:262|360:258,1,95,2|0,0:0|0:0,0:0:0:0:
116,344,110652,2,0,P|162:340|195:306,1,95,8|0,0:0|0:0,0:0:0:0:
372,340,110972,5,2,0:0:0:0:
228,204,111131,1,0,0:0:0:0:
48,284,111291,5,10,0:0:0:0:
235,107,111450,1,0,0:0:0:0:
456,240,111610,5,2,0:0:0:0:
237,33,111769,1,2,0:0:0:0:
168,326,111929,1,10,0:0:0:0:
440,132,112089,6,0,P|350:145|320:231,1,190,6|2,0:0|0:0,0:0:0:0:
472,292,112567,1,8,0:0:0:0:
224,52,112727,2,0,P|313:64|344:149,1,190,2|2,0:0|0:0,0:0:0:0:
136,160,113206,1,8,0:0:0:0:
408,60,113365,6,0,P|360:55|314:65,1,95,2|0,0:0|0:0,0:0:0:0:
92,240,113684,2,0,P|139:244|185:234,1,95,2|8,0:0|0:0,0:0:0:0:
148,64,114004,1,0,0:0:0:0:
196,336,114163,1,8,0:0:0:0:
238,348,114243,1,0,3:0:0:0:
285,351,114323,1,0,3:0:0:0:
330,343,114402,1,0,3:0:0:0:
372,326,114482,1,10,0:0:0:0:
409,300,114562,1,0,3:0:0:0:
440,265,114642,1,0,3:0:0:0:
462,227,114722,1,0,3:0:0:0:
474,183,114801,6,0,P|452:93|369:53,1,190,14|8,0:0|0:0,0:0:0:0:
200,140,115280,1,0,0:0:0:0:
312,296,115440,1,10,0:0:0:0:
280,72,115599,1,2,0:0:0:0:
140,252,115759,1,10,0:0:0:0:
452,276,115918,6,0,P|370:228|276:225,1,190,6|0,0:0|0:0,0:0:0:0:
108,344,116397,1,8,0:0:0:0:
312,296,116557,1,0,0:0:0:0:
116,136,116716,1,8,0:0:0:0:
108,344,116876,1,2,0:0:0:0:
236,128,117035,1,10,0:0:0:0:
28,136,117195,1,2,0:0:0:0:
311,295,117355,6,0,P|399:269|430:183,1,190,6|8,0:0|0:0,0:0:0:0:
340,36,117833,1,0,0:0:0:0:
311,295,117993,1,10,0:0:0:0:
306,107,118152,1,2,0:0:0:0:
485,265,118312,1,10,0:0:0:0:
338,35,118472,6,0,B|288:20|256:48|256:48|212:84|160:68,1,190,6|0,0:0|0:0,0:0:0:0:
44,184,118950,1,10,0:0:0:0:
252,51,119110,2,0,P|244:98|250:145,1,95,2|8,0:0|0:0,0:0:0:0:
472,320,119429,2,0,P|453:276|422:240,1,95,2|10,0:0|0:0,0:0:0:0:
384,208,119668,1,8,0:0:0:0:
336,192,119748,1,10,0:0:0:0:
287,190,119828,1,8,0:0:0:0:
238,202,119908,6,0,P|156:240|108:336,1,190,14|8,0:0|0:0,0:0:0:0:
280,352,120387,1,0,0:0:0:0:
228,120,120546,1,10,0:0:0:0:
204,304,120706,1,2,0:0:0:0:
360,104,120865,1,10,0:0:0:0:
64,83,121025,6,0,P|20:166|36:258,1,190,6|0,0:0|0:0,0:0:0:0:
204,344,121504,1,8,0:0:0:0:
204,160,121663,1,0,0:0:0:0:
400,336,121823,1,8,0:0:0:0:
240,244,121982,1,2,0:0:0:0:
488,156,122142,1,10,0:0:0:0:
328,248,122301,1,2,0:0:0:0:
164,36,122461,6,0,P|253:50|286:135,1,190,14|8,0:0|0:0,0:0:0:0:
112,256,122940,1,0,0:0:0:0:
96,76,123099,1,10,0:0:0:0:
272,264,123259,1,2,0:0:0:0:
12,212,123418,1,10,0:0:0:0:
340,204,123578,6,0,L|355:297,1,95,14|0,0:0|0:0,0:0:0:0:
476,176,123897,1,10,0:0:0:0:
224,44,124057,1,2,0:0:0:0:
67,287,124216,2,0,P|112:302|160:304,1,95,10|0,0:0|0:0,0:0:0:0:
344,69,124535,6,0,B|320:111|279:106|279:106|220:148|165:101|165:101|138:136|89:136,1,285,6|0,0:0|0:0,0:0:0:0:
